  0
SECTION
  2
HEADER
  9
$ACADVER
  1
AC1021
  9
$DWGCODEPAGE
  3
ANSI_1252
  9
$EXTMAX
 10
200.0
 20
1935.0
 30
0.0
  9
$EXTMIN
 10
0.0
 20
0.0
 30
0.0
  9
$LIMMIN
 10
0.0
 20
0.0
  9
$LIMMAX
 10
200.0
 20
1935.0
  9
$VIEWCTR
 10
100.0
 20
967.5
  9
$VIEWSIZE
 40
1935.0
  9
$CLAYER
  8
0
  9
$LTSCALE
 40
126.1333333333
  9
$CELTYPE
  6
BYLAYER
  9
$DIMSCALE
 40
1.0
  9
$DIMASZ
 40
3.5
  9
$DIMEXO
 40
0.0
  9
$DIMDLI
 40
87.1466666667
  9
$DIMEXE
 40
1.0
  9
$DIMCEN
 40
20.64
  9
$DIMLFAC
 40
1.0
  9
$DIMBLK
  1
_FILLED
  9
$DIMTXT
 40
2.5
  9
$DIMTOL
 70
1
  9
$DIMLIM
 70
0
  9
$DIMTFAC
 40
1.0
  9
$DIMTP
 40
0.001
  9
$DIMTM
 40
0.001
  9
$DIMGAP
 40
0.625
  9
$DIMDSEP
 70
46
  9
$PDMODE
 70
3
  9
$PDSIZE
 40
2.0
  9
$HANDSEED
  5
681
  9
$TILEMODE
 70
1
  9
$MEASUREMENT
 70
1
  9
$INSUNITS
 70
4
  0
ENDSEC
  0
SECTION
  2
CLASSES
  0
CLASS
  1
ACDBDICTIONARYWDFLT
  2
AcDbDictionaryWithDefault
  3
AutoCAD 2000
 90
0
 91
1
280
0
281
0
  0
CLASS
  1
ACDBPLACEHOLDER
  2
AcDbPlaceHolder
  3
AutoCAD 2000
 90
0
 91
1
280
0
281
0
  0
CLASS
  1
LAYOUT
  2
AcDbLayout
  3
AutoCAD 2000
 90
0
 91
0
280
0
281
0
  0
ENDSEC
  0
SECTION
  2
TABLES
  0
TABLE
  2
VPORT
  5
8
100
AcDbSymbolTable
 70
2
  0
VPORT
  5
1F4
100
AcDbSymbolTableRecord
100
AcDbViewportTableRecord
  2
*ACTIVE
 70
0
 10
0.0
 20
0.0
 11
1.0
 21
1.0
 12
100.0
 22
967.5
 13
0.0
 23
0.0
 14
1.0
 24
1.0
 15
0.0
 25
0.0
 16
0.0
 26
0.0
 36
1.0
 17
0.0
 27
0.0
 37
0.0
 40
1935.0
 41
0.1033591731
 42
50.0
 43
0.0
 44
0.0
 50
0.0
 51
0.0
 71
0
 72
100
 73
1
 74
1
 75
0
 76
0
 77
0
 78
0
  0
ENDTAB
  0
TABLE
  2
LTYPE
  5
5
100
AcDbSymbolTable
 70
6
  0
LTYPE
  5
14
100
AcDbSymbolTableRecord
100
AcDbLinetypeTableRecord
  2
BYBLOCK
 70
0
  3

 72
65
 73
0
 40
0.0
  0
LTYPE
  5
15
100
AcDbSymbolTableRecord
100
AcDbLinetypeTableRecord
  2
BYLAYER
 70
0
  3

 72
65
 73
0
 40
0.0
  0
LTYPE
  5
16
100
AcDbSymbolTableRecord
100
AcDbLinetypeTableRecord
  2
CONTINUOUS
 70
64
  3
Solid line
 72
65
 73
0
 40
0.0
  0
LTYPE
  5
1F5
100
AcDbSymbolTableRecord
100
AcDbLinetypeTableRecord
  2
CENTER
 70
64
  3
____ _ ____ _ ____ _ ____ _ ____ _ ____ _ ____
 72
65
 73
4
 40
0.6
 49
0.375
 74
0
 49
-0.075
 74
0
 49
0.075
 74
0
 49
-0.075
 74
0
  0
LTYPE
  5
1F6
100
AcDbSymbolTableRecord
100
AcDbLinetypeTableRecord
  2
HIDDEN
 70
64
  3
- - - - - - - - - - - - - - - - - - - -
 72
65
 73
2
 40
0.2
 49
0.1
 74
0
 49
-0.1
 74
0
  0
LTYPE
  5
1F7
100
AcDbSymbolTableRecord
100
AcDbLinetypeTableRecord
  2
PHANTOM
 70
64
  3
_____ _ _ _____ _ _ _____ _ _ _____
 72
65
 73
6
 40
0.8
 49
0.45
 74
0
 49
-0.05
 74
0
 49
0.1
 74
0
 49
-0.05
 74
0
 49
0.1
 74
0
 49
-0.05
 74
0
  0
LTYPE
  5
1F8
100
AcDbSymbolTableRecord
100
AcDbLinetypeTableRecord
  2
DOT
 70
64
  3
. . . . . . . . . . . . . . . . . . . .
 72
65
 73
2
 40
0.2
 49
0.1
 74
0
 49
-0.1
 74
0
  0
LTYPE
  5
1F9
100
AcDbSymbolTableRecord
100
AcDbLinetypeTableRecord
  2
DASHED
 70
64
  3
- - - - - - - - - - - - - - - - - - - -
 72
65
 73
2
 40
0.2
 49
0.1
 74
0
 49
-0.1
 74
0
  0
ENDTAB
  0
TABLE
  2
LAYER
  5
2
100
AcDbSymbolTable
 70
36
  0
LAYER
  5
10
100
AcDbSymbolTableRecord
100
AcDbLayerTableRecord
  2
0
 70
0
 62
7
  6
CONTINUOUS
370
-3
390
F
  0
LAYER
  5
1FA
100
AcDbSymbolTableRecord
100
AcDbLayerTableRecord
  2
DEFAULT_1
 70
0
 62
7
  6
CENTER
370
-3
390
F
  0
LAYER
  5
1FB
100
AcDbSymbolTableRecord
100
AcDbLayerTableRecord
  2
DEFAULT_2
 70
0
 62
8
  6
HIDDEN
370
-3
390
F
  0
LAYER
  5
1FC
100
AcDbSymbolTableRecord
100
AcDbLayerTableRecord
  2
DEFAULT_3
 70
0
 62
7
  6
PHANTOM
370
-3
390
F
  0
LAYER
  5
1FD
100
AcDbSymbolTableRecord
100
AcDbLayerTableRecord
  2
AXIS
 70
0
 62
7
  6
CONTINUOUS
370
-3
390
F
  0
LAYER
  5
1FE
100
AcDbSymbolTableRecord
100
AcDbLayerTableRecord
  2
COORDSYS
 70
0
 62
7
  6
CONTINUOUS
370
-3
390
F
  0
LAYER
  5
1FF
100
AcDbSymbolTableRecord
100
AcDbLayerTableRecord
  2
CURVES
 70
0
 62
7
  6
CONTINUOUS
370
-3
390
F
  0
LAYER
  5
200
100
AcDbSymbolTableRecord
100
AcDbLayerTableRecord
  2
EINBAUREFERENZ
 70
0
 62
7
  6
CONTINUOUS
370
-3
390
F
  0
LAYER
  5
201
100
AcDbSymbolTableRecord
100
AcDbLayerTableRecord
  2
PLANES
 70
0
 62
7
  6
CONTINUOUS
370
-3
390
F
  0
LAYER
  5
202
100
AcDbSymbolTableRecord
100
AcDbLayerTableRecord
  2
POINTS
 70
0
 62
7
  6
CONTINUOUS
370
-3
390
F
  0
LAYER
  5
203
100
AcDbSymbolTableRecord
100
AcDbLayerTableRecord
  2
PROFIL-EINBAULAGE
 70
0
 62
7
  6
CONTINUOUS
370
-3
390
F
  0
LAYER
  5
204
100
AcDbSymbolTableRecord
100
AcDbLayerTableRecord
  2
S-AXIS
 70
0
 62
7
  6
CONTINUOUS
370
-3
390
F
  0
LAYER
  5
205
100
AcDbSymbolTableRecord
100
AcDbLayerTableRecord
  2
S-COORDSYS
 70
0
 62
7
  6
CONTINUOUS
370
-3
390
F
  0
LAYER
  5
206
100
AcDbSymbolTableRecord
100
AcDbLayerTableRecord
  2
S-PLANES
 70
0
 62
7
  6
CONTINUOUS
370
-3
390
F
  0
LAYER
  5
207
100
AcDbSymbolTableRecord
100
AcDbLayerTableRecord
  2
THREADS
 70
0
 62
7
  6
CONTINUOUS
370
-3
390
F
  0
LAYER
  5
208
100
AcDbSymbolTableRecord
100
AcDbLayerTableRecord
  2
XSEC_DATUMS
 70
0
 62
7
  6
CONTINUOUS
370
-3
390
F
  0
LAYER
  5
209
100
AcDbSymbolTableRecord
100
AcDbLayerTableRecord
  2
HATCHING_BL0
 70
0
 62
7
  6
CONTINUOUS
370
-3
390
F
  0
LAYER
  5
20A
100
AcDbSymbolTableRecord
100
AcDbLayerTableRecord
  2
93773501000_O_BL1
 70
0
 62
7
  6
CONTINUOUS
370
-3
390
F
  0
LAYER
  5
20B
100
AcDbSymbolTableRecord
100
AcDbLayerTableRecord
  2
94818203000_BL2
 70
0
 62
7
  6
CONTINUOUS
370
-3
390
F
  0
LAYER
  5
20C
100
AcDbSymbolTableRecord
100
AcDbLayerTableRecord
  2
94528905000_M_BL3
 70
0
 62
7
  6
CONTINUOUS
370
-3
390
F
  0
LAYER
  5
20D
100
AcDbSymbolTableRecord
100
AcDbLayerTableRecord
  2
94529001000_BL4
 70
0
 62
7
  6
CONTINUOUS
370
-3
390
F
  0
LAYER
  5
20E
100
AcDbSymbolTableRecord
100
AcDbLayerTableRecord
  2
94673901000_BL5
 70
0
 62
7
  6
CONTINUOUS
370
-3
390
F
  0
LAYER
  5
20F
100
AcDbSymbolTableRecord
100
AcDbLayerTableRecord
  2
94528905000_M_BL6
 70
0
 62
7
  6
CONTINUOUS
370
-3
390
F
  0
LAYER
  5
210
100
AcDbSymbolTableRecord
100
AcDbLayerTableRecord
  2
94673901000_BL7
 70
0
 62
7
  6
CONTINUOUS
370
-3
390
F
  0
LAYER
  5
211
100
AcDbSymbolTableRecord
100
AcDbLayerTableRecord
  2
94529001000_BL8
 70
0
 62
7
  6
CONTINUOUS
370
-3
390
F
  0
LAYER
  5
212
100
AcDbSymbolTableRecord
100
AcDbLayerTableRecord
  2
94528905000_M_BL9
 70
0
 62
7
  6
CONTINUOUS
370
-3
390
F
  0
LAYER
  5
213
100
AcDbSymbolTableRecord
100
AcDbLayerTableRecord
  2
93794901000_BL10
 70
0
 62
7
  6
CONTINUOUS
370
-3
390
F
  0
LAYER
  5
214
100
AcDbSymbolTableRecord
100
AcDbLayerTableRecord
  2
93794901000_BL11
 70
0
 62
7
  6
CONTINUOUS
370
-3
390
F
  0
LAYER
  5
215
100
AcDbSymbolTableRecord
100
AcDbLayerTableRecord
  2
94819605000_BL12
 70
0
 62
7
  6
CONTINUOUS
370
-3
390
F
  0
LAYER
  5
216
100
AcDbSymbolTableRecord
100
AcDbLayerTableRecord
  2
93773501000_O_BL13
 70
0
 62
7
  6
CONTINUOUS
370
-3
390
F
  0
LAYER
  5
217
100
AcDbSymbolTableRecord
100
AcDbLayerTableRecord
  2
91511100000_BL14
 70
0
 62
7
  6
CONTINUOUS
370
-3
390
F
  0
ENDTAB
  0
TABLE
  2
STYLE
  5
3
100
AcDbSymbolTable
 70
1
  0
STYLE
  5
11
100
AcDbSymbolTableRecord
100
AcDbTextStyleTableRecord
  2
STANDARD
 70
0
 40
0.0
 41
1.0
 50
0.0
 71
0
 42
0.2
  3
arial.ttf
  4

  0
STYLE
  5
218
100
AcDbSymbolTableRecord
100
AcDbTextStyleTableRecord
  2
TEXTSTYLE_1
 70
0
 40
0.0
 41
0.8
 50
0.0
 71
0
 42
0.2
  3
gdt
  4

  0
STYLE
  5
219
100
AcDbSymbolTableRecord
100
AcDbTextStyleTableRecord
  2
TEXTSTYLE_2
 70
0
 40
0.0
 41
1.0
 50
0.0
 71
0
 42
0.2
  3
arialbd.ttf
  4

  0
ENDTAB
  0
TABLE
  2
VIEW
  5
6
100
AcDbSymbolTable
 70
0
  0
ENDTAB
  0
TABLE
  2
UCS
  5
7
100
AcDbSymbolTable
 70
0
  0
ENDTAB
  0
TABLE
  2
APPID
  5
9
100
AcDbSymbolTable
 70
1
  0
APPID
  5
21A
100
AcDbSymbolTableRecord
100
AcDbRegAppTableRecord
  2
ACAD
 70
0
  0
ENDTAB
  0
TABLE
  2
BLOCK_RECORD
  5
1
100
AcDbSymbolTable
 70
0
  0
BLOCK_RECORD
  5
21B
100
AcDbSymbolTableRecord
100
AcDbBlockTableRecord
  2
*Model_Space
  0
BLOCK_RECORD
  5
21C
100
AcDbSymbolTableRecord
100
AcDbBlockTableRecord
  2
*Paper_Space
  0
BLOCK_RECORD
  5
21D
100
AcDbSymbolTableRecord
100
AcDbBlockTableRecord
  2
_FILLED
  0
BLOCK_RECORD
  5
21E
100
AcDbSymbolTableRecord
100
AcDbBlockTableRecord
  2
_NONE
  0
BLOCK_RECORD
  5
21F
100
AcDbSymbolTableRecord
100
AcDbBlockTableRecord
  2
*D0
  0
BLOCK_RECORD
  5
220
100
AcDbSymbolTableRecord
100
AcDbBlockTableRecord
  2
*D1
  0
BLOCK_RECORD
  5
221
100
AcDbSymbolTableRecord
100
AcDbBlockTableRecord
  2
*D2
  0
BLOCK_RECORD
  5
222
100
AcDbSymbolTableRecord
100
AcDbBlockTableRecord
  2
*D3
  0
BLOCK_RECORD
  5
223
100
AcDbSymbolTableRecord
100
AcDbBlockTableRecord
  2
*D4
  0
BLOCK_RECORD
  5
224
100
AcDbSymbolTableRecord
100
AcDbBlockTableRecord
  2
*D5
  0
BLOCK_RECORD
  5
225
100
AcDbSymbolTableRecord
100
AcDbBlockTableRecord
  2
*D6
  0
BLOCK_RECORD
  5
226
100
AcDbSymbolTableRecord
100
AcDbBlockTableRecord
  2
*D7
  0
BLOCK_RECORD
  5
227
100
AcDbSymbolTableRecord
100
AcDbBlockTableRecord
  2
*D8
  0
BLOCK_RECORD
  5
228
100
AcDbSymbolTableRecord
100
AcDbBlockTableRecord
  2
*D9
  0
BLOCK_RECORD
  5
229
100
AcDbSymbolTableRecord
100
AcDbBlockTableRecord
  2
*D10
  0
BLOCK_RECORD
  5
22A
100
AcDbSymbolTableRecord
100
AcDbBlockTableRecord
  2
*D11
  0
BLOCK_RECORD
  5
22B
100
AcDbSymbolTableRecord
100
AcDbBlockTableRecord
  2
*D12
  0
BLOCK_RECORD
  5
22C
100
AcDbSymbolTableRecord
100
AcDbBlockTableRecord
  2
*D13
  0
BLOCK_RECORD
  5
22D
100
AcDbSymbolTableRecord
100
AcDbBlockTableRecord
  2
*D14
  0
BLOCK_RECORD
  5
22E
100
AcDbSymbolTableRecord
100
AcDbBlockTableRecord
  2
*D15
  0
BLOCK_RECORD
  5
22F
100
AcDbSymbolTableRecord
100
AcDbBlockTableRecord
  2
*D16
  0
BLOCK_RECORD
  5
230
100
AcDbSymbolTableRecord
100
AcDbBlockTableRecord
  2
*D17
  0
BLOCK_RECORD
  5
231
100
AcDbSymbolTableRecord
100
AcDbBlockTableRecord
  2
*D18
  0
BLOCK_RECORD
  5
232
100
AcDbSymbolTableRecord
100
AcDbBlockTableRecord
  2
*D19
  0
BLOCK_RECORD
  5
233
100
AcDbSymbolTableRecord
100
AcDbBlockTableRecord
  2
*D20
  0
BLOCK_RECORD
  5
234
100
AcDbSymbolTableRecord
100
AcDbBlockTableRecord
  2
*D21
  0
BLOCK_RECORD
  5
235
100
AcDbSymbolTableRecord
100
AcDbBlockTableRecord
  2
*D22
  0
BLOCK_RECORD
  5
236
100
AcDbSymbolTableRecord
100
AcDbBlockTableRecord
  2
*D23
  0
BLOCK_RECORD
  5
237
100
AcDbSymbolTableRecord
100
AcDbBlockTableRecord
  2
*D24
  0
BLOCK_RECORD
  5
238
100
AcDbSymbolTableRecord
100
AcDbBlockTableRecord
  2
*D25
  0
BLOCK_RECORD
  5
239
100
AcDbSymbolTableRecord
100
AcDbBlockTableRecord
  2
*D26
  0
BLOCK_RECORD
  5
23A
100
AcDbSymbolTableRecord
100
AcDbBlockTableRecord
  2
*D27
  0
BLOCK_RECORD
  5
23B
100
AcDbSymbolTableRecord
100
AcDbBlockTableRecord
  2
SYMBOL_0_BL15
  0
BLOCK_RECORD
  5
23C
100
AcDbSymbolTableRecord
100
AcDbBlockTableRecord
  2
HATCHING_BL0
  0
BLOCK_RECORD
  5
23D
100
AcDbSymbolTableRecord
100
AcDbBlockTableRecord
  2
93773501000_O_BL1
  0
BLOCK_RECORD
  5
23E
100
AcDbSymbolTableRecord
100
AcDbBlockTableRecord
  2
94818203000_BL2
  0
BLOCK_RECORD
  5
23F
100
AcDbSymbolTableRecord
100
AcDbBlockTableRecord
  2
94528905000_M_BL3
  0
BLOCK_RECORD
  5
240
100
AcDbSymbolTableRecord
100
AcDbBlockTableRecord
  2
94529001000_BL4
  0
BLOCK_RECORD
  5
241
100
AcDbSymbolTableRecord
100
AcDbBlockTableRecord
  2
94673901000_BL5
  0
BLOCK_RECORD
  5
242
100
AcDbSymbolTableRecord
100
AcDbBlockTableRecord
  2
94528905000_M_BL6
  0
BLOCK_RECORD
  5
243
100
AcDbSymbolTableRecord
100
AcDbBlockTableRecord
  2
94673901000_BL7
  0
BLOCK_RECORD
  5
244
100
AcDbSymbolTableRecord
100
AcDbBlockTableRecord
  2
94529001000_BL8
  0
BLOCK_RECORD
  5
245
100
AcDbSymbolTableRecord
100
AcDbBlockTableRecord
  2
94528905000_M_BL9
  0
BLOCK_RECORD
  5
246
100
AcDbSymbolTableRecord
100
AcDbBlockTableRecord
  2
93794901000_BL10
  0
BLOCK_RECORD
  5
247
100
AcDbSymbolTableRecord
100
AcDbBlockTableRecord
  2
93794901000_BL11
  0
BLOCK_RECORD
  5
248
100
AcDbSymbolTableRecord
100
AcDbBlockTableRecord
  2
94819605000_BL12
  0
BLOCK_RECORD
  5
249
100
AcDbSymbolTableRecord
100
AcDbBlockTableRecord
  2
93773501000_O_BL13
  0
BLOCK_RECORD
  5
24A
100
AcDbSymbolTableRecord
100
AcDbBlockTableRecord
  2
91511100000_BL14
  0
ENDTAB
  0
TABLE
  2
DIMSTYLE
  5
A
100
AcDbSymbolTable
 70
1
100
AcDbDimStyleTable
 71
0
  0
DIMSTYLE
105
24B
100
AcDbSymbolTableRecord
100
AcDbDimStyleTableRecord
  2
STANDARD
 70
0
  3

  4

 40
1.0
 41
3.5
 42
0.0
 43
0.38
 44
1.0
 45
0.0
 46
0.0
 47
0.001
 48
0.001
140
2.5
141
0.09
142
0.0
143
25.4
144
1.0
145
0.0
146
1.0
147
0.625
 71
1.0
 72
0.0
 73
0
 74
0
 75
0
 76
0
 77
1
 78
8
170
0
171
2
172
0
173
0
174
0
175
0
176
0
177
0
178
5
270
2
271
3
272
3
273
2
274
2
275
0
280
0
281
0
282
0
283
1
284
8
285
0
286
0
287
3
288
0
340
11
278
46
341
21D
342
21D
343
21D
344
21D
  0
DIMSTYLE
105
24C
100
AcDbSymbolTableRecord
100
AcDbDimStyleTableRecord
  2
DIMSTYLE_1
 70
0
  3

  4

 40
1.0
 41
3.5
 42
0.0
 43
0.38
 44
1.0
 45
0.0
 46
0.0
 47
0.1
 48
0.1
140
2.5
141
0.09
142
0.0
143
25.4
144
1.0
145
0.0
146
1.0
147
0.625
 71
0.0
 72
0.0
 73
0
 74
0
 75
0
 76
0
 77
1
 78
8
170
0
171
2
172
0
173
0
174
0
175
0
176
0
177
0
178
5
270
2
271
3
272
3
273
2
274
2
275
0
280
0
281
0
282
0
283
1
284
8
285
0
286
0
287
3
288
0
340
11
278
46
341
21D
342
21D
343
21D
344
21D
  0
DIMSTYLE
105
24D
100
AcDbSymbolTableRecord
100
AcDbDimStyleTableRecord
  2
DIMSTYLE_2
 70
0
  3

  4

 40
1.0
 41
3.5
 42
0.0
 43
0.38
 44
1.0
 45
0.0
 46
0.0
 47
0.2
 48
0.2
140
2.5
141
0.09
142
0.0
143
25.4
144
1.0
145
0.0
146
1.0
147
0.625
 71
0.0
 72
0.0
 73
0
 74
0
 75
0
 76
0
 77
1
 78
8
170
0
171
2
172
0
173
0
174
0
175
0
176
0
177
0
178
5
270
2
271
3
272
3
273
2
274
2
275
0
280
0
281
0
282
0
283
1
284
8
285
0
286
0
287
3
288
0
340
11
278
46
341
21D
342
21D
343
21D
344
21D
  0
DIMSTYLE
105
24E
100
AcDbSymbolTableRecord
100
AcDbDimStyleTableRecord
  2
DIMSTYLE_3
 70
0
  3

  4

 40
1.0
 41
3.5
 42
0.0
 43
0.38
 44
1.0
 45
0.0
 46
0.0
 47
1.2
 48
1.2
140
2.5
141
0.09
142
0.0
143
25.4
144
1.0
145
0.0
146
1.0
147
0.625
 71
0.0
 72
0.0
 73
0
 74
0
 75
0
 76
0
 77
1
 78
8
170
0
171
2
172
0
173
0
174
0
175
0
176
0
177
0
178
5
270
2
271
3
272
3
273
2
274
2
275
0
280
0
281
0
282
0
283
1
284
8
285
0
286
0
287
3
288
0
340
11
278
46
341
21D
342
21D
343
21D
344
21D
  0
DIMSTYLE
105
24F
100
AcDbSymbolTableRecord
100
AcDbDimStyleTableRecord
  2
DIMSTYLE_4
 70
0
  3

  4

 40
1.0
 41
3.5
 42
0.0
 43
0.38
 44
1.0
 45
0.0
 46
0.0
 47
0.5
 48
0.5
140
2.5
141
0.09
142
0.0
143
25.4
144
1.0
145
0.0
146
1.0
147
0.625
 71
0.0
 72
0.0
 73
0
 74
0
 75
0
 76
0
 77
1
 78
8
170
0
171
2
172
0
173
0
174
0
175
0
176
0
177
0
178
5
270
2
271
3
272
3
273
2
274
2
275
0
280
0
281
0
282
0
283
1
284
8
285
0
286
0
287
3
288
0
340
11
278
46
341
21D
342
21D
343
21D
344
21D
  0
DIMSTYLE
105
250
100
AcDbSymbolTableRecord
100
AcDbDimStyleTableRecord
  2
DIMSTYLE_5
 70
0
  3

  4

 40
1.0
 41
3.5
 42
0.0
 43
0.38
 44
1.0
 45
0.0
 46
0.0
 47
0.8
 48
0.8
140
2.5
141
0.09
142
0.0
143
25.4
144
1.0
145
0.0
146
1.0
147
0.625
 71
0.0
 72
0.0
 73
0
 74
0
 75
0
 76
0
 77
1
 78
8
170
0
171
2
172
0
173
0
174
0
175
0
176
0
177
0
178
5
270
2
271
3
272
3
273
2
274
2
275
0
280
0
281
0
282
0
283
1
284
8
285
0
286
0
287
3
288
0
340
11
278
46
341
21D
342
21D
343
21D
344
21D
  0
DIMSTYLE
105
251
100
AcDbSymbolTableRecord
100
AcDbDimStyleTableRecord
  2
DIMSTYLE_6
 70
0
  3

  4

 40
1.0
 41
3.5
 42
0.0
 43
0.38
 44
1.0
 45
0.0
 46
0.0
 47
0.3
 48
0.3
140
2.5
141
0.09
142
0.0
143
25.4
144
1.0
145
0.0
146
1.0
147
0.625
 71
0.0
 72
0.0
 73
0
 74
0
 75
0
 76
0
 77
1
 78
8
170
0
171
2
172
0
173
0
174
0
175
0
176
0
177
0
178
5
270
2
271
3
272
3
273
2
274
2
275
0
280
0
281
0
282
0
283
1
284
8
285
0
286
0
287
3
288
0
340
11
278
46
341
21D
342
21D
343
21D
344
21D
  0
ENDTAB
  0
ENDSEC
  0
SECTION
  2
BLOCKS
  0
BLOCK
  5
20
100
AcDbEntity
  8
0
100
AcDbBlockBegin
  2
*Model_Space
 70
0
 10
0.0
 20
0.0
 30
0.0
  3
*Model_Space
  1

  0
ENDBLK
  5
21
100
AcDbEntity
  8
0
100
AcDbBlockEnd
  0
BLOCK
  5
1C
100
AcDbEntity
  8
0
100
AcDbBlockBegin
  2
*Paper_Space
 70
0
 10
0.0
 20
0.0
 30
0.0
  3
*Paper_Space
  1

  0
ENDBLK
  5
1D
100
AcDbEntity
  8
0
100
AcDbBlockEnd
  0
BLOCK
  5
252
100
AcDbEntity
  8
0
100
AcDbBlockBegin
 62
2
  6
CONTINUOUS
  2
SYMBOL_0_BL15
 70
64
 10
31.0000000239
 20
34.9999999785
  3
SYMBOL_0_BL15
  1

  0
TEXT
  5
253
100
AcDbEntity
  8
0
100
AcDbText
 62
5
  6
CONTINUOUS
 10
11.6434778505
 20
32.1908716548
  7
TEXTSTYLE_2
 40
4.0
  1
K-19731-01-R
 72
5
 11
47.033812423
 21
32.1908716548
100
AcDbText
  0
TEXT
  5
254
100
AcDbEntity
  8
0
100
AcDbText
 62
5
  6
CONTINUOUS
 10
10.9089559916
 20
24.1776342906
  7
STANDARD
 40
2.5
  1
Scale
 72
5
 11
19.6357217908
 21
24.1776342906
100
AcDbText
  0
TEXT
  5
255
100
AcDbEntity
  8
0
100
AcDbText
 62
5
  6
CONTINUOUS
 10
10.9089559916
 20
20.4276342906
  7
STANDARD
 40
2.5
  1
1:1
 72
5
 11
15.7602571068
 21
20.4276342906
100
AcDbText
  0
TEXT
  5
256
100
AcDbEntity
  8
0
100
AcDbText
 62
5
  6
CONTINUOUS
 10
10.9089559916
 20
13.0518233866
  7
STANDARD
 40
2.5
  1
Draft
 72
5
 11
18.4647180733
 21
13.0518233866
100
AcDbText
  0
TEXT
  5
257
100
AcDbEntity
  8
0
100
AcDbText
 62
5
  6
CONTINUOUS
 10
23.3811982505
 20
13.113338109
  7
STANDARD
 40
2.5
  1
12.04.2017
 72
5
 11
40.8533172096
 21
13.113338109
100
AcDbText
  0
TEXT
  5
258
100
AcDbEntity
  8
0
100
AcDbText
 62
5
  6
CONTINUOUS
 10
45.71759366
 20
13.1067461609
  7
STANDARD
 40
2.5
  1
Dr
 72
5
 11
49.435065779
 21
13.1067461609
100
AcDbText
  0
LINE
  5
259
100
AcDbEntity
  8
0
100
AcDbLine
 62
2
  6
CONTINUOUS
 10
10.0000000239
 20
59.9999999785
 11
52.0000000239
 21
59.9999999785
  0
LINE
  5
25A
100
AcDbEntity
  8
0
100
AcDbLine
 62
2
  6
CONTINUOUS
 10
52.0000000239
 20
59.9999999785
 11
52.0000000239
 21
9.9999999785
  0
LINE
  5
25B
100
AcDbEntity
  8
0
100
AcDbLine
 62
2
  6
CONTINUOUS
 10
10.0000000239
 20
9.9999999785
 11
52.0000000239
 21
9.9999999785
  0
LINE
  5
25C
100
AcDbEntity
  8
0
100
AcDbLine
 62
2
  6
CONTINUOUS
 10
10.0000000239
 20
39.9999999785
 11
21.0000000239
 21
39.9999999785
  0
LINE
  5
25D
100
AcDbEntity
  8
0
100
AcDbLine
 62
2
  6
CONTINUOUS
 10
10.0000000239
 20
27.9999999785
 11
21.0000000239
 21
27.9999999785
  0
LINE
  5
25E
100
AcDbEntity
  8
0
100
AcDbLine
 62
2
  6
CONTINUOUS
 10
10.0000000239
 20
18.9999999785
 11
21.0000000239
 21
18.9999999785
  0
LINE
  5
25F
100
AcDbEntity
  8
0
100
AcDbLine
 62
2
  6
CONTINUOUS
 10
21.0000000239
 20
39.9999999785
 11
43.0000000239
 21
39.9999999785
  0
LINE
  5
260
100
AcDbEntity
  8
0
100
AcDbLine
 62
2
  6
CONTINUOUS
 10
43.0000000239
 20
39.9999999785
 11
52.0000000239
 21
39.9999999785
  0
LINE
  5
261
100
AcDbEntity
  8
0
100
AcDbLine
 62
2
  6
CONTINUOUS
 10
21.0000000239
 20
27.9999999785
 11
43.0000000239
 21
27.9999999785
  0
LINE
  5
262
100
AcDbEntity
  8
0
100
AcDbLine
 62
2
  6
CONTINUOUS
 10
43.0000000239
 20
27.9999999785
 11
52.0000000239
 21
27.9999999785
  0
LINE
  5
263
100
AcDbEntity
  8
0
100
AcDbLine
 62
2
  6
CONTINUOUS
 10
21.0000000239
 20
18.9999999785
 11
21.0000000239
 21
9.9999999785
  0
LINE
  5
264
100
AcDbEntity
  8
0
100
AcDbLine
 62
2
  6
CONTINUOUS
 10
21.0000000239
 20
18.9999999785
 11
43.0000000239
 21
18.9999999785
  0
LINE
  5
265
100
AcDbEntity
  8
0
100
AcDbLine
 62
2
  6
CONTINUOUS
 10
43.0000000239
 20
18.9999999785
 11
43.0000000239
 21
9.9999999785
  0
LINE
  5
266
100
AcDbEntity
  8
0
100
AcDbLine
 62
2
  6
CONTINUOUS
 10
43.0000000239
 20
18.9999999785
 11
52.0000000239
 21
18.9999999785
  0
LINE
  5
267
100
AcDbEntity
  8
0
100
AcDbLine
 62
2
  6
CONTINUOUS
 10
10.0000000239
 20
9.9999999785
 11
10.0000000239
 21
59.9999999785
  0
ARC
  5
268
100
AcDbEntity
  8
0
100
AcDbCircle
 62
2
  6
CONTINUOUS
 10
17.6290122978
 20
56.1308274644
 40
1.2679261569
100
AcDbArc
 50
90.0
 51
180.0
  0
LINE
  5
269
100
AcDbEntity
  8
0
100
AcDbLine
 62
2
  6
CONTINUOUS
 10
17.6290122978
 20
57.3987536213
 11
44.0849627663
 21
57.3987536213
  0
ARC
  5
26A
100
AcDbEntity
  8
0
100
AcDbCircle
 62
2
  6
CONTINUOUS
 10
44.0849627663
 20
56.1308274644
 40
1.2679261569
100
AcDbArc
 50
0.0
 51
90.0
  0
LINE
  5
26B
100
AcDbEntity
  8
0
100
AcDbLine
 62
2
  6
CONTINUOUS
 10
45.3528889231
 20
56.1308274644
 11
45.3528889231
 21
43.6666783678
  0
ARC
  5
26C
100
AcDbEntity
  8
0
100
AcDbCircle
 62
2
  6
CONTINUOUS
 10
44.0849627663
 20
43.6666783678
 40
1.2679261569
100
AcDbArc
 50
270.0
 51
360.0
  0
LINE
  5
26D
100
AcDbEntity
  8
0
100
AcDbLine
 62
2
  6
CONTINUOUS
 10
44.0849627663
 20
42.3987522109
 11
17.6290122978
 21
42.3987522109
  0
ARC
  5
26E
100
AcDbEntity
  8
0
100
AcDbCircle
 62
2
  6
CONTINUOUS
 10
17.6290122978
 20
43.6666783678
 40
1.2679261569
100
AcDbArc
 50
180.0
 51
270.0
  0
LINE
  5
26F
100
AcDbEntity
  8
0
100
AcDbLine
 62
2
  6
CONTINUOUS
 10
16.3610861409
 20
43.6666783678
 11
16.3610861409
 21
56.1308274644
  0
ARC
  5
270
100
AcDbEntity
  8
0
100
AcDbCircle
 62
2
  6
CONTINUOUS
 10
25.0981141224
 20
49.7181091975
 40
2.8108394023
100
AcDbArc
 50
35.2282226131
 51
336.934010569
  0
LINE
  5
271
100
AcDbEntity
  8
0
100
AcDbLine
 62
2
  6
CONTINUOUS
 10
27.3941788183
 20
51.3394990511
 11
29.5865173301
 21
52.961744213
  0
ARC
  5
272
100
AcDbEntity
  8
0
100
AcDbCircle
 62
2
  6
CONTINUOUS
 10
25.0981141224
 20
49.7181091975
 40
5.5377731507
100
AcDbArc
 50
35.8545159817
 51
11.4705154501
  0
LINE
  5
273
100
AcDbEntity
  8
0
100
AcDbLine
 62
2
  6
CONTINUOUS
 10
30.5252822719
 20
50.8193709036
 11
25.2029961896
 21
50.8193709036
  0
ARC
  5
274
100
AcDbEntity
  8
0
100
AcDbCircle
 62
2
  6
CONTINUOUS
 10
25.2029961896
 20
49.7181091975
 40
1.1012617061
100
AcDbArc
 50
90.0
 51
270.0
  0
LINE
  5
275
100
AcDbEntity
  8
0
100
AcDbLine
 62
2
  6
CONTINUOUS
 10
25.2029961896
 20
48.6168474914
 11
27.6842387906
 21
48.6168474914
  0
ARC
  5
276
100
AcDbEntity
  8
0
100
AcDbCircle
 62
2
  6
CONTINUOUS
 10
25.2029961896
 20
49.7181091975
 40
5.9153485927
100
AcDbArc
 50
349.2706340045
 51
10.7293659955
  0
LINE
  5
277
100
AcDbEntity
  8
0
100
AcDbLine
 62
2
  6
CONTINUOUS
 10
31.014929743
 20
48.6168474914
 11
32.8593870987
 21
48.6168474914
  0
LINE
  5
278
100
AcDbEntity
  8
0
100
AcDbLine
 62
2
  6
CONTINUOUS
 10
32.8593870987
 20
48.6168474914
 11
32.8593870987
 21
48.0399961216
  0
ARC
  5
279
100
AcDbEntity
  8
0
100
AcDbCircle
 62
2
  6
CONTINUOUS
 10
36.7610000003
 20
48.0399961216
 40
3.9016129016
100
AcDbArc
 50
180.0
 51
360.0
  0
LINE
  5
27A
100
AcDbEntity
  8
0
100
AcDbLine
 62
2
  6
CONTINUOUS
 10
40.6626129019
 20
48.0399961216
 11
40.6626129019
 21
54.9622125599
  0
LINE
  5
27B
100
AcDbEntity
  8
0
100
AcDbLine
 62
2
  6
CONTINUOUS
 10
40.6626129019
 20
54.9622125599
 11
37.9356791535
 21
54.9622125599
  0
LINE
  5
27C
100
AcDbEntity
  8
0
100
AcDbLine
 62
2
  6
CONTINUOUS
 10
37.9356791535
 20
54.9622125599
 11
37.9356791535
 21
48.0399961216
  0
ARC
  5
27D
100
AcDbEntity
  8
0
100
AcDbCircle
 62
2
  6
CONTINUOUS
 10
36.7610000003
 20
48.0399961216
 40
1.1746791532
100
AcDbArc
 50
180.0
 51
360.0
  0
LINE
  5
27E
100
AcDbEntity
  8
0
100
AcDbLine
 62
2
  6
CONTINUOUS
 10
35.5863208471
 20
48.0399961216
 11
35.5863208471
 21
54.9622125599
  0
LINE
  5
27F
100
AcDbEntity
  8
0
100
AcDbLine
 62
2
  6
CONTINUOUS
 10
35.5863208471
 20
54.9622125599
 11
32.8593870987
 21
54.9622125599
  0
LINE
  5
280
100
AcDbEntity
  8
0
100
AcDbLine
 62
2
  6
CONTINUOUS
 10
32.8593870987
 20
54.9622125599
 11
32.8593870987
 21
50.8193709036
  0
LINE
  5
281
100
AcDbEntity
  8
0
100
AcDbLine
 62
2
  6
CONTINUOUS
 10
32.8593870987
 20
50.8193709036
 11
31.014929743
 21
50.8193709036
  0
LINE
  5
282
100
AcDbEntity
  8
0
100
AcDbLine
 62
2
  6
CONTINUOUS
 10
45.1996126437
 20
56.7334185992
 11
45.2185459944
 21
56.6972621935
  0
LWPOLYLINE
  5
283
100
AcDbEntity
  8
0
100
AcDbPolyline
 62
2
  6
CONTINUOUS
 90
42
 70
0
 10
17.4964779251
 20
57.3918123624
 10
17.6290122978
 20
57.398757363
 10
44.0849627663
 20
57.398757363
 10
44.217497139
 20
57.3918123624
 10
44.3485794374
 20
57.3710523604
 10
44.4767734964
 20
57.3367023572
 10
44.600674795
 20
57.2891373527
 10
44.7189258447
 20
57.2288823471
 10
44.8302310623
 20
57.1565973403
 10
44.9333709645
 20
57.0730773324
 10
45.0272155289
 20
56.9792373236
 10
45.1107365748
 20
56.8760973139
 10
45.1830190283
 20
56.7647973034
 10
45.2432709475
 20
56.6465372923
 10
45.2908322
 20
56.5226372807
 10
45.3251816945
 20
56.3944472686
 10
45.345943091
 20
56.2633622563
 10
45.3528889232
 20
56.1308222438
 10
24.5102931399
 20
55.2245960958
 10
23.6929701738
 20
55.0746474408
 10
22.9072856488
 20
54.8040901322
 10
22.1709301607
 20
54.4190160805
 10
21.5004836049
 20
53.9280956735
 10
20.9110418611
 20
53.3423825519
 10
20.4158768919
 20
52.6750647241
 10
20.0261379092
 20
51.9411676226
 10
16.3610861409
 20
43.6666760719
 10
16.3610861409
 20
56.1308222438
 10
16.368031973
 20
56.2633622563
 10
16.3887933695
 20
56.3944472686
 10
16.4231428641
 20
56.5226372807
 10
16.4707041165
 20
56.6465372923
 10
16.5309560358
 20
56.7647973034
 10
16.6032384892
 20
56.8760973139
 10
16.6867595352
 20
56.9792373236
 10
16.7806040996
 20
57.0730773324
 10
16.8837440018
 20
57.1565973403
 10
16.9950492193
 20
57.2288823471
 10
17.113300269
 20
57.2891373527
 10
17.2372015677
 20
57.3367023572
 10
17.3653956267
 20
57.3710523604
 10
17.4964779251
 20
57.3918123624
  0
HATCH
  5
284
100
AcDbEntity
  8
0
100
AcDbHatch
 62
2
  6
CONTINUOUS
 10
0.0
 20
0.0
 30
0.0
210
0.0
220
0.0
230
1.0
  2
SOLID
 70
1
 71
1
 91
1
 92
1
 93
41
 72
1
 10
17.4964779251
 20
57.3918123624
 11
17.6290122978
 21
57.398757363
 72
1
 10
17.6290122978
 20
57.398757363
 11
44.0849627663
 21
57.398757363
 72
1
 10
44.0849627663
 20
57.398757363
 11
44.217497139
 21
57.3918123624
 72
1
 10
44.217497139
 20
57.3918123624
 11
44.3485794374
 21
57.3710523604
 72
1
 10
44.3485794374
 20
57.3710523604
 11
44.4767734964
 21
57.3367023572
 72
1
 10
44.4767734964
 20
57.3367023572
 11
44.600674795
 21
57.2891373527
 72
1
 10
44.600674795
 20
57.2891373527
 11
44.7189258447
 21
57.2288823471
 72
1
 10
44.7189258447
 20
57.2288823471
 11
44.8302310623
 21
57.1565973403
 72
1
 10
44.8302310623
 20
57.1565973403
 11
44.9333709645
 21
57.0730773324
 72
1
 10
44.9333709645
 20
57.0730773324
 11
45.0272155289
 21
56.9792373236
 72
1
 10
45.0272155289
 20
56.9792373236
 11
45.1107365748
 21
56.8760973139
 72
1
 10
45.1107365748
 20
56.8760973139
 11
45.1830190283
 21
56.7647973034
 72
1
 10
45.1830190283
 20
56.7647973034
 11
45.2432709475
 21
56.6465372923
 72
1
 10
45.2432709475
 20
56.6465372923
 11
45.2908322
 21
56.5226372807
 72
1
 10
45.2908322
 20
56.5226372807
 11
45.3251816945
 21
56.3944472686
 72
1
 10
45.3251816945
 20
56.3944472686
 11
45.345943091
 21
56.2633622563
 72
1
 10
45.345943091
 20
56.2633622563
 11
45.3528889232
 21
56.1308222438
 72
1
 10
45.3528889232
 20
56.1308222438
 11
24.5102931399
 21
55.2245960958
 72
1
 10
24.5102931399
 20
55.2245960958
 11
23.6929701738
 21
55.0746474408
 72
1
 10
23.6929701738
 20
55.0746474408
 11
22.9072856488
 21
54.8040901322
 72
1
 10
22.9072856488
 20
54.8040901322
 11
22.1709301607
 21
54.4190160805
 72
1
 10
22.1709301607
 20
54.4190160805
 11
21.5004836049
 21
53.9280956735
 72
1
 10
21.5004836049
 20
53.9280956735
 11
20.9110418611
 21
53.3423825519
 72
1
 10
20.9110418611
 20
53.3423825519
 11
20.4158768919
 21
52.6750647241
 72
1
 10
20.4158768919
 20
52.6750647241
 11
20.0261379092
 21
51.9411676226
 72
1
 10
20.0261379092
 20
51.9411676226
 11
16.3610861409
 21
43.6666760719
 72
1
 10
16.3610861409
 20
43.6666760719
 11
16.3610861409
 21
56.1308222438
 72
1
 10
16.3610861409
 20
56.1308222438
 11
16.368031973
 21
56.2633622563
 72
1
 10
16.368031973
 20
56.2633622563
 11
16.3887933695
 21
56.3944472686
 72
1
 10
16.3887933695
 20
56.3944472686
 11
16.4231428641
 21
56.5226372807
 72
1
 10
16.4231428641
 20
56.5226372807
 11
16.4707041165
 21
56.6465372923
 72
1
 10
16.4707041165
 20
56.6465372923
 11
16.5309560358
 21
56.7647973034
 72
1
 10
16.5309560358
 20
56.7647973034
 11
16.6032384892
 21
56.8760973139
 72
1
 10
16.6032384892
 20
56.8760973139
 11
16.6867595352
 21
56.9792373236
 72
1
 10
16.6867595352
 20
56.9792373236
 11
16.7806040996
 21
57.0730773324
 72
1
 10
16.7806040996
 20
57.0730773324
 11
16.8837440018
 21
57.1565973403
 72
1
 10
16.8837440018
 20
57.1565973403
 11
16.9950492193
 21
57.2288823471
 72
1
 10
16.9950492193
 20
57.2288823471
 11
17.113300269
 21
57.2891373527
 72
1
 10
17.113300269
 20
57.2891373527
 11
17.2372015677
 21
57.3367023572
 72
1
 10
17.2372015677
 20
57.3367023572
 11
17.3653956267
 21
57.3710523604
 72
1
 10
17.3653956267
 20
57.3710523604
 11
17.4964779251
 21
57.3918123624
 97
1
330
283
 75
0
 76
1
 98
1
 10
0.0
 20
0.0
  0
LWPOLYLINE
  5
285
100
AcDbEntity
  8
0
100
AcDbPolyline
 62
2
  6
CONTINUOUS
 90
23
 70
0
 10
26.9669939813
 20
54.9309989471
 10
26.1659444963
 20
55.151954039
 10
45.3528889232
 20
56.1308222438
 10
45.3528889231
 20
43.6666760719
 10
40.1398958888
 20
46.0891912997
 10
40.3656203039
 20
46.5469163427
 10
40.5296686661
 20
47.0301863881
 10
40.6292340626
 20
47.5307364352
 10
40.6626129019
 20
48.0400014831
 10
40.6626129019
 20
54.9622171339
 10
37.9356791535
 20
54.9622171339
 10
35.5863208471
 20
54.9622171339
 10
32.8593870987
 20
54.9622171339
 10
32.8593870987
 20
50.8193667444
 10
31.0149297429
 20
50.8193667444
 10
30.6289655903
 20
49.9949006497
 10
30.5252822719
 20
50.8193667444
 10
27.3941788183
 20
51.3394990511
 10
29.5865173301
 20
52.961744213
 10
29.0506384437
 20
53.5968310176
 10
28.425763901
 20
54.1445839144
 10
27.7259634749
 20
54.5926696135
 10
26.9669939813
 20
54.9309989471
  0
HATCH
  5
286
100
AcDbEntity
  8
0
100
AcDbHatch
 62
2
  6
CONTINUOUS
 10
0.0
 20
0.0
 30
0.0
210
0.0
220
0.0
230
1.0
  2
SOLID
 70
1
 71
1
 91
1
 92
1
 93
22
 72
1
 10
26.9669939813
 20
54.9309989471
 11
26.1659444963
 21
55.151954039
 72
1
 10
26.1659444963
 20
55.151954039
 11
45.3528889232
 21
56.1308222438
 72
1
 10
45.3528889232
 20
56.1308222438
 11
45.3528889231
 21
43.6666760719
 72
1
 10
45.3528889231
 20
43.6666760719
 11
40.1398958888
 21
46.0891912997
 72
1
 10
40.1398958888
 20
46.0891912997
 11
40.3656203039
 21
46.5469163427
 72
1
 10
40.3656203039
 20
46.5469163427
 11
40.5296686661
 21
47.0301863881
 72
1
 10
40.5296686661
 20
47.0301863881
 11
40.6292340626
 21
47.5307364352
 72
1
 10
40.6292340626
 20
47.5307364352
 11
40.6626129019
 21
48.0400014831
 72
1
 10
40.6626129019
 20
48.0400014831
 11
40.6626129019
 21
54.9622171339
 72
1
 10
40.6626129019
 20
54.9622171339
 11
37.9356791535
 21
54.9622171339
 72
1
 10
37.9356791535
 20
54.9622171339
 11
35.5863208471
 21
54.9622171339
 72
1
 10
35.5863208471
 20
54.9622171339
 11
32.8593870987
 21
54.9622171339
 72
1
 10
32.8593870987
 20
54.9622171339
 11
32.8593870987
 21
50.8193667444
 72
1
 10
32.8593870987
 20
50.8193667444
 11
31.0149297429
 21
50.8193667444
 72
1
 10
31.0149297429
 20
50.8193667444
 11
30.6289655903
 21
49.9949006497
 72
1
 10
30.6289655903
 20
49.9949006497
 11
30.5252822719
 21
50.8193667444
 72
1
 10
30.5252822719
 20
50.8193667444
 11
27.3941788183
 21
51.3394990511
 72
1
 10
27.3941788183
 20
51.3394990511
 11
29.5865173301
 21
52.961744213
 72
1
 10
29.5865173301
 20
52.961744213
 11
29.0506384437
 21
53.5968310176
 72
1
 10
29.0506384437
 20
53.5968310176
 11
28.425763901
 21
54.1445839144
 72
1
 10
28.425763901
 20
54.1445839144
 11
27.7259634749
 21
54.5926696135
 72
1
 10
27.7259634749
 20
54.5926696135
 11
26.9669939813
 21
54.9309989471
 97
1
330
285
 75
0
 76
1
 98
1
 10
0.0
 20
0.0
  0
LWPOLYLINE
  5
287
100
AcDbEntity
  8
0
100
AcDbPolyline
 62
2
  6
CONTINUOUS
 90
20
 70
0
 10
24.5005684601
 20
52.4646993247
 10
24.9072650814
 20
52.5224620264
 10
25.3180376874
 20
52.5203318459
 10
25.7241133608
 20
52.4583542776
 10
26.1168194973
 20
52.3378529835
 10
26.4877690273
 20
52.1614015236
 10
26.8290395394
 20
51.9327683916
 10
27.1333424806
 20
51.6568365314
 10
27.3941788183
 20
51.3394990511
 10
30.5252822719
 20
50.8193667444
 10
25.2029961896
 20
50.8193667444
 10
25.0592526925
 20
50.8099494571
 10
22.4413895628
 20
50.6360595011
 10
22.6035508656
 20
51.0134749
 10
22.8189888395
 20
51.3632250264
 10
23.0831023513
 20
51.6778402269
 10
23.3902506985
 20
51.9506012291
 10
23.7338740791
 20
52.175682645
 10
24.1066336894
 20
52.3482773854
 10
24.5005684601
 20
52.4646993247
  0
HATCH
  5
288
100
AcDbEntity
  8
0
100
AcDbHatch
 62
2
  6
CONTINUOUS
 10
0.0
 20
0.0
 30
0.0
210
0.0
220
0.0
230
1.0
  2
SOLID
 70
1
 71
1
 91
1
 92
1
 93
19
 72
1
 10
24.5005684601
 20
52.4646993247
 11
24.9072650814
 21
52.5224620264
 72
1
 10
24.9072650814
 20
52.5224620264
 11
25.3180376874
 21
52.5203318459
 72
1
 10
25.3180376874
 20
52.5203318459
 11
25.7241133608
 21
52.4583542776
 72
1
 10
25.7241133608
 20
52.4583542776
 11
26.1168194973
 21
52.3378529835
 72
1
 10
26.1168194973
 20
52.3378529835
 11
26.4877690273
 21
52.1614015236
 72
1
 10
26.4877690273
 20
52.1614015236
 11
26.8290395394
 21
51.9327683916
 72
1
 10
26.8290395394
 20
51.9327683916
 11
27.1333424806
 21
51.6568365314
 72
1
 10
27.1333424806
 20
51.6568365314
 11
27.3941788183
 21
51.3394990511
 72
1
 10
27.3941788183
 20
51.3394990511
 11
30.5252822719
 21
50.8193667444
 72
1
 10
30.5252822719
 20
50.8193667444
 11
25.2029961896
 21
50.8193667444
 72
1
 10
25.2029961896
 20
50.8193667444
 11
25.0592526925
 21
50.8099494571
 72
1
 10
25.0592526925
 20
50.8099494571
 11
22.4413895628
 21
50.6360595011
 72
1
 10
22.4413895628
 20
50.6360595011
 11
22.6035508656
 21
51.0134749
 72
1
 10
22.6035508656
 20
51.0134749
 11
22.8189888395
 21
51.3632250264
 72
1
 10
22.8189888395
 20
51.3632250264
 11
23.0831023513
 21
51.6778402269
 72
1
 10
23.0831023513
 20
51.6778402269
 11
23.3902506985
 21
51.9506012291
 72
1
 10
23.3902506985
 20
51.9506012291
 11
23.7338740791
 21
52.175682645
 72
1
 10
23.7338740791
 20
52.175682645
 11
24.1066336894
 21
52.3482773854
 72
1
 10
24.1066336894
 20
52.3482773854
 11
24.5005684601
 21
52.4646993247
 97
1
330
287
 75
0
 76
1
 98
1
 10
0.0
 20
0.0
  0
LWPOLYLINE
  5
289
100
AcDbEntity
  8
0
100
AcDbPolyline
 62
2
  6
CONTINUOUS
 90
8
 70
0
 10
24.6523653366
 20
50.6718298112
 10
24.5325905397
 20
50.5917988506
 10
22.3359682285
 20
50.2390393331
 10
22.4413895628
 20
50.6360595011
 10
25.0592526925
 20
50.8099494571
 10
24.9179686864
 20
50.7818463209
 10
24.78156158
 20
50.7355423477
 10
24.6523653366
 20
50.6718298112
  0
HATCH
  5
28A
100
AcDbEntity
  8
0
100
AcDbHatch
 62
2
  6
CONTINUOUS
 10
0.0
 20
0.0
 30
0.0
210
0.0
220
0.0
230
1.0
  2
SOLID
 70
1
 71
1
 91
1
 92
1
 93
7
 72
1
 10
24.6523653366
 20
50.6718298112
 11
24.5325905397
 21
50.5917988506
 72
1
 10
24.5325905397
 20
50.5917988506
 11
22.3359682285
 21
50.2390393331
 72
1
 10
22.3359682285
 20
50.2390393331
 11
22.4413895628
 21
50.6360595011
 72
1
 10
22.4413895628
 20
50.6360595011
 11
25.0592526925
 21
50.8099494571
 72
1
 10
25.0592526925
 20
50.8099494571
 11
24.9179686864
 21
50.7818463209
 72
1
 10
24.9179686864
 20
50.7818463209
 11
24.78156158
 21
50.7355423477
 72
1
 10
24.78156158
 20
50.7355423477
 11
24.6523653366
 21
50.6718298112
 97
1
330
289
 75
0
 76
1
 98
1
 10
0.0
 20
0.0
  0
LWPOLYLINE
  5
28B
100
AcDbEntity
  8
0
100
AcDbPolyline
 62
2
  6
CONTINUOUS
 90
8
 70
0
 10
24.2492755759
 20
50.2687400506
 10
24.1855630394
 20
50.1395438071
 10
22.2895383581
 20
49.830893601
 10
22.3359682285
 20
50.2390393331
 10
24.5325905397
 20
50.5917988506
 10
24.4242865694
 20
50.4968188178
 10
24.3293065366
 20
50.3885148474
 10
24.2492755759
 20
50.2687400506
  0
HATCH
  5
28C
100
AcDbEntity
  8
0
100
AcDbHatch
 62
2
  6
CONTINUOUS
 10
0.0
 20
0.0
 30
0.0
210
0.0
220
0.0
230
1.0
  2
SOLID
 70
1
 71
1
 91
1
 92
1
 93
7
 72
1
 10
24.2492755759
 20
50.2687400506
 11
24.1855630394
 21
50.1395438071
 72
1
 10
24.1855630394
 20
50.1395438071
 11
22.2895383581
 21
49.830893601
 72
1
 10
22.2895383581
 20
49.830893601
 11
22.3359682285
 21
50.2390393331
 72
1
 10
22.3359682285
 20
50.2390393331
 11
24.5325905397
 21
50.5917988506
 72
1
 10
24.5325905397
 20
50.5917988506
 11
24.4242865694
 21
50.4968188178
 72
1
 10
24.4242865694
 20
50.4968188178
 11
24.3293065366
 21
50.3885148474
 72
1
 10
24.3293065366
 20
50.3885148474
 11
24.2492755759
 21
50.2687400506
 97
1
330
28B
 75
0
 76
1
 98
1
 10
0.0
 20
0.0
  0
LWPOLYLINE
  5
28D
100
AcDbEntity
  8
0
100
AcDbPolyline
 62
2
  6
CONTINUOUS
 90
7
 70
0
 10
31.0993048012
 20
50.1923388153
 10
31.1162282192
 20
49.8763366836
 10
30.6081153911
 20
49.1641981161
 10
30.6289655903
 20
49.9949006497
 10
31.0149297429
 20
50.8193667444
 10
31.0655063992
 20
50.5069837221
 10
31.0993048012
 20
50.1923388153
  0
HATCH
  5
28E
100
AcDbEntity
  8
0
100
AcDbHatch
 62
2
  6
CONTINUOUS
 10
0.0
 20
0.0
 30
0.0
210
0.0
220
0.0
230
1.0
  2
SOLID
 70
1
 71
1
 91
1
 92
1
 93
6
 72
1
 10
31.0993048012
 20
50.1923388153
 11
31.1162282192
 21
49.8763366836
 72
1
 10
31.1162282192
 20
49.8763366836
 11
30.6081153911
 21
49.1641981161
 72
1
 10
30.6081153911
 20
49.1641981161
 11
30.6289655903
 21
49.9949006497
 72
1
 10
30.6289655903
 20
49.9949006497
 11
31.0149297429
 21
50.8193667444
 72
1
 10
31.0149297429
 20
50.8193667444
 11
31.0655063992
 21
50.5069837221
 72
1
 10
31.0655063992
 20
50.5069837221
 11
31.0993048012
 21
50.1923388153
 97
1
330
28D
 75
0
 76
1
 98
1
 10
0.0
 20
0.0
  0
LWPOLYLINE
  5
28F
100
AcDbEntity
  8
0
100
AcDbPolyline
 62
2
  6
CONTINUOUS
 90
7
 70
0
 10
24.1111559301
 20
49.8618526947
 10
24.1017344835
 20
49.7181091975
 10
22.3030915597
 20
49.4203391196
 10
22.2895383581
 20
49.830893601
 10
24.1855630394
 20
50.1395438071
 10
24.1392590662
 20
50.0031367007
 10
24.1111559301
 20
49.8618526947
  0
HATCH
  5
290
100
AcDbEntity
  8
0
100
AcDbHatch
 62
2
  6
CONTINUOUS
 10
0.0
 20
0.0
 30
0.0
210
0.0
220
0.0
230
1.0
  2
SOLID
 70
1
 71
1
 91
1
 92
1
 93
6
 72
1
 10
24.1111559301
 20
49.8618526947
 11
24.1017344835
 21
49.7181091975
 72
1
 10
24.1017344835
 20
49.7181091975
 11
22.3030915597
 21
49.4203391196
 72
1
 10
22.3030915597
 20
49.4203391196
 11
22.2895383581
 21
49.830893601
 72
1
 10
22.2895383581
 20
49.830893601
 11
24.1855630394
 21
50.1395438071
 72
1
 10
24.1855630394
 20
50.1395438071
 11
24.1392590662
 21
50.0031367007
 72
1
 10
24.1392590662
 20
50.0031367007
 11
24.1111559301
 21
49.8618526947
 97
1
330
28F
 75
0
 76
1
 98
1
 10
0.0
 20
0.0
  0
LWPOLYLINE
  5
291
100
AcDbEntity
  8
0
100
AcDbPolyline
 62
2
  6
CONTINUOUS
 90
7
 70
0
 10
24.1392590662
 20
49.4330816944
 10
24.1855630394
 20
49.2966745879
 10
22.3763383759
 20
49.0161441476
 10
22.3030915597
 20
49.4203391196
 10
24.1017344835
 20
49.7181091975
 10
24.1111559301
 20
49.5743657004
 10
24.1392590662
 20
49.4330816944
  0
HATCH
  5
292
100
AcDbEntity
  8
0
100
AcDbHatch
 62
2
  6
CONTINUOUS
 10
0.0
 20
0.0
 30
0.0
210
0.0
220
0.0
230
1.0
  2
SOLID
 70
1
 71
1
 91
1
 92
1
 93
6
 72
1
 10
24.1392590662
 20
49.4330816944
 11
24.1855630394
 21
49.2966745879
 72
1
 10
24.1855630394
 20
49.2966745879
 11
22.3763383759
 21
49.0161441476
 72
1
 10
22.3763383759
 20
49.0161441476
 11
22.3030915597
 21
49.4203391196
 72
1
 10
22.3030915597
 20
49.4203391196
 11
24.1017344835
 21
49.7181091975
 72
1
 10
24.1017344835
 20
49.7181091975
 11
24.1111559301
 21
49.5743657004
 72
1
 10
24.1111559301
 20
49.5743657004
 11
24.1392590662
 21
49.4330816944
 97
1
330
291
 75
0
 76
1
 98
1
 10
0.0
 20
0.0
  0
LWPOLYLINE
  5
293
100
AcDbEntity
  8
0
100
AcDbPolyline
 62
2
  6
CONTINUOUS
 90
7
 70
0
 10
31.0993048012
 20
49.2438795798
 10
31.0655063992
 20
48.929234673
 10
30.4632011408
 20
48.3459675312
 10
30.6081153911
 20
49.1641981161
 10
31.1162282192
 20
49.8763366836
 10
31.1162282192
 20
49.5598817115
 10
31.0993048012
 20
49.2438795798
  0
HATCH
  5
294
100
AcDbEntity
  8
0
100
AcDbHatch
 62
2
  6
CONTINUOUS
 10
0.0
 20
0.0
 30
0.0
210
0.0
220
0.0
230
1.0
  2
SOLID
 70
1
 71
1
 91
1
 92
1
 93
6
 72
1
 10
31.0993048012
 20
49.2438795798
 11
31.0655063992
 21
48.929234673
 72
1
 10
31.0655063992
 20
48.929234673
 11
30.4632011408
 21
48.3459675312
 72
1
 10
30.4632011408
 20
48.3459675312
 11
30.6081153911
 21
49.1641981161
 72
1
 10
30.6081153911
 20
49.1641981161
 11
31.1162282192
 21
49.8763366836
 72
1
 10
31.1162282192
 20
49.8763366836
 11
31.1162282192
 21
49.5598817115
 72
1
 10
31.1162282192
 20
49.5598817115
 11
31.0993048012
 21
49.2438795798
 97
1
330
293
 75
0
 76
1
 98
1
 10
0.0
 20
0.0
  0
LWPOLYLINE
  5
295
100
AcDbEntity
  8
0
100
AcDbPolyline
 62
2
  6
CONTINUOUS
 90
7
 70
0
 10
24.3293065366
 20
49.0477035476
 10
24.4242865694
 20
48.9393995773
 10
22.5077144663
 20
48.6269411229
 10
22.3763383759
 20
49.0161441476
 10
24.1855630394
 20
49.2966745879
 10
24.2492755759
 20
49.1674783445
 10
24.3293065366
 20
49.0477035476
  0
HATCH
  5
296
100
AcDbEntity
  8
0
100
AcDbHatch
 62
2
  6
CONTINUOUS
 10
0.0
 20
0.0
 30
0.0
210
0.0
220
0.0
230
1.0
  2
SOLID
 70
1
 71
1
 91
1
 92
1
 93
6
 72
1
 10
24.3293065366
 20
49.0477035476
 11
24.4242865694
 21
48.9393995773
 72
1
 10
24.4242865694
 20
48.9393995773
 11
22.5077144663
 21
48.6269411229
 72
1
 10
22.5077144663
 20
48.6269411229
 11
22.3763383759
 21
49.0161441476
 72
1
 10
22.3763383759
 20
49.0161441476
 11
24.1855630394
 21
49.2966745879
 72
1
 10
24.1855630394
 20
49.2966745879
 11
24.2492755759
 21
49.1674783445
 72
1
 10
24.2492755759
 20
49.1674783445
 11
24.3293065366
 21
49.0477035476
 97
1
330
295
 75
0
 76
1
 98
1
 10
0.0
 20
0.0
  0
LWPOLYLINE
  5
297
100
AcDbEntity
  8
0
100
AcDbPolyline
 62
2
  6
CONTINUOUS
 90
9
 70
0
 10
24.9179686864
 20
48.6543720741
 10
25.0592526925
 20
48.626268938
 10
22.6944140166
 20
48.2610422989
 10
22.5077144663
 20
48.6269411229
 10
24.4242865694
 20
48.9393995773
 10
24.5325905397
 20
48.8444195445
 10
24.6523653366
 20
48.7643885839
 10
24.78156158
 20
48.7006760474
 10
24.9179686864
 20
48.6543720741
  0
HATCH
  5
298
100
AcDbEntity
  8
0
100
AcDbHatch
 62
2
  6
CONTINUOUS
 10
0.0
 20
0.0
 30
0.0
210
0.0
220
0.0
230
1.0
  2
SOLID
 70
1
 71
1
 91
1
 92
1
 93
8
 72
1
 10
24.9179686864
 20
48.6543720741
 11
25.0592526925
 21
48.626268938
 72
1
 10
25.0592526925
 20
48.626268938
 11
22.6944140166
 21
48.2610422989
 72
1
 10
22.6944140166
 20
48.2610422989
 11
22.5077144663
 21
48.6269411229
 72
1
 10
22.5077144663
 20
48.6269411229
 11
24.4242865694
 21
48.9393995773
 72
1
 10
24.4242865694
 20
48.9393995773
 11
24.5325905397
 21
48.8444195445
 72
1
 10
24.5325905397
 20
48.8444195445
 11
24.6523653366
 21
48.7643885839
 72
1
 10
24.6523653366
 20
48.7643885839
 11
24.78156158
 21
48.7006760474
 72
1
 10
24.78156158
 20
48.7006760474
 11
24.9179686864
 21
48.6543720741
 97
1
330
297
 75
0
 76
1
 98
1
 10
0.0
 20
0.0
  0
LWPOLYLINE
  5
299
100
AcDbEntity
  8
0
100
AcDbPolyline
 62
2
  6
CONTINUOUS
 90
9
 70
0
 10
32.8593870987
 20
48.6168415373
 10
32.8593870987
 20
48.0400014831
 10
32.8927659379
 20
47.5307364352
 10
29.8169521117
 20
46.8199201942
 10
30.1974857512
 20
47.5586323028
 10
30.4632011408
 20
48.3459675312
 10
31.0655063992
 20
48.929234673
 10
31.0149297429
 20
48.6168415373
 10
32.8593870987
 20
48.6168415373
  0
HATCH
  5
29A
100
AcDbEntity
  8
0
100
AcDbHatch
 62
2
  6
CONTINUOUS
 10
0.0
 20
0.0
 30
0.0
210
0.0
220
0.0
230
1.0
  2
SOLID
 70
1
 71
1
 91
1
 92
1
 93
8
 72
1
 10
32.8593870987
 20
48.6168415373
 11
32.8593870987
 21
48.0400014831
 72
1
 10
32.8593870987
 20
48.0400014831
 11
32.8927659379
 21
47.5307364352
 72
1
 10
32.8927659379
 20
47.5307364352
 11
29.8169521117
 21
46.8199201942
 72
1
 10
29.8169521117
 20
46.8199201942
 11
30.1974857512
 21
47.5586323028
 72
1
 10
30.1974857512
 20
47.5586323028
 11
30.4632011408
 21
48.3459675312
 72
1
 10
30.4632011408
 20
48.3459675312
 11
31.0655063992
 21
48.929234673
 72
1
 10
31.0655063992
 20
48.929234673
 11
31.0149297429
 21
48.6168415373
 72
1
 10
31.0149297429
 20
48.6168415373
 11
32.8593870987
 21
48.6168415373
 97
1
330
299
 75
0
 76
1
 98
1
 10
0.0
 20
0.0
  0
LWPOLYLINE
  5
29B
100
AcDbEntity
  8
0
100
AcDbPolyline
 62
2
  6
CONTINUOUS
 90
19
 70
0
 10
27.6842387906
 20
48.6168415373
 10
27.4961137435
 20
48.2516795326
 10
27.2567743458
 20
47.9178302789
 10
26.9713321963
 20
47.6224297867
 10
26.6458835153
 20
47.3717869581
 10
26.2873789475
 20
47.1712548002
 10
25.9034751155
 20
47.0251161014
 10
25.5023710973
 20
46.9364919623
 10
25.0926333168
 20
46.9072751387
 10
24.6830125906
 20
46.9380896178
 10
24.2822572349
 20
47.0282772912
 10
23.8989262276
 20
47.1759120104
 10
23.5412064125
 20
47.377840724
 10
23.2167376524
 20
47.6297508175
 10
22.9324496635
 20
47.9262622184
 10
22.6944140166
 20
48.2610422989
 10
25.0592526925
 20
48.626268938
 10
25.2029961896
 20
48.6168415373
 10
27.6842387906
 20
48.6168415373
  0
HATCH
  5
29C
100
AcDbEntity
  8
0
100
AcDbHatch
 62
2
  6
CONTINUOUS
 10
0.0
 20
0.0
 30
0.0
210
0.0
220
0.0
230
1.0
  2
SOLID
 70
1
 71
1
 91
1
 92
1
 93
18
 72
1
 10
27.6842387906
 20
48.6168415373
 11
27.4961137435
 21
48.2516795326
 72
1
 10
27.4961137435
 20
48.2516795326
 11
27.2567743458
 21
47.9178302789
 72
1
 10
27.2567743458
 20
47.9178302789
 11
26.9713321963
 21
47.6224297867
 72
1
 10
26.9713321963
 20
47.6224297867
 11
26.6458835153
 21
47.3717869581
 72
1
 10
26.6458835153
 20
47.3717869581
 11
26.2873789475
 21
47.1712548002
 72
1
 10
26.2873789475
 20
47.1712548002
 11
25.9034751155
 21
47.0251161014
 72
1
 10
25.9034751155
 20
47.0251161014
 11
25.5023710973
 21
46.9364919623
 72
1
 10
25.5023710973
 20
46.9364919623
 11
25.0926333168
 21
46.9072751387
 72
1
 10
25.0926333168
 20
46.9072751387
 11
24.6830125906
 21
46.9380896178
 72
1
 10
24.6830125906
 20
46.9380896178
 11
24.2822572349
 21
47.0282772912
 72
1
 10
24.2822572349
 20
47.0282772912
 11
23.8989262276
 21
47.1759120104
 72
1
 10
23.8989262276
 20
47.1759120104
 11
23.5412064125
 21
47.377840724
 72
1
 10
23.5412064125
 20
47.377840724
 11
23.2167376524
 21
47.6297508175
 72
1
 10
23.2167376524
 20
47.6297508175
 11
22.9324496635
 21
47.9262622184
 72
1
 10
22.9324496635
 20
47.9262622184
 11
22.6944140166
 21
48.2610422989
 72
1
 10
22.6944140166
 20
48.2610422989
 11
25.0592526925
 21
48.626268938
 72
1
 10
25.0592526925
 20
48.626268938
 11
25.2029961896
 21
48.6168415373
 72
1
 10
25.2029961896
 20
48.6168415373
 11
27.6842387906
 21
48.6168415373
 97
1
330
29B
 75
0
 76
1
 98
1
 10
0.0
 20
0.0
  0
LWPOLYLINE
  5
29D
100
AcDbEntity
  8
0
100
AcDbPolyline
 62
2
  6
CONTINUOUS
 90
28
 70
0
 10
35.5863208471
 20
48.0400014831
 10
35.5863208471
 20
54.9622171339
 10
37.9356791535
 20
54.9622171339
 10
37.9356791535
 20
48.0400014831
 10
37.9256296104
 20
47.8866714687
 10
37.8956529319
 20
47.7359664545
 10
37.8462620271
 20
47.5904664408
 10
37.7783019882
 20
47.4526614279
 10
37.6929356302
 20
47.3248914159
 10
37.5916235952
 20
47.209376405
 10
37.4760993602
 20
47.1080663955
 10
37.3483395768
 20
47.0227013874
 10
37.2105302505
 20
46.9547363811
 10
37.065029337
 20
46.9053413764
 10
36.9143263972
 20
46.8753713736
 10
36.7610000003
 20
46.8653169684
 10
36.6076736033
 20
46.8753713736
 10
36.4569706635
 20
46.9053413764
 10
36.31146975
 20
46.9547363811
 10
36.1736604237
 20
47.0227013874
 10
36.0459006404
 20
47.1080663955
 10
35.9303764053
 20
47.209376405
 10
35.8290643703
 20
47.3248914159
 10
35.7436980123
 20
47.4526614279
 10
35.6757379734
 20
47.5904664408
 10
35.6263470686
 20
47.7359664545
 10
35.5963703901
 20
47.8866714687
 10
35.5863208471
 20
48.0400014831
  0
HATCH
  5
29E
100
AcDbEntity
  8
0
100
AcDbHatch
 62
2
  6
CONTINUOUS
 10
0.0
 20
0.0
 30
0.0
210
0.0
220
0.0
230
1.0
  2
SOLID
 70
1
 71
1
 91
1
 92
1
 93
27
 72
1
 10
35.5863208471
 20
48.0400014831
 11
35.5863208471
 21
54.9622171339
 72
1
 10
35.5863208471
 20
54.9622171339
 11
37.9356791535
 21
54.9622171339
 72
1
 10
37.9356791535
 20
54.9622171339
 11
37.9356791535
 21
48.0400014831
 72
1
 10
37.9356791535
 20
48.0400014831
 11
37.9256296104
 21
47.8866714687
 72
1
 10
37.9256296104
 20
47.8866714687
 11
37.8956529319
 21
47.7359664545
 72
1
 10
37.8956529319
 20
47.7359664545
 11
37.8462620271
 21
47.5904664408
 72
1
 10
37.8462620271
 20
47.5904664408
 11
37.7783019882
 21
47.4526614279
 72
1
 10
37.7783019882
 20
47.4526614279
 11
37.6929356302
 21
47.3248914159
 72
1
 10
37.6929356302
 20
47.3248914159
 11
37.5916235952
 21
47.209376405
 72
1
 10
37.5916235952
 20
47.209376405
 11
37.4760993602
 21
47.1080663955
 72
1
 10
37.4760993602
 20
47.1080663955
 11
37.3483395768
 21
47.0227013874
 72
1
 10
37.3483395768
 20
47.0227013874
 11
37.2105302505
 21
46.9547363811
 72
1
 10
37.2105302505
 20
46.9547363811
 11
37.065029337
 21
46.9053413764
 72
1
 10
37.065029337
 20
46.9053413764
 11
36.9143263972
 21
46.8753713736
 72
1
 10
36.9143263972
 20
46.8753713736
 11
36.7610000003
 21
46.8653169684
 72
1
 10
36.7610000003
 20
46.8653169684
 11
36.6076736033
 21
46.8753713736
 72
1
 10
36.6076736033
 20
46.8753713736
 11
36.4569706635
 21
46.9053413764
 72
1
 10
36.4569706635
 20
46.9053413764
 11
36.31146975
 21
46.9547363811
 72
1
 10
36.31146975
 20
46.9547363811
 11
36.1736604237
 21
47.0227013874
 72
1
 10
36.1736604237
 20
47.0227013874
 11
36.0459006404
 21
47.1080663955
 72
1
 10
36.0459006404
 20
47.1080663955
 11
35.9303764053
 21
47.209376405
 72
1
 10
35.9303764053
 20
47.209376405
 11
35.8290643703
 21
47.3248914159
 72
1
 10
35.8290643703
 20
47.3248914159
 11
35.7436980123
 21
47.4526614279
 72
1
 10
35.7436980123
 20
47.4526614279
 11
35.6757379734
 21
47.5904664408
 72
1
 10
35.6757379734
 20
47.5904664408
 11
35.6263470686
 21
47.7359664545
 72
1
 10
35.6263470686
 20
47.7359664545
 11
35.5963703901
 21
47.8866714687
 72
1
 10
35.5963703901
 20
47.8866714687
 11
35.5863208471
 21
48.0400014831
 97
1
330
29D
 75
0
 76
1
 98
1
 10
0.0
 20
0.0
  0
LWPOLYLINE
  5
29F
100
AcDbEntity
  8
0
100
AcDbPolyline
 62
2
  6
CONTINUOUS
 90
8
 70
0
 10
32.9923313344
 20
47.0301863881
 10
33.1563796967
 20
46.5469163427
 10
33.3821041117
 20
46.0891912997
 10
28.7480950465
 20
45.5534278506
 10
29.3301683772
 20
46.146464163
 10
29.8169521117
 20
46.8199201942
 10
32.8927659379
 20
47.5307364352
 10
32.9923313344
 20
47.0301863881
  0
HATCH
  5
2A0
100
AcDbEntity
  8
0
100
AcDbHatch
 62
2
  6
CONTINUOUS
 10
0.0
 20
0.0
 30
0.0
210
0.0
220
0.0
230
1.0
  2
SOLID
 70
1
 71
1
 91
1
 92
1
 93
7
 72
1
 10
32.9923313344
 20
47.0301863881
 11
33.1563796967
 21
46.5469163427
 72
1
 10
33.1563796967
 20
46.5469163427
 11
33.3821041117
 21
46.0891912997
 72
1
 10
33.3821041117
 20
46.0891912997
 11
28.7480950465
 21
45.5534278506
 72
1
 10
28.7480950465
 20
45.5534278506
 11
29.3301683772
 21
46.146464163
 72
1
 10
29.3301683772
 20
46.146464163
 11
29.8169521117
 21
46.8199201942
 72
1
 10
29.8169521117
 20
46.8199201942
 11
32.8927659379
 21
47.5307364352
 72
1
 10
32.8927659379
 20
47.5307364352
 11
32.9923313344
 21
47.0301863881
 97
1
330
29F
 75
0
 76
1
 98
1
 10
0.0
 20
0.0
  0
LWPOLYLINE
  5
2A1
100
AcDbEntity
  8
0
100
AcDbPolyline
 62
2
  6
CONTINUOUS
 90
8
 70
0
 10
33.6656423722
 20
45.6648412598
 10
34.00214306
 20
45.2811412237
 10
34.3858485548
 20
44.9446311921
 10
27.3523542712
 20
44.659914577
 10
28.0838381739
 20
45.0541641554
 10
28.7480950465
 20
45.5534278506
 10
33.3821041117
 20
46.0891912997
 10
33.6656423722
 20
45.6648412598
  0
HATCH
  5
2A2
100
AcDbEntity
  8
0
100
AcDbHatch
 62
2
  6
CONTINUOUS
 10
0.0
 20
0.0
 30
0.0
210
0.0
220
0.0
230
1.0
  2
SOLID
 70
1
 71
1
 91
1
 92
1
 93
7
 72
1
 10
33.6656423722
 20
45.6648412598
 11
34.00214306
 21
45.2811412237
 72
1
 10
34.00214306
 20
45.2811412237
 11
34.3858485548
 21
44.9446311921
 72
1
 10
34.3858485548
 20
44.9446311921
 11
27.3523542712
 21
44.659914577
 72
1
 10
27.3523542712
 20
44.659914577
 11
28.0838381739
 21
45.0541641554
 72
1
 10
28.0838381739
 20
45.0541641554
 11
28.7480950465
 21
45.5534278506
 72
1
 10
28.7480950465
 20
45.5534278506
 11
33.3821041117
 21
46.0891912997
 72
1
 10
33.3821041117
 20
46.0891912997
 11
33.6656423722
 21
45.6648412598
 97
1
330
2A1
 75
0
 76
1
 98
1
 10
0.0
 20
0.0
  0
LWPOLYLINE
  5
2A3
100
AcDbEntity
  8
0
100
AcDbPolyline
 62
2
  6
CONTINUOUS
 90
24
 70
0
 10
34.8101935494
 20
44.6611011654
 10
35.2679173833
 20
44.4353811442
 10
35.7511882747
 20
44.2713261287
 10
36.2517373247
 20
44.1717561194
 10
16.3610861409
 20
43.6666760719
 10
20.0261379092
 20
51.9411676226
 10
19.750600337
 20
51.1572157897
 10
19.5954682224
 20
50.3408608074
 10
19.5642345443
 20
49.5104838523
 10
19.6576025652
 20
48.684781822
 10
19.8734699961
 20
47.8823463527
 10
20.2069763321
 20
47.121245207
 10
20.6506122924
 20
46.4186154575
 10
21.1943889001
 20
45.7902776256
 10
21.8260623961
 20
45.2503794643
 10
22.5314099211
 20
44.8110774052
 10
23.2945497596
 20
44.4822628421
 10
24.0982989358
 20
44.2713261287
 10
24.9245601072
 20
44.1830563096
 10
25.754729048
 20
44.2194013213
 10
26.5701135443
 20
44.3795561005
 10
27.3523542712
 20
44.659914577
 10
34.3858485548
 20
44.9446311921
 10
34.8101935494
 20
44.6611011654
  0
HATCH
  5
2A4
100
AcDbEntity
  8
0
100
AcDbHatch
 62
2
  6
CONTINUOUS
 10
0.0
 20
0.0
 30
0.0
210
0.0
220
0.0
230
1.0
  2
SOLID
 70
1
 71
1
 91
1
 92
1
 93
23
 72
1
 10
34.8101935494
 20
44.6611011654
 11
35.2679173833
 21
44.4353811442
 72
1
 10
35.2679173833
 20
44.4353811442
 11
35.7511882747
 21
44.2713261287
 72
1
 10
35.7511882747
 20
44.2713261287
 11
36.2517373247
 21
44.1717561194
 72
1
 10
36.2517373247
 20
44.1717561194
 11
16.3610861409
 21
43.6666760719
 72
1
 10
16.3610861409
 20
43.6666760719
 11
20.0261379092
 21
51.9411676226
 72
1
 10
20.0261379092
 20
51.9411676226
 11
19.750600337
 21
51.1572157897
 72
1
 10
19.750600337
 20
51.1572157897
 11
19.5954682224
 21
50.3408608074
 72
1
 10
19.5954682224
 20
50.3408608074
 11
19.5642345443
 21
49.5104838523
 72
1
 10
19.5642345443
 20
49.5104838523
 11
19.6576025652
 21
48.684781822
 72
1
 10
19.6576025652
 20
48.684781822
 11
19.8734699961
 21
47.8823463527
 72
1
 10
19.8734699961
 20
47.8823463527
 11
20.2069763321
 21
47.121245207
 72
1
 10
20.2069763321
 20
47.121245207
 11
20.6506122924
 21
46.4186154575
 72
1
 10
20.6506122924
 20
46.4186154575
 11
21.1943889001
 21
45.7902776256
 72
1
 10
21.1943889001
 20
45.7902776256
 11
21.8260623961
 21
45.2503794643
 72
1
 10
21.8260623961
 20
45.2503794643
 11
22.5314099211
 21
44.8110774052
 72
1
 10
22.5314099211
 20
44.8110774052
 11
23.2945497596
 21
44.4822628421
 72
1
 10
23.2945497596
 20
44.4822628421
 11
24.0982989358
 21
44.2713261287
 72
1
 10
24.0982989358
 20
44.2713261287
 11
24.9245601072
 21
44.1830563096
 72
1
 10
24.9245601072
 20
44.1830563096
 11
25.754729048
 21
44.2194013213
 72
1
 10
25.754729048
 20
44.2194013213
 11
26.5701135443
 21
44.3795561005
 72
1
 10
26.5701135443
 20
44.3795561005
 11
27.3523542712
 21
44.659914577
 72
1
 10
27.3523542712
 20
44.659914577
 11
34.3858485548
 21
44.9446311921
 72
1
 10
34.3858485548
 20
44.9446311921
 11
34.8101935494
 21
44.6611011654
 97
1
330
2A3
 75
0
 76
1
 98
1
 10
0.0
 20
0.0
  0
LWPOLYLINE
  5
2A5
100
AcDbEntity
  8
0
100
AcDbPolyline
 62
2
  6
CONTINUOUS
 90
43
 70
0
 10
36.7610000003
 20
44.13838322
 10
37.2702626758
 20
44.1717561194
 10
37.7708117258
 20
44.2713261287
 10
38.2540826172
 20
44.4353811442
 10
38.7118064511
 20
44.6611011654
 10
39.1361514457
 20
44.9446311921
 10
39.5198569406
 20
45.2811412237
 10
39.8563576283
 20
45.6648412598
 10
40.1398958888
 20
46.0891912997
 10
45.3528889231
 20
43.6666760719
 10
45.345943091
 20
43.5341510594
 10
45.3251816945
 20
43.4030660471
 10
45.2908322
 20
43.2748610351
 10
45.2432709475
 20
43.1509610234
 10
45.1830190283
 20
43.0327160123
 10
45.1107365748
 20
42.9214160018
 10
45.0272155289
 20
42.8182759921
 10
44.9333709645
 20
42.7244209833
 10
44.8302310623
 20
42.6409009754
 10
44.7189258447
 20
42.5686159687
 10
44.600674795
 20
42.508375963
 10
44.4767734964
 20
42.4608109585
 10
44.3485794374
 20
42.4264609553
 10
44.217497139
 20
42.4057009533
 10
44.0849627663
 20
42.3987559527
 10
17.6290122978
 20
42.3987559527
 10
17.4964779251
 20
42.4057009533
 10
17.3653956267
 20
42.4264609553
 10
17.2372015677
 20
42.4608109585
 10
17.113300269
 20
42.508375963
 10
16.9950492193
 20
42.5686159687
 10
16.8837440018
 20
42.6409009754
 10
16.7806040996
 20
42.7244209833
 10
16.6867595352
 20
42.8182759921
 10
16.6032384892
 20
42.9214160018
 10
16.5309560358
 20
43.0327160123
 10
16.4707041165
 20
43.1509610234
 10
16.4231428641
 20
43.2748610351
 10
16.3887933695
 20
43.4030660471
 10
16.368031973
 20
43.5341510594
 10
16.3610861409
 20
43.6666760719
 10
36.2517373247
 20
44.1717561194
 10
36.7610000003
 20
44.13838322
  0
HATCH
  5
2A6
100
AcDbEntity
  8
0
100
AcDbHatch
 62
2
  6
CONTINUOUS
 10
0.0
 20
0.0
 30
0.0
210
0.0
220
0.0
230
1.0
  2
SOLID
 70
1
 71
1
 91
1
 92
1
 93
42
 72
1
 10
36.7610000003
 20
44.13838322
 11
37.2702626758
 21
44.1717561194
 72
1
 10
37.2702626758
 20
44.1717561194
 11
37.7708117258
 21
44.2713261287
 72
1
 10
37.7708117258
 20
44.2713261287
 11
38.2540826172
 21
44.4353811442
 72
1
 10
38.2540826172
 20
44.4353811442
 11
38.7118064511
 21
44.6611011654
 72
1
 10
38.7118064511
 20
44.6611011654
 11
39.1361514457
 21
44.9446311921
 72
1
 10
39.1361514457
 20
44.9446311921
 11
39.5198569406
 21
45.2811412237
 72
1
 10
39.5198569406
 20
45.2811412237
 11
39.8563576283
 21
45.6648412598
 72
1
 10
39.8563576283
 20
45.6648412598
 11
40.1398958888
 21
46.0891912997
 72
1
 10
40.1398958888
 20
46.0891912997
 11
45.3528889231
 21
43.6666760719
 72
1
 10
45.3528889231
 20
43.6666760719
 11
45.345943091
 21
43.5341510594
 72
1
 10
45.345943091
 20
43.5341510594
 11
45.3251816945
 21
43.4030660471
 72
1
 10
45.3251816945
 20
43.4030660471
 11
45.2908322
 21
43.2748610351
 72
1
 10
45.2908322
 20
43.2748610351
 11
45.2432709475
 21
43.1509610234
 72
1
 10
45.2432709475
 20
43.1509610234
 11
45.1830190283
 21
43.0327160123
 72
1
 10
45.1830190283
 20
43.0327160123
 11
45.1107365748
 21
42.9214160018
 72
1
 10
45.1107365748
 20
42.9214160018
 11
45.0272155289
 21
42.8182759921
 72
1
 10
45.0272155289
 20
42.8182759921
 11
44.9333709645
 21
42.7244209833
 72
1
 10
44.9333709645
 20
42.7244209833
 11
44.8302310623
 21
42.6409009754
 72
1
 10
44.8302310623
 20
42.6409009754
 11
44.7189258447
 21
42.5686159687
 72
1
 10
44.7189258447
 20
42.5686159687
 11
44.600674795
 21
42.508375963
 72
1
 10
44.600674795
 20
42.508375963
 11
44.4767734964
 21
42.4608109585
 72
1
 10
44.4767734964
 20
42.4608109585
 11
44.3485794374
 21
42.4264609553
 72
1
 10
44.3485794374
 20
42.4264609553
 11
44.217497139
 21
42.4057009533
 72
1
 10
44.217497139
 20
42.4057009533
 11
44.0849627663
 21
42.3987559527
 72
1
 10
44.0849627663
 20
42.3987559527
 11
17.6290122978
 21
42.3987559527
 72
1
 10
17.6290122978
 20
42.3987559527
 11
17.4964779251
 21
42.4057009533
 72
1
 10
17.4964779251
 20
42.4057009533
 11
17.3653956267
 21
42.4264609553
 72
1
 10
17.3653956267
 20
42.4264609553
 11
17.2372015677
 21
42.4608109585
 72
1
 10
17.2372015677
 20
42.4608109585
 11
17.113300269
 21
42.508375963
 72
1
 10
17.113300269
 20
42.508375963
 11
16.9950492193
 21
42.5686159687
 72
1
 10
16.9950492193
 20
42.5686159687
 11
16.8837440018
 21
42.6409009754
 72
1
 10
16.8837440018
 20
42.6409009754
 11
16.7806040996
 21
42.7244209833
 72
1
 10
16.7806040996
 20
42.7244209833
 11
16.6867595352
 21
42.8182759921
 72
1
 10
16.6867595352
 20
42.8182759921
 11
16.6032384892
 21
42.9214160018
 72
1
 10
16.6032384892
 20
42.9214160018
 11
16.5309560358
 21
43.0327160123
 72
1
 10
16.5309560358
 20
43.0327160123
 11
16.4707041165
 21
43.1509610234
 72
1
 10
16.4707041165
 20
43.1509610234
 11
16.4231428641
 21
43.2748610351
 72
1
 10
16.4231428641
 20
43.2748610351
 11
16.3887933695
 21
43.4030660471
 72
1
 10
16.3887933695
 20
43.4030660471
 11
16.368031973
 21
43.5341510594
 72
1
 10
16.368031973
 20
43.5341510594
 11
16.3610861409
 21
43.6666760719
 72
1
 10
16.3610861409
 20
43.6666760719
 11
36.2517373247
 21
44.1717561194
 72
1
 10
36.2517373247
 20
44.1717561194
 11
36.7610000003
 21
44.13838322
 97
1
330
2A5
 75
0
 76
1
 98
1
 10
0.0
 20
0.0
  0
SOLID
  5
2A7
100
AcDbEntity
  8
0
100
AcDbTrace
 62
2
  6
CONTINUOUS
 10
25.3408515753
 20
55.2505598297
 11
24.5102931399
 21
55.2245960958
 12
26.1659444963
 22
55.151954039
 13
45.3528889232
 23
56.1308222438
  0
ENDBLK
  5
2A8
100
AcDbEntity
  8
0
  6
BYBLOCK
 62
0
100
AcDbBlockEnd
  0
BLOCK
  5
2A9
100
AcDbEntity
  8
HATCHING_BL0
100
AcDbBlockBegin
  2
HATCHING_BL0
 70
64
 10
28.8997565955
 20
1818.7571680319
  3
HATCHING_BL0
  1

  0
TEXT
  5
2AA
100
AcDbEntity
  8
HATCHING_BL0
100
AcDbText
 62
7
  6
CONTINUOUS
 10
9.8396945133
 20
1823.8217912871
  7
STANDARD
 40
5.0
  1
A
 72
5
 11
14.486534662
 21
1823.8217912871
100
AcDbText
  0
LEADER
  5
2AB
100
AcDbEntity
  8
HATCHING_BL0
100
AcDbLeader
 62
7
  6
CONTINUOUS
  3
STANDARD
 71
1
 72
0
 73
3
 75
0
 76
2
 10
15.453077413
 20
1806.1925447768
 30
0.0
 10
15.453077413
 20
1831.3217912871
 30
0.0
1001
ACAD
1000
DSTYLE
1002
{
1070
77
1070
0
1002
}
  0
TEXT
  5
2AC
100
AcDbEntity
  8
HATCHING_BL0
100
AcDbText
 62
7
  6
CONTINUOUS
 10
43.3129785289
 20
1823.8217912871
  7
STANDARD
 40
5.0
  1
A
 72
5
 11
47.9598186776
 21
1823.8217912871
100
AcDbText
  0
LEADER
  5
2AD
100
AcDbEntity
  8
HATCHING_BL0
100
AcDbLeader
 62
7
  6
CONTINUOUS
  3
STANDARD
 71
1
 72
0
 73
3
 75
0
 76
2
 10
42.346435778
 20
1806.1925447768
 30
0.0
 10
42.346435778
 20
1831.3217912871
 30
0.0
1001
ACAD
1000
DSTYLE
1002
{
1070
77
1070
0
1002
}
  0
LINE
  5
2AE
100
AcDbEntity
  8
HATCHING_BL0
100
AcDbLine
 62
7
  6
CENTER
 10
15.453077413
 20
1806.1925447768
 11
42.346435778
 21
1806.1925447768
  0
ENDBLK
  5
2AF
100
AcDbEntity
  8
0
  6
BYBLOCK
 62
0
100
AcDbBlockEnd
  0
BLOCK
  5
2B0
100
AcDbEntity
  8
93773501000_O_BL1
100
AcDbBlockBegin
  2
93773501000_O_BL1
 70
64
 10
81.7400472017
 20
129.7620359709
  3
93773501000_O_BL1
  1

  0
LINE
  5
2B1
100
AcDbEntity
  8
93773501000_O_BL1
100
AcDbLine
 62
7
  6
CONTINUOUS
 10
138.8206625647
 20
137.1925447768
 11
120.8206625647
 21
137.1925447768
  0
LINE
  5
2B2
100
AcDbEntity
  8
93773501000_O_BL1
100
AcDbLine
 62
9
  6
CONTINUOUS
 10
136.3206625647
 20
141.6925447768
 11
123.3206625647
 21
141.6925447768
  0
LINE
  5
2B3
100
AcDbEntity
  8
93773501000_O_BL1
100
AcDbLine
 62
9
  6
CONTINUOUS
 10
138.8206625647
 20
144.7925447768
 11
120.8206625647
 21
144.7925447768
  0
LINE
  5
2B4
100
AcDbEntity
  8
93773501000_O_BL1
100
AcDbLine
 62
7
  6
CENTER
 10
129.8206625647
 20
157.1925447768
 11
120.8206625647
 21
157.1925447768
  0
LINE
  5
2B5
100
AcDbEntity
  8
93773501000_O_BL1
100
AcDbLine
 62
7
  6
CENTER
 10
129.8206625647
 20
157.1925447768
 11
138.8206625647
 21
157.1925447768
  0
LINE
  5
2B6
100
AcDbEntity
  8
93773501000_O_BL1
100
AcDbLine
 62
7
  6
CONTINUOUS
 10
120.8206625647
 20
137.1925447768
 11
120.8206625647
 21
144.7925447768
  0
LINE
  5
2B7
100
AcDbEntity
  8
93773501000_O_BL1
100
AcDbLine
 62
9
  6
CONTINUOUS
 10
123.3206625647
 20
141.6925447768
 11
123.3206625647
 21
145.1925447768
  0
LINE
  5
2B8
100
AcDbEntity
  8
93773501000_O_BL1
100
AcDbLine
 62
7
  6
CENTER
 10
129.8206625647
 20
157.1925447768
 11
129.8206625647
 21
148.1925447768
  0
LINE
  5
2B9
100
AcDbEntity
  8
93773501000_O_BL1
100
AcDbLine
 62
7
  6
CENTER
 10
129.8206625647
 20
157.1925447768
 11
129.8206625647
 21
166.1925447768
  0
LINE
  5
2BA
100
AcDbEntity
  8
93773501000_O_BL1
100
AcDbLine
 62
9
  6
CONTINUOUS
 10
136.3206625647
 20
141.6925447768
 11
136.3206625647
 21
145.1925447768
  0
LINE
  5
2BB
100
AcDbEntity
  8
93773501000_O_BL1
100
AcDbLine
 62
7
  6
CONTINUOUS
 10
138.8206625647
 20
137.1925447768
 11
138.8206625647
 21
144.7925447768
  0
LINE
  5
2BC
100
AcDbEntity
  8
93773501000_O_BL1
100
AcDbLine
 62
7
  6
CONTINUOUS
 10
29.1594318387
 20
137.1925447768
 11
30.6594318387
 21
137.1925447768
  0
LINE
  5
2BD
100
AcDbEntity
  8
93773501000_O_BL1
100
AcDbLine
 62
9
  6
CONTINUOUS
 10
30.6594318387
 20
144.7925447768
 11
24.6594318387
 21
144.7925447768
  0
LINE
  5
2BE
100
AcDbEntity
  8
93773501000_O_BL1
100
AcDbLine
 62
7
  6
CENTER
 10
33.6594318387
 20
157.1925447768
 11
26.6594318387
 21
157.1925447768
  0
LINE
  5
2BF
100
AcDbEntity
  8
93773501000_O_BL1
100
AcDbLine
 62
7
  6
CONTINUOUS
 10
24.6594318387
 20
141.6925447768
 11
24.6594318387
 21
144.7925447768
  0
LINE
  5
2C0
100
AcDbEntity
  8
93773501000_O_BL1
100
AcDbLine
 62
7
  6
CONTINUOUS
 10
24.6594318387
 20
141.6925447768
 11
24.6594318387
 21
144.7925447768
  0
LINE
  5
2C1
100
AcDbEntity
  8
93773501000_O_BL1
100
AcDbLine
 62
9
  6
CONTINUOUS
 10
27.1594318387
 20
137.6614159026
 11
27.1594318387
 21
145.1925447768
  0
LINE
  5
2C2
100
AcDbEntity
  8
93773501000_O_BL1
100
AcDbLine
 62
7
  6
CONTINUOUS
 10
30.6594318387
 20
137.1925447768
 11
30.6594318387
 21
145.1925447768
  0
LINE
  5
2C3
100
AcDbEntity
  8
93773501000_O_BL1
100
AcDbLine
 62
7
  6
CONTINUOUS
 10
27.6594318387
 20
93.3315271649
 11
27.1594318387
 21
93.3315271649
  0
LINE
  5
2C4
100
AcDbEntity
  8
93773501000_O_BL1
100
AcDbLine
 62
9
  6
CONTINUOUS
 10
24.6594318387
 20
95.8315271649
 11
24.7018107233
 21
95.8315271649
  0
LINE
  5
2C5
100
AcDbEntity
  8
93773501000_O_BL1
100
AcDbLine
 62
9
  6
CONTINUOUS
 10
27.1594318387
 20
111.3315271649
 11
27.1594318387
 21
111.287800556
  0
LINE
  5
2C6
100
AcDbEntity
  8
93773501000_O_BL1
100
AcDbLine
 62
9
  6
CONTINUOUS
 10
27.1594318387
 20
93.3315271649
 11
27.1594318387
 21
93.3752537739
  0
LINE
  5
2C7
100
AcDbEntity
  8
93773501000_O_BL1
100
AcDbLine
 62
7
  6
CONTINUOUS
 10
30.6594318387
 20
95.3315271649
 11
30.6594318387
 21
95.4315271649
  0
LINE
  5
2C8
100
AcDbEntity
  8
93773501000_O_BL1
100
AcDbLine
 62
7
  6
CONTINUOUS
 10
30.6594318387
 20
109.2436591993
 11
30.6594318387
 21
109.3309983158
  0
LINE
  5
2C9
100
AcDbEntity
  8
93773501000_O_BL1
100
AcDbLine
 62
9
  6
CONTINUOUS
 10
24.6594318387
 20
108.8315271649
 11
24.701807784
 21
108.8315271649
  0
LINE
  5
2CA
100
AcDbEntity
  8
93773501000_O_BL1
100
AcDbLine
 62
9
  6
CONTINUOUS
 10
30.6594318387
 20
109.2436591993
 11
30.3594318387
 21
109.2436591993
  0
LINE
  5
2CB
100
AcDbEntity
  8
93773501000_O_BL1
100
AcDbLine
 62
7
  6
CONTINUOUS
 10
27.1594318387
 20
111.3315271649
 11
27.6594318387
 21
111.3315271649
  0
ARC
  5
2CC
100
AcDbEntity
  8
93773501000_O_BL1
100
AcDbCircle
 62
7
  6
CONTINUOUS
 10
121.2206625647
 20
144.7925447768
 40
0.4
100
AcDbArc
 50
89.9999999998
 51
180.0
  0
ARC
  5
2CD
100
AcDbEntity
  8
93773501000_O_BL1
100
AcDbCircle
 62
7
  6
CONTINUOUS
 10
138.4206625647
 20
144.7925447768
 40
0.4
100
AcDbArc
 50
0.0
 51
90.0000000001
  0
ARC
  5
2CE
100
AcDbEntity
  8
93773501000_O_BL1
100
AcDbCircle
 62
7
  6
CONTINUOUS
 10
25.0594318387
 20
144.7925447768
 40
0.4
100
AcDbArc
 50
90.0000000001
 51
180.0
  0
ARC
  5
2CF
100
AcDbEntity
  8
93773501000_O_BL1
100
AcDbCircle
 62
7
  6
CONTINUOUS
 10
29.1594318387
 20
141.6925447768
 40
4.5
100
AcDbArc
 50
180.0
 51
270.0
  0
ARC
  5
2D0
100
AcDbEntity
  8
93773501000_O_BL1
100
AcDbCircle
 62
7
  6
CONTINUOUS
 10
27.1594318387
 20
108.8315271649
 40
2.5
100
AcDbArc
 50
90.0
 51
180.0
  0
ARC
  5
2D1
100
AcDbEntity
  8
93773501000_O_BL1
100
AcDbCircle
 62
7
  6
CONTINUOUS
 10
27.1594318387
 20
95.8315271649
 40
2.5
100
AcDbArc
 50
180.0
 51
270.0
  0
SPLINE
  5
2D2
100
AcDbEntity
  8
93773501000_O_BL1
100
AcDbSpline
 62
7
  6
CONTINUOUS
 70
0
 71
3
 72
12
 73
8
 74
0
 42
0.0000001
 43
0.0000001
 44
0.0000000001
 40
0.0
 40
0.0
 40
0.0
 40
0.0
 40
0.2950115656
 40
0.5762827964
 40
0.8230063738
 40
0.9228004485
 40
1.0
 40
1.0
 40
1.0
 40
1.0
 10
136.3206625647
 20
141.6925447768
 30
0.0
 10
136.6014322979
 20
141.3158526511
 30
0.0
 10
137.1504523952
 20
140.5800404332
 30
0.0
 10
137.9119670617
 20
139.5146063397
 30
0.0
 10
138.4566956473
 20
138.6715576768
 30
0.0
 10
138.7456401244
 20
138.0628971641
 30
0.0
 10
138.8206625647
 20
137.7843592518
 30
0.0
 10
138.8206625647
 20
137.6614159026
 30
0.0
  0
SPLINE
  5
2D3
100
AcDbEntity
  8
93773501000_O_BL1
100
AcDbSpline
 62
7
  6
CONTINUOUS
 70
0
 71
3
 72
12
 73
8
 74
0
 42
0.0000001
 43
0.0000001
 44
0.0000000001
 40
0.0
 40
0.0
 40
0.0
 40
0.0
 40
0.0772206737
 40
0.1770425366
 40
0.4238065817
 40
0.7050583377
 40
1.0
 40
1.0
 40
1.0
 40
1.0
 10
120.8206625647
 20
137.6614159026
 30
0.0
 10
120.8206625647
 20
137.7843929701
 30
0.0
 10
120.8957027742
 20
138.0630100806
 30
0.0
 10
121.184759579
 20
138.671776529
 30
0.0
 10
121.7295336577
 20
139.5148846423
 30
0.0
 10
122.491023522
 20
140.5802440333
 30
0.0
 10
123.0399591768
 20
141.3159416627
 30
0.0
 10
123.3206625647
 20
141.6925447768
 30
0.0
  0
ENDBLK
  5
2D4
100
AcDbEntity
  8
0
  6
BYBLOCK
 62
0
100
AcDbBlockEnd
  0
BLOCK
  5
2D5
100
AcDbEntity
  8
94818203000_BL2
100
AcDbBlockBegin
  2
94818203000_BL2
 70
64
 10
81.2400472017
 20
529.6925447768
  3
94818203000_BL2
  1

  0
LINE
  5
2D6
100
AcDbEntity
  8
94818203000_BL2
100
AcDbLine
 62
7
  6
CONTINUOUS
 10
138.8206625647
 20
145.1925447768
 11
120.8206625647
 21
145.1925447768
  0
LINE
  5
2D7
100
AcDbEntity
  8
94818203000_BL2
100
AcDbLine
 62
7
  6
CENTER
 10
129.8206625647
 20
227.1925447768
 11
121.4206625647
 21
227.1925447768
  0
LINE
  5
2D8
100
AcDbEntity
  8
94818203000_BL2
100
AcDbLine
 62
7
  6
CENTER
 10
129.8206625647
 20
227.1925447768
 11
138.2206625647
 21
227.1925447768
  0
LINE
  5
2D9
100
AcDbEntity
  8
94818203000_BL2
100
AcDbLine
 62
7
  6
CENTER
 10
129.8206625647
 20
323.1925447768
 11
121.4206625647
 21
323.1925447768
  0
LINE
  5
2DA
100
AcDbEntity
  8
94818203000_BL2
100
AcDbLine
 62
7
  6
CENTER
 10
129.8206625647
 20
323.1925447768
 11
138.2206625647
 21
323.1925447768
  0
LINE
  5
2DB
100
AcDbEntity
  8
94818203000_BL2
100
AcDbLine
 62
7
  6
CENTER
 10
129.8206625647
 20
622.1925447768
 11
121.4206625647
 21
622.1925447768
  0
LINE
  5
2DC
100
AcDbEntity
  8
94818203000_BL2
100
AcDbLine
 62
7
  6
CENTER
 10
129.8206625647
 20
622.1925447768
 11
138.2206625647
 21
622.1925447768
  0
LINE
  5
2DD
100
AcDbEntity
  8
94818203000_BL2
100
AcDbLine
 62
7
  6
CENTER
 10
129.8206625647
 20
902.1925447768
 11
121.4206625647
 21
902.1925447768
  0
LINE
  5
2DE
100
AcDbEntity
  8
94818203000_BL2
100
AcDbLine
 62
7
  6
CENTER
 10
129.8206625647
 20
902.1925447768
 11
138.2206625647
 21
902.1925447768
  0
LINE
  5
2DF
100
AcDbEntity
  8
94818203000_BL2
100
AcDbLine
 62
7
  6
CONTINUOUS
 10
138.8206625647
 20
914.1925447768
 11
120.8206625647
 21
914.1925447768
  0
LINE
  5
2E0
100
AcDbEntity
  8
94818203000_BL2
100
AcDbLine
 62
7
  6
CONTINUOUS
 10
120.8206625647
 20
914.1925447768
 11
120.8206625647
 21
145.1925447768
  0
LINE
  5
2E1
100
AcDbEntity
  8
94818203000_BL2
100
AcDbLine
 62
9
  6
CONTINUOUS
 10
123.8206625647
 20
914.1925447768
 11
123.8206625647
 21
311.7125851532
  0
LINE
  5
2E2
100
AcDbEntity
  8
94818203000_BL2
100
AcDbLine
 62
9
  6
CONTINUOUS
 10
123.8206625647
 20
238.6725044004
 11
123.8206625647
 21
145.1925447768
  0
LINE
  5
2E3
100
AcDbEntity
  8
94818203000_BL2
100
AcDbLine
 62
7
  6
CENTER
 10
129.8206625647
 20
902.1925447768
 11
129.8206625647
 21
893.7925447768
  0
LINE
  5
2E4
100
AcDbEntity
  8
94818203000_BL2
100
AcDbLine
 62
7
  6
CENTER
 10
129.8206625647
 20
622.1925447768
 11
129.8206625647
 21
613.7925447768
  0
LINE
  5
2E5
100
AcDbEntity
  8
94818203000_BL2
100
AcDbLine
 62
7
  6
CENTER
 10
129.8206625647
 20
323.1925447768
 11
129.8206625647
 21
314.7925447768
  0
LINE
  5
2E6
100
AcDbEntity
  8
94818203000_BL2
100
AcDbLine
 62
7
  6
CENTER
 10
129.8206625647
 20
227.1925447768
 11
129.8206625647
 21
218.7925447768
  0
LINE
  5
2E7
100
AcDbEntity
  8
94818203000_BL2
100
AcDbLine
 62
7
  6
CENTER
 10
129.8206625647
 20
227.1925447768
 11
129.8206625647
 21
235.5925447768
  0
LINE
  5
2E8
100
AcDbEntity
  8
94818203000_BL2
100
AcDbLine
 62
7
  6
CENTER
 10
129.8206625647
 20
323.1925447768
 11
129.8206625647
 21
331.5925447768
  0
LINE
  5
2E9
100
AcDbEntity
  8
94818203000_BL2
100
AcDbLine
 62
7
  6
CENTER
 10
129.8206625647
 20
622.1925447768
 11
129.8206625647
 21
630.5925447768
  0
LINE
  5
2EA
100
AcDbEntity
  8
94818203000_BL2
100
AcDbLine
 62
7
  6
CENTER
 10
129.8206625647
 20
902.1925447768
 11
129.8206625647
 21
910.5925447768
  0
LINE
  5
2EB
100
AcDbEntity
  8
94818203000_BL2
100
AcDbLine
 62
9
  6
CONTINUOUS
 10
135.8206625647
 20
914.1925447768
 11
135.8206625647
 21
311.7125851532
  0
LINE
  5
2EC
100
AcDbEntity
  8
94818203000_BL2
100
AcDbLine
 62
9
  6
CONTINUOUS
 10
135.8206625647
 20
238.6725044004
 11
135.8206625647
 21
145.1925447768
  0
LINE
  5
2ED
100
AcDbEntity
  8
94818203000_BL2
100
AcDbLine
 62
7
  6
CONTINUOUS
 10
138.8206625647
 20
914.1925447768
 11
138.8206625647
 21
145.1925447768
  0
LINE
  5
2EE
100
AcDbEntity
  8
94818203000_BL2
100
AcDbLine
 62
7
  6
CONTINUOUS
 10
30.6594318387
 20
145.1925447768
 11
24.6594318387
 21
145.1925447768
  0
LINE
  5
2EF
100
AcDbEntity
  8
94818203000_BL2
100
AcDbLine
 62
7
  6
CENTER
 10
31.6594318387
 20
227.1925447768
 11
23.6594318387
 21
227.1925447768
  0
LINE
  5
2F0
100
AcDbEntity
  8
94818203000_BL2
100
AcDbLine
 62
7
  6
CENTER
 10
31.6594318387
 20
323.1925447768
 11
23.6594318387
 21
323.1925447768
  0
LINE
  5
2F1
100
AcDbEntity
  8
94818203000_BL2
100
AcDbLine
 62
7
  6
CENTER
 10
31.6594318387
 20
622.1925447768
 11
23.6594318387
 21
622.1925447768
  0
LINE
  5
2F2
100
AcDbEntity
  8
94818203000_BL2
100
AcDbLine
 62
7
  6
CONTINUOUS
 10
30.6594318387
 20
914.1925447768
 11
24.6594318387
 21
914.1925447768
  0
LINE
  5
2F3
100
AcDbEntity
  8
94818203000_BL2
100
AcDbLine
 62
7
  6
CONTINUOUS
 10
24.6594318387
 20
914.1925447768
 11
24.6594318387
 21
311.6966179965
  0
LINE
  5
2F4
100
AcDbEntity
  8
94818203000_BL2
100
AcDbLine
 62
7
  6
CONTINUOUS
 10
24.6594318387
 20
238.6884715571
 11
24.6594318387
 21
145.1925447768
  0
LINE
  5
2F5
100
AcDbEntity
  8
94818203000_BL2
100
AcDbLine
 62
7
  6
CONTINUOUS
 10
24.831004714
 20
293.1925447768
 11
24.831004714
 21
257.1925447768
  0
LINE
  5
2F6
100
AcDbEntity
  8
94818203000_BL2
100
AcDbLine
 62
9
  6
CONTINUOUS
 10
27.6594318387
 20
914.1925447768
 11
27.6594318387
 21
145.1925447768
  0
LINE
  5
2F7
100
AcDbEntity
  8
94818203000_BL2
100
AcDbLine
 62
7
  6
CONTINUOUS
 10
30.6594318387
 20
914.1925447768
 11
30.6594318387
 21
145.1925447768
  0
CIRCLE
  5
2F8
100
AcDbEntity
  8
94818203000_BL2
100
AcDbCircle
 62
7
  6
CONTINUOUS
 10
129.8206625647
 20
157.1925447768
 40
4.15
  0
CIRCLE
  5
2F9
100
AcDbEntity
  8
94818203000_BL2
100
AcDbCircle
 62
7
  6
CONTINUOUS
 10
129.8206625647
 20
227.1925447768
 40
4.15
  0
CIRCLE
  5
2FA
100
AcDbEntity
  8
94818203000_BL2
100
AcDbCircle
 62
7
  6
CONTINUOUS
 10
129.8206625647
 20
157.1925447768
 40
2.6
  0
CIRCLE
  5
2FB
100
AcDbEntity
  8
94818203000_BL2
100
AcDbCircle
 62
7
  6
CONTINUOUS
 10
129.8206625647
 20
227.1925447768
 40
2.6
  0
CIRCLE
  5
2FC
100
AcDbEntity
  8
94818203000_BL2
100
AcDbCircle
 62
7
  6
CONTINUOUS
 10
129.8206625647
 20
323.1925447768
 40
4.15
  0
CIRCLE
  5
2FD
100
AcDbEntity
  8
94818203000_BL2
100
AcDbCircle
 62
7
  6
CONTINUOUS
 10
129.8206625647
 20
323.1925447768
 40
2.6
  0
CIRCLE
  5
2FE
100
AcDbEntity
  8
94818203000_BL2
100
AcDbCircle
 62
7
  6
CONTINUOUS
 10
129.8206625647
 20
622.1925447768
 40
4.15
  0
CIRCLE
  5
2FF
100
AcDbEntity
  8
94818203000_BL2
100
AcDbCircle
 62
7
  6
CONTINUOUS
 10
129.8206625647
 20
902.1925447768
 40
4.15
  0
CIRCLE
  5
300
100
AcDbEntity
  8
94818203000_BL2
100
AcDbCircle
 62
7
  6
CONTINUOUS
 10
129.8206625647
 20
622.1925447768
 40
2.6
  0
CIRCLE
  5
301
100
AcDbEntity
  8
94818203000_BL2
100
AcDbCircle
 62
7
  6
CONTINUOUS
 10
129.8206625647
 20
902.1925447768
 40
2.6
  0
SPLINE
  5
302
100
AcDbEntity
  8
94818203000_BL2
100
AcDbSpline
 62
7
  6
CONTINUOUS
 70
0
 71
3
 72
10
 73
6
 74
0
 42
0.0000001
 43
0.0000001
 44
0.0000000001
 40
0.0
 40
0.0
 40
0.0
 40
0.0
 40
0.5763936339
 40
0.8162512267
 40
1.0
 40
1.0
 40
1.0
 40
1.0
 10
24.831004714
 20
257.1925447768
 30
0.0
 10
24.831004714
 20
256.8580023156
 30
0.0
 10
24.7837100165
 20
256.3840813998
 30
0.0
 10
24.691015295
 20
255.8120741729
 30
0.0
 10
24.6594318387
 20
255.5671429037
 30
0.0
 10
24.6594318387
 20
255.4604939692
 30
0.0
  0
SPLINE
  5
303
100
AcDbEntity
  8
94818203000_BL2
100
AcDbSpline
 62
7
  6
CONTINUOUS
 70
0
 71
3
 72
10
 73
6
 74
0
 42
0.0000001
 43
0.0000001
 44
0.0000000001
 40
0.0
 40
0.0
 40
0.0
 40
0.0
 40
0.1837493613
 40
0.4236057305
 40
1.0
 40
1.0
 40
1.0
 40
1.0
 10
24.6594318387
 20
294.9245955844
 30
0.0
 10
24.6594318387
 20
294.8179463087
 30
0.0
 10
24.6910153015
 20
294.5730154094
 30
0.0
 10
24.7837100459
 20
294.0010081854
 30
0.0
 10
24.831004714
 20
293.5270876067
 30
0.0
 10
24.831004714
 20
293.1925447768
 30
0.0
  0
ENDBLK
  5
304
100
AcDbEntity
  8
0
  6
BYBLOCK
 62
0
100
AcDbBlockEnd
  0
BLOCK
  5
305
100
AcDbEntity
  8
94528905000_M_BL3
100
AcDbBlockBegin
  2
94528905000_M_BL3
 70
64
 10
82.6400472017
 20
950.0620359709
  3
94528905000_M_BL3
  1

  0
LINE
  5
306
100
AcDbEntity
  8
94528905000_M_BL3
100
AcDbLine
 62
7
  6
CONTINUOUS
 10
128.9456625647
 20
242.5770003202
 11
130.6956625647
 21
242.5770003202
  0
LINE
  5
307
100
AcDbEntity
  8
94528905000_M_BL3
100
AcDbLine
 62
7
  6
CONTINUOUS
 10
130.6956625647
 20
245.6080892334
 11
128.9456625647
 21
245.6080892334
  0
LINE
  5
308
100
AcDbEntity
  8
94528905000_M_BL3
100
AcDbLine
 62
7
  6
CONTINUOUS
 10
128.9456625647
 20
1797.8080892334
 11
128.0706625647
 21
1796.2925447768
  0
LINE
  5
309
100
AcDbEntity
  8
94528905000_M_BL3
100
AcDbLine
 62
7
  6
CONTINUOUS
 10
130.6956625647
 20
1794.7770003202
 11
131.5706625647
 21
1796.2925447768
  0
LINE
  5
30A
100
AcDbEntity
  8
94528905000_M_BL3
100
AcDbLine
 62
7
  6
CONTINUOUS
 10
128.0706625647
 20
244.0925447768
 11
128.9456625647
 21
242.5770003202
  0
LINE
  5
30B
100
AcDbEntity
  8
94528905000_M_BL3
100
AcDbLine
 62
7
  6
CONTINUOUS
 10
131.5706625647
 20
244.0925447768
 11
130.6956625647
 21
245.6080892334
  0
LINE
  5
30C
100
AcDbEntity
  8
94528905000_M_BL3
100
AcDbLine
 62
7
  6
CONTINUOUS
 10
128.9456625647
 20
245.6080892334
 11
128.0706625647
 21
244.0925447768
  0
LINE
  5
30D
100
AcDbEntity
  8
94528905000_M_BL3
100
AcDbLine
 62
7
  6
CONTINUOUS
 10
130.6956625647
 20
242.5770003202
 11
131.5706625647
 21
244.0925447768
  0
LINE
  5
30E
100
AcDbEntity
  8
94528905000_M_BL3
100
AcDbLine
 62
7
  6
CONTINUOUS
 10
128.0706625647
 20
1796.2925447768
 11
128.9456625647
 21
1794.7770003202
  0
LINE
  5
30F
100
AcDbEntity
  8
94528905000_M_BL3
100
AcDbLine
 62
7
  6
CONTINUOUS
 10
131.5706625647
 20
1796.2925447768
 11
130.6956625647
 21
1797.8080892334
  0
LINE
  5
310
100
AcDbEntity
  8
94528905000_M_BL3
100
AcDbLine
 62
7
  6
CONTINUOUS
 10
128.9456625647
 20
1794.7770003202
 11
130.6956625647
 21
1794.7770003202
  0
LINE
  5
311
100
AcDbEntity
  8
94528905000_M_BL3
100
AcDbLine
 62
7
  6
CONTINUOUS
 10
130.6956625647
 20
1797.8080892334
 11
128.9456625647
 21
1797.8080892334
  0
CIRCLE
  5
312
100
AcDbEntity
  8
94528905000_M_BL3
100
AcDbCircle
 62
7
  6
CONTINUOUS
 10
129.8206625647
 20
245.0925447768
 40
5.5
  0
CIRCLE
  5
313
100
AcDbEntity
  8
94528905000_M_BL3
100
AcDbCircle
 62
7
  6
CONTINUOUS
 10
129.8206625647
 20
244.0925447768
 40
1.75
  0
CIRCLE
  5
314
100
AcDbEntity
  8
94528905000_M_BL3
100
AcDbCircle
 62
7
  6
CONTINUOUS
 10
129.8206625647
 20
244.0925447768
 40
1.515
  0
CIRCLE
  5
315
100
AcDbEntity
  8
94528905000_M_BL3
100
AcDbCircle
 62
7
  6
CONTINUOUS
 10
129.8206625647
 20
247.5925447768
 40
0.75
  0
CIRCLE
  5
316
100
AcDbEntity
  8
94528905000_M_BL3
100
AcDbCircle
 62
7
  6
CONTINUOUS
 10
129.8206625647
 20
1795.2925447768
 40
5.5
  0
CIRCLE
  5
317
100
AcDbEntity
  8
94528905000_M_BL3
100
AcDbCircle
 62
7
  6
CONTINUOUS
 10
129.8206625647
 20
1796.2925447768
 40
1.75
  0
CIRCLE
  5
318
100
AcDbEntity
  8
94528905000_M_BL3
100
AcDbCircle
 62
7
  6
CONTINUOUS
 10
129.8206625647
 20
1796.2925447768
 40
1.515
  0
CIRCLE
  5
319
100
AcDbEntity
  8
94528905000_M_BL3
100
AcDbCircle
 62
7
  6
CONTINUOUS
 10
129.8206625647
 20
1792.7925447768
 40
0.75
  0
ARC
  5
31A
100
AcDbEntity
  8
94528905000_M_BL3
100
AcDbCircle
 62
7
  6
CONTINUOUS
 10
27.3136805277
 20
244.0925447768
 40
4.0
100
AcDbArc
 50
326.8389561101
 51
33.1610438899
  0
ARC
  5
31B
100
AcDbEntity
  8
94528905000_M_BL3
100
AcDbCircle
 62
7
  6
CONTINUOUS
 10
27.3136805277
 20
1796.2925447768
 40
4.0
100
AcDbArc
 50
326.8389561101
 51
33.1610438899
  0
ARC
  5
31C
100
AcDbEntity
  8
94528905000_M_BL3
100
AcDbCircle
 62
7
  6
CONTINUOUS
 10
27.3136805277
 20
102.3315271649
 40
4.0
100
AcDbArc
 50
311.4096221093
 51
48.5903778907
  0
ENDBLK
  5
31D
100
AcDbEntity
  8
0
  6
BYBLOCK
 62
0
100
AcDbBlockEnd
  0
BLOCK
  5
31E
100
AcDbEntity
  8
94529001000_BL4
100
AcDbBlockBegin
  2
94529001000_BL4
 70
64
 10
81.9900472017
 20
275.1925447768
  3
94529001000_BL4
  1

  0
LINE
  5
31F
100
AcDbEntity
  8
94529001000_BL4
100
AcDbLine
 62
7
  6
CONTINUOUS
 10
138.3206625647
 20
252.9425447768
 11
137.5206625647
 21
252.9425447768
  0
LINE
  5
320
100
AcDbEntity
  8
94529001000_BL4
100
AcDbLine
 62
7
  6
CONTINUOUS
 10
122.1206625647
 20
252.9425447768
 11
121.3206625647
 21
252.9425447768
  0
LINE
  5
321
100
AcDbEntity
  8
94529001000_BL4
100
AcDbLine
 62
7
  6
CONTINUOUS
 10
125.6206625647
 20
255.3925447768
 11
133.0206625647
 21
255.3925447768
  0
LINE
  5
322
100
AcDbEntity
  8
94529001000_BL4
100
AcDbLine
 62
7
  6
CONTINUOUS
 10
125.6206625647
 20
256.1925447768
 11
133.0206625647
 21
256.1925447768
  0
LINE
  5
323
100
AcDbEntity
  8
94529001000_BL4
100
AcDbLine
 62
9
  6
CONTINUOUS
 10
123.6206625647
 20
258.1925447768
 11
122.8206625647
 21
258.1925447768
  0
LINE
  5
324
100
AcDbEntity
  8
94529001000_BL4
100
AcDbLine
 62
9
  6
CONTINUOUS
 10
135.0206625647
 20
258.1925447768
 11
135.8206625647
 21
258.1925447768
  0
LINE
  5
325
100
AcDbEntity
  8
94529001000_BL4
100
AcDbLine
 62
7
  6
CONTINUOUS
 10
137.5206625647
 20
275.0425447768
 11
135.8206625647
 21
275.0425447768
  0
LINE
  5
326
100
AcDbEntity
  8
94529001000_BL4
100
AcDbLine
 62
7
  6
CONTINUOUS
 10
137.6706625647
 20
275.1925447768
 11
135.6706625647
 21
275.1925447768
  0
LINE
  5
327
100
AcDbEntity
  8
94529001000_BL4
100
AcDbLine
 62
7
  6
CENTER
 10
118.3206625647
 20
275.1925447768
 11
141.3206625647
 21
275.1925447768
  0
LINE
  5
328
100
AcDbEntity
  8
94529001000_BL4
100
AcDbLine
 62
7
  6
CONTINUOUS
 10
137.5206625647
 20
275.3425447768
 11
135.8206625647
 21
275.3425447768
  0
LINE
  5
329
100
AcDbEntity
  8
94529001000_BL4
100
AcDbLine
 62
9
  6
CONTINUOUS
 10
123.6206625647
 20
292.1925447768
 11
122.8206625647
 21
292.1925447768
  0
LINE
  5
32A
100
AcDbEntity
  8
94529001000_BL4
100
AcDbLine
 62
9
  6
CONTINUOUS
 10
135.0206625647
 20
292.1925447768
 11
135.8206625647
 21
292.1925447768
  0
LINE
  5
32B
100
AcDbEntity
  8
94529001000_BL4
100
AcDbLine
 62
7
  6
CONTINUOUS
 10
133.0206625647
 20
294.1925447768
 11
125.6206625647
 21
294.1925447768
  0
LINE
  5
32C
100
AcDbEntity
  8
94529001000_BL4
100
AcDbLine
 62
7
  6
CONTINUOUS
 10
133.0206625647
 20
294.9925447768
 11
125.6206625647
 21
294.9925447768
  0
LINE
  5
32D
100
AcDbEntity
  8
94529001000_BL4
100
AcDbLine
 62
7
  6
CONTINUOUS
 10
138.3206625647
 20
297.4425447768
 11
137.5206625647
 21
297.4425447768
  0
LINE
  5
32E
100
AcDbEntity
  8
94529001000_BL4
100
AcDbLine
 62
7
  6
CONTINUOUS
 10
122.1206625647
 20
297.4425447768
 11
121.3206625647
 21
297.4425447768
  0
LINE
  5
32F
100
AcDbEntity
  8
94529001000_BL4
100
AcDbLine
 62
7
  6
CONTINUOUS
 10
135.8206625647
 20
275.0425447768
 11
135.6706625647
 21
275.1925447768
  0
LINE
  5
330
100
AcDbEntity
  8
94529001000_BL4
100
AcDbLine
 62
7
  6
CONTINUOUS
 10
137.5206625647
 20
275.3425447768
 11
137.6706625647
 21
275.1925447768
  0
LINE
  5
331
100
AcDbEntity
  8
94529001000_BL4
100
AcDbLine
 62
7
  6
CONTINUOUS
 10
121.3206625647
 20
305.6925447768
 11
121.3206625647
 21
244.6925447768
  0
LINE
  5
332
100
AcDbEntity
  8
94529001000_BL4
100
AcDbLine
 62
7
  6
CONTINUOUS
 10
122.1206625647
 20
297.4425447768
 11
122.1206625647
 21
252.9425447768
  0
LINE
  5
333
100
AcDbEntity
  8
94529001000_BL4
100
AcDbLine
 62
7
  6
CONTINUOUS
 10
122.8206625647
 20
292.1925447768
 11
122.8206625647
 21
258.1925447768
  0
LINE
  5
334
100
AcDbEntity
  8
94529001000_BL4
100
AcDbLine
 62
7
  6
CONTINUOUS
 10
123.6206625647
 20
292.1925447768
 11
123.6206625647
 21
258.1925447768
  0
LINE
  5
335
100
AcDbEntity
  8
94529001000_BL4
100
AcDbLine
 62
9
  6
CONTINUOUS
 10
125.6206625647
 20
256.1925447768
 11
125.6206625647
 21
255.3925447768
  0
LINE
  5
336
100
AcDbEntity
  8
94529001000_BL4
100
AcDbLine
 62
9
  6
CONTINUOUS
 10
125.6206625647
 20
294.1925447768
 11
125.6206625647
 21
294.9925447768
  0
LINE
  5
337
100
AcDbEntity
  8
94529001000_BL4
100
AcDbLine
 62
7
  6
CENTER
 10
129.8206625647
 20
233.1790721113
 11
129.8206625647
 21
317.2060174423
  0
LINE
  5
338
100
AcDbEntity
  8
94529001000_BL4
100
AcDbLine
 62
9
  6
CONTINUOUS
 10
133.0206625647
 20
256.1925447768
 11
133.0206625647
 21
255.3925447768
  0
LINE
  5
339
100
AcDbEntity
  8
94529001000_BL4
100
AcDbLine
 62
9
  6
CONTINUOUS
 10
133.0206625647
 20
294.1925447768
 11
133.0206625647
 21
294.9925447768
  0
LINE
  5
33A
100
AcDbEntity
  8
94529001000_BL4
100
AcDbLine
 62
7
  6
CONTINUOUS
 10
135.0206625647
 20
258.1925447768
 11
135.0206625647
 21
292.1925447768
  0
LINE
  5
33B
100
AcDbEntity
  8
94529001000_BL4
100
AcDbLine
 62
7
  6
CONTINUOUS
 10
135.8206625647
 20
258.1925447768
 11
135.8206625647
 21
275.0425447768
  0
LINE
  5
33C
100
AcDbEntity
  8
94529001000_BL4
100
AcDbLine
 62
7
  6
CONTINUOUS
 10
135.8206625647
 20
275.3425447768
 11
135.8206625647
 21
292.1925447768
  0
LINE
  5
33D
100
AcDbEntity
  8
94529001000_BL4
100
AcDbLine
 62
7
  6
CONTINUOUS
 10
137.5206625647
 20
297.4425447768
 11
137.5206625647
 21
275.3425447768
  0
LINE
  5
33E
100
AcDbEntity
  8
94529001000_BL4
100
AcDbLine
 62
7
  6
CONTINUOUS
 10
137.5206625647
 20
275.0425447768
 11
137.5206625647
 21
252.9425447768
  0
LINE
  5
33F
100
AcDbEntity
  8
94529001000_BL4
100
AcDbLine
 62
7
  6
CONTINUOUS
 10
138.3206625647
 20
244.6925447768
 11
138.3206625647
 21
305.6925447768
  0
LINE
  5
340
100
AcDbEntity
  8
94529001000_BL4
100
AcDbLine
 62
7
  6
CONTINUOUS
 10
135.8206625647
 20
275.3425447768
 11
135.6706625647
 21
275.1925447768
  0
LINE
  5
341
100
AcDbEntity
  8
94529001000_BL4
100
AcDbLine
 62
7
  6
CONTINUOUS
 10
137.5206625647
 20
275.0425447768
 11
137.6706625647
 21
275.1925447768
  0
LINE
  5
342
100
AcDbEntity
  8
94529001000_BL4
100
AcDbLine
 62
7
  6
CONTINUOUS
 10
24.6594318387
 20
236.1925447768
 11
22.6594318387
 21
236.1925447768
  0
LINE
  5
343
100
AcDbEntity
  8
94529001000_BL4
100
AcDbLine
 62
9
  6
CONTINUOUS
 10
22.6594318387
 20
244.6925447768
 11
24.6594318387
 21
244.6925447768
  0
LINE
  5
344
100
AcDbEntity
  8
94529001000_BL4
100
AcDbLine
 62
7
  6
CONTINUOUS
 10
22.6594318387
 20
252.9425447768
 11
23.4594318387
 21
252.9425447768
  0
LINE
  5
345
100
AcDbEntity
  8
94529001000_BL4
100
AcDbLine
 62
7
  6
CONTINUOUS
 10
24.6594318387
 20
256.1925447768
 11
24.7500655273
 21
256.1925447768
  0
LINE
  5
346
100
AcDbEntity
  8
94529001000_BL4
100
AcDbLine
 62
7
  6
CONTINUOUS
 10
24.7500671883
 20
294.1925447768
 11
24.6594318387
 21
294.1925447768
  0
LINE
  5
347
100
AcDbEntity
  8
94529001000_BL4
100
AcDbLine
 62
7
  6
CONTINUOUS
 10
22.6594318387
 20
297.4425447768
 11
23.4594318387
 21
297.4425447768
  0
LINE
  5
348
100
AcDbEntity
  8
94529001000_BL4
100
AcDbLine
 62
9
  6
CONTINUOUS
 10
22.6594318387
 20
305.6925447768
 11
24.6594318387
 21
305.6925447768
  0
LINE
  5
349
100
AcDbEntity
  8
94529001000_BL4
100
AcDbLine
 62
7
  6
CONTINUOUS
 10
24.6594318387
 20
314.1925447768
 11
22.6594318387
 21
314.1925447768
  0
LINE
  5
34A
100
AcDbEntity
  8
94529001000_BL4
100
AcDbLine
 62
7
  6
CONTINUOUS
 10
22.6594318387
 20
275.3425447768
 11
22.8094318387
 21
275.1925447768
  0
LINE
  5
34B
100
AcDbEntity
  8
94529001000_BL4
100
AcDbLine
 62
7
  6
CONTINUOUS
 10
22.6594318387
 20
275.3425447768
 11
22.6594318387
 21
275.0425447768
  0
LINE
  5
34C
100
AcDbEntity
  8
94529001000_BL4
100
AcDbLine
 62
7
  6
CONTINUOUS
 10
22.6594318387
 20
236.1925447768
 11
22.6594318387
 21
275.0425447768
  0
LINE
  5
34D
100
AcDbEntity
  8
94529001000_BL4
100
AcDbLine
 62
7
  6
CONTINUOUS
 10
22.6594318387
 20
275.3425447768
 11
22.6594318387
 21
314.1925447768
  0
LINE
  5
34E
100
AcDbEntity
  8
94529001000_BL4
100
AcDbLine
 62
7
  6
CONTINUOUS
 10
23.4594318387
 20
297.4425447768
 11
23.4594318387
 21
252.9425447768
  0
LINE
  5
34F
100
AcDbEntity
  8
94529001000_BL4
100
AcDbLine
 62
7
  6
CONTINUOUS
 10
24.6594318387
 20
311.6966179965
 11
24.6594318387
 21
238.6884715571
  0
LINE
  5
350
100
AcDbEntity
  8
94529001000_BL4
100
AcDbLine
 62
7
  6
CONTINUOUS
 10
22.6594318387
 20
275.0425447768
 11
22.8094318387
 21
275.1925447768
  0
ARC
  5
351
100
AcDbEntity
  8
94529001000_BL4
100
AcDbCircle
 62
7
  6
CONTINUOUS
 10
125.6206625647
 20
292.1925447768
 40
2.7999942656
100
AcDbArc
 50
90.0
 51
180.0
  0
ARC
  5
352
100
AcDbEntity
  8
94529001000_BL4
100
AcDbCircle
 62
7
  6
CONTINUOUS
 10
125.6206625647
 20
258.1925447768
 40
2.7999942656
100
AcDbArc
 50
180.0
 51
270.0
  0
ARC
  5
353
100
AcDbEntity
  8
94529001000_BL4
100
AcDbCircle
 62
7
  6
CONTINUOUS
 10
125.6206625647
 20
292.1925447768
 40
2.0
100
AcDbArc
 50
90.0
 51
180.0
  0
ARC
  5
354
100
AcDbEntity
  8
94529001000_BL4
100
AcDbCircle
 62
7
  6
CONTINUOUS
 10
125.6206625647
 20
258.1925447768
 40
2.0
100
AcDbArc
 50
180.0
 51
270.0
  0
ARC
  5
355
100
AcDbEntity
  8
94529001000_BL4
100
AcDbCircle
 62
7
  6
CONTINUOUS
 10
129.8206625647
 20
244.6925447768
 40
8.5
100
AcDbArc
 50
180.0
 51
360.0
  0
ARC
  5
356
100
AcDbEntity
  8
94529001000_BL4
100
AcDbCircle
 62
7
  6
CONTINUOUS
 10
129.8206625647
 20
305.6925447768
 40
8.5
100
AcDbArc
 50
0.0
 51
180.0
  0
CIRCLE
  5
357
100
AcDbEntity
  8
94529001000_BL4
100
AcDbCircle
 62
7
  6
CONTINUOUS
 10
129.8206625647
 20
245.0925447768
 40
5.65
  0
CIRCLE
  5
358
100
AcDbEntity
  8
94529001000_BL4
100
AcDbCircle
 62
7
  6
CONTINUOUS
 10
129.8206625647
 20
305.2925447768
 40
5.65
  0
ARC
  5
359
100
AcDbEntity
  8
94529001000_BL4
100
AcDbCircle
 62
7
  6
CONTINUOUS
 10
133.0206625647
 20
292.1925447768
 40
2.7999942656
100
AcDbArc
 50
0.0
 51
90.0
  0
ARC
  5
35A
100
AcDbEntity
  8
94529001000_BL4
100
AcDbCircle
 62
7
  6
CONTINUOUS
 10
133.0206625647
 20
258.1925447768
 40
2.7999942656
100
AcDbArc
 50
270.0
 51
360.0
  0
ARC
  5
35B
100
AcDbEntity
  8
94529001000_BL4
100
AcDbCircle
 62
7
  6
CONTINUOUS
 10
133.0206625647
 20
292.1925447768
 40
2.0
100
AcDbArc
 50
0.0
 51
90.0
  0
ARC
  5
35C
100
AcDbEntity
  8
94529001000_BL4
100
AcDbCircle
 62
7
  6
CONTINUOUS
 10
133.0206625647
 20
258.1925447768
 40
2.0
100
AcDbArc
 50
270.0
 51
360.0
  0
ENDBLK
  5
35D
100
AcDbEntity
  8
0
  6
BYBLOCK
 62
0
100
AcDbBlockEnd
  0
BLOCK
  5
35E
100
AcDbEntity
  8
94673901000_BL5
100
AcDbBlockBegin
  2
94673901000_BL5
 70
64
 10
79.091825931
 20
275.1925447768
  3
94673901000_BL5
  1

  0
LINE
  5
35F
100
AcDbEntity
  8
94673901000_BL5
100
AcDbLine
 62
9
  6
CONTINUOUS
 10
133.0735123144
 20
256.8506512363
 11
126.567812815
 21
256.8506512363
  0
LINE
  5
360
100
AcDbEntity
  8
94673901000_BL5
100
AcDbLine
 62
9
  6
CONTINUOUS
 10
123.6206625647
 20
258.1925447768
 11
123.9207005528
 21
258.1925447768
  0
LINE
  5
361
100
AcDbEntity
  8
94673901000_BL5
100
AcDbLine
 62
9
  6
CONTINUOUS
 10
124.5787690242
 20
258.8396950271
 11
135.0206625647
 21
258.8396950271
  0
LINE
  5
362
100
AcDbEntity
  8
94673901000_BL5
100
AcDbLine
 62
7
  6
CONTINUOUS
 10
128.3206625647
 20
274.7925447768
 11
129.8206625647
 21
274.7925447768
  0
LINE
  5
363
100
AcDbEntity
  8
94673901000_BL5
100
AcDbLine
 62
7
  6
CONTINUOUS
 10
129.8206625647
 20
275.5925447768
 11
128.3206625647
 21
275.5925447768
  0
LINE
  5
364
100
AcDbEntity
  8
94673901000_BL5
100
AcDbLine
 62
9
  6
CONTINUOUS
 10
124.5787690242
 20
291.5453945265
 11
135.0206625647
 21
291.5453945265
  0
LINE
  5
365
100
AcDbEntity
  8
94673901000_BL5
100
AcDbLine
 62
9
  6
CONTINUOUS
 10
123.9207005528
 20
292.1925447768
 11
123.6206625647
 21
292.1925447768
  0
LINE
  5
366
100
AcDbEntity
  8
94673901000_BL5
100
AcDbLine
 62
9
  6
CONTINUOUS
 10
126.567812815
 20
293.5344383172
 11
133.0735123144
 21
293.5344383172
  0
LINE
  5
367
100
AcDbEntity
  8
94673901000_BL5
100
AcDbLine
 62
7
  6
CONTINUOUS
 10
131.8206625647
 20
275.1925447768
 11
129.8206625647
 21
276.3472453152
  0
LINE
  5
368
100
AcDbEntity
  8
94673901000_BL5
100
AcDbLine
 62
9
  6
CONTINUOUS
 10
133.518186392
 20
256.4059771587
 11
133.0735123144
 21
256.8506512363
  0
LINE
  5
369
100
AcDbEntity
  8
94673901000_BL5
100
AcDbLine
 62
9
  6
CONTINUOUS
 10
124.1340949466
 20
291.9900686041
 11
124.5787690242
 21
291.5453945265
  0
LINE
  5
36A
100
AcDbEntity
  8
94673901000_BL5
100
AcDbLine
 62
9
  6
CONTINUOUS
 10
126.1231387373
 20
293.9791123949
 11
126.567812815
 21
293.5344383172
  0
LINE
  5
36B
100
AcDbEntity
  8
94673901000_BL5
100
AcDbLine
 62
7
  6
CONTINUOUS
 10
123.9261708442
 20
258.1926022966
 11
123.9261708442
 21
292.192487257
  0
LINE
  5
36C
100
AcDbEntity
  8
94673901000_BL5
100
AcDbLine
 62
9
  6
CONTINUOUS
 10
124.5787690242
 20
258.8396950271
 11
124.5787690242
 21
291.5453945265
  0
LINE
  5
36D
100
AcDbEntity
  8
94673901000_BL5
100
AcDbLine
 62
9
  6
CONTINUOUS
 10
126.567812815
 20
256.8506512363
 11
126.567812815
 21
293.5344383172
  0
LINE
  5
36E
100
AcDbEntity
  8
94673901000_BL5
100
AcDbLine
 62
7
  6
CONTINUOUS
 10
128.3206625647
 20
275.5925447768
 11
128.3206625647
 21
274.7925447768
  0
LINE
  5
36F
100
AcDbEntity
  8
94673901000_BL5
100
AcDbLine
 62
7
  6
CONTINUOUS
 10
129.8206625647
 20
276.3472453152
 11
129.8206625647
 21
275.5925447768
  0
LINE
  5
370
100
AcDbEntity
  8
94673901000_BL5
100
AcDbLine
 62
7
  6
CONTINUOUS
 10
129.8206625647
 20
274.7925447768
 11
129.8206625647
 21
274.0378442384
  0
LINE
  5
371
100
AcDbEntity
  8
94673901000_BL5
100
AcDbLine
 62
9
  6
CONTINUOUS
 10
133.0735123144
 20
256.8506512363
 11
133.0735123144
 21
293.5344383172
  0
LINE
  5
372
100
AcDbEntity
  8
94673901000_BL5
100
AcDbLine
 62
9
  6
CONTINUOUS
 10
133.0735123144
 20
293.5344383172
 11
133.518186392
 21
293.9791123949
  0
LINE
  5
373
100
AcDbEntity
  8
94673901000_BL5
100
AcDbLine
 62
9
  6
CONTINUOUS
 10
124.5787690242
 20
258.8396950271
 11
124.1340949466
 21
258.3950209495
  0
LINE
  5
374
100
AcDbEntity
  8
94673901000_BL5
100
AcDbLine
 62
9
  6
CONTINUOUS
 10
126.567812815
 20
256.8506512363
 11
126.1231387373
 21
256.4059771587
  0
LINE
  5
375
100
AcDbEntity
  8
94673901000_BL5
100
AcDbLine
 62
7
  6
CONTINUOUS
 10
129.8206625647
 20
274.0378442384
 11
131.8206625647
 21
275.1925447768
  0
LINE
  5
376
100
AcDbEntity
  8
94673901000_BL5
100
AcDbLine
 62
7
  6
CONTINUOUS
 10
32.6594436502
 20
255.1925460182
 11
38.9730172285
 21
255.856129341
  0
LINE
  5
377
100
AcDbEntity
  8
94673901000_BL5
100
AcDbLine
 62
9
  6
CONTINUOUS
 10
32.6598577955
 20
258.1761552328
 11
38.9730172285
 21
258.8396950271
  0
LINE
  5
378
100
AcDbEntity
  8
94673901000_BL5
100
AcDbLine
 62
7
  6
CONTINUOUS
 10
32.6594554794
 20
255.1925447768
 11
30.6594318387
 21
255.1925447768
  0
LINE
  5
379
100
AcDbEntity
  8
94673901000_BL5
100
AcDbLine
 62
9
  6
CONTINUOUS
 10
32.6594318387
 20
258.1925447768
 11
30.6594318387
 21
258.1925447768
  0
LINE
  5
37A
100
AcDbEntity
  8
94673901000_BL5
100
AcDbLine
 62
9
  6
CONTINUOUS
 10
41.6594318387
 20
258.8396950271
 11
38.9730172286
 21
258.8396950349
  0
LINE
  5
37B
100
AcDbEntity
  8
94673901000_BL5
100
AcDbLine
 62
7
  6
CONTINUOUS
 10
41.6594318387
 20
274.0378442384
 11
41.8594318387
 21
274.0378442384
  0
LINE
  5
37C
100
AcDbEntity
  8
94673901000_BL5
100
AcDbLine
 62
7
  6
CENTER
 10
23.1594318387
 20
275.1925447768
 11
44.8594318387
 21
275.1925447768
  0
LINE
  5
37D
100
AcDbEntity
  8
94673901000_BL5
100
AcDbLine
 62
7
  6
CONTINUOUS
 10
41.6594318387
 20
275.1925447768
 11
41.8594318387
 21
275.1925447768
  0
LINE
  5
37E
100
AcDbEntity
  8
94673901000_BL5
100
AcDbLine
 62
7
  6
CONTINUOUS
 10
41.6594318387
 20
276.3472453152
 11
41.8594318387
 21
276.3472453152
  0
LINE
  5
37F
100
AcDbEntity
  8
94673901000_BL5
100
AcDbLine
 62
9
  6
CONTINUOUS
 10
41.6594318387
 20
291.5453945265
 11
38.9730172285
 21
291.5453945265
  0
LINE
  5
380
100
AcDbEntity
  8
94673901000_BL5
100
AcDbLine
 62
9
  6
CONTINUOUS
 10
30.6594318387
 20
292.1925447768
 11
32.6594318387
 21
292.1925447768
  0
LINE
  5
381
100
AcDbEntity
  8
94673901000_BL5
100
AcDbLine
 62
7
  6
CONTINUOUS
 10
30.6594318387
 20
295.1925447768
 11
32.6594554794
 21
295.1925447768
  0
LINE
  5
382
100
AcDbEntity
  8
94673901000_BL5
100
AcDbLine
 62
9
  6
CONTINUOUS
 10
38.9730172285
 20
291.5453945265
 11
32.6598577955
 21
292.2089343208
  0
LINE
  5
383
100
AcDbEntity
  8
94673901000_BL5
100
AcDbLine
 62
7
  6
CONTINUOUS
 10
38.9730172285
 20
294.5289602126
 11
32.6598577955
 21
295.1925000069
  0
LINE
  5
384
100
AcDbEntity
  8
94673901000_BL5
100
AcDbLine
 62
7
  6
CONTINUOUS
 10
32.6594318387
 20
258.1925447768
 11
32.6594318387
 21
292.1925447768
  0
LINE
  5
385
100
AcDbEntity
  8
94673901000_BL5
100
AcDbLine
 62
9
  6
CONTINUOUS
 10
38.9730172285
 20
291.5453945265
 11
38.9730172285
 21
258.8396950271
  0
LINE
  5
386
100
AcDbEntity
  8
94673901000_BL5
100
AcDbLine
 62
7
  6
CONTINUOUS
 10
41.6594318387
 20
291.5453945265
 11
41.6594318387
 21
258.8396950271
  0
LINE
  5
387
100
AcDbEntity
  8
94673901000_BL5
100
AcDbLine
 62
7
  6
CONTINUOUS
 10
41.8594318387
 20
276.3472453152
 11
41.8594318387
 21
274.0378442384
  0
ARC
  5
388
100
AcDbEntity
  8
94673901000_BL5
100
AcDbCircle
 62
7
  6
CONTINUOUS
 10
125.9313058816
 20
292.1599656411
 40
2.0327511965
100
AcDbArc
 50
98.3271761057
 51
103.9682282896
  0
ARC
  5
389
100
AcDbEntity
  8
94673901000_BL5
100
AcDbCircle
 62
7
  6
CONTINUOUS
 10
125.9312926287
 20
258.2250490546
 40
2.0326753593
100
AcDbArc
 50
256.0316145018
 51
261.3540527655
  0
ARC
  5
38A
100
AcDbEntity
  8
94673901000_BL5
100
AcDbCircle
 62
7
  6
CONTINUOUS
 10
125.9287283687
 20
258.214560059
 40
2.0218775559
100
AcDbArc
 50
253.6053211144
 51
256.0303826763
  0
ARC
  5
38B
100
AcDbEntity
  8
94673901000_BL5
100
AcDbCircle
 62
7
  6
CONTINUOUS
 10
125.9287281759
 20
292.1705303913
 40
2.0218766331
100
AcDbArc
 50
103.9696077065
 51
106.3951342496
  0
ARC
  5
38C
100
AcDbEntity
  8
94673901000_BL5
100
AcDbCircle
 62
7
  6
CONTINUOUS
 10
125.9199264928
 20
258.1935762606
 40
1.9992641942
100
AcDbArc
 50
180.029560712
 51
253.6775766837
  0
ARC
  5
38D
100
AcDbEntity
  8
94673901000_BL5
100
AcDbCircle
 62
7
  6
CONTINUOUS
 10
125.9199264128
 20
292.1915133234
 40
1.9992641142
100
AcDbArc
 50
106.3228799202
 51
179.970440159
  0
ARC
  5
38E
100
AcDbEntity
  8
94673901000_BL5
100
AcDbCircle
 62
9
  6
CONTINUOUS
 10
133.493602432
 20
291.9672349104
 40
2.0120276794
100
AcDbArc
 50
73.0166699288
 51
89.2999141101
  0
ARC
  5
38F
100
AcDbEntity
  8
94673901000_BL5
100
AcDbCircle
 62
9
  6
CONTINUOUS
 10
133.4936032412
 20
258.4178497788
 40
2.0120228054
100
AcDbArc
 50
270.7000645416
 51
286.9806663763
  0
ARC
  5
390
100
AcDbEntity
  8
94673901000_BL5
100
AcDbCircle
 62
9
  6
CONTINUOUS
 10
133.0527374331
 20
258.8638366125
 40
2.0099748626
100
AcDbArc
 50
341.5926574538
 51
348.7688397749
  0
ARC
  5
391
100
AcDbEntity
  8
94673901000_BL5
100
AcDbCircle
 62
9
  6
CONTINUOUS
 10
133.0527374331
 20
291.5212529411
 40
2.0099748626
100
AcDbArc
 50
11.2311602251
 51
18.4073425462
  0
ARC
  5
392
100
AcDbEntity
  8
94673901000_BL5
100
AcDbCircle
 62
9
  6
CONTINUOUS
 10
133.0715453223
 20
291.5270737601
 40
1.9902912684
100
AcDbArc
 50
18.4193176015
 51
18.7088604068
  0
ARC
  5
393
100
AcDbEntity
  8
94673901000_BL5
100
AcDbCircle
 62
9
  6
CONTINUOUS
 10
133.0715453253
 20
258.8580157925
 40
1.9902912652
100
AcDbArc
 50
341.2911395929
 51
341.5806823988
  0
ARC
  5
394
100
AcDbEntity
  8
94673901000_BL5
100
AcDbCircle
 62
7
  6
CONTINUOUS
 10
38.6594318387
 20
291.5453945265
 40
3.0
100
AcDbArc
 50
0.0
 51
83.9999999972
  0
ARC
  5
395
100
AcDbEntity
  8
94673901000_BL5
100
AcDbCircle
 62
7
  6
CONTINUOUS
 10
38.6594318387
 20
258.8396950271
 40
3.0
100
AcDbArc
 50
276.0
 51
360.0
  0
SPLINE
  5
396
100
AcDbEntity
  8
94673901000_BL5
100
AcDbSpline
 62
9
  6
CONTINUOUS
 70
0
 71
3
 72
15
 73
11
 74
0
 42
0.0000001
 43
0.0000001
 44
0.0000000001
 40
0.0
 40
0.0
 40
0.0
 40
0.0
 40
0.0496003836
 40
0.098122615
 40
0.1682822838
 40
0.2520846427
 40
0.4081783296
 40
0.5242973605
 40
0.7764562012
 40
1.0
 40
1.0
 40
1.0
 40
1.0
 10
123.9261708442
 20
258.1926022966
 30
0.0
 10
123.9292443467
 20
258.188614705
 30
0.0
 10
123.9392465881
 20
258.1812678757
 30
0.0
 10
123.9548846764
 20
258.1932211068
 30
0.0
 10
123.9659735227
 20
258.2097384364
 30
0.0
 10
123.9819371863
 20
258.2371453935
 30
0.0
 10
123.9993150163
 20
258.2690818156
 30
0.0
 10
124.0419082294
 20
258.3037980023
 30
0.0
 10
124.0788830198
 20
258.3386638661
 30
0.0
 10
124.1136760323
 20
258.4049166724
 30
0.0
 10
124.1340949466
 20
258.3950209495
 30
0.0
  0
SPLINE
  5
397
100
AcDbEntity
  8
94673901000_BL5
100
AcDbSpline
 62
9
  6
CONTINUOUS
 70
0
 71
3
 72
15
 73
11
 74
0
 42
0.0000001
 43
0.0000001
 44
0.0000000001
 40
0.0
 40
0.0
 40
0.0
 40
0.0
 40
0.0496003836
 40
0.098122615
 40
0.1682822838
 40
0.2520846427
 40
0.4081783296
 40
0.5242973605
 40
0.7764562012
 40
1.0
 40
1.0
 40
1.0
 40
1.0
 10
123.9261708442
 20
292.192487257
 30
0.0
 10
123.9292443467
 20
292.1964748486
 30
0.0
 10
123.9392465881
 20
292.2038216779
 30
0.0
 10
123.9548846764
 20
292.1918684468
 30
0.0
 10
123.9659735227
 20
292.1753511172
 30
0.0
 10
123.9819371863
 20
292.1479441601
 30
0.0
 10
123.9993150163
 20
292.116007738
 30
0.0
 10
124.0419082294
 20
292.0812915513
 30
0.0
 10
124.0788830198
 20
292.0464256875
 30
0.0
 10
124.1136760323
 20
291.9801728812
 30
0.0
 10
124.1340949466
 20
291.9900686041
 30
0.0
  0
SPLINE
  5
398
100
AcDbEntity
  8
94673901000_BL5
100
AcDbSpline
 62
9
  6
CONTINUOUS
 70
0
 71
3
 72
9
 73
5
 74
0
 42
0.0000001
 43
0.0000001
 44
0.0000000001
 40
0.0
 40
0.0
 40
0.0
 40
0.0
 40
0.5071087384
 40
1.0
 40
1.0
 40
1.0
 40
1.0
 10
133.6265960141
 20
256.2897428231
 30
0.0
 10
133.6092147095
 20
256.3102346705
 30
0.0
 10
133.5848788602
 20
256.3482891533
 30
0.0
 10
133.5067867332
 20
256.382479181
 30
0.0
 10
133.518186392
 20
256.4059771587
 30
0.0
  0
SPLINE
  5
399
100
AcDbEntity
  8
94673901000_BL5
100
AcDbSpline
 62
9
  6
CONTINUOUS
 70
0
 71
3
 72
16
 73
12
 74
0
 42
0.0000001
 43
0.0000001
 44
0.0000000001
 40
0.0
 40
0.0
 40
0.0
 40
0.0
 40
0.0518457162
 40
0.0996592902
 40
0.1687964974
 40
0.2518181064
 40
0.4066326948
 40
0.5218483669
 40
0.6336359316
 40
0.7750325309
 40
1.0
 40
1.0
 40
1.0
 40
1.0
 10
125.9276491626
 20
256.1980530564
 30
0.0
 10
125.9234305618
 20
256.2011040388
 30
0.0
 10
125.915295309
 20
256.2105830759
 30
0.0
 10
125.9262138313
 20
256.2268456102
 30
0.0
 10
125.9423465008
 20
256.2378606795
 30
0.0
 10
125.9689140986
 20
256.2537921001
 30
0.0
 10
126.0002153304
 20
256.2715708884
 30
0.0
 10
126.024269044
 20
256.3015726092
 30
0.0
 10
126.0471634587
 20
256.3319959825
 30
0.0
 10
126.0822265848
 20
256.3569042802
 30
0.0
 10
126.1329992112
 20
256.3856518841
 30
0.0
 10
126.1231387373
 20
256.4059771587
 30
0.0
  0
SPLINE
  5
39A
100
AcDbEntity
  8
94673901000_BL5
100
AcDbSpline
 62
9
  6
CONTINUOUS
 70
0
 71
3
 72
16
 73
12
 74
0
 42
0.0000001
 43
0.0000001
 44
0.0000000001
 40
0.0
 40
0.0
 40
0.0
 40
0.0
 40
0.0518457162
 40
0.0996592902
 40
0.1687964974
 40
0.2518181064
 40
0.4066326948
 40
0.5218483669
 40
0.6336359316
 40
0.7750325309
 40
1.0
 40
1.0
 40
1.0
 40
1.0
 10
125.9276491626
 20
294.1870364972
 30
0.0
 10
125.9234305618
 20
294.1839855148
 30
0.0
 10
125.915295309
 20
294.1745064777
 30
0.0
 10
125.9262138313
 20
294.1582439434
 30
0.0
 10
125.9423465008
 20
294.1472288741
 30
0.0
 10
125.9689140986
 20
294.1312974535
 30
0.0
 10
126.0002153304
 20
294.1135186652
 30
0.0
 10
126.024269044
 20
294.0835169444
 30
0.0
 10
126.0471634587
 20
294.0530935711
 30
0.0
 10
126.0822265848
 20
294.0281852734
 30
0.0
 10
126.1329992112
 20
293.9994376695
 30
0.0
 10
126.1231387373
 20
293.9791123949
 30
0.0
  0
SPLINE
  5
39B
100
AcDbEntity
  8
94673901000_BL5
100
AcDbSpline
 62
9
  6
CONTINUOUS
 70
0
 71
3
 72
9
 73
5
 74
0
 42
0.0000001
 43
0.0000001
 44
0.0000000001
 40
0.0
 40
0.0
 40
0.0
 40
0.0
 40
0.507127267
 40
1.0
 40
1.0
 40
1.0
 40
1.0
 10
133.6265842058
 20
294.0953328074
 30
0.0
 10
133.6092065324
 20
294.0748406134
 30
0.0
 10
133.5848656786
 20
294.0367979529
 30
0.0
 10
133.5067884625
 20
294.0026068081
 30
0.0
 10
133.518186392
 20
293.9791123949
 30
0.0
  0
SPLINE
  5
39C
100
AcDbEntity
  8
94673901000_BL5
100
AcDbSpline
 62
9
  6
CONTINUOUS
 70
0
 71
3
 72
9
 73
5
 74
0
 42
0.0000001
 43
0.0000001
 44
0.0000000001
 40
0.0
 40
0.0
 40
0.0
 40
0.0
 40
0.5004894952
 40
1.0
 40
1.0
 40
1.0
 40
1.0
 10
134.956670965
 20
258.2196110282
 30
0.0
 10
134.8259460114
 20
257.8335969477
 30
0.0
 10
134.3114283509
 20
257.126937985
 30
0.0
 10
133.4802394729
 20
256.8550952172
 30
0.0
 10
133.0735123144
 20
256.8506512363
 30
0.0
  0
SPLINE
  5
39D
100
AcDbEntity
  8
94673901000_BL5
100
AcDbSpline
 62
9
  6
CONTINUOUS
 70
0
 71
3
 72
11
 73
7
 74
0
 42
0.0000001
 43
0.0000001
 44
0.0000000001
 40
0.0
 40
0.0
 40
0.0
 40
0.0
 40
0.2496681654
 40
0.5
 40
0.7503318346
 40
1.0
 40
1.0
 40
1.0
 40
1.0
 10
126.567812815
 20
256.8506512363
 30
0.0
 10
126.3103170418
 20
256.8534646857
 30
0.0
 10
125.7903221351
 20
256.9616776097
 30
0.0
 10
125.1334699251
 20
257.4053521371
 30
0.0
 10
124.6897953976
 20
258.0622043471
 30
0.0
 10
124.5815824737
 20
258.5821992539
 30
0.0
 10
124.5787690242
 20
258.8396950271
 30
0.0
  0
SPLINE
  5
39E
100
AcDbEntity
  8
94673901000_BL5
100
AcDbSpline
 62
9
  6
CONTINUOUS
 70
0
 71
3
 72
11
 73
7
 74
0
 42
0.0000001
 43
0.0000001
 44
0.0000000001
 40
0.0
 40
0.0
 40
0.0
 40
0.0
 40
0.2496374777
 40
0.5
 40
0.7503625223
 40
1.0
 40
1.0
 40
1.0
 40
1.0
 10
126.1231387376
 20
256.405977159
 30
0.0
 10
125.8656726578
 20
256.4087902848
 30
0.0
 10
125.3457114317
 20
256.5170509416
 30
0.0
 10
124.6886688565
 20
256.9605510686
 30
0.0
 10
124.2451687295
 20
257.6175936438
 30
0.0
 10
124.1369080727
 20
258.1375548699
 30
0.0
 10
124.1340949469
 20
258.3950209497
 30
0.0
  0
SPLINE
  5
39F
100
AcDbEntity
  8
94673901000_BL5
100
AcDbSpline
 62
9
  6
CONTINUOUS
 70
0
 71
3
 72
11
 73
7
 74
0
 42
0.0000001
 43
0.0000001
 44
0.0000000001
 40
0.0
 40
0.0
 40
0.0
 40
0.0
 40
0.2496681654
 40
0.5
 40
0.7503318346
 40
1.0
 40
1.0
 40
1.0
 40
1.0
 10
124.5787690242
 20
291.5453945265
 30
0.0
 10
124.5815824737
 20
291.8028902997
 30
0.0
 10
124.6897953976
 20
292.3228852065
 30
0.0
 10
125.1334699251
 20
292.9797374165
 30
0.0
 10
125.7903221351
 20
293.4234119439
 30
0.0
 10
126.3103170418
 20
293.5316248679
 30
0.0
 10
126.567812815
 20
293.5344383172
 30
0.0
  0
SPLINE
  5
3A0
100
AcDbEntity
  8
94673901000_BL5
100
AcDbSpline
 62
9
  6
CONTINUOUS
 70
0
 71
3
 72
11
 73
7
 74
0
 42
0.0000001
 43
0.0000001
 44
0.0000000001
 40
0.0
 40
0.0
 40
0.0
 40
0.0
 40
0.2496374777
 40
0.5
 40
0.7503625223
 40
1.0
 40
1.0
 40
1.0
 40
1.0
 10
124.1340949469
 20
291.9900686039
 30
0.0
 10
124.1369080727
 20
292.2475346837
 30
0.0
 10
124.2451687295
 20
292.7674959098
 30
0.0
 10
124.6886688565
 20
293.424538485
 30
0.0
 10
125.3457114317
 20
293.868038612
 30
0.0
 10
125.8656726578
 20
293.9762992688
 30
0.0
 10
126.1231387376
 20
293.9791123946
 30
0.0
  0
SPLINE
  5
3A1
100
AcDbEntity
  8
94673901000_BL5
100
AcDbSpline
 62
9
  6
CONTINUOUS
 70
0
 71
3
 72
9
 73
5
 74
0
 42
0.0000001
 43
0.0000001
 44
0.0000000001
 40
0.0
 40
0.0
 40
0.0
 40
0.0
 40
0.4995105048
 40
1.0
 40
1.0
 40
1.0
 40
1.0
 10
133.0735123144
 20
293.5344383172
 30
0.0
 10
133.4802394729
 20
293.5299943364
 30
0.0
 10
134.3114283509
 20
293.2581515686
 30
0.0
 10
134.8259460114
 20
292.5514926059
 30
0.0
 10
134.956670965
 20
292.1654785254
 30
0.0
  0
SPLINE
  5
3A2
100
AcDbEntity
  8
94673901000_BL5
100
AcDbSpline
 62
7
  6
CONTINUOUS
 70
0
 71
3
 72
13
 73
9
 74
0
 42
0.0000001
 43
0.0000001
 44
0.0000000001
 40
0.0
 40
0.0
 40
0.0
 40
0.0
 40
0.023535275
 40
0.0753518635
 40
0.1578016021
 40
0.2707521577
 40
0.5831769056
 40
1.0
 40
1.0
 40
1.0
 40
1.0
 10
32.6598577955
 20
255.1925895467
 30
0.0
 10
32.6676905219
 20
255.1934127994
 30
0.0
 10
32.6810050104
 20
255.2217958617
 30
0.0
 10
32.6909248637
 20
255.2692171361
 30
0.0
 10
32.7022950135
 20
255.3535440418
 30
0.0
 10
32.7148169196
 20
255.5217343736
 30
0.0
 10
32.7236705379
 20
255.8044886197
 30
0.0
 10
32.7243635034
 20
256.0482005998
 30
0.0
 10
32.7236263176
 20
256.1876848074
 30
0.0
  0
SPLINE
  5
3A3
100
AcDbEntity
  8
94673901000_BL5
100
AcDbSpline
 62
7
  6
CONTINUOUS
 70
0
 71
3
 72
9
 73
5
 74
0
 42
0.0000001
 43
0.0000001
 44
0.0000000001
 40
0.0
 40
0.0
 40
0.0
 40
0.0
 40
0.2192185014
 40
1.0
 40
1.0
 40
1.0
 40
1.0
 10
32.7236263176
 20
256.1876848074
 30
0.0
 10
32.7228579558
 20
256.3330678651
 30
0.0
 10
32.7132949799
 20
256.9962182486
 30
0.0
 10
32.6867371071
 20
257.6590412734
 30
0.0
 10
32.6598577955
 20
258.1761552328
 30
0.0
  0
SPLINE
  5
3A4
100
AcDbEntity
  8
94673901000_BL5
100
AcDbSpline
 62
9
  6
CONTINUOUS
 70
0
 71
3
 72
14
 73
10
 74
0
 42
0.0000001
 43
0.0000001
 44
0.0000000001
 40
0.0
 40
0.0
 40
0.0
 40
0.0
 40
0.3776820376
 40
0.5481208497
 40
0.6976595954
 40
0.820892234
 40
0.9133709115
 40
0.9724701644
 40
1.0
 40
1.0
 40
1.0
 40
1.0
 10
38.9730172285
 20
258.8396950271
 30
0.0
 10
39.0122516519
 20
258.4622807207
 30
0.0
 10
39.0588453333
 20
257.9131802237
 30
0.0
 10
39.0938579135
 20
257.2134789132
 30
0.0
 10
39.1026439992
 20
256.7672216827
 30
0.0
 10
39.0979444863
 20
256.4029692695
 30
0.0
 10
39.0733358272
 20
256.1206720832
 30
0.0
 10
39.0479445916
 20
255.9562819999
 30
0.0
 10
39.0005242824
 20
255.8590204482
 30
0.0
 10
38.9730172285
 20
255.856129341
 30
0.0
  0
SPLINE
  5
3A5
100
AcDbEntity
  8
94673901000_BL5
100
AcDbSpline
 62
9
  6
CONTINUOUS
 70
0
 71
3
 72
14
 73
10
 74
0
 42
0.0000001
 43
0.0000001
 44
0.0000000001
 40
0.0
 40
0.0
 40
0.0
 40
0.0
 40
0.0275298356
 40
0.0866290885
 40
0.179107766
 40
0.3023404046
 40
0.4518791503
 40
0.6223179624
 40
1.0
 40
1.0
 40
1.0
 40
1.0
 10
38.9730172285
 20
294.5289602126
 30
0.0
 10
39.0005242824
 20
294.5260691054
 30
0.0
 10
39.0479445916
 20
294.4288075537
 30
0.0
 10
39.0733358272
 20
294.2644174704
 30
0.0
 10
39.0979444863
 20
293.9821202841
 30
0.0
 10
39.1026439992
 20
293.6178678709
 30
0.0
 10
39.0938579135
 20
293.1716106404
 30
0.0
 10
39.0588453333
 20
292.4719093299
 30
0.0
 10
39.0122516519
 20
291.9228088329
 30
0.0
 10
38.9730172285
 20
291.5453945265
 30
0.0
  0
SPLINE
  5
3A6
100
AcDbEntity
  8
94673901000_BL5
100
AcDbSpline
 62
7
  6
CONTINUOUS
 70
0
 71
3
 72
13
 73
9
 74
0
 42
0.0000001
 43
0.0000001
 44
0.0000000001
 40
0.0
 40
0.0
 40
0.0
 40
0.0
 40
0.0235352288
 40
0.0753518244
 40
0.1578016002
 40
0.2707522048
 40
0.5831770189
 40
1.0
 40
1.0
 40
1.0
 40
1.0
 10
32.6598577955
 20
295.1925000069
 30
0.0
 10
32.6676905872
 20
295.1916767474
 30
0.0
 10
32.6810051187
 20
295.1632933298
 30
0.0
 10
32.6909250178
 20
295.115871598
 30
0.0
 10
32.7022951941
 20
295.0315437571
 30
0.0
 10
32.7148171068
 20
294.863351647
 30
0.0
 10
32.7236706544
 20
294.5805944739
 30
0.0
 10
32.724363517
 20
294.3368800024
 30
0.0
 10
32.7236262629
 20
294.1973943964
 30
0.0
  0
SPLINE
  5
3A7
100
AcDbEntity
  8
94673901000_BL5
100
AcDbSpline
 62
7
  6
CONTINUOUS
 70
0
 71
3
 72
9
 73
5
 74
0
 42
0.0000001
 43
0.0000001
 44
0.0000000001
 40
0.0
 40
0.0
 40
0.0
 40
0.0
 40
0.2192189109
 40
1.0
 40
1.0
 40
1.0
 40
1.0
 10
32.7236262629
 20
294.1973943964
 30
0.0
 10
32.7228578402
 20
294.0520118237
 30
0.0
 10
32.7132947142
 20
293.388864893
 30
0.0
 10
32.6867369532
 20
292.7260453194
 30
0.0
 10
32.6598577955
 20
292.2089343208
 30
0.0
  0
ELLIPSE
  5
3A8
100
AcDbEntity
  8
94673901000_BL5
100
AcDbEllipse
 62
7
  6
CONTINUOUS
 10
61.2025252014
 20
258.1925447768
 30
0.0
 11
28.5430933627
 21
0.0
 31
0.0
 40
0.1051042353
 41
-3.1415926536
 42
-3.1361294451
  0
ELLIPSE
  5
3A9
100
AcDbEntity
  8
94673901000_BL5
100
AcDbEllipse
 62
7
  6
CONTINUOUS
 10
61.2025252014
 20
292.1925447768
 30
0.0
 11
28.5430933627
 21
0.0
 31
0.0
 40
0.1051042353
 41
3.1361294451
 42
3.1415926536
  0
ENDBLK
  5
3AA
100
AcDbEntity
  8
0
  6
BYBLOCK
 62
0
100
AcDbBlockEnd
  0
BLOCK
  5
3AB
100
AcDbEntity
  8
94528905000_M_BL6
100
AcDbBlockBegin
  2
94528905000_M_BL6
 70
64
 10
82.9914443762
 20
305.2925447768
  3
94528905000_M_BL6
  1

  0
LINE
  5
3AC
100
AcDbEntity
  8
94528905000_M_BL6
100
AcDbLine
 62
7
  6
CONTINUOUS
 10
128.9456625647
 20
304.7770003202
 11
130.6956625647
 21
304.7770003202
  0
LINE
  5
3AD
100
AcDbEntity
  8
94528905000_M_BL6
100
AcDbLine
 62
7
  6
CONTINUOUS
 10
130.6956625647
 20
307.8080892334
 11
128.9456625647
 21
307.8080892334
  0
LINE
  5
3AE
100
AcDbEntity
  8
94528905000_M_BL6
100
AcDbLine
 62
7
  6
CONTINUOUS
 10
128.0706625647
 20
306.2925447768
 11
128.9456625647
 21
304.7770003202
  0
LINE
  5
3AF
100
AcDbEntity
  8
94528905000_M_BL6
100
AcDbLine
 62
7
  6
CONTINUOUS
 10
131.5706625647
 20
306.2925447768
 11
130.6956625647
 21
307.8080892334
  0
LINE
  5
3B0
100
AcDbEntity
  8
94528905000_M_BL6
100
AcDbLine
 62
7
  6
CONTINUOUS
 10
128.9456625647
 20
307.8080892334
 11
128.0706625647
 21
306.2925447768
  0
LINE
  5
3B1
100
AcDbEntity
  8
94528905000_M_BL6
100
AcDbLine
 62
7
  6
CONTINUOUS
 10
130.6956625647
 20
304.7770003202
 11
131.5706625647
 21
306.2925447768
  0
CIRCLE
  5
3B2
100
AcDbEntity
  8
94528905000_M_BL6
100
AcDbCircle
 62
7
  6
CONTINUOUS
 10
129.8206625647
 20
305.2925447768
 40
5.5
  0
CIRCLE
  5
3B3
100
AcDbEntity
  8
94528905000_M_BL6
100
AcDbCircle
 62
7
  6
CONTINUOUS
 10
129.8206625647
 20
306.2925447768
 40
1.75
  0
CIRCLE
  5
3B4
100
AcDbEntity
  8
94528905000_M_BL6
100
AcDbCircle
 62
7
  6
CONTINUOUS
 10
129.8206625647
 20
306.2925447768
 40
1.515
  0
CIRCLE
  5
3B5
100
AcDbEntity
  8
94528905000_M_BL6
100
AcDbCircle
 62
7
  6
CONTINUOUS
 10
129.8206625647
 20
302.7925447768
 40
0.75
  0
ARC
  5
3B6
100
AcDbEntity
  8
94528905000_M_BL6
100
AcDbCircle
 62
7
  6
CONTINUOUS
 10
27.3136805277
 20
306.2925447768
 40
4.0
100
AcDbArc
 50
326.8389561101
 51
33.1610438899
  0
ENDBLK
  5
3B7
100
AcDbEntity
  8
0
  6
BYBLOCK
 62
0
100
AcDbBlockEnd
  0
BLOCK
  5
3B8
100
AcDbEntity
  8
94673901000_BL7
100
AcDbBlockBegin
  2
94673901000_BL7
 70
64
 10
79.091825931
 20
940.3120359709
  3
94673901000_BL7
  1

  0
LINE
  5
3B9
100
AcDbEntity
  8
94673901000_BL7
100
AcDbLine
 62
7
  6
CONTINUOUS
 10
129.8206625647
 20
1764.0378442384
 11
131.8206625647
 21
1765.1925447768
  0
LINE
  5
3BA
100
AcDbEntity
  8
94673901000_BL7
100
AcDbLine
 62
9
  6
CONTINUOUS
 10
133.0735123144
 20
1783.5344383172
 11
133.518186392
 21
1783.9791123949
  0
LINE
  5
3BB
100
AcDbEntity
  8
94673901000_BL7
100
AcDbLine
 62
9
  6
CONTINUOUS
 10
124.5787690242
 20
1748.8396950271
 11
124.1340949466
 21
1748.3950209495
  0
LINE
  5
3BC
100
AcDbEntity
  8
94673901000_BL7
100
AcDbLine
 62
9
  6
CONTINUOUS
 10
126.567812815
 20
1746.8506512363
 11
126.1231387373
 21
1746.4059771587
  0
LINE
  5
3BD
100
AcDbEntity
  8
94673901000_BL7
100
AcDbLine
 62
7
  6
CONTINUOUS
 10
123.9261708442
 20
1748.1926022966
 11
123.9261708442
 21
1782.192487257
  0
LINE
  5
3BE
100
AcDbEntity
  8
94673901000_BL7
100
AcDbLine
 62
9
  6
CONTINUOUS
 10
124.5787690242
 20
1748.8396950271
 11
124.5787690242
 21
1781.5453945265
  0
LINE
  5
3BF
100
AcDbEntity
  8
94673901000_BL7
100
AcDbLine
 62
9
  6
CONTINUOUS
 10
126.567812815
 20
1746.8506512363
 11
126.567812815
 21
1783.5344383172
  0
LINE
  5
3C0
100
AcDbEntity
  8
94673901000_BL7
100
AcDbLine
 62
7
  6
CONTINUOUS
 10
128.3206625647
 20
1765.5925447768
 11
128.3206625647
 21
1764.7925447768
  0
LINE
  5
3C1
100
AcDbEntity
  8
94673901000_BL7
100
AcDbLine
 62
7
  6
CONTINUOUS
 10
129.8206625647
 20
1766.3472453152
 11
129.8206625647
 21
1765.5925447768
  0
LINE
  5
3C2
100
AcDbEntity
  8
94673901000_BL7
100
AcDbLine
 62
7
  6
CONTINUOUS
 10
129.8206625647
 20
1764.7925447768
 11
129.8206625647
 21
1764.0378442384
  0
LINE
  5
3C3
100
AcDbEntity
  8
94673901000_BL7
100
AcDbLine
 62
9
  6
CONTINUOUS
 10
133.0735123144
 20
1746.8506512363
 11
133.0735123144
 21
1783.5344383172
  0
LINE
  5
3C4
100
AcDbEntity
  8
94673901000_BL7
100
AcDbLine
 62
9
  6
CONTINUOUS
 10
133.518186392
 20
1746.4059771587
 11
133.0735123144
 21
1746.8506512363
  0
LINE
  5
3C5
100
AcDbEntity
  8
94673901000_BL7
100
AcDbLine
 62
9
  6
CONTINUOUS
 10
124.1340949466
 20
1781.9900686041
 11
124.5787690242
 21
1781.5453945265
  0
LINE
  5
3C6
100
AcDbEntity
  8
94673901000_BL7
100
AcDbLine
 62
9
  6
CONTINUOUS
 10
126.1231387373
 20
1783.9791123949
 11
126.567812815
 21
1783.5344383172
  0
LINE
  5
3C7
100
AcDbEntity
  8
94673901000_BL7
100
AcDbLine
 62
7
  6
CONTINUOUS
 10
131.8206625647
 20
1765.1925447768
 11
129.8206625647
 21
1766.3472453152
  0
LINE
  5
3C8
100
AcDbEntity
  8
94673901000_BL7
100
AcDbLine
 62
9
  6
CONTINUOUS
 10
133.0735123144
 20
1746.8506512363
 11
126.567812815
 21
1746.8506512363
  0
LINE
  5
3C9
100
AcDbEntity
  8
94673901000_BL7
100
AcDbLine
 62
9
  6
CONTINUOUS
 10
123.6206625647
 20
1748.1925447768
 11
123.9207005528
 21
1748.1925447768
  0
LINE
  5
3CA
100
AcDbEntity
  8
94673901000_BL7
100
AcDbLine
 62
9
  6
CONTINUOUS
 10
124.5787690242
 20
1748.8396950271
 11
135.0206625647
 21
1748.8396950271
  0
LINE
  5
3CB
100
AcDbEntity
  8
94673901000_BL7
100
AcDbLine
 62
7
  6
CONTINUOUS
 10
128.3206625647
 20
1764.7925447768
 11
129.8206625647
 21
1764.7925447768
  0
LINE
  5
3CC
100
AcDbEntity
  8
94673901000_BL7
100
AcDbLine
 62
7
  6
CONTINUOUS
 10
129.8206625647
 20
1765.5925447768
 11
128.3206625647
 21
1765.5925447768
  0
LINE
  5
3CD
100
AcDbEntity
  8
94673901000_BL7
100
AcDbLine
 62
9
  6
CONTINUOUS
 10
124.5787690242
 20
1781.5453945265
 11
135.0206625647
 21
1781.5453945265
  0
LINE
  5
3CE
100
AcDbEntity
  8
94673901000_BL7
100
AcDbLine
 62
9
  6
CONTINUOUS
 10
123.9207005528
 20
1782.1925447768
 11
123.6206625647
 21
1782.1925447768
  0
LINE
  5
3CF
100
AcDbEntity
  8
94673901000_BL7
100
AcDbLine
 62
9
  6
CONTINUOUS
 10
126.567812815
 20
1783.5344383172
 11
133.0735123144
 21
1783.5344383172
  0
LINE
  5
3D0
100
AcDbEntity
  8
94673901000_BL7
100
AcDbLine
 62
7
  6
CONTINUOUS
 10
32.6594318387
 20
1748.1925447768
 11
32.6594318387
 21
1782.1925447768
  0
LINE
  5
3D1
100
AcDbEntity
  8
94673901000_BL7
100
AcDbLine
 62
9
  6
CONTINUOUS
 10
38.9730172285
 20
1781.5453945265
 11
38.9730172285
 21
1748.8396950271
  0
LINE
  5
3D2
100
AcDbEntity
  8
94673901000_BL7
100
AcDbLine
 62
7
  6
CONTINUOUS
 10
41.6594318387
 20
1781.5453945265
 11
41.6594318387
 21
1748.8396950271
  0
LINE
  5
3D3
100
AcDbEntity
  8
94673901000_BL7
100
AcDbLine
 62
7
  6
CONTINUOUS
 10
41.8594318387
 20
1766.3472453152
 11
41.8594318387
 21
1764.0378442384
  0
LINE
  5
3D4
100
AcDbEntity
  8
94673901000_BL7
100
AcDbLine
 62
7
  6
CONTINUOUS
 10
32.6594436502
 20
1745.1925460182
 11
38.9730172285
 21
1745.856129341
  0
LINE
  5
3D5
100
AcDbEntity
  8
94673901000_BL7
100
AcDbLine
 62
9
  6
CONTINUOUS
 10
32.6598577955
 20
1748.1761552328
 11
38.9730172285
 21
1748.8396950271
  0
LINE
  5
3D6
100
AcDbEntity
  8
94673901000_BL7
100
AcDbLine
 62
7
  6
CONTINUOUS
 10
32.6594554794
 20
1745.1925447768
 11
30.6594318387
 21
1745.1925447768
  0
LINE
  5
3D7
100
AcDbEntity
  8
94673901000_BL7
100
AcDbLine
 62
9
  6
CONTINUOUS
 10
32.6594318387
 20
1748.1925447768
 11
30.6594318387
 21
1748.1925447768
  0
LINE
  5
3D8
100
AcDbEntity
  8
94673901000_BL7
100
AcDbLine
 62
9
  6
CONTINUOUS
 10
41.6594318387
 20
1748.8396950271
 11
38.9730172286
 21
1748.8396950349
  0
LINE
  5
3D9
100
AcDbEntity
  8
94673901000_BL7
100
AcDbLine
 62
7
  6
CONTINUOUS
 10
41.6594318387
 20
1764.0378442384
 11
41.8594318387
 21
1764.0378442384
  0
LINE
  5
3DA
100
AcDbEntity
  8
94673901000_BL7
100
AcDbLine
 62
7
  6
CENTER
 10
23.1594318387
 20
1765.1925447768
 11
44.8594318387
 21
1765.1925447768
  0
LINE
  5
3DB
100
AcDbEntity
  8
94673901000_BL7
100
AcDbLine
 62
7
  6
CONTINUOUS
 10
41.6594318387
 20
1765.1925447768
 11
41.8594318387
 21
1765.1925447768
  0
LINE
  5
3DC
100
AcDbEntity
  8
94673901000_BL7
100
AcDbLine
 62
7
  6
CONTINUOUS
 10
41.6594318387
 20
1766.3472453152
 11
41.8594318387
 21
1766.3472453152
  0
LINE
  5
3DD
100
AcDbEntity
  8
94673901000_BL7
100
AcDbLine
 62
9
  6
CONTINUOUS
 10
41.6594318387
 20
1781.5453945265
 11
38.9730172285
 21
1781.5453945265
  0
LINE
  5
3DE
100
AcDbEntity
  8
94673901000_BL7
100
AcDbLine
 62
9
  6
CONTINUOUS
 10
30.6594318387
 20
1782.1925447768
 11
32.6594318387
 21
1782.1925447768
  0
LINE
  5
3DF
100
AcDbEntity
  8
94673901000_BL7
100
AcDbLine
 62
7
  6
CONTINUOUS
 10
30.6594318387
 20
1785.1925447768
 11
32.6594554794
 21
1785.1925447768
  0
LINE
  5
3E0
100
AcDbEntity
  8
94673901000_BL7
100
AcDbLine
 62
9
  6
CONTINUOUS
 10
38.9730172285
 20
1781.5453945265
 11
32.6598577955
 21
1782.2089343208
  0
LINE
  5
3E1
100
AcDbEntity
  8
94673901000_BL7
100
AcDbLine
 62
7
  6
CONTINUOUS
 10
38.9730172285
 20
1784.5289602126
 11
32.6598577955
 21
1785.1925000069
  0
LINE
  5
3E2
100
AcDbEntity
  8
94673901000_BL7
100
AcDbLine
 62
7
  6
CONTINUOUS
 10
38.9730172285
 20
96.0951117291
 11
32.6598577955
 21
95.4315719348
  0
LINE
  5
3E3
100
AcDbEntity
  8
94673901000_BL7
100
AcDbLine
 62
7
  6
CONTINUOUS
 10
26.8605043074
 20
95.4315271649
 11
28.7594318387
 21
95.4315271649
  0
LINE
  5
3E4
100
AcDbEntity
  8
94673901000_BL7
100
AcDbLine
 62
7
  6
CONTINUOUS
 10
28.7594318387
 20
95.4315271649
 11
32.6594318387
 21
95.4315271649
  0
LINE
  5
3E5
100
AcDbEntity
  8
94673901000_BL7
100
AcDbLine
 62
7
  6
CONTINUOUS
 10
28.7594318387
 20
109.2315271649
 11
28.7594318387
 21
95.4315271649
  0
LINE
  5
3E6
100
AcDbEntity
  8
94673901000_BL7
100
AcDbLine
 62
9
  6
CONTINUOUS
 10
38.9730172285
 20
99.0786774152
 11
32.6598577955
 21
98.4151376209
  0
LINE
  5
3E7
100
AcDbEntity
  8
94673901000_BL7
100
AcDbLine
 62
9
  6
CONTINUOUS
 10
29.9594318387
 20
98.4315271649
 11
32.6594318387
 21
98.4315271649
  0
LINE
  5
3E8
100
AcDbEntity
  8
94673901000_BL7
100
AcDbLine
 62
9
  6
CONTINUOUS
 10
41.6594318387
 20
99.0786774152
 11
38.9730172287
 21
99.0786774291
  0
LINE
  5
3E9
100
AcDbEntity
  8
94673901000_BL7
100
AcDbLine
 62
9
  6
CONTINUOUS
 10
29.7594318387
 20
95.4315271649
 11
29.7594318387
 21
98.3315271649
  0
LINE
  5
3EA
100
AcDbEntity
  8
94673901000_BL7
100
AcDbLine
 62
9
  6
CONTINUOUS
 10
29.7594318387
 20
106.3315271649
 11
29.7594318387
 21
109.2315271649
  0
LINE
  5
3EB
100
AcDbEntity
  8
94673901000_BL7
100
AcDbLine
 62
7
  6
CONTINUOUS
 10
41.6594318387
 20
100.3315271649
 11
41.8594318387
 21
100.3315271649
  0
LINE
  5
3EC
100
AcDbEntity
  8
94673901000_BL7
100
AcDbLine
 62
7
  6
CONTINUOUS
 10
41.6594318387
 20
102.3315271649
 11
41.8594318387
 21
102.3315271649
  0
LINE
  5
3ED
100
AcDbEntity
  8
94673901000_BL7
100
AcDbLine
 62
7
  6
CONTINUOUS
 10
32.6594318387
 20
98.4315271649
 11
32.6594318387
 21
106.2315271649
  0
LINE
  5
3EE
100
AcDbEntity
  8
94673901000_BL7
100
AcDbLine
 62
7
  6
CONTINUOUS
 10
41.6594318387
 20
103.8315271649
 11
41.8594318387
 21
103.8315271649
  0
LINE
  5
3EF
100
AcDbEntity
  8
94673901000_BL7
100
AcDbLine
 62
9
  6
CONTINUOUS
 10
41.6594318387
 20
105.5843769146
 11
38.9730172285
 21
105.5843769146
  0
LINE
  5
3F0
100
AcDbEntity
  8
94673901000_BL7
100
AcDbLine
 62
9
  6
CONTINUOUS
 10
32.6594318387
 20
106.2315271649
 11
29.9594318387
 21
106.2315271649
  0
LINE
  5
3F1
100
AcDbEntity
  8
94673901000_BL7
100
AcDbLine
 62
9
  6
CONTINUOUS
 10
32.6598577955
 20
106.247916709
 11
38.9730172285
 21
105.5843769146
  0
LINE
  5
3F2
100
AcDbEntity
  8
94673901000_BL7
100
AcDbLine
 62
9
  6
CONTINUOUS
 10
38.9730172285
 20
105.5843769146
 11
38.9730172285
 21
99.0786774152
  0
LINE
  5
3F3
100
AcDbEntity
  8
94673901000_BL7
100
AcDbLine
 62
7
  6
CONTINUOUS
 10
26.8605043074
 20
109.2315271649
 11
28.7594318387
 21
109.2315271649
  0
LINE
  5
3F4
100
AcDbEntity
  8
94673901000_BL7
100
AcDbLine
 62
7
  6
CONTINUOUS
 10
28.7594318387
 20
109.2315271649
 11
32.6594318387
 21
109.2315271649
  0
LINE
  5
3F5
100
AcDbEntity
  8
94673901000_BL7
100
AcDbLine
 62
7
  6
CONTINUOUS
 10
32.6598577955
 20
109.2314823951
 11
38.9730172285
 21
108.5679426007
  0
LINE
  5
3F6
100
AcDbEntity
  8
94673901000_BL7
100
AcDbLine
 62
7
  6
CONTINUOUS
 10
41.6594318387
 20
105.5843769146
 11
41.6594318387
 21
99.0786774152
  0
LINE
  5
3F7
100
AcDbEntity
  8
94673901000_BL7
100
AcDbLine
 62
7
  6
CONTINUOUS
 10
41.8594318387
 20
103.8315271649
 11
41.8594318387
 21
100.3315271649
  0
ARC
  5
3F8
100
AcDbEntity
  8
94673901000_BL7
100
AcDbCircle
 62
7
  6
CONTINUOUS
 10
125.9313058816
 20
1782.1599656411
 40
2.0327511965
100
AcDbArc
 50
98.3271761057
 51
103.9682282897
  0
ARC
  5
3F9
100
AcDbEntity
  8
94673901000_BL7
100
AcDbCircle
 62
7
  6
CONTINUOUS
 10
125.9312926287
 20
1748.2250490548
 40
2.0326753595
100
AcDbArc
 50
256.0316145021
 51
261.3540527653
  0
ARC
  5
3FA
100
AcDbEntity
  8
94673901000_BL7
100
AcDbCircle
 62
7
  6
CONTINUOUS
 10
125.9287283687
 20
1748.2145600593
 40
2.0218775562
100
AcDbArc
 50
253.6053211146
 51
256.030382676
  0
ARC
  5
3FB
100
AcDbEntity
  8
94673901000_BL7
100
AcDbCircle
 62
7
  6
CONTINUOUS
 10
125.9287281761
 20
1782.1705303908
 40
2.0218766336
100
AcDbArc
 50
103.9696077068
 51
106.3951342492
  0
ARC
  5
3FC
100
AcDbEntity
  8
94673901000_BL7
100
AcDbCircle
 62
7
  6
CONTINUOUS
 10
125.9199264928
 20
1748.1935762606
 40
1.9992641942
100
AcDbArc
 50
180.029560712
 51
253.6775766837
  0
ARC
  5
3FD
100
AcDbEntity
  8
94673901000_BL7
100
AcDbCircle
 62
7
  6
CONTINUOUS
 10
125.9199264128
 20
1782.1915133234
 40
1.9992641142
100
AcDbArc
 50
106.3228799202
 51
179.970440159
  0
ARC
  5
3FE
100
AcDbEntity
  8
94673901000_BL7
100
AcDbCircle
 62
9
  6
CONTINUOUS
 10
133.493602432
 20
1781.9672349104
 40
2.0120276794
100
AcDbArc
 50
73.0166699288
 51
89.2999141102
  0
ARC
  5
3FF
100
AcDbEntity
  8
94673901000_BL7
100
AcDbCircle
 62
9
  6
CONTINUOUS
 10
133.4936032412
 20
1748.4178497788
 40
2.0120228054
100
AcDbArc
 50
270.7000645416
 51
286.9806663762
  0
ARC
  5
400
100
AcDbEntity
  8
94673901000_BL7
100
AcDbCircle
 62
9
  6
CONTINUOUS
 10
133.0527374331
 20
1748.8638366125
 40
2.0099748626
100
AcDbArc
 50
341.5926574538
 51
348.768839775
  0
ARC
  5
401
100
AcDbEntity
  8
94673901000_BL7
100
AcDbCircle
 62
9
  6
CONTINUOUS
 10
133.0527374331
 20
1781.5212529411
 40
2.0099748626
100
AcDbArc
 50
11.231160225
 51
18.4073425462
  0
ARC
  5
402
100
AcDbEntity
  8
94673901000_BL7
100
AcDbCircle
 62
9
  6
CONTINUOUS
 10
133.071545313
 20
1781.527073757
 40
1.9902912782
100
AcDbArc
 50
18.4193176022
 51
18.7088604061
  0
ARC
  5
403
100
AcDbEntity
  8
94673901000_BL7
100
AcDbCircle
 62
9
  6
CONTINUOUS
 10
133.0715453742
 20
1748.8580157761
 40
1.9902912137
100
AcDbArc
 50
341.2911395887
 51
341.5806824021
  0
ARC
  5
404
100
AcDbEntity
  8
94673901000_BL7
100
AcDbCircle
 62
7
  6
CONTINUOUS
 10
38.6594318387
 20
1781.5453945265
 40
3.0
100
AcDbArc
 50
0.0
 51
83.9999999972
  0
ARC
  5
405
100
AcDbEntity
  8
94673901000_BL7
100
AcDbCircle
 62
7
  6
CONTINUOUS
 10
38.6594318387
 20
1748.8396950271
 40
3.0
100
AcDbArc
 50
276.0
 51
360.0
  0
ARC
  5
406
100
AcDbEntity
  8
94673901000_BL7
100
AcDbCircle
 62
7
  6
CONTINUOUS
 10
10.6308010708
 20
96.3087040308
 40
22.093140514
100
AcDbArc
 50
0.0041115978
 51
0.3199885924
  0
ARC
  5
407
100
AcDbEntity
  8
94673901000_BL7
100
AcDbCircle
 62
7
  6
CONTINUOUS
 10
10.6309405949
 20
108.35435004
 40
22.0930009899
100
AcDbArc
 50
359.6800370647
 51
359.9958890481
  0
ARC
  5
408
100
AcDbEntity
  8
94673901000_BL7
100
AcDbCircle
 62
7
  6
CONTINUOUS
 10
38.6594318387
 20
105.5843769146
 40
3.0
100
AcDbArc
 50
0.0
 51
83.9999999991
  0
ARC
  5
409
100
AcDbEntity
  8
94673901000_BL7
100
AcDbCircle
 62
7
  6
CONTINUOUS
 10
38.6594318387
 20
99.0786774152
 40
3.0
100
AcDbArc
 50
276.0
 51
360.0
  0
SPLINE
  5
40A
100
AcDbEntity
  8
94673901000_BL7
100
AcDbSpline
 62
9
  6
CONTINUOUS
 70
0
 71
3
 72
15
 73
11
 74
0
 42
0.0000001
 43
0.0000001
 44
0.0000000001
 40
0.0
 40
0.0
 40
0.0
 40
0.0
 40
0.0496003836
 40
0.098122615
 40
0.1682822838
 40
0.2520846427
 40
0.4081783296
 40
0.5242973605
 40
0.7764562012
 40
1.0
 40
1.0
 40
1.0
 40
1.0
 10
123.9261708442
 20
1748.1926022966
 30
0.0
 10
123.9292443467
 20
1748.188614705
 30
0.0
 10
123.9392465881
 20
1748.1812678757
 30
0.0
 10
123.9548846764
 20
1748.1932211068
 30
0.0
 10
123.9659735227
 20
1748.2097384364
 30
0.0
 10
123.9819371863
 20
1748.2371453935
 30
0.0
 10
123.9993150163
 20
1748.2690818156
 30
0.0
 10
124.0419082294
 20
1748.3037980023
 30
0.0
 10
124.0788830198
 20
1748.3386638661
 30
0.0
 10
124.1136760323
 20
1748.4049166724
 30
0.0
 10
124.1340949466
 20
1748.3950209495
 30
0.0
  0
SPLINE
  5
40B
100
AcDbEntity
  8
94673901000_BL7
100
AcDbSpline
 62
9
  6
CONTINUOUS
 70
0
 71
3
 72
15
 73
11
 74
0
 42
0.0000001
 43
0.0000001
 44
0.0000000001
 40
0.0
 40
0.0
 40
0.0
 40
0.0
 40
0.0496003836
 40
0.098122615
 40
0.1682822838
 40
0.2520846427
 40
0.4081783296
 40
0.5242973605
 40
0.7764562012
 40
1.0
 40
1.0
 40
1.0
 40
1.0
 10
123.9261708442
 20
1782.192487257
 30
0.0
 10
123.9292443467
 20
1782.1964748486
 30
0.0
 10
123.9392465881
 20
1782.2038216779
 30
0.0
 10
123.9548846764
 20
1782.1918684468
 30
0.0
 10
123.9659735227
 20
1782.1753511172
 30
0.0
 10
123.9819371863
 20
1782.1479441601
 30
0.0
 10
123.9993150163
 20
1782.116007738
 30
0.0
 10
124.0419082294
 20
1782.0812915513
 30
0.0
 10
124.0788830198
 20
1782.0464256875
 30
0.0
 10
124.1136760323
 20
1781.9801728812
 30
0.0
 10
124.1340949466
 20
1781.9900686041
 30
0.0
  0
SPLINE
  5
40C
100
AcDbEntity
  8
94673901000_BL7
100
AcDbSpline
 62
9
  6
CONTINUOUS
 70
0
 71
3
 72
9
 73
5
 74
0
 42
0.0000001
 43
0.0000001
 44
0.0000000001
 40
0.0
 40
0.0
 40
0.0
 40
0.0
 40
0.5071087384
 40
1.0
 40
1.0
 40
1.0
 40
1.0
 10
133.6265960141
 20
1746.2897428231
 30
0.0
 10
133.6092147095
 20
1746.3102346705
 30
0.0
 10
133.5848788602
 20
1746.3482891533
 30
0.0
 10
133.5067867332
 20
1746.382479181
 30
0.0
 10
133.518186392
 20
1746.4059771587
 30
0.0
  0
SPLINE
  5
40D
100
AcDbEntity
  8
94673901000_BL7
100
AcDbSpline
 62
9
  6
CONTINUOUS
 70
0
 71
3
 72
16
 73
12
 74
0
 42
0.0000001
 43
0.0000001
 44
0.0000000001
 40
0.0
 40
0.0
 40
0.0
 40
0.0
 40
0.0518457162
 40
0.0996592902
 40
0.1687964974
 40
0.2518181064
 40
0.4066326948
 40
0.5218483669
 40
0.6336359316
 40
0.7750325309
 40
1.0
 40
1.0
 40
1.0
 40
1.0
 10
125.9276491626
 20
1746.1980530564
 30
0.0
 10
125.9234305618
 20
1746.2011040388
 30
0.0
 10
125.915295309
 20
1746.2105830759
 30
0.0
 10
125.9262138313
 20
1746.2268456102
 30
0.0
 10
125.9423465008
 20
1746.2378606795
 30
0.0
 10
125.9689140986
 20
1746.2537921001
 30
0.0
 10
126.0002153304
 20
1746.2715708884
 30
0.0
 10
126.024269044
 20
1746.3015726092
 30
0.0
 10
126.0471634587
 20
1746.3319959825
 30
0.0
 10
126.0822265848
 20
1746.3569042802
 30
0.0
 10
126.1329992112
 20
1746.3856518841
 30
0.0
 10
126.1231387373
 20
1746.4059771587
 30
0.0
  0
SPLINE
  5
40E
100
AcDbEntity
  8
94673901000_BL7
100
AcDbSpline
 62
9
  6
CONTINUOUS
 70
0
 71
3
 72
16
 73
12
 74
0
 42
0.0000001
 43
0.0000001
 44
0.0000000001
 40
0.0
 40
0.0
 40
0.0
 40
0.0
 40
0.0518457162
 40
0.0996592902
 40
0.1687964974
 40
0.2518181064
 40
0.4066326948
 40
0.5218483669
 40
0.6336359316
 40
0.7750325309
 40
1.0
 40
1.0
 40
1.0
 40
1.0
 10
125.9276491626
 20
1784.1870364972
 30
0.0
 10
125.9234305618
 20
1784.1839855148
 30
0.0
 10
125.915295309
 20
1784.1745064777
 30
0.0
 10
125.9262138313
 20
1784.1582439434
 30
0.0
 10
125.9423465008
 20
1784.1472288741
 30
0.0
 10
125.9689140986
 20
1784.1312974535
 30
0.0
 10
126.0002153304
 20
1784.1135186652
 30
0.0
 10
126.024269044
 20
1784.0835169444
 30
0.0
 10
126.0471634587
 20
1784.0530935711
 30
0.0
 10
126.0822265848
 20
1784.0281852734
 30
0.0
 10
126.1329992112
 20
1783.9994376695
 30
0.0
 10
126.1231387373
 20
1783.9791123949
 30
0.0
  0
SPLINE
  5
40F
100
AcDbEntity
  8
94673901000_BL7
100
AcDbSpline
 62
9
  6
CONTINUOUS
 70
0
 71
3
 72
9
 73
5
 74
0
 42
0.0000001
 43
0.0000001
 44
0.0000000001
 40
0.0
 40
0.0
 40
0.0
 40
0.0
 40
0.507127267
 40
1.0
 40
1.0
 40
1.0
 40
1.0
 10
133.6265842058
 20
1784.0953328074
 30
0.0
 10
133.6092065324
 20
1784.0748406135
 30
0.0
 10
133.5848656786
 20
1784.0367979529
 30
0.0
 10
133.5067884625
 20
1784.0026068081
 30
0.0
 10
133.518186392
 20
1783.9791123949
 30
0.0
  0
SPLINE
  5
410
100
AcDbEntity
  8
94673901000_BL7
100
AcDbSpline
 62
9
  6
CONTINUOUS
 70
0
 71
3
 72
9
 73
5
 74
0
 42
0.0000001
 43
0.0000001
 44
0.0000000001
 40
0.0
 40
0.0
 40
0.0
 40
0.0
 40
0.5004894952
 40
1.0
 40
1.0
 40
1.0
 40
1.0
 10
134.956670965
 20
1748.2196110282
 30
0.0
 10
134.8259460114
 20
1747.8335969477
 30
0.0
 10
134.3114283509
 20
1747.126937985
 30
0.0
 10
133.4802394729
 20
1746.8550952172
 30
0.0
 10
133.0735123144
 20
1746.8506512363
 30
0.0
  0
SPLINE
  5
411
100
AcDbEntity
  8
94673901000_BL7
100
AcDbSpline
 62
9
  6
CONTINUOUS
 70
0
 71
3
 72
11
 73
7
 74
0
 42
0.0000001
 43
0.0000001
 44
0.0000000001
 40
0.0
 40
0.0
 40
0.0
 40
0.0
 40
0.2496681654
 40
0.5
 40
0.7503318346
 40
1.0
 40
1.0
 40
1.0
 40
1.0
 10
126.567812815
 20
1746.8506512363
 30
0.0
 10
126.3103170418
 20
1746.8534646857
 30
0.0
 10
125.7903221351
 20
1746.9616776097
 30
0.0
 10
125.1334699251
 20
1747.4053521371
 30
0.0
 10
124.6897953976
 20
1748.0622043471
 30
0.0
 10
124.5815824737
 20
1748.5821992539
 30
0.0
 10
124.5787690242
 20
1748.8396950271
 30
0.0
  0
SPLINE
  5
412
100
AcDbEntity
  8
94673901000_BL7
100
AcDbSpline
 62
9
  6
CONTINUOUS
 70
0
 71
3
 72
11
 73
7
 74
0
 42
0.0000001
 43
0.0000001
 44
0.0000000001
 40
0.0
 40
0.0
 40
0.0
 40
0.0
 40
0.2496374777
 40
0.5
 40
0.7503625223
 40
1.0
 40
1.0
 40
1.0
 40
1.0
 10
126.1231387376
 20
1746.405977159
 30
0.0
 10
125.8656726578
 20
1746.4087902848
 30
0.0
 10
125.3457114317
 20
1746.5170509416
 30
0.0
 10
124.6886688565
 20
1746.9605510686
 30
0.0
 10
124.2451687295
 20
1747.6175936438
 30
0.0
 10
124.1369080727
 20
1748.1375548699
 30
0.0
 10
124.1340949469
 20
1748.3950209497
 30
0.0
  0
SPLINE
  5
413
100
AcDbEntity
  8
94673901000_BL7
100
AcDbSpline
 62
9
  6
CONTINUOUS
 70
0
 71
3
 72
11
 73
7
 74
0
 42
0.0000001
 43
0.0000001
 44
0.0000000001
 40
0.0
 40
0.0
 40
0.0
 40
0.0
 40
0.2496681654
 40
0.5
 40
0.7503318346
 40
1.0
 40
1.0
 40
1.0
 40
1.0
 10
124.5787690242
 20
1781.5453945265
 30
0.0
 10
124.5815824737
 20
1781.8028902997
 30
0.0
 10
124.6897953976
 20
1782.3228852065
 30
0.0
 10
125.1334699251
 20
1782.9797374165
 30
0.0
 10
125.7903221351
 20
1783.4234119439
 30
0.0
 10
126.3103170418
 20
1783.5316248679
 30
0.0
 10
126.567812815
 20
1783.5344383172
 30
0.0
  0
SPLINE
  5
414
100
AcDbEntity
  8
94673901000_BL7
100
AcDbSpline
 62
9
  6
CONTINUOUS
 70
0
 71
3
 72
11
 73
7
 74
0
 42
0.0000001
 43
0.0000001
 44
0.0000000001
 40
0.0
 40
0.0
 40
0.0
 40
0.0
 40
0.2496374777
 40
0.5
 40
0.7503625223
 40
1.0
 40
1.0
 40
1.0
 40
1.0
 10
124.1340949469
 20
1781.9900686039
 30
0.0
 10
124.1369080727
 20
1782.2475346837
 30
0.0
 10
124.2451687295
 20
1782.7674959098
 30
0.0
 10
124.6886688565
 20
1783.424538485
 30
0.0
 10
125.3457114317
 20
1783.868038612
 30
0.0
 10
125.8656726578
 20
1783.9762992688
 30
0.0
 10
126.1231387376
 20
1783.9791123946
 30
0.0
  0
SPLINE
  5
415
100
AcDbEntity
  8
94673901000_BL7
100
AcDbSpline
 62
9
  6
CONTINUOUS
 70
0
 71
3
 72
9
 73
5
 74
0
 42
0.0000001
 43
0.0000001
 44
0.0000000001
 40
0.0
 40
0.0
 40
0.0
 40
0.0
 40
0.4995105048
 40
1.0
 40
1.0
 40
1.0
 40
1.0
 10
133.0735123144
 20
1783.5344383172
 30
0.0
 10
133.4802394729
 20
1783.5299943364
 30
0.0
 10
134.3114283509
 20
1783.2581515686
 30
0.0
 10
134.8259460114
 20
1782.5514926059
 30
0.0
 10
134.956670965
 20
1782.1654785254
 30
0.0
  0
SPLINE
  5
416
100
AcDbEntity
  8
94673901000_BL7
100
AcDbSpline
 62
7
  6
CONTINUOUS
 70
0
 71
3
 72
13
 73
9
 74
0
 42
0.0000001
 43
0.0000001
 44
0.0000000001
 40
0.0
 40
0.0
 40
0.0
 40
0.0
 40
0.023535275
 40
0.0753518635
 40
0.1578016021
 40
0.2707521577
 40
0.5831769056
 40
1.0
 40
1.0
 40
1.0
 40
1.0
 10
32.6598577955
 20
1745.1925895467
 30
0.0
 10
32.6676905219
 20
1745.1934127994
 30
0.0
 10
32.6810050104
 20
1745.2217958617
 30
0.0
 10
32.6909248637
 20
1745.2692171361
 30
0.0
 10
32.7022950135
 20
1745.3535440418
 30
0.0
 10
32.7148169196
 20
1745.5217343736
 30
0.0
 10
32.7236705379
 20
1745.8044886197
 30
0.0
 10
32.7243635034
 20
1746.0482005998
 30
0.0
 10
32.7236263176
 20
1746.1876848074
 30
0.0
  0
SPLINE
  5
417
100
AcDbEntity
  8
94673901000_BL7
100
AcDbSpline
 62
7
  6
CONTINUOUS
 70
0
 71
3
 72
9
 73
5
 74
0
 42
0.0000001
 43
0.0000001
 44
0.0000000001
 40
0.0
 40
0.0
 40
0.0
 40
0.0
 40
0.2192185014
 40
1.0
 40
1.0
 40
1.0
 40
1.0
 10
32.7236263176
 20
1746.1876848074
 30
0.0
 10
32.7228579558
 20
1746.3330678651
 30
0.0
 10
32.7132949799
 20
1746.9962182486
 30
0.0
 10
32.6867371071
 20
1747.6590412734
 30
0.0
 10
32.6598577955
 20
1748.1761552328
 30
0.0
  0
SPLINE
  5
418
100
AcDbEntity
  8
94673901000_BL7
100
AcDbSpline
 62
9
  6
CONTINUOUS
 70
0
 71
3
 72
14
 73
10
 74
0
 42
0.0000001
 43
0.0000001
 44
0.0000000001
 40
0.0
 40
0.0
 40
0.0
 40
0.0
 40
0.3776820376
 40
0.5481208497
 40
0.6976595954
 40
0.820892234
 40
0.9133709115
 40
0.9724701644
 40
1.0
 40
1.0
 40
1.0
 40
1.0
 10
38.9730172285
 20
1748.8396950271
 30
0.0
 10
39.0122516519
 20
1748.4622807207
 30
0.0
 10
39.0588453333
 20
1747.9131802237
 30
0.0
 10
39.0938579135
 20
1747.2134789132
 30
0.0
 10
39.1026439992
 20
1746.7672216827
 30
0.0
 10
39.0979444863
 20
1746.4029692695
 30
0.0
 10
39.0733358272
 20
1746.1206720832
 30
0.0
 10
39.0479445916
 20
1745.9562819999
 30
0.0
 10
39.0005242824
 20
1745.8590204482
 30
0.0
 10
38.9730172285
 20
1745.856129341
 30
0.0
  0
SPLINE
  5
419
100
AcDbEntity
  8
94673901000_BL7
100
AcDbSpline
 62
9
  6
CONTINUOUS
 70
0
 71
3
 72
14
 73
10
 74
0
 42
0.0000001
 43
0.0000001
 44
0.0000000001
 40
0.0
 40
0.0
 40
0.0
 40
0.0
 40
0.0275298356
 40
0.0866290885
 40
0.179107766
 40
0.3023404046
 40
0.4518791503
 40
0.6223179624
 40
1.0
 40
1.0
 40
1.0
 40
1.0
 10
38.9730172285
 20
1784.5289602126
 30
0.0
 10
39.0005242824
 20
1784.5260691054
 30
0.0
 10
39.0479445916
 20
1784.4288075537
 30
0.0
 10
39.0733358272
 20
1784.2644174704
 30
0.0
 10
39.0979444863
 20
1783.9821202841
 30
0.0
 10
39.1026439992
 20
1783.6178678709
 30
0.0
 10
39.0938579135
 20
1783.1716106404
 30
0.0
 10
39.0588453333
 20
1782.4719093299
 30
0.0
 10
39.0122516519
 20
1781.9228088329
 30
0.0
 10
38.9730172285
 20
1781.5453945265
 30
0.0
  0
SPLINE
  5
41A
100
AcDbEntity
  8
94673901000_BL7
100
AcDbSpline
 62
7
  6
CONTINUOUS
 70
0
 71
3
 72
13
 73
9
 74
0
 42
0.0000001
 43
0.0000001
 44
0.0000000001
 40
0.0
 40
0.0
 40
0.0
 40
0.0
 40
0.0235352288
 40
0.0753518244
 40
0.1578016002
 40
0.2707522048
 40
0.5831770189
 40
1.0
 40
1.0
 40
1.0
 40
1.0
 10
32.6598577955
 20
1785.1925000069
 30
0.0
 10
32.6676905872
 20
1785.1916767474
 30
0.0
 10
32.6810051187
 20
1785.1632933298
 30
0.0
 10
32.6909250178
 20
1785.115871598
 30
0.0
 10
32.7022951941
 20
1785.0315437571
 30
0.0
 10
32.7148171068
 20
1784.863351647
 30
0.0
 10
32.7236706544
 20
1784.5805944739
 30
0.0
 10
32.724363517
 20
1784.3368800024
 30
0.0
 10
32.7236262629
 20
1784.1973943964
 30
0.0
  0
SPLINE
  5
41B
100
AcDbEntity
  8
94673901000_BL7
100
AcDbSpline
 62
7
  6
CONTINUOUS
 70
0
 71
3
 72
9
 73
5
 74
0
 42
0.0000001
 43
0.0000001
 44
0.0000000001
 40
0.0
 40
0.0
 40
0.0
 40
0.0
 40
0.2192189109
 40
1.0
 40
1.0
 40
1.0
 40
1.0
 10
32.7236262629
 20
1784.1973943964
 30
0.0
 10
32.7228578402
 20
1784.0520118237
 30
0.0
 10
32.7132947142
 20
1783.388864893
 30
0.0
 10
32.6867369532
 20
1782.7260453194
 30
0.0
 10
32.6598577955
 20
1782.2089343208
 30
0.0
  0
SPLINE
  5
41C
100
AcDbEntity
  8
94673901000_BL7
100
AcDbSpline
 62
9
  6
CONTINUOUS
 70
0
 71
3
 72
14
 73
10
 74
0
 42
0.0000001
 43
0.0000001
 44
0.0000000001
 40
0.0
 40
0.0
 40
0.0
 40
0.0
 40
0.0275298356
 40
0.0866290885
 40
0.179107766
 40
0.3023404047
 40
0.4518791503
 40
0.6223179624
 40
1.0
 40
1.0
 40
1.0
 40
1.0
 10
38.9730172285
 20
108.5679426007
 30
0.0
 10
39.0005242824
 20
108.5650514932
 30
0.0
 10
39.0479445915
 20
108.467789942
 30
0.0
 10
39.0733358272
 20
108.3033998583
 30
0.0
 10
39.0979444863
 20
108.0211026722
 30
0.0
 10
39.1026439992
 20
107.6568502589
 30
0.0
 10
39.0938579135
 20
107.2105930284
 30
0.0
 10
39.0588453332
 20
106.510891718
 30
0.0
 10
39.0122516519
 20
105.961791221
 30
0.0
 10
38.9730172285
 20
105.5843769146
 30
0.0
  0
SPLINE
  5
41D
100
AcDbEntity
  8
94673901000_BL7
100
AcDbSpline
 62
7
  6
CONTINUOUS
 70
0
 71
3
 72
9
 73
5
 74
0
 42
0.0000001
 43
0.0000001
 44
0.0000000001
 40
0.0
 40
0.0
 40
0.0
 40
0.0
 40
0.2719210866
 40
1.0
 40
1.0
 40
1.0
 40
1.0
 10
32.6598577955
 20
106.247916709
 30
0.0
 10
32.6691934669
 20
106.4275197466
 30
0.0
 10
32.7002308049
 20
107.0881640361
 30
0.0
 10
32.7209425204
 20
107.7494386053
 30
0.0
 10
32.723597094
 20
108.2309743784
 30
0.0
  0
SPLINE
  5
41E
100
AcDbEntity
  8
94673901000_BL7
100
AcDbSpline
 62
7
  6
CONTINUOUS
 70
0
 71
3
 72
13
 73
9
 74
0
 42
0.0000001
 43
0.0000001
 44
0.0000000001
 40
0.0
 40
0.0
 40
0.0
 40
0.0
 40
0.4179847521
 40
0.7296530173
 40
0.8420473503
 40
0.9241002237
 40
0.9758734503
 40
1.0
 40
1.0
 40
1.0
 40
1.0
 10
32.7239415279
 20
108.352764875
 30
0.0
 10
32.7239415279
 20
108.4764407738
 30
0.0
 10
32.7221359743
 20
108.6920768493
 30
0.0
 10
32.7125728975
 20
108.9418857582
 30
0.0
 10
32.7001624728
 20
109.0901327931
 30
0.0
 10
32.6891428714
 20
109.1640230646
 30
0.0
 10
32.6797254463
 20
109.2062965794
 30
0.0
 10
32.6669574008
 20
109.2307361965
 30
0.0
 10
32.6598577955
 20
109.2314823951
 30
0.0
  0
SPLINE
  5
41F
100
AcDbEntity
  8
94673901000_BL7
100
AcDbSpline
 62
9
  6
CONTINUOUS
 70
0
 71
3
 72
14
 73
10
 74
0
 42
0.0000001
 43
0.0000001
 44
0.0000000001
 40
0.0
 40
0.0
 40
0.0
 40
0.0
 40
0.3776820376
 40
0.5481208497
 40
0.6976595953
 40
0.820892234
 40
0.9133709115
 40
0.9724701644
 40
1.0
 40
1.0
 40
1.0
 40
1.0
 10
38.9730172285
 20
99.0786774152
 30
0.0
 10
39.0122516519
 20
98.7012631089
 30
0.0
 10
39.0588453332
 20
98.1521626118
 30
0.0
 10
39.0938579135
 20
97.4524613014
 30
0.0
 10
39.1026439992
 20
97.0062040709
 30
0.0
 10
39.0979444863
 20
96.6419516576
 30
0.0
 10
39.0733358272
 20
96.3596544715
 30
0.0
 10
39.0479445915
 20
96.1952643878
 30
0.0
 10
39.0005242824
 20
96.0980028366
 30
0.0
 10
38.9730172285
 20
96.0951117291
 30
0.0
  0
SPLINE
  5
420
100
AcDbEntity
  8
94673901000_BL7
100
AcDbSpline
 62
7
  6
CONTINUOUS
 70
0
 71
3
 72
9
 73
5
 74
0
 42
0.0000001
 43
0.0000001
 44
0.0000000001
 40
0.0
 40
0.0
 40
0.0
 40
0.0
 40
0.2719207816
 40
1.0
 40
1.0
 40
1.0
 40
1.0
 10
32.6598577955
 20
98.4151376209
 30
0.0
 10
32.6691934075
 20
98.2355357272
 30
0.0
 10
32.7002306077
 20
97.5748949048
 30
0.0
 10
32.7209422656
 20
96.9136238116
 30
0.0
 10
32.7235970366
 20
96.4320903647
 30
0.0
  0
SPLINE
  5
421
100
AcDbEntity
  8
94673901000_BL7
100
AcDbSpline
 62
7
  6
CONTINUOUS
 70
0
 71
3
 72
13
 73
9
 74
0
 42
0.0000001
 43
0.0000001
 44
0.0000000001
 40
0.0
 40
0.0
 40
0.0
 40
0.0
 40
0.4179847521
 40
0.7296530173
 40
0.8420473503
 40
0.9241002237
 40
0.9758734503
 40
1.0
 40
1.0
 40
1.0
 40
1.0
 10
32.7239415279
 20
96.3102894548
 30
0.0
 10
32.7239415279
 20
96.1866135561
 30
0.0
 10
32.7221359743
 20
95.9709774805
 30
0.0
 10
32.7125728975
 20
95.7211685716
 30
0.0
 10
32.7001624728
 20
95.5729215368
 30
0.0
 10
32.6891428714
 20
95.4990312652
 30
0.0
 10
32.6797254463
 20
95.4567577505
 30
0.0
 10
32.6669574008
 20
95.4323181334
 30
0.0
 10
32.6598577955
 20
95.4315719348
 30
0.0
  0
ELLIPSE
  5
422
100
AcDbEntity
  8
94673901000_BL7
100
AcDbEllipse
 62
7
  6
CONTINUOUS
 10
61.2025252014
 20
1748.1925447768
 30
0.0
 11
28.5430933627
 21
-0.0
 31
0.0
 40
0.1051042353
 41
-3.1415926536
 42
-3.1361294451
  0
ELLIPSE
  5
423
100
AcDbEntity
  8
94673901000_BL7
100
AcDbEllipse
 62
7
  6
CONTINUOUS
 10
61.2025252014
 20
1782.1925447768
 30
0.0
 11
28.5430933627
 21
0.0
 31
0.0
 40
0.1051042353
 41
3.1361294451
 42
3.1415926536
  0
ELLIPSE
  5
424
100
AcDbEntity
  8
94673901000_BL7
100
AcDbEllipse
 62
7
  6
CONTINUOUS
 10
61.2025252014
 20
98.4315271649
 30
0.0
 11
28.5430933627
 21
-0.0
 31
0.0
 40
0.1051042353
 41
3.1415926536
 42
3.1470558621
  0
ELLIPSE
  5
425
100
AcDbEntity
  8
94673901000_BL7
100
AcDbEllipse
 62
7
  6
CONTINUOUS
 10
61.2025252014
 20
106.2315271649
 30
0.0
 11
28.5430933627
 21
-0.0
 31
0.0
 40
0.1051042353
 41
3.1361294451
 42
3.1415926536
  0
ENDBLK
  5
426
100
AcDbEntity
  8
0
  6
BYBLOCK
 62
0
100
AcDbBlockEnd
  0
BLOCK
  5
427
100
AcDbEntity
  8
94529001000_BL8
100
AcDbBlockBegin
  2
94529001000_BL8
 70
64
 10
81.9900472017
 20
950.5187723036
  3
94529001000_BL8
  1

  0
LINE
  5
428
100
AcDbEntity
  8
94529001000_BL8
100
AcDbLine
 62
7
  6
CONTINUOUS
 10
135.8206625647
 20
1765.3425447768
 11
135.6706625647
 21
1765.1925447768
  0
LINE
  5
429
100
AcDbEntity
  8
94529001000_BL8
100
AcDbLine
 62
7
  6
CONTINUOUS
 10
137.5206625647
 20
1765.0425447768
 11
137.6706625647
 21
1765.1925447768
  0
LINE
  5
42A
100
AcDbEntity
  8
94529001000_BL8
100
AcDbLine
 62
7
  6
CONTINUOUS
 10
121.3206625647
 20
1795.6925447768
 11
121.3206625647
 21
1734.6925447768
  0
LINE
  5
42B
100
AcDbEntity
  8
94529001000_BL8
100
AcDbLine
 62
7
  6
CONTINUOUS
 10
122.1206625647
 20
1787.4425447768
 11
122.1206625647
 21
1742.9425447768
  0
LINE
  5
42C
100
AcDbEntity
  8
94529001000_BL8
100
AcDbLine
 62
7
  6
CONTINUOUS
 10
122.8206625647
 20
1782.1925447768
 11
122.8206625647
 21
1748.1925447768
  0
LINE
  5
42D
100
AcDbEntity
  8
94529001000_BL8
100
AcDbLine
 62
7
  6
CONTINUOUS
 10
123.6206625647
 20
1782.1925447768
 11
123.6206625647
 21
1748.1925447768
  0
LINE
  5
42E
100
AcDbEntity
  8
94529001000_BL8
100
AcDbLine
 62
9
  6
CONTINUOUS
 10
125.6206625647
 20
1746.1925447768
 11
125.6206625647
 21
1745.3925447768
  0
LINE
  5
42F
100
AcDbEntity
  8
94529001000_BL8
100
AcDbLine
 62
9
  6
CONTINUOUS
 10
125.6206625647
 20
1784.1925447768
 11
125.6206625647
 21
1784.9925447768
  0
LINE
  5
430
100
AcDbEntity
  8
94529001000_BL8
100
AcDbLine
 62
7
  6
CENTER
 10
129.8206625647
 20
1723.1790721113
 11
129.8206625647
 21
1807.2060174423
  0
LINE
  5
431
100
AcDbEntity
  8
94529001000_BL8
100
AcDbLine
 62
9
  6
CONTINUOUS
 10
133.0206625647
 20
1746.1925447768
 11
133.0206625647
 21
1745.3925447768
  0
LINE
  5
432
100
AcDbEntity
  8
94529001000_BL8
100
AcDbLine
 62
9
  6
CONTINUOUS
 10
133.0206625647
 20
1784.1925447768
 11
133.0206625647
 21
1784.9925447768
  0
LINE
  5
433
100
AcDbEntity
  8
94529001000_BL8
100
AcDbLine
 62
7
  6
CONTINUOUS
 10
135.0206625647
 20
1748.1925447768
 11
135.0206625647
 21
1782.1925447768
  0
LINE
  5
434
100
AcDbEntity
  8
94529001000_BL8
100
AcDbLine
 62
7
  6
CONTINUOUS
 10
135.8206625647
 20
1748.1925447768
 11
135.8206625647
 21
1765.0425447768
  0
LINE
  5
435
100
AcDbEntity
  8
94529001000_BL8
100
AcDbLine
 62
7
  6
CONTINUOUS
 10
135.8206625647
 20
1765.3425447768
 11
135.8206625647
 21
1782.1925447768
  0
LINE
  5
436
100
AcDbEntity
  8
94529001000_BL8
100
AcDbLine
 62
7
  6
CONTINUOUS
 10
137.5206625647
 20
1787.4425447768
 11
137.5206625647
 21
1765.3425447768
  0
LINE
  5
437
100
AcDbEntity
  8
94529001000_BL8
100
AcDbLine
 62
7
  6
CONTINUOUS
 10
137.5206625647
 20
1765.0425447768
 11
137.5206625647
 21
1742.9425447768
  0
LINE
  5
438
100
AcDbEntity
  8
94529001000_BL8
100
AcDbLine
 62
7
  6
CONTINUOUS
 10
138.3206625647
 20
1734.6925447768
 11
138.3206625647
 21
1795.6925447768
  0
LINE
  5
439
100
AcDbEntity
  8
94529001000_BL8
100
AcDbLine
 62
7
  6
CONTINUOUS
 10
135.8206625647
 20
1765.0425447768
 11
135.6706625647
 21
1765.1925447768
  0
LINE
  5
43A
100
AcDbEntity
  8
94529001000_BL8
100
AcDbLine
 62
7
  6
CONTINUOUS
 10
137.5206625647
 20
1765.3425447768
 11
137.6706625647
 21
1765.1925447768
  0
LINE
  5
43B
100
AcDbEntity
  8
94529001000_BL8
100
AcDbLine
 62
7
  6
CONTINUOUS
 10
138.3206625647
 20
1742.9425447768
 11
137.5206625647
 21
1742.9425447768
  0
LINE
  5
43C
100
AcDbEntity
  8
94529001000_BL8
100
AcDbLine
 62
7
  6
CONTINUOUS
 10
122.1206625647
 20
1742.9425447768
 11
121.3206625647
 21
1742.9425447768
  0
LINE
  5
43D
100
AcDbEntity
  8
94529001000_BL8
100
AcDbLine
 62
7
  6
CONTINUOUS
 10
125.6206625647
 20
1745.3925447768
 11
133.0206625647
 21
1745.3925447768
  0
LINE
  5
43E
100
AcDbEntity
  8
94529001000_BL8
100
AcDbLine
 62
7
  6
CONTINUOUS
 10
125.6206625647
 20
1746.1925447768
 11
133.0206625647
 21
1746.1925447768
  0
LINE
  5
43F
100
AcDbEntity
  8
94529001000_BL8
100
AcDbLine
 62
9
  6
CONTINUOUS
 10
123.6206625647
 20
1748.1925447768
 11
122.8206625647
 21
1748.1925447768
  0
LINE
  5
440
100
AcDbEntity
  8
94529001000_BL8
100
AcDbLine
 62
9
  6
CONTINUOUS
 10
135.0206625647
 20
1748.1925447768
 11
135.8206625647
 21
1748.1925447768
  0
LINE
  5
441
100
AcDbEntity
  8
94529001000_BL8
100
AcDbLine
 62
7
  6
CONTINUOUS
 10
137.5206625647
 20
1765.0425447768
 11
135.8206625647
 21
1765.0425447768
  0
LINE
  5
442
100
AcDbEntity
  8
94529001000_BL8
100
AcDbLine
 62
7
  6
CONTINUOUS
 10
137.6706625647
 20
1765.1925447768
 11
135.6706625647
 21
1765.1925447768
  0
LINE
  5
443
100
AcDbEntity
  8
94529001000_BL8
100
AcDbLine
 62
7
  6
CENTER
 10
118.3206625647
 20
1765.1925447768
 11
141.3206625647
 21
1765.1925447768
  0
LINE
  5
444
100
AcDbEntity
  8
94529001000_BL8
100
AcDbLine
 62
7
  6
CONTINUOUS
 10
137.5206625647
 20
1765.3425447768
 11
135.8206625647
 21
1765.3425447768
  0
LINE
  5
445
100
AcDbEntity
  8
94529001000_BL8
100
AcDbLine
 62
9
  6
CONTINUOUS
 10
123.6206625647
 20
1782.1925447768
 11
122.8206625647
 21
1782.1925447768
  0
LINE
  5
446
100
AcDbEntity
  8
94529001000_BL8
100
AcDbLine
 62
9
  6
CONTINUOUS
 10
135.0206625647
 20
1782.1925447768
 11
135.8206625647
 21
1782.1925447768
  0
LINE
  5
447
100
AcDbEntity
  8
94529001000_BL8
100
AcDbLine
 62
7
  6
CONTINUOUS
 10
133.0206625647
 20
1784.1925447768
 11
125.6206625647
 21
1784.1925447768
  0
LINE
  5
448
100
AcDbEntity
  8
94529001000_BL8
100
AcDbLine
 62
7
  6
CONTINUOUS
 10
133.0206625647
 20
1784.9925447768
 11
125.6206625647
 21
1784.9925447768
  0
LINE
  5
449
100
AcDbEntity
  8
94529001000_BL8
100
AcDbLine
 62
7
  6
CONTINUOUS
 10
138.3206625647
 20
1787.4425447768
 11
137.5206625647
 21
1787.4425447768
  0
LINE
  5
44A
100
AcDbEntity
  8
94529001000_BL8
100
AcDbLine
 62
7
  6
CONTINUOUS
 10
122.1206625647
 20
1787.4425447768
 11
121.3206625647
 21
1787.4425447768
  0
LINE
  5
44B
100
AcDbEntity
  8
94529001000_BL8
100
AcDbLine
 62
7
  6
CONTINUOUS
 10
22.6594318387
 20
1765.0425447768
 11
22.8094318387
 21
1765.1925447768
  0
LINE
  5
44C
100
AcDbEntity
  8
94529001000_BL8
100
AcDbLine
 62
7
  6
CONTINUOUS
 10
22.6594318387
 20
1765.3425447768
 11
22.6594318387
 21
1765.0425447768
  0
LINE
  5
44D
100
AcDbEntity
  8
94529001000_BL8
100
AcDbLine
 62
7
  6
CONTINUOUS
 10
22.6594318387
 20
1726.1925447768
 11
22.6594318387
 21
1765.0425447768
  0
LINE
  5
44E
100
AcDbEntity
  8
94529001000_BL8
100
AcDbLine
 62
7
  6
CONTINUOUS
 10
22.6594318387
 20
1765.3425447768
 11
22.6594318387
 21
1804.1925447768
  0
LINE
  5
44F
100
AcDbEntity
  8
94529001000_BL8
100
AcDbLine
 62
7
  6
CONTINUOUS
 10
23.4594318387
 20
1787.4425447768
 11
23.4594318387
 21
1742.9425447768
  0
LINE
  5
450
100
AcDbEntity
  8
94529001000_BL8
100
AcDbLine
 62
7
  6
CONTINUOUS
 10
24.6594318387
 20
1801.6966179965
 11
24.6594318387
 21
1728.6884715571
  0
LINE
  5
451
100
AcDbEntity
  8
94529001000_BL8
100
AcDbLine
 62
7
  6
CONTINUOUS
 10
22.6594318387
 20
1765.3425447768
 11
22.8094318387
 21
1765.1925447768
  0
LINE
  5
452
100
AcDbEntity
  8
94529001000_BL8
100
AcDbLine
 62
7
  6
CONTINUOUS
 10
24.6594318387
 20
1726.1925447768
 11
22.6594318387
 21
1726.1925447768
  0
LINE
  5
453
100
AcDbEntity
  8
94529001000_BL8
100
AcDbLine
 62
9
  6
CONTINUOUS
 10
22.6594318387
 20
1734.6925447768
 11
24.6594318387
 21
1734.6925447768
  0
LINE
  5
454
100
AcDbEntity
  8
94529001000_BL8
100
AcDbLine
 62
7
  6
CONTINUOUS
 10
22.6594318387
 20
1742.9425447768
 11
23.4594318387
 21
1742.9425447768
  0
LINE
  5
455
100
AcDbEntity
  8
94529001000_BL8
100
AcDbLine
 62
7
  6
CONTINUOUS
 10
24.6594318387
 20
1746.1925447768
 11
24.7500655273
 21
1746.1925447768
  0
LINE
  5
456
100
AcDbEntity
  8
94529001000_BL8
100
AcDbLine
 62
7
  6
CONTINUOUS
 10
24.7500671883
 20
1784.1925447768
 11
24.6594318387
 21
1784.1925447768
  0
LINE
  5
457
100
AcDbEntity
  8
94529001000_BL8
100
AcDbLine
 62
7
  6
CONTINUOUS
 10
22.6594318387
 20
1787.4425447768
 11
23.4594318387
 21
1787.4425447768
  0
LINE
  5
458
100
AcDbEntity
  8
94529001000_BL8
100
AcDbLine
 62
9
  6
CONTINUOUS
 10
22.6594318387
 20
1795.6925447768
 11
24.6594318387
 21
1795.6925447768
  0
LINE
  5
459
100
AcDbEntity
  8
94529001000_BL8
100
AcDbLine
 62
7
  6
CONTINUOUS
 10
24.6594318387
 20
1804.1925447768
 11
22.6594318387
 21
1804.1925447768
  0
LINE
  5
45A
100
AcDbEntity
  8
94529001000_BL8
100
AcDbLine
 62
7
  6
CONTINUOUS
 10
22.6594318387
 20
93.8315271649
 11
22.6594318387
 21
110.8315271649
  0
LINE
  5
45B
100
AcDbEntity
  8
94529001000_BL8
100
AcDbLine
 62
7
  6
CONTINUOUS
 10
24.6594318387
 20
93.8315271649
 11
22.6594318387
 21
93.8315271649
  0
LINE
  5
45C
100
AcDbEntity
  8
94529001000_BL8
100
AcDbLine
 62
7
  6
CONTINUOUS
 10
24.6594318387
 20
110.8315271649
 11
24.6594318387
 21
108.3315271649
  0
LINE
  5
45D
100
AcDbEntity
  8
94529001000_BL8
100
AcDbLine
 62
7
  6
CONTINUOUS
 10
24.6594318387
 20
96.3315271649
 11
24.6594318387
 21
93.8315271649
  0
LINE
  5
45E
100
AcDbEntity
  8
94529001000_BL8
100
AcDbLine
 62
7
  6
CONTINUOUS
 10
22.6594318387
 20
110.8315271649
 11
24.6594318387
 21
110.8315271649
  0
ARC
  5
45F
100
AcDbEntity
  8
94529001000_BL8
100
AcDbCircle
 62
7
  6
CONTINUOUS
 10
125.6206625647
 20
1782.1925447768
 40
2.7999942656
100
AcDbArc
 50
90.0
 51
180.0
  0
ARC
  5
460
100
AcDbEntity
  8
94529001000_BL8
100
AcDbCircle
 62
7
  6
CONTINUOUS
 10
125.6206625647
 20
1748.1925447768
 40
2.7999942656
100
AcDbArc
 50
180.0
 51
270.0
  0
ARC
  5
461
100
AcDbEntity
  8
94529001000_BL8
100
AcDbCircle
 62
7
  6
CONTINUOUS
 10
125.6206625647
 20
1782.1925447768
 40
2.0
100
AcDbArc
 50
90.0
 51
180.0
  0
ARC
  5
462
100
AcDbEntity
  8
94529001000_BL8
100
AcDbCircle
 62
7
  6
CONTINUOUS
 10
125.6206625647
 20
1748.1925447768
 40
2.0
100
AcDbArc
 50
180.0
 51
270.0
  0
ARC
  5
463
100
AcDbEntity
  8
94529001000_BL8
100
AcDbCircle
 62
7
  6
CONTINUOUS
 10
129.8206625647
 20
1734.6925447768
 40
8.5
100
AcDbArc
 50
180.0
 51
360.0
  0
CIRCLE
  5
464
100
AcDbEntity
  8
94529001000_BL8
100
AcDbCircle
 62
7
  6
CONTINUOUS
 10
129.8206625647
 20
1735.0925447768
 40
5.65
  0
ARC
  5
465
100
AcDbEntity
  8
94529001000_BL8
100
AcDbCircle
 62
7
  6
CONTINUOUS
 10
129.8206625647
 20
1795.6925447768
 40
8.5
100
AcDbArc
 50
0.0
 51
180.0
  0
CIRCLE
  5
466
100
AcDbEntity
  8
94529001000_BL8
100
AcDbCircle
 62
7
  6
CONTINUOUS
 10
129.8206625647
 20
1795.2925447768
 40
5.65
  0
ARC
  5
467
100
AcDbEntity
  8
94529001000_BL8
100
AcDbCircle
 62
7
  6
CONTINUOUS
 10
133.0206625647
 20
1782.1925447768
 40
2.7999942656
100
AcDbArc
 50
0.0
 51
90.0
  0
ARC
  5
468
100
AcDbEntity
  8
94529001000_BL8
100
AcDbCircle
 62
7
  6
CONTINUOUS
 10
133.0206625647
 20
1748.1925447768
 40
2.7999942656
100
AcDbArc
 50
270.0
 51
360.0
  0
ARC
  5
469
100
AcDbEntity
  8
94529001000_BL8
100
AcDbCircle
 62
7
  6
CONTINUOUS
 10
133.0206625647
 20
1782.1925447768
 40
2.0
100
AcDbArc
 50
0.0
 51
90.0
  0
ARC
  5
46A
100
AcDbEntity
  8
94529001000_BL8
100
AcDbCircle
 62
7
  6
CONTINUOUS
 10
133.0206625647
 20
1748.1925447768
 40
2.0
100
AcDbArc
 50
270.0
 51
360.0
  0
ENDBLK
  5
46B
100
AcDbEntity
  8
0
  6
BYBLOCK
 62
0
100
AcDbBlockEnd
  0
BLOCK
  5
46C
100
AcDbEntity
  8
94528905000_M_BL9
100
AcDbBlockBegin
  2
94528905000_M_BL9
 70
64
 10
82.9914443762
 20
1735.0925447768
  3
94528905000_M_BL9
  1

  0
LINE
  5
46D
100
AcDbEntity
  8
94528905000_M_BL9
100
AcDbLine
 62
7
  6
CONTINUOUS
 10
128.9456625647
 20
1735.6080892334
 11
128.0706625647
 21
1734.0925447768
  0
LINE
  5
46E
100
AcDbEntity
  8
94528905000_M_BL9
100
AcDbLine
 62
7
  6
CONTINUOUS
 10
130.6956625647
 20
1732.5770003202
 11
131.5706625647
 21
1734.0925447768
  0
LINE
  5
46F
100
AcDbEntity
  8
94528905000_M_BL9
100
AcDbLine
 62
7
  6
CONTINUOUS
 10
128.0706625647
 20
1734.0925447768
 11
128.9456625647
 21
1732.5770003202
  0
LINE
  5
470
100
AcDbEntity
  8
94528905000_M_BL9
100
AcDbLine
 62
7
  6
CONTINUOUS
 10
131.5706625647
 20
1734.0925447768
 11
130.6956625647
 21
1735.6080892334
  0
LINE
  5
471
100
AcDbEntity
  8
94528905000_M_BL9
100
AcDbLine
 62
7
  6
CONTINUOUS
 10
128.9456625647
 20
1732.5770003202
 11
130.6956625647
 21
1732.5770003202
  0
LINE
  5
472
100
AcDbEntity
  8
94528905000_M_BL9
100
AcDbLine
 62
7
  6
CONTINUOUS
 10
130.6956625647
 20
1735.6080892334
 11
128.9456625647
 21
1735.6080892334
  0
CIRCLE
  5
473
100
AcDbEntity
  8
94528905000_M_BL9
100
AcDbCircle
 62
7
  6
CONTINUOUS
 10
129.8206625647
 20
1735.0925447768
 40
5.5
  0
CIRCLE
  5
474
100
AcDbEntity
  8
94528905000_M_BL9
100
AcDbCircle
 62
7
  6
CONTINUOUS
 10
129.8206625647
 20
1734.0925447768
 40
1.75
  0
CIRCLE
  5
475
100
AcDbEntity
  8
94528905000_M_BL9
100
AcDbCircle
 62
7
  6
CONTINUOUS
 10
129.8206625647
 20
1734.0925447768
 40
1.515
  0
CIRCLE
  5
476
100
AcDbEntity
  8
94528905000_M_BL9
100
AcDbCircle
 62
7
  6
CONTINUOUS
 10
129.8206625647
 20
1737.5925447768
 40
0.75
  0
ARC
  5
477
100
AcDbEntity
  8
94528905000_M_BL9
100
AcDbCircle
 62
7
  6
CONTINUOUS
 10
27.3136805277
 20
1734.0925447768
 40
4.0
100
AcDbArc
 50
326.8389561101
 51
33.1610438899
  0
ENDBLK
  5
478
100
AcDbEntity
  8
0
  6
BYBLOCK
 62
0
100
AcDbBlockEnd
  0
BLOCK
  5
479
100
AcDbEntity
  8
93794901000_BL10
100
AcDbBlockBegin
  2
93794901000_BL10
 70
64
 10
81.6961132189
 20
613.0120373699
  3
93794901000_BL10
  1

  0
LINE
  5
47A
100
AcDbEntity
  8
93794901000_BL10
100
AcDbLine
 62
7
  6
CONTINUOUS
 10
136.732794599
 20
1126.4804127424
 11
135.8206625647
 21
1125.5682807081
  0
LINE
  5
47B
100
AcDbEntity
  8
93794901000_BL10
100
AcDbLine
 62
7
  6
CONTINUOUS
 10
136.732794599
 20
1111.4804127424
 11
135.8206625647
 21
1110.5682807081
  0
LINE
  5
47C
100
AcDbEntity
  8
93794901000_BL10
100
AcDbLine
 62
7
  6
CONTINUOUS
 10
122.8206625647
 20
1108.6925447768
 11
122.8206625647
 21
1130.6925447768
  0
LINE
  5
47D
100
AcDbEntity
  8
93794901000_BL10
100
AcDbLine
 62
7
  6
CONTINUOUS
 10
124.3206625647
 20
1108.6925447768
 11
124.3206625647
 21
1116.2946290151
  0
LINE
  5
47E
100
AcDbEntity
  8
93794901000_BL10
100
AcDbLine
 62
7
  6
CONTINUOUS
 10
124.3206625647
 20
1121.0904605385
 11
124.3206625647
 21
1127.1925447768
  0
LINE
  5
47F
100
AcDbEntity
  8
93794901000_BL10
100
AcDbLine
 62
7
  6
CONTINUOUS
 10
124.3206625647
 20
1129.5925447768
 11
124.3206625647
 21
1130.6925447768
  0
LINE
  5
480
100
AcDbEntity
  8
93794901000_BL10
100
AcDbLine
 62
7
  6
CONTINUOUS
 10
135.3206625647
 20
1108.6925447768
 11
135.3206625647
 21
1116.2946290151
  0
LINE
  5
481
100
AcDbEntity
  8
93794901000_BL10
100
AcDbLine
 62
7
  6
CONTINUOUS
 10
135.3206625647
 20
1121.0904605385
 11
135.3206625647
 21
1127.1925447768
  0
LINE
  5
482
100
AcDbEntity
  8
93794901000_BL10
100
AcDbLine
 62
7
  6
CONTINUOUS
 10
135.3206625647
 20
1129.5925447768
 11
135.3206625647
 21
1130.6925447768
  0
LINE
  5
483
100
AcDbEntity
  8
93794901000_BL10
100
AcDbLine
 62
7
  6
CONTINUOUS
 10
135.8206625647
 20
1130.6925447768
 11
135.8206625647
 21
1127.8168088455
  0
LINE
  5
484
100
AcDbEntity
  8
93794901000_BL10
100
AcDbLine
 62
7
  6
CONTINUOUS
 10
135.8206625647
 20
1125.5682807081
 11
135.8206625647
 21
1112.8168088455
  0
LINE
  5
485
100
AcDbEntity
  8
93794901000_BL10
100
AcDbLine
 62
7
  6
CONTINUOUS
 10
135.8206625647
 20
1108.6925447768
 11
135.8206625647
 21
1110.5682807081
  0
LINE
  5
486
100
AcDbEntity
  8
93794901000_BL10
100
AcDbLine
 62
7
  6
CONTINUOUS
 10
135.8206625647
 20
1108.6925447768
 11
124.3206625647
 21
1108.6925447768
  0
LINE
  5
487
100
AcDbEntity
  8
93794901000_BL10
100
AcDbLine
 62
7
  6
CONTINUOUS
 10
124.3206625647
 20
1108.6925447768
 11
122.8206625647
 21
1108.6925447768
  0
LINE
  5
488
100
AcDbEntity
  8
93794901000_BL10
100
AcDbLine
 62
7
  6
CONTINUOUS
 10
135.8206625647
 20
1112.8168088455
 11
136.732794599
 21
1111.9046768112
  0
LINE
  5
489
100
AcDbEntity
  8
93794901000_BL10
100
AcDbLine
 62
7
  6
CONTINUOUS
 10
135.8206625647
 20
1127.8168088455
 11
136.732794599
 21
1126.9046768112
  0
LINE
  5
48A
100
AcDbEntity
  8
93794901000_BL10
100
AcDbLine
 62
7
  6
CONTINUOUS
 10
28.0715638731
 20
1126.4804127424
 11
27.1594318387
 21
1125.5682807081
  0
LINE
  5
48B
100
AcDbEntity
  8
93794901000_BL10
100
AcDbLine
 62
7
  6
CONTINUOUS
 10
28.0715638731
 20
1111.4804127424
 11
27.1594318387
 21
1110.5682807081
  0
LINE
  5
48C
100
AcDbEntity
  8
93794901000_BL10
100
AcDbLine
 62
7
  6
CONTINUOUS
 10
26.6594318387
 20
1108.6925447768
 11
26.6594318387
 21
1116.2946290151
  0
LINE
  5
48D
100
AcDbEntity
  8
93794901000_BL10
100
AcDbLine
 62
7
  6
CONTINUOUS
 10
26.6594318387
 20
1121.0904605385
 11
26.6594318387
 21
1130.6925447768
  0
LINE
  5
48E
100
AcDbEntity
  8
93794901000_BL10
100
AcDbLine
 62
7
  6
CONTINUOUS
 10
27.1594318387
 20
1130.6925447768
 11
27.1594318387
 21
1127.8168088455
  0
LINE
  5
48F
100
AcDbEntity
  8
93794901000_BL10
100
AcDbLine
 62
7
  6
CONTINUOUS
 10
27.1594318387
 20
1125.5682807081
 11
27.1594318387
 21
1112.8168088455
  0
LINE
  5
490
100
AcDbEntity
  8
93794901000_BL10
100
AcDbLine
 62
7
  6
CONTINUOUS
 10
27.1594318387
 20
1108.6925447768
 11
27.1594318387
 21
1110.5682807081
  0
LINE
  5
491
100
AcDbEntity
  8
93794901000_BL10
100
AcDbLine
 62
7
  6
CONTINUOUS
 10
30.3594318387
 20
1108.6925447768
 11
30.3594318387
 21
1130.6925447768
  0
LINE
  5
492
100
AcDbEntity
  8
93794901000_BL10
100
AcDbLine
 62
7
  6
CONTINUOUS
 10
27.1594318387
 20
1112.8168088455
 11
28.0715638731
 21
1111.9046768112
  0
LINE
  5
493
100
AcDbEntity
  8
93794901000_BL10
100
AcDbLine
 62
7
  6
CONTINUOUS
 10
30.3594318387
 20
1108.6925447768
 11
26.6594318387
 21
1108.6925447768
  0
LINE
  5
494
100
AcDbEntity
  8
93794901000_BL10
100
AcDbLine
 62
7
  6
CONTINUOUS
 10
27.1594318387
 20
1110.5682807081
 11
30.3594318387
 21
1110.5682807081
  0
LINE
  5
495
100
AcDbEntity
  8
93794901000_BL10
100
AcDbLine
 62
9
  6
CONTINUOUS
 10
28.0715638731
 20
1111.4804127424
 11
30.3594318387
 21
1111.4804127424
  0
LINE
  5
496
100
AcDbEntity
  8
93794901000_BL10
100
AcDbLine
 62
9
  6
CONTINUOUS
 10
28.0715638731
 20
1111.9046768112
 11
30.3594318387
 21
1111.9046768112
  0
LINE
  5
497
100
AcDbEntity
  8
93794901000_BL10
100
AcDbLine
 62
7
  6
CONTINUOUS
 10
27.1594318387
 20
1112.8168088455
 11
30.3594318387
 21
1112.8168088455
  0
LINE
  5
498
100
AcDbEntity
  8
93794901000_BL10
100
AcDbLine
 62
7
  6
CONTINUOUS
 10
27.1594318387
 20
1125.5682807081
 11
30.3594318387
 21
1125.5682807081
  0
LINE
  5
499
100
AcDbEntity
  8
93794901000_BL10
100
AcDbLine
 62
9
  6
CONTINUOUS
 10
28.0715638731
 20
1126.4804127424
 11
30.3594318387
 21
1126.4804127424
  0
LINE
  5
49A
100
AcDbEntity
  8
93794901000_BL10
100
AcDbLine
 62
9
  6
CONTINUOUS
 10
28.0715638731
 20
1126.9046768112
 11
30.3594318387
 21
1126.9046768112
  0
LINE
  5
49B
100
AcDbEntity
  8
93794901000_BL10
100
AcDbLine
 62
7
  6
CONTINUOUS
 10
27.1594318387
 20
1127.8168088455
 11
30.3594318387
 21
1127.8168088455
  0
LINE
  5
49C
100
AcDbEntity
  8
93794901000_BL10
100
AcDbLine
 62
7
  6
CONTINUOUS
 10
27.1594318387
 20
1127.8168088455
 11
28.0715638731
 21
1126.9046768112
  0
LINE
  5
49D
100
AcDbEntity
  8
93794901000_BL10
100
AcDbLine
 62
7
  6
CONTINUOUS
 10
28.1594318387
 20
109.3315271649
 11
28.0594318387
 21
109.2315271649
  0
LINE
  5
49E
100
AcDbEntity
  8
93794901000_BL10
100
AcDbLine
 62
7
  6
CONTINUOUS
 10
28.0715638731
 20
95.4193951306
 11
28.1594290405
 21
95.3315299631
  0
LINE
  5
49F
100
AcDbEntity
  8
93794901000_BL10
100
AcDbLine
 62
9
  6
CONTINUOUS
 10
28.0715638731
 20
95.4193951306
 11
30.3594318387
 21
95.4193951306
  0
LINE
  5
4A0
100
AcDbEntity
  8
93794901000_BL10
100
AcDbLine
 62
7
  6
CONTINUOUS
 10
30.3594318387
 20
109.3315271649
 11
30.3594318387
 21
109.2315271649
  0
LINE
  5
4A1
100
AcDbEntity
  8
93794901000_BL10
100
AcDbLine
 62
7
  6
CONTINUOUS
 10
30.3594318387
 20
95.3320560141
 11
30.3594318387
 21
95.4193951306
  0
ARC
  5
4A2
100
AcDbEntity
  8
93794901000_BL10
100
AcDbCircle
 62
7
  6
CONTINUOUS
 10
123.7961408976
 20
1118.6845766664
 40
11.8745243405
100
AcDbArc
 50
0.0384469405
 51
9.11669152
  0
ARC
  5
4A3
100
AcDbEntity
  8
93794901000_BL10
100
AcDbCircle
 62
7
  6
CONTINUOUS
 10
123.7961414688
 20
1118.7005128415
 40
11.8745237693
100
AcDbArc
 50
350.8833082612
 51
359.9615532783
  0
CIRCLE
  5
4A4
100
AcDbEntity
  8
93794901000_BL10
100
AcDbCircle
 62
7
  6
CONTINUOUS
 10
125.9206625647
 20
1128.3925447768
 40
2.0
  0
CIRCLE
  5
4A5
100
AcDbEntity
  8
93794901000_BL10
100
AcDbCircle
 62
7
  6
CONTINUOUS
 10
125.7206625647
 20
1125.1925447768
 40
0.75
  0
CIRCLE
  5
4A6
100
AcDbEntity
  8
93794901000_BL10
100
AcDbCircle
 62
7
  6
CONTINUOUS
 10
125.7206625647
 20
1111.6925447768
 40
0.75
  0
ARC
  5
4A7
100
AcDbEntity
  8
93794901000_BL10
100
AcDbCircle
 62
7
  6
CONTINUOUS
 10
129.8206625647
 20
1118.6925447768
 40
6.0
100
AcDbArc
 50
18.1948723388
 51
161.8051276612
  0
ARC
  5
4A8
100
AcDbEntity
  8
93794901000_BL10
100
AcDbCircle
 62
7
  6
CONTINUOUS
 10
129.8206625647
 20
1118.6925447768
 40
6.0
100
AcDbArc
 50
198.1948723388
 51
341.8051276612
  0
CIRCLE
  5
4A9
100
AcDbEntity
  8
93794901000_BL10
100
AcDbCircle
 62
7
  6
CONTINUOUS
 10
129.8206625647
 20
1118.6925447768
 40
3.5
  0
CIRCLE
  5
4AA
100
AcDbEntity
  8
93794901000_BL10
100
AcDbCircle
 62
7
  6
CONTINUOUS
 10
129.8206625647
 20
1118.6925447768
 40
3.3
  0
CIRCLE
  5
4AB
100
AcDbEntity
  8
93794901000_BL10
100
AcDbCircle
 62
7
  6
CONTINUOUS
 10
129.8206625647
 20
1110.6925447768
 40
2.0
  0
CIRCLE
  5
4AC
100
AcDbEntity
  8
93794901000_BL10
100
AcDbCircle
 62
7
  6
CONTINUOUS
 10
133.7206625647
 20
1128.3925447768
 40
2.0
  0
CIRCLE
  5
4AD
100
AcDbEntity
  8
93794901000_BL10
100
AcDbCircle
 62
7
  6
CONTINUOUS
 10
133.9206625647
 20
1125.1925447768
 40
0.75
  0
CIRCLE
  5
4AE
100
AcDbEntity
  8
93794901000_BL10
100
AcDbCircle
 62
7
  6
CONTINUOUS
 10
133.9206625647
 20
1111.6925447768
 40
0.75
  0
ARC
  5
4AF
100
AcDbEntity
  8
93794901000_BL10
100
AcDbCircle
 62
7
  6
CONTINUOUS
 10
135.8451842317
 20
1118.7005128872
 40
11.8745243405
100
AcDbArc
 50
180.0384469405
 51
189.11669152
  0
ARC
  5
4B0
100
AcDbEntity
  8
93794901000_BL10
100
AcDbCircle
 62
7
  6
CONTINUOUS
 10
135.8451836607
 20
1118.6845767121
 40
11.8745237694
100
AcDbArc
 50
170.8833082612
 51
179.9615532782
  0
ARC
  5
4B1
100
AcDbEntity
  8
93794901000_BL10
100
AcDbCircle
 62
7
  6
CONTINUOUS
 10
136.5206625647
 20
1126.6925447768
 40
0.3
100
AcDbArc
 50
315.0
 51
45.0
  0
ARC
  5
4B2
100
AcDbEntity
  8
93794901000_BL10
100
AcDbCircle
 62
7
  6
CONTINUOUS
 10
136.5206625647
 20
1111.6925447768
 40
0.3
100
AcDbArc
 50
315.0
 51
45.0
  0
ARC
  5
4B3
100
AcDbEntity
  8
93794901000_BL10
100
AcDbCircle
 62
7
  6
CONTINUOUS
 10
15.1349101717
 20
1118.6845766664
 40
11.8745243405
100
AcDbArc
 50
0.0384469405
 51
9.11669152
  0
ARC
  5
4B4
100
AcDbEntity
  8
93794901000_BL10
100
AcDbCircle
 62
7
  6
CONTINUOUS
 10
15.1349107427
 20
1118.7005128415
 40
11.8745237693
100
AcDbArc
 50
350.8833082612
 51
359.9615532782
  0
ARC
  5
4B5
100
AcDbEntity
  8
93794901000_BL10
100
AcDbCircle
 62
7
  6
CONTINUOUS
 10
27.6594318387
 20
1111.6925447768
 40
1.25
100
AcDbArc
 50
143.1301023542
 51
216.8698976458
  0
ARC
  5
4B6
100
AcDbEntity
  8
93794901000_BL10
100
AcDbCircle
 62
7
  6
CONTINUOUS
 10
27.6594318387
 20
1125.1925447768
 40
1.25
100
AcDbArc
 50
143.1301023542
 51
216.8698976458
  0
ELLIPSE
  5
4B7
100
AcDbEntity
  8
93794901000_BL10
100
AcDbEllipse
 62
7
  6
CONTINUOUS
 10
21.1594318387
 20
1118.6925447768
 30
0.0
 11
6.0
 21
-0.0
 31
0.0
 40
1.0
 41
-0.4111378623
 42
-0.3175604293
  0
ELLIPSE
  5
4B8
100
AcDbEntity
  8
93794901000_BL10
100
AcDbEllipse
 62
7
  6
CONTINUOUS
 10
21.1594318387
 20
1118.6925447768
 30
0.0
 11
6.0
 21
-0.0
 31
0.0
 40
1.0
 41
0.3175604293
 42
0.4111378623
  0
ELLIPSE
  5
4B9
100
AcDbEntity
  8
93794901000_BL10
100
AcDbEllipse
 62
7
  6
CONTINUOUS
 10
25.0594318387
 20
1128.3925447768
 30
0.0
 11
2.0
 21
-0.0
 31
0.0
 40
1.0
 41
-0.6435011088
 42
0.6435011088
  0
ELLIPSE
  5
4BA
100
AcDbEntity
  8
93794901000_BL10
100
AcDbEllipse
 62
7
  6
CONTINUOUS
 10
27.8594318387
 20
1126.6925447768
 30
0.0
 11
0.3
 21
0.0
 31
0.0
 40
1.0
 41
-0.7853981634
 42
0.7853981634
  0
ELLIPSE
  5
4BB
100
AcDbEntity
  8
93794901000_BL10
100
AcDbEllipse
 62
7
  6
CONTINUOUS
 10
27.8594318387
 20
1111.6925447768
 30
0.0
 11
0.3
 21
0.0
 31
0.0
 40
1.0
 41
-0.7853981634
 42
0.7853981634
  0
ENDBLK
  5
4BC
100
AcDbEntity
  8
0
  6
BYBLOCK
 62
0
100
AcDbBlockEnd
  0
BLOCK
  5
4BD
100
AcDbEntity
  8
93794901000_BL11
100
AcDbBlockBegin
  2
93794901000_BL11
 70
64
 10
80.2400472017
 20
919.1925447768
  3
93794901000_BL11
  1

  0
LINE
  5
4BE
100
AcDbEntity
  8
93794901000_BL11
100
AcDbLine
 62
7
  6
CONTINUOUS
 10
123.8206625647
 20
936.1925447768
 11
135.3206625647
 21
936.1925447768
  0
LINE
  5
4BF
100
AcDbEntity
  8
93794901000_BL11
100
AcDbLine
 62
7
  6
CONTINUOUS
 10
135.3206625647
 20
936.1925447768
 11
136.8206625647
 21
936.1925447768
  0
LINE
  5
4C0
100
AcDbEntity
  8
93794901000_BL11
100
AcDbLine
 62
7
  6
CONTINUOUS
 10
123.8206625647
 20
917.0682807081
 11
122.9085305303
 21
917.9804127424
  0
LINE
  5
4C1
100
AcDbEntity
  8
93794901000_BL11
100
AcDbLine
 62
7
  6
CONTINUOUS
 10
123.8206625647
 20
932.0682807081
 11
122.9085305303
 21
932.9804127424
  0
LINE
  5
4C2
100
AcDbEntity
  8
93794901000_BL11
100
AcDbLine
 62
7
  6
CONTINUOUS
 10
123.8206625647
 20
936.1925447768
 11
123.8206625647
 21
934.3168088455
  0
LINE
  5
4C3
100
AcDbEntity
  8
93794901000_BL11
100
AcDbLine
 62
7
  6
CONTINUOUS
 10
123.8206625647
 20
914.1925447768
 11
123.8206625647
 21
917.0682807081
  0
LINE
  5
4C4
100
AcDbEntity
  8
93794901000_BL11
100
AcDbLine
 62
7
  6
CONTINUOUS
 10
123.8206625647
 20
919.3168088455
 11
123.8206625647
 21
932.0682807081
  0
LINE
  5
4C5
100
AcDbEntity
  8
93794901000_BL11
100
AcDbLine
 62
7
  6
CONTINUOUS
 10
124.3206625647
 20
936.1925447768
 11
124.3206625647
 21
928.5904605385
  0
LINE
  5
4C6
100
AcDbEntity
  8
93794901000_BL11
100
AcDbLine
 62
7
  6
CONTINUOUS
 10
124.3206625647
 20
923.7946290151
 11
124.3206625647
 21
917.6925447768
  0
LINE
  5
4C7
100
AcDbEntity
  8
93794901000_BL11
100
AcDbLine
 62
7
  6
CONTINUOUS
 10
124.3206625647
 20
915.2925447768
 11
124.3206625647
 21
914.1925447768
  0
LINE
  5
4C8
100
AcDbEntity
  8
93794901000_BL11
100
AcDbLine
 62
7
  6
CONTINUOUS
 10
135.3206625647
 20
936.1925447768
 11
135.3206625647
 21
928.5904605385
  0
LINE
  5
4C9
100
AcDbEntity
  8
93794901000_BL11
100
AcDbLine
 62
7
  6
CONTINUOUS
 10
135.3206625647
 20
923.7946290151
 11
135.3206625647
 21
917.6925447768
  0
LINE
  5
4CA
100
AcDbEntity
  8
93794901000_BL11
100
AcDbLine
 62
7
  6
CONTINUOUS
 10
135.3206625647
 20
915.2925447768
 11
135.3206625647
 21
914.1925447768
  0
LINE
  5
4CB
100
AcDbEntity
  8
93794901000_BL11
100
AcDbLine
 62
7
  6
CONTINUOUS
 10
136.8206625647
 20
936.1925447768
 11
136.8206625647
 21
914.1925447768
  0
LINE
  5
4CC
100
AcDbEntity
  8
93794901000_BL11
100
AcDbLine
 62
7
  6
CONTINUOUS
 10
122.9085305303
 20
933.4046768112
 11
123.8206625647
 21
934.3168088455
  0
LINE
  5
4CD
100
AcDbEntity
  8
93794901000_BL11
100
AcDbLine
 62
7
  6
CONTINUOUS
 10
122.9085305303
 20
918.4046768112
 11
123.8206625647
 21
919.3168088455
  0
LINE
  5
4CE
100
AcDbEntity
  8
93794901000_BL11
100
AcDbLine
 62
7
  6
CENTER
 10
23.6594318387
 20
902.1925447768
 11
33.3594318387
 21
902.1925447768
  0
LINE
  5
4CF
100
AcDbEntity
  8
93794901000_BL11
100
AcDbLine
 62
7
  6
CONTINUOUS
 10
26.6594318387
 20
936.1925447768
 11
30.3594318387
 21
936.1925447768
  0
LINE
  5
4D0
100
AcDbEntity
  8
93794901000_BL11
100
AcDbLine
 62
7
  6
CONTINUOUS
 10
26.6594318387
 20
936.1925447768
 11
26.6594318387
 21
928.5904605385
  0
LINE
  5
4D1
100
AcDbEntity
  8
93794901000_BL11
100
AcDbLine
 62
7
  6
CONTINUOUS
 10
26.6594318387
 20
923.7946290151
 11
26.6594318387
 21
914.1925447768
  0
LINE
  5
4D2
100
AcDbEntity
  8
93794901000_BL11
100
AcDbLine
 62
7
  6
CONTINUOUS
 10
28.1594318387
 20
936.1925447768
 11
28.1594318387
 21
914.1925447768
  0
LINE
  5
4D3
100
AcDbEntity
  8
93794901000_BL11
100
AcDbLine
 62
7
  6
CONTINUOUS
 10
30.3594318387
 20
914.1925447768
 11
30.3594318387
 21
936.1925447768
  0
ARC
  5
4D4
100
AcDbEntity
  8
93794901000_BL11
100
AcDbCircle
 62
7
  6
CONTINUOUS
 10
123.7961408977
 20
926.1845766664
 40
11.8745243403
100
AcDbArc
 50
0.0384469405
 51
9.11669152
  0
ARC
  5
4D5
100
AcDbEntity
  8
93794901000_BL11
100
AcDbCircle
 62
7
  6
CONTINUOUS
 10
123.7961414687
 20
926.2005128415
 40
11.8745237694
100
AcDbArc
 50
350.8833082613
 51
359.9615532782
  0
CIRCLE
  5
4D6
100
AcDbEntity
  8
93794901000_BL11
100
AcDbCircle
 62
7
  6
CONTINUOUS
 10
125.9206625647
 20
916.4925447768
 40
2.0
  0
CIRCLE
  5
4D7
100
AcDbEntity
  8
93794901000_BL11
100
AcDbCircle
 62
7
  6
CONTINUOUS
 10
125.7206625647
 20
919.6925447768
 40
0.75
  0
CIRCLE
  5
4D8
100
AcDbEntity
  8
93794901000_BL11
100
AcDbCircle
 62
7
  6
CONTINUOUS
 10
125.7206625647
 20
933.1925447768
 40
0.75
  0
ARC
  5
4D9
100
AcDbEntity
  8
93794901000_BL11
100
AcDbCircle
 62
7
  6
CONTINUOUS
 10
123.1206625647
 20
918.1925447768
 40
0.3
100
AcDbArc
 50
135.0
 51
225.0
  0
ARC
  5
4DA
100
AcDbEntity
  8
93794901000_BL11
100
AcDbCircle
 62
7
  6
CONTINUOUS
 10
123.1206625647
 20
933.1925447768
 40
0.3
100
AcDbArc
 50
135.0
 51
225.0
  0
ARC
  5
4DB
100
AcDbEntity
  8
93794901000_BL11
100
AcDbCircle
 62
7
  6
CONTINUOUS
 10
129.8206625647
 20
926.1925447768
 40
6.0
100
AcDbArc
 50
198.1948723388
 51
341.8051276612
  0
ARC
  5
4DC
100
AcDbEntity
  8
93794901000_BL11
100
AcDbCircle
 62
7
  6
CONTINUOUS
 10
129.8206625647
 20
926.1925447768
 40
6.0
100
AcDbArc
 50
18.1948723388
 51
161.8051276612
  0
CIRCLE
  5
4DD
100
AcDbEntity
  8
93794901000_BL11
100
AcDbCircle
 62
7
  6
CONTINUOUS
 10
129.8206625647
 20
926.1925447768
 40
3.5
  0
CIRCLE
  5
4DE
100
AcDbEntity
  8
93794901000_BL11
100
AcDbCircle
 62
7
  6
CONTINUOUS
 10
129.8206625647
 20
926.1925447768
 40
3.3
  0
CIRCLE
  5
4DF
100
AcDbEntity
  8
93794901000_BL11
100
AcDbCircle
 62
7
  6
CONTINUOUS
 10
129.8206625647
 20
934.1925447768
 40
2.0
  0
CIRCLE
  5
4E0
100
AcDbEntity
  8
93794901000_BL11
100
AcDbCircle
 62
7
  6
CONTINUOUS
 10
133.7206625647
 20
916.4925447768
 40
2.0
  0
CIRCLE
  5
4E1
100
AcDbEntity
  8
93794901000_BL11
100
AcDbCircle
 62
7
  6
CONTINUOUS
 10
133.9206625647
 20
919.6925447768
 40
0.75
  0
CIRCLE
  5
4E2
100
AcDbEntity
  8
93794901000_BL11
100
AcDbCircle
 62
7
  6
CONTINUOUS
 10
133.9206625647
 20
933.1925447768
 40
0.75
  0
ARC
  5
4E3
100
AcDbEntity
  8
93794901000_BL11
100
AcDbCircle
 62
7
  6
CONTINUOUS
 10
135.8451842318
 20
926.2005128872
 40
11.8745243405
100
AcDbArc
 50
180.0384469405
 51
189.11669152
  0
ARC
  5
4E4
100
AcDbEntity
  8
93794901000_BL11
100
AcDbCircle
 62
7
  6
CONTINUOUS
 10
135.8451836607
 20
926.1845767121
 40
11.8745237693
100
AcDbArc
 50
170.8833082612
 51
179.9615532782
  0
ARC
  5
4E5
100
AcDbEntity
  8
93794901000_BL11
100
AcDbCircle
 62
7
  6
CONTINUOUS
 10
15.1349101717
 20
926.1845766664
 40
11.8745243405
100
AcDbArc
 50
0.0384469405
 51
9.11669152
  0
ARC
  5
4E6
100
AcDbEntity
  8
93794901000_BL11
100
AcDbCircle
 62
7
  6
CONTINUOUS
 10
15.1349107429
 20
926.2005128415
 40
11.8745237692
100
AcDbArc
 50
350.8833082612
 51
359.9615532783
  0
ARC
  5
4E7
100
AcDbEntity
  8
93794901000_BL11
100
AcDbCircle
 62
7
  6
CONTINUOUS
 10
27.6594318387
 20
933.1925447768
 40
1.25
100
AcDbArc
 50
143.1301023542
 51
216.8698976458
  0
ARC
  5
4E8
100
AcDbEntity
  8
93794901000_BL11
100
AcDbCircle
 62
7
  6
CONTINUOUS
 10
27.6594318387
 20
919.6925447768
 40
1.25
100
AcDbArc
 50
143.1301023542
 51
216.8698976458
  0
ELLIPSE
  5
4E9
100
AcDbEntity
  8
93794901000_BL11
100
AcDbEllipse
 62
7
  6
CONTINUOUS
 10
25.0594318387
 20
916.4925447768
 30
0.0
 11
2.0
 21
-0.0
 31
0.0
 40
1.0
 41
-0.6435011088
 42
0.0
  0
ELLIPSE
  5
4EA
100
AcDbEntity
  8
93794901000_BL11
100
AcDbEllipse
 62
7
  6
CONTINUOUS
 10
25.0594318387
 20
916.4925447768
 30
0.0
 11
0.0
 21
2.0
 31
0.0
 40
1.0
 41
-1.5707963268
 42
-0.927295218
  0
ELLIPSE
  5
4EB
100
AcDbEntity
  8
93794901000_BL11
100
AcDbEllipse
 62
7
  6
CONTINUOUS
 10
21.1594318387
 20
926.1925447768
 30
0.0
 11
0.0
 21
6.0
 31
0.0
 40
1.0
 41
-1.9819341891
 42
-1.8883567561
  0
ELLIPSE
  5
4EC
100
AcDbEntity
  8
93794901000_BL11
100
AcDbEllipse
 62
7
  6
CONTINUOUS
 10
21.1594318387
 20
926.1925447768
 30
0.0
 11
0.0
 21
6.0
 31
0.0
 40
1.0
 41
-1.2532358975
 42
-1.1596584645
  0
ENDBLK
  5
4ED
100
AcDbEntity
  8
0
  6
BYBLOCK
 62
0
100
AcDbBlockEnd
  0
BLOCK
  5
4EE
100
AcDbEntity
  8
94819605000_BL12
100
AcDbBlockBegin
  2
94819605000_BL12
 70
64
 10
81.2400472017
 20
994.2620359709
  3
94819605000_BL12
  1

  0
LINE
  5
4EF
100
AcDbEntity
  8
94819605000_BL12
100
AcDbLine
 62
7
  6
CONTINUOUS
 10
120.8206625647
 20
1130.6925447768
 11
120.8206625647
 21
1895.1925447768
  0
LINE
  5
4F0
100
AcDbEntity
  8
94819605000_BL12
100
AcDbLine
 62
9
  6
CONTINUOUS
 10
123.8206625647
 20
1130.6925447768
 11
123.8206625647
 21
1728.6725044004
  0
LINE
  5
4F1
100
AcDbEntity
  8
94819605000_BL12
100
AcDbLine
 62
9
  6
CONTINUOUS
 10
123.8206625647
 20
1801.7125851532
 11
123.8206625647
 21
1895.1925447768
  0
LINE
  5
4F2
100
AcDbEntity
  8
94819605000_BL12
100
AcDbLine
 62
7
  6
CENTER
 10
129.8206625647
 20
1813.1925447768
 11
129.8206625647
 21
1804.7925447768
  0
LINE
  5
4F3
100
AcDbEntity
  8
94819605000_BL12
100
AcDbLine
 62
7
  6
CENTER
 10
129.8206625647
 20
1687.1925447768
 11
129.8206625647
 21
1678.7925447768
  0
LINE
  5
4F4
100
AcDbEntity
  8
94819605000_BL12
100
AcDbLine
 62
7
  6
CENTER
 10
129.8206625647
 20
1425.6925447768
 11
129.8206625647
 21
1417.2925447768
  0
LINE
  5
4F5
100
AcDbEntity
  8
94819605000_BL12
100
AcDbLine
 62
7
  6
CENTER
 10
129.8206625647
 20
1142.6925447768
 11
129.8206625647
 21
1134.2925447768
  0
LINE
  5
4F6
100
AcDbEntity
  8
94819605000_BL12
100
AcDbLine
 62
7
  6
CENTER
 10
129.8206625647
 20
1142.6925447768
 11
129.8206625647
 21
1151.0925447768
  0
LINE
  5
4F7
100
AcDbEntity
  8
94819605000_BL12
100
AcDbLine
 62
7
  6
CENTER
 10
129.8206625647
 20
1425.6925447768
 11
129.8206625647
 21
1434.0925447768
  0
LINE
  5
4F8
100
AcDbEntity
  8
94819605000_BL12
100
AcDbLine
 62
7
  6
CENTER
 10
129.8206625647
 20
1687.1925447768
 11
129.8206625647
 21
1695.5925447768
  0
LINE
  5
4F9
100
AcDbEntity
  8
94819605000_BL12
100
AcDbLine
 62
7
  6
CENTER
 10
129.8206625647
 20
1813.1925447768
 11
129.8206625647
 21
1821.5925447768
  0
LINE
  5
4FA
100
AcDbEntity
  8
94819605000_BL12
100
AcDbLine
 62
9
  6
CONTINUOUS
 10
135.8206625647
 20
1130.6925447768
 11
135.8206625647
 21
1728.6725044004
  0
LINE
  5
4FB
100
AcDbEntity
  8
94819605000_BL12
100
AcDbLine
 62
9
  6
CONTINUOUS
 10
135.8206625647
 20
1801.7125851532
 11
135.8206625647
 21
1895.1925447768
  0
LINE
  5
4FC
100
AcDbEntity
  8
94819605000_BL12
100
AcDbLine
 62
7
  6
CONTINUOUS
 10
138.8206625647
 20
1895.1925447768
 11
138.8206625647
 21
1130.6925447768
  0
LINE
  5
4FD
100
AcDbEntity
  8
94819605000_BL12
100
AcDbLine
 62
7
  6
CONTINUOUS
 10
138.8206625647
 20
1130.6925447768
 11
120.8206625647
 21
1130.6925447768
  0
LINE
  5
4FE
100
AcDbEntity
  8
94819605000_BL12
100
AcDbLine
 62
7
  6
CENTER
 10
129.8206625647
 20
1142.6925447768
 11
121.4206625647
 21
1142.6925447768
  0
LINE
  5
4FF
100
AcDbEntity
  8
94819605000_BL12
100
AcDbLine
 62
7
  6
CENTER
 10
129.8206625647
 20
1142.6925447768
 11
138.2206625647
 21
1142.6925447768
  0
LINE
  5
500
100
AcDbEntity
  8
94819605000_BL12
100
AcDbLine
 62
7
  6
CENTER
 10
129.8206625647
 20
1425.6925447768
 11
121.4206625647
 21
1425.6925447768
  0
LINE
  5
501
100
AcDbEntity
  8
94819605000_BL12
100
AcDbLine
 62
7
  6
CENTER
 10
129.8206625647
 20
1425.6925447768
 11
138.2206625647
 21
1425.6925447768
  0
LINE
  5
502
100
AcDbEntity
  8
94819605000_BL12
100
AcDbLine
 62
7
  6
CENTER
 10
129.8206625647
 20
1687.1925447768
 11
121.4206625647
 21
1687.1925447768
  0
LINE
  5
503
100
AcDbEntity
  8
94819605000_BL12
100
AcDbLine
 62
7
  6
CENTER
 10
129.8206625647
 20
1687.1925447768
 11
138.2206625647
 21
1687.1925447768
  0
LINE
  5
504
100
AcDbEntity
  8
94819605000_BL12
100
AcDbLine
 62
7
  6
CENTER
 10
129.8206625647
 20
1813.1925447768
 11
121.4206625647
 21
1813.1925447768
  0
LINE
  5
505
100
AcDbEntity
  8
94819605000_BL12
100
AcDbLine
 62
7
  6
CENTER
 10
129.8206625647
 20
1813.1925447768
 11
138.2206625647
 21
1813.1925447768
  0
LINE
  5
506
100
AcDbEntity
  8
94819605000_BL12
100
AcDbLine
 62
7
  6
CONTINUOUS
 10
138.8206625647
 20
1895.1925447768
 11
120.8206625647
 21
1895.1925447768
  0
LINE
  5
507
100
AcDbEntity
  8
94819605000_BL12
100
AcDbLine
 62
7
  6
CONTINUOUS
 10
24.6594318387
 20
1130.6925447768
 11
24.6594318387
 21
1728.6884715571
  0
LINE
  5
508
100
AcDbEntity
  8
94819605000_BL12
100
AcDbLine
 62
7
  6
CONTINUOUS
 10
24.6594318387
 20
1801.6966179965
 11
24.6594318387
 21
1895.1925447768
  0
LINE
  5
509
100
AcDbEntity
  8
94819605000_BL12
100
AcDbLine
 62
7
  6
CONTINUOUS
 10
24.831004714
 20
1783.1925447768
 11
24.831004714
 21
1747.1925447768
  0
LINE
  5
50A
100
AcDbEntity
  8
94819605000_BL12
100
AcDbLine
 62
9
  6
CONTINUOUS
 10
27.6594318387
 20
1130.6925447768
 11
27.6594318387
 21
1895.1925447768
  0
LINE
  5
50B
100
AcDbEntity
  8
94819605000_BL12
100
AcDbLine
 62
7
  6
CONTINUOUS
 10
30.6594318387
 20
1130.6925447768
 11
30.6594318387
 21
1895.1925447768
  0
LINE
  5
50C
100
AcDbEntity
  8
94819605000_BL12
100
AcDbLine
 62
7
  6
CONTINUOUS
 10
30.6594318387
 20
1130.6925447768
 11
24.6594318387
 21
1130.6925447768
  0
LINE
  5
50D
100
AcDbEntity
  8
94819605000_BL12
100
AcDbLine
 62
7
  6
CENTER
 10
31.6594318387
 20
1142.6925447768
 11
23.6594318387
 21
1142.6925447768
  0
LINE
  5
50E
100
AcDbEntity
  8
94819605000_BL12
100
AcDbLine
 62
7
  6
CENTER
 10
31.6594318387
 20
1425.6925447768
 11
23.6594318387
 21
1425.6925447768
  0
LINE
  5
50F
100
AcDbEntity
  8
94819605000_BL12
100
AcDbLine
 62
7
  6
CENTER
 10
31.6594318387
 20
1687.1925447768
 11
23.6594318387
 21
1687.1925447768
  0
LINE
  5
510
100
AcDbEntity
  8
94819605000_BL12
100
AcDbLine
 62
7
  6
CENTER
 10
31.6594318387
 20
1813.1925447768
 11
23.6594318387
 21
1813.1925447768
  0
LINE
  5
511
100
AcDbEntity
  8
94819605000_BL12
100
AcDbLine
 62
7
  6
CONTINUOUS
 10
30.6594318387
 20
1895.1925447768
 11
24.6594318387
 21
1895.1925447768
  0
LINE
  5
512
100
AcDbEntity
  8
94819605000_BL12
100
AcDbLine
 62
7
  6
CONTINUOUS
 10
30.6594318387
 20
93.3315271649
 11
27.6594318387
 21
93.3315271649
  0
LINE
  5
513
100
AcDbEntity
  8
94819605000_BL12
100
AcDbLine
 62
7
  6
CONTINUOUS
 10
24.6594318387
 20
96.3315271649
 11
24.6594318387
 21
108.3315271649
  0
LINE
  5
514
100
AcDbEntity
  8
94819605000_BL12
100
AcDbLine
 62
7
  6
CONTINUOUS
 10
27.1594318387
 20
95.3315271649
 11
30.6594318387
 21
95.3315271649
  0
LINE
  5
515
100
AcDbEntity
  8
94819605000_BL12
100
AcDbLine
 62
7
  6
CONTINUOUS
 10
26.6594318387
 20
108.8315271649
 11
26.6594318387
 21
95.8315271649
  0
LINE
  5
516
100
AcDbEntity
  8
94819605000_BL12
100
AcDbLine
 62
7
  6
CONTINUOUS
 10
30.6594318387
 20
111.3315271649
 11
30.6594318387
 21
109.3315271649
  0
LINE
  5
517
100
AcDbEntity
  8
94819605000_BL12
100
AcDbLine
 62
7
  6
CONTINUOUS
 10
30.6594318387
 20
95.3315271649
 11
30.6594318387
 21
93.3315271649
  0
LINE
  5
518
100
AcDbEntity
  8
94819605000_BL12
100
AcDbLine
 62
7
  6
CONTINUOUS
 10
30.6594318387
 20
109.3315271649
 11
27.1594318387
 21
109.3315271649
  0
LINE
  5
519
100
AcDbEntity
  8
94819605000_BL12
100
AcDbLine
 62
7
  6
CONTINUOUS
 10
27.6594318387
 20
111.3315271649
 11
30.6594318387
 21
111.3315271649
  0
CIRCLE
  5
51A
100
AcDbEntity
  8
94819605000_BL12
100
AcDbCircle
 62
7
  6
CONTINUOUS
 10
129.8206625647
 20
1425.6925447768
 40
4.15
  0
CIRCLE
  5
51B
100
AcDbEntity
  8
94819605000_BL12
100
AcDbCircle
 62
7
  6
CONTINUOUS
 10
129.8206625647
 20
1142.6925447768
 40
4.15
  0
CIRCLE
  5
51C
100
AcDbEntity
  8
94819605000_BL12
100
AcDbCircle
 62
7
  6
CONTINUOUS
 10
129.8206625647
 20
1425.6925447768
 40
2.6
  0
CIRCLE
  5
51D
100
AcDbEntity
  8
94819605000_BL12
100
AcDbCircle
 62
7
  6
CONTINUOUS
 10
129.8206625647
 20
1142.6925447768
 40
2.6
  0
CIRCLE
  5
51E
100
AcDbEntity
  8
94819605000_BL12
100
AcDbCircle
 62
7
  6
CONTINUOUS
 10
129.8206625647
 20
1687.1925447768
 40
4.15
  0
CIRCLE
  5
51F
100
AcDbEntity
  8
94819605000_BL12
100
AcDbCircle
 62
7
  6
CONTINUOUS
 10
129.8206625647
 20
1687.1925447768
 40
2.6
  0
CIRCLE
  5
520
100
AcDbEntity
  8
94819605000_BL12
100
AcDbCircle
 62
7
  6
CONTINUOUS
 10
129.8206625647
 20
1883.1925447768
 40
4.15
  0
CIRCLE
  5
521
100
AcDbEntity
  8
94819605000_BL12
100
AcDbCircle
 62
7
  6
CONTINUOUS
 10
129.8206625647
 20
1813.1925447768
 40
4.15
  0
CIRCLE
  5
522
100
AcDbEntity
  8
94819605000_BL12
100
AcDbCircle
 62
7
  6
CONTINUOUS
 10
129.8206625647
 20
1883.1925447768
 40
2.6
  0
CIRCLE
  5
523
100
AcDbEntity
  8
94819605000_BL12
100
AcDbCircle
 62
7
  6
CONTINUOUS
 10
129.8206625647
 20
1813.1925447768
 40
2.6
  0
ARC
  5
524
100
AcDbEntity
  8
94819605000_BL12
100
AcDbCircle
 62
7
  6
CONTINUOUS
 10
27.6594318387
 20
108.3315271649
 40
3.0
100
AcDbArc
 50
90.0
 51
180.0
  0
ARC
  5
525
100
AcDbEntity
  8
94819605000_BL12
100
AcDbCircle
 62
7
  6
CONTINUOUS
 10
27.6594318387
 20
96.3315271649
 40
3.0
100
AcDbArc
 50
180.0
 51
270.0
  0
ARC
  5
526
100
AcDbEntity
  8
94819605000_BL12
100
AcDbCircle
 62
7
  6
CONTINUOUS
 10
27.1594318387
 20
108.8315271649
 40
0.5
100
AcDbArc
 50
90.0
 51
180.0
  0
ARC
  5
527
100
AcDbEntity
  8
94819605000_BL12
100
AcDbCircle
 62
7
  6
CONTINUOUS
 10
27.1594318387
 20
95.8315271649
 40
0.5
100
AcDbArc
 50
180.0
 51
270.0
  0
SPLINE
  5
528
100
AcDbEntity
  8
94819605000_BL12
100
AcDbSpline
 62
7
  6
CONTINUOUS
 70
0
 71
3
 72
10
 73
6
 74
0
 42
0.0000001
 43
0.0000001
 44
0.0000000001
 40
0.0
 40
0.0
 40
0.0
 40
0.0
 40
0.5763936339
 40
0.8162512267
 40
1.0
 40
1.0
 40
1.0
 40
1.0
 10
24.831004714
 20
1747.1925447768
 30
0.0
 10
24.831004714
 20
1746.8580023156
 30
0.0
 10
24.7837100165
 20
1746.3840813998
 30
0.0
 10
24.691015295
 20
1745.8120741729
 30
0.0
 10
24.6594318387
 20
1745.5671429037
 30
0.0
 10
24.6594318387
 20
1745.4604939692
 30
0.0
  0
SPLINE
  5
529
100
AcDbEntity
  8
94819605000_BL12
100
AcDbSpline
 62
7
  6
CONTINUOUS
 70
0
 71
3
 72
10
 73
6
 74
0
 42
0.0000001
 43
0.0000001
 44
0.0000000001
 40
0.0
 40
0.0
 40
0.0
 40
0.0
 40
0.1837493613
 40
0.4236057305
 40
1.0
 40
1.0
 40
1.0
 40
1.0
 10
24.6594318387
 20
1784.9245955844
 30
0.0
 10
24.6594318387
 20
1784.8179463087
 30
0.0
 10
24.6910153015
 20
1784.5730154094
 30
0.0
 10
24.7837100459
 20
1784.0010081854
 30
0.0
 10
24.831004714
 20
1783.5270876067
 30
0.0
 10
24.831004714
 20
1783.1925447768
 30
0.0
  0
ENDBLK
  5
52A
100
AcDbEntity
  8
0
  6
BYBLOCK
 62
0
100
AcDbBlockEnd
  0
BLOCK
  5
52B
100
AcDbEntity
  8
93773501000_O_BL13
100
AcDbBlockBegin
  2
93773501000_O_BL13
 70
64
 10
81.7400472017
 20
1888.6925447768
  3
93773501000_O_BL13
  1

  0
LINE
  5
52C
100
AcDbEntity
  8
93773501000_O_BL13
100
AcDbLine
 62
7
  6
CONTINUOUS
 10
120.8206625647
 20
1895.5925447768
 11
120.8206625647
 21
1903.1925447768
  0
LINE
  5
52D
100
AcDbEntity
  8
93773501000_O_BL13
100
AcDbLine
 62
9
  6
CONTINUOUS
 10
123.3206625647
 20
1898.6925447768
 11
123.3206625647
 21
1895.1925447768
  0
LINE
  5
52E
100
AcDbEntity
  8
93773501000_O_BL13
100
AcDbLine
 62
7
  6
CENTER
 10
129.8206625647
 20
1883.1925447768
 11
129.8206625647
 21
1874.1925447768
  0
LINE
  5
52F
100
AcDbEntity
  8
93773501000_O_BL13
100
AcDbLine
 62
7
  6
CENTER
 10
129.8206625647
 20
1883.1925447768
 11
129.8206625647
 21
1892.1925447768
  0
LINE
  5
530
100
AcDbEntity
  8
93773501000_O_BL13
100
AcDbLine
 62
9
  6
CONTINUOUS
 10
136.3206625647
 20
1898.6925447768
 11
136.3206625647
 21
1895.1925447768
  0
LINE
  5
531
100
AcDbEntity
  8
93773501000_O_BL13
100
AcDbLine
 62
7
  6
CONTINUOUS
 10
138.8206625647
 20
1903.1925447768
 11
138.8206625647
 21
1895.5925447768
  0
LINE
  5
532
100
AcDbEntity
  8
93773501000_O_BL13
100
AcDbLine
 62
7
  6
CENTER
 10
129.8206625647
 20
1883.1925447768
 11
120.8206625647
 21
1883.1925447768
  0
LINE
  5
533
100
AcDbEntity
  8
93773501000_O_BL13
100
AcDbLine
 62
7
  6
CENTER
 10
129.8206625647
 20
1883.1925447768
 11
138.8206625647
 21
1883.1925447768
  0
LINE
  5
534
100
AcDbEntity
  8
93773501000_O_BL13
100
AcDbLine
 62
9
  6
CONTINUOUS
 10
120.8206625647
 20
1895.5925447768
 11
138.8206625647
 21
1895.5925447768
  0
LINE
  5
535
100
AcDbEntity
  8
93773501000_O_BL13
100
AcDbLine
 62
9
  6
CONTINUOUS
 10
123.3206625647
 20
1898.6925447768
 11
136.3206625647
 21
1898.6925447768
  0
LINE
  5
536
100
AcDbEntity
  8
93773501000_O_BL13
100
AcDbLine
 62
7
  6
CONTINUOUS
 10
120.8206625647
 20
1903.1925447768
 11
138.8206625647
 21
1903.1925447768
  0
LINE
  5
537
100
AcDbEntity
  8
93773501000_O_BL13
100
AcDbLine
 62
7
  6
CONTINUOUS
 10
24.6594318387
 20
1898.6925447768
 11
24.6594318387
 21
1895.5925447768
  0
LINE
  5
538
100
AcDbEntity
  8
93773501000_O_BL13
100
AcDbLine
 62
9
  6
CONTINUOUS
 10
27.1594318387
 20
1902.7236736509
 11
27.1594318387
 21
1895.1925447768
  0
LINE
  5
539
100
AcDbEntity
  8
93773501000_O_BL13
100
AcDbLine
 62
7
  6
CONTINUOUS
 10
30.6594318387
 20
1903.1925447768
 11
30.6594318387
 21
1895.1925447768
  0
LINE
  5
53A
100
AcDbEntity
  8
93773501000_O_BL13
100
AcDbLine
 62
7
  6
CENTER
 10
33.6594318387
 20
1883.1925447768
 11
26.6594318387
 21
1883.1925447768
  0
LINE
  5
53B
100
AcDbEntity
  8
93773501000_O_BL13
100
AcDbLine
 62
9
  6
CONTINUOUS
 10
24.6594318387
 20
1895.5925447768
 11
30.6594318387
 21
1895.5925447768
  0
LINE
  5
53C
100
AcDbEntity
  8
93773501000_O_BL13
100
AcDbLine
 62
7
  6
CONTINUOUS
 10
30.6594318387
 20
1903.1925447768
 11
29.1594318387
 21
1903.1925447768
  0
ARC
  5
53D
100
AcDbEntity
  8
93773501000_O_BL13
100
AcDbCircle
 62
7
  6
CONTINUOUS
 10
121.2206625647
 20
1895.5925447768
 40
0.4
100
AcDbArc
 50
180.0
 51
270.0000000001
  0
ARC
  5
53E
100
AcDbEntity
  8
93773501000_O_BL13
100
AcDbCircle
 62
7
  6
CONTINUOUS
 10
138.4206625647
 20
1895.5925447768
 40
0.4
100
AcDbArc
 50
269.9999999999
 51
360.0
  0
ARC
  5
53F
100
AcDbEntity
  8
93773501000_O_BL13
100
AcDbCircle
 62
7
  6
CONTINUOUS
 10
25.0594318387
 20
1895.5925447768
 40
0.4
100
AcDbArc
 50
180.0
 51
270.0
  0
ARC
  5
540
100
AcDbEntity
  8
93773501000_O_BL13
100
AcDbCircle
 62
7
  6
CONTINUOUS
 10
29.1594318387
 20
1898.6925447768
 40
4.5
100
AcDbArc
 50
90.0
 51
180.0
  0
SPLINE
  5
541
100
AcDbEntity
  8
93773501000_O_BL13
100
AcDbSpline
 62
7
  6
CONTINUOUS
 70
0
 71
3
 72
12
 73
8
 74
0
 42
0.0000001
 43
0.0000001
 44
0.0000000001
 40
0.0
 40
0.0
 40
0.0
 40
0.0
 40
0.2950115656
 40
0.5762827964
 40
0.8230063738
 40
0.9228004485
 40
1.0
 40
1.0
 40
1.0
 40
1.0
 10
123.3206625647
 20
1898.6925447768
 30
0.0
 10
123.0398928314
 20
1899.0692369025
 30
0.0
 10
122.4908727342
 20
1899.8050491204
 30
0.0
 10
121.7293580676
 20
1900.8704832139
 30
0.0
 10
121.1846294821
 20
1901.7135318768
 30
0.0
 10
120.895685005
 20
1902.3221923895
 30
0.0
 10
120.8206625647
 20
1902.6007303018
 30
0.0
 10
120.8206625647
 20
1902.7236736509
 30
0.0
  0
SPLINE
  5
542
100
AcDbEntity
  8
93773501000_O_BL13
100
AcDbSpline
 62
7
  6
CONTINUOUS
 70
0
 71
3
 72
12
 73
8
 74
0
 42
0.0000001
 43
0.0000001
 44
0.0000000001
 40
0.0
 40
0.0
 40
0.0
 40
0.0
 40
0.0772206737
 40
0.1770425366
 40
0.4238065817
 40
0.7050583377
 40
1.0
 40
1.0
 40
1.0
 40
1.0
 10
138.8206625647
 20
1902.7236736509
 30
0.0
 10
138.8206625647
 20
1902.6006965835
 30
0.0
 10
138.7456223551
 20
1902.3220794729
 30
0.0
 10
138.4565655504
 20
1901.7133130246
 30
0.0
 10
137.9117914717
 20
1900.8702049113
 30
0.0
 10
137.1503016073
 20
1899.8048455203
 30
0.0
 10
136.6013659526
 20
1899.0691478909
 30
0.0
 10
136.3206625647
 20
1898.6925447768
 30
0.0
  0
ENDBLK
  5
543
100
AcDbEntity
  8
0
  6
BYBLOCK
 62
0
100
AcDbBlockEnd
  0
BLOCK
  5
544
100
AcDbEntity
  8
91511100000_BL14
100
AcDbBlockBegin
  2
91511100000_BL14
 70
64
 10
29.3594318387
 20
102.3315271649
  3
91511100000_BL14
  1

  0
LINE
  5
545
100
AcDbEntity
  8
91511100000_BL14
100
AcDbLine
 62
7
  6
CONTINUOUS
 10
29.9594318387
 20
98.3315271649
 11
28.7594318387
 21
98.3315271649
  0
LINE
  5
546
100
AcDbEntity
  8
91511100000_BL14
100
AcDbLine
 62
7
  6
CONTINUOUS
 10
29.9594318387
 20
98.3315271649
 11
29.9594318387
 21
106.3315271649
  0
LINE
  5
547
100
AcDbEntity
  8
91511100000_BL14
100
AcDbLine
 62
7
  6
CONTINUOUS
 10
29.9594318387
 20
106.3315271649
 11
28.7594318387
 21
106.3315271649
  0
ENDBLK
  5
548
100
AcDbEntity
  8
0
  6
BYBLOCK
 62
0
100
AcDbBlockEnd
  0
BLOCK
  5
549
100
AcDbEntity
  8
0
100
AcDbBlockBegin
  2
_FILLED
 70
64
 10
0.0
 20
0.0
  3
_FILLED
  1

  0
SOLID
  5
54A
100
AcDbEntity
  8
0
  6
BYBLOCK
 62
0
100
AcDbTrace
 10
0.0
 20
0.0
 11
-1.0
 21
0.1428571429
 12
-1.0
 22
-0.1428571429
 13
-1.0
 23
-0.1428571429
  0
ENDBLK
  5
54B
100
AcDbEntity
  8
0
  6
BYBLOCK
 62
0
100
AcDbBlockEnd
  0
BLOCK
  5
54C
100
AcDbEntity
  8
0
100
AcDbBlockBegin
  2
_NONE
 70
64
 10
0.0
 20
0.0
  3
_NONE
  1

  0
ENDBLK
  5
54D
100
AcDbEntity
  8
0
  6
BYBLOCK
 62
0
100
AcDbBlockEnd
  0
BLOCK
  5
54E
100
AcDbEntity
  8
0
100
AcDbBlockBegin
 62
2
  6
CONTINUOUS
  2
*D0
 70
65
 10
0.0
 20
0.0
  3
*D0
  1

  0
TEXT
  5
54F
100
AcDbEntity
  8
0
100
AcDbText
 62
5
  6
CONTINUOUS
 10
26.6882422476
 20
1913.8175447768
  7
STANDARD
 40
2.5
  1
6
 72
5
 11
28.6306214298
 21
1913.8175447768
100
AcDbText
  0
LINE
  5
550
100
AcDbEntity
  8
0
100
AcDbLine
 62
2
  6
CONTINUOUS
 10
24.6594318387
 20
1895.1925447768
 11
24.6594318387
 21
1914.1925447768
  0
LINE
  5
551
100
AcDbEntity
  8
0
100
AcDbLine
 62
2
  6
CONTINUOUS
 10
30.6594318387
 20
1895.1925447768
 11
30.6594318387
 21
1914.1925447768
  0
LINE
  5
552
100
AcDbEntity
  8
0
100
AcDbLine
 62
2
  6
CONTINUOUS
 10
24.6594318387
 20
1913.1925447768
 11
17.6594318387
 21
1913.1925447768
  0
LINE
  5
553
100
AcDbEntity
  8
0
100
AcDbLine
 62
2
  6
CONTINUOUS
 10
17.6594318387
 20
1913.1925447768
 11
27.6594318387
 21
1913.1925447768
  0
LINE
  5
554
100
AcDbEntity
  8
0
100
AcDbLine
 62
2
  6
CONTINUOUS
 10
30.6594318387
 20
1913.1925447768
 11
37.6594318387
 21
1913.1925447768
  0
LINE
  5
555
100
AcDbEntity
  8
0
100
AcDbLine
 62
2
  6
CONTINUOUS
 10
37.6594318387
 20
1913.1925447768
 11
27.6594318387
 21
1913.1925447768
  0
INSERT
  5
556
100
AcDbEntity
  8
0
100
AcDbBlockReference
 62
2
  6
CONTINUOUS
  2
_FILLED
 10
24.6594318387
 20
1913.1925447768
 41
3.5
 42
3.5
 43
3.5
  0
INSERT
  5
557
100
AcDbEntity
  8
0
100
AcDbBlockReference
 62
2
  6
CONTINUOUS
  2
_FILLED
 10
30.6594318387
 20
1913.1925447768
 41
3.5
 42
3.5
 43
3.5
 50
180.0
  0
ENDBLK
  5
558
100
AcDbEntity
  8
0
  6
BYBLOCK
 62
0
100
AcDbBlockEnd
  0
BLOCK
  5
559
100
AcDbEntity
  8
0
100
AcDbBlockBegin
 62
2
  6
CONTINUOUS
  2
*D1
 70
65
 10
0.0
 20
0.0
  3
*D1
  1

  0
TEXT
  5
55A
100
AcDbEntity
  8
0
100
AcDbText
 62
5
  6
CONTINUOUS
 10
127.8782833825
 20
1913.8175447768
  7
STANDARD
 40
2.5
  1
18
 72
5
 11
131.7630417468
 21
1913.8175447768
100
AcDbText
  0
LINE
  5
55B
100
AcDbEntity
  8
0
100
AcDbLine
 62
2
  6
CONTINUOUS
 10
138.8206625647
 20
1895.1925447768
 11
138.8206625647
 21
1914.1925447768
  0
LINE
  5
55C
100
AcDbEntity
  8
0
100
AcDbLine
 62
2
  6
CONTINUOUS
 10
120.8206625647
 20
1895.1925447768
 11
120.8206625647
 21
1914.1925447768
  0
LINE
  5
55D
100
AcDbEntity
  8
0
100
AcDbLine
 62
2
  6
CONTINUOUS
 10
138.8206625647
 20
1913.1925447768
 11
129.8206625647
 21
1913.1925447768
  0
LINE
  5
55E
100
AcDbEntity
  8
0
100
AcDbLine
 62
2
  6
CONTINUOUS
 10
120.8206625647
 20
1913.1925447768
 11
129.8206625647
 21
1913.1925447768
  0
INSERT
  5
55F
100
AcDbEntity
  8
0
100
AcDbBlockReference
 62
2
  6
CONTINUOUS
  2
_FILLED
 10
138.8206625647
 20
1913.1925447768
 41
3.5
 42
3.5
 43
3.5
  0
INSERT
  5
560
100
AcDbEntity
  8
0
100
AcDbBlockReference
 62
2
  6
CONTINUOUS
  2
_FILLED
 10
120.8206625647
 20
1913.1925447768
 41
3.5
 42
3.5
 43
3.5
 50
180.0
  0
ENDBLK
  5
561
100
AcDbEntity
  8
0
  6
BYBLOCK
 62
0
100
AcDbBlockEnd
  0
BLOCK
  5
562
100
AcDbEntity
  8
0
100
AcDbBlockBegin
 62
2
  6
CONTINUOUS
  2
*D2
 70
65
 10
0.0
 20
0.0
  3
*D2
  1

  0
TEXT
  5
563
100
AcDbEntity
  8
0
100
AcDbText
 62
5
  6
CONTINUOUS
 10
89.1956625647
 20
1016.3077864125
  7
STANDARD
 40
2.5
  1
1750
 50
90.0
 72
5
 11
89.1956625647
 21
1024.0773031411
100
AcDbText
  0
LINE
  5
564
100
AcDbEntity
  8
0
100
AcDbLine
 62
2
  6
CONTINUOUS
 10
123.8206625647
 20
1895.1925447768
 11
88.8206625647
 21
1895.1925447768
  0
LINE
  5
565
100
AcDbEntity
  8
0
100
AcDbLine
 62
2
  6
CONTINUOUS
 10
123.8206625647
 20
145.1925447768
 11
88.8206625647
 21
145.1925447768
  0
LINE
  5
566
100
AcDbEntity
  8
0
100
AcDbLine
 62
2
  6
CONTINUOUS
 10
89.8206625647
 20
1895.1925447768
 11
89.8206625647
 21
1020.1925447768
  0
LINE
  5
567
100
AcDbEntity
  8
0
100
AcDbLine
 62
2
  6
CONTINUOUS
 10
89.8206625647
 20
145.1925447768
 11
89.8206625647
 21
1020.1925447768
  0
INSERT
  5
568
100
AcDbEntity
  8
0
100
AcDbBlockReference
 62
2
  6
CONTINUOUS
  2
_FILLED
 10
89.8206625647
 20
1895.1925447768
 41
3.5
 42
3.5
 43
3.5
 50
90.0
  0
INSERT
  5
569
100
AcDbEntity
  8
0
100
AcDbBlockReference
 62
2
  6
CONTINUOUS
  2
_FILLED
 10
89.8206625647
 20
145.1925447768
 41
3.5
 42
3.5
 43
3.5
 50
270.0
  0
ENDBLK
  5
56A
100
AcDbEntity
  8
0
  6
BYBLOCK
 62
0
100
AcDbBlockEnd
  0
BLOCK
  5
56B
100
AcDbEntity
  8
0
100
AcDbBlockBegin
 62
2
  6
CONTINUOUS
  2
*D3
 70
65
 10
0.0
 20
0.0
  3
*D3
  1

  0
TEXT
  5
56C
100
AcDbEntity
  8
0
100
AcDbText
 62
5
  6
CONTINUOUS
 10
82.1956625647
 20
1016.3077864125
  7
STANDARD
 40
2.5
  1
1766
 50
90.0
 72
5
 11
82.1956625647
 21
1024.0773031411
100
AcDbText
  0
LINE
  5
56D
100
AcDbEntity
  8
0
100
AcDbLine
 62
2
  6
CONTINUOUS
 10
120.8206625647
 20
137.1925447768
 11
81.8206625647
 21
137.1925447768
  0
LINE
  5
56E
100
AcDbEntity
  8
0
100
AcDbLine
 62
2
  6
CONTINUOUS
 10
120.8206625647
 20
1903.1925447768
 11
81.8206625647
 21
1903.1925447768
  0
LINE
  5
56F
100
AcDbEntity
  8
0
100
AcDbLine
 62
2
  6
CONTINUOUS
 10
82.8206625647
 20
137.1925447768
 11
82.8206625647
 21
1020.1925447768
  0
LINE
  5
570
100
AcDbEntity
  8
0
100
AcDbLine
 62
2
  6
CONTINUOUS
 10
82.8206625647
 20
1903.1925447768
 11
82.8206625647
 21
1020.1925447768
  0
INSERT
  5
571
100
AcDbEntity
  8
0
100
AcDbBlockReference
 62
2
  6
CONTINUOUS
  2
_FILLED
 10
82.8206625647
 20
137.1925447768
 41
3.5
 42
3.5
 43
3.5
 50
270.0
  0
INSERT
  5
572
100
AcDbEntity
  8
0
100
AcDbBlockReference
 62
2
  6
CONTINUOUS
  2
_FILLED
 10
82.8206625647
 20
1903.1925447768
 41
3.5
 42
3.5
 43
3.5
 50
90.0
  0
ENDBLK
  5
573
100
AcDbEntity
  8
0
  6
BYBLOCK
 62
0
100
AcDbBlockEnd
  0
BLOCK
  5
574
100
AcDbEntity
  8
0
100
AcDbBlockBegin
 62
2
  6
CONTINUOUS
  2
*D4
 70
65
 10
0.0
 20
0.0
  3
*D4
  1

  0
TEXT
  5
575
100
AcDbEntity
  8
0
100
AcDbText
 62
5
  6
CONTINUOUS
 10
58.2344318387
 20
98.9346870162
  7
STANDARD
 40
2.5
  1
13.8
 50
90.0
 72
5
 11
58.2344318387
 21
105.7283673136
100
AcDbText
  0
LINE
  5
576
100
AcDbEntity
  8
0
100
AcDbLine
 62
2
  6
CONTINUOUS
 10
32.6594318387
 20
109.2315271649
 11
59.8594318387
 21
109.2315271649
  0
LINE
  5
577
100
AcDbEntity
  8
0
100
AcDbLine
 62
2
  6
CONTINUOUS
 10
32.6594318387
 20
95.4315271649
 11
59.8594318387
 21
95.4315271649
  0
LINE
  5
578
100
AcDbEntity
  8
0
100
AcDbLine
 62
2
  6
CONTINUOUS
 10
58.8594318387
 20
109.2315271649
 11
58.8594318387
 21
102.3315271649
  0
LINE
  5
579
100
AcDbEntity
  8
0
100
AcDbLine
 62
2
  6
CONTINUOUS
 10
58.8594318387
 20
95.4315271649
 11
58.8594318387
 21
102.3315271649
  0
INSERT
  5
57A
100
AcDbEntity
  8
0
100
AcDbBlockReference
 62
2
  6
CONTINUOUS
  2
_FILLED
 10
58.8594318387
 20
109.2315271649
 41
3.5
 42
3.5
 43
3.5
 50
90.0
  0
INSERT
  5
57B
100
AcDbEntity
  8
0
100
AcDbBlockReference
 62
2
  6
CONTINUOUS
  2
_FILLED
 10
58.8594318387
 20
95.4315271649
 41
3.5
 42
3.5
 43
3.5
 50
270.0
  0
ENDBLK
  5
57C
100
AcDbEntity
  8
0
  6
BYBLOCK
 62
0
100
AcDbBlockEnd
  0
BLOCK
  5
57D
100
AcDbEntity
  8
0
100
AcDbBlockBegin
 62
2
  6
CONTINUOUS
  2
*D5
 70
65
 10
0.0
 20
0.0
  3
*D5
  1

  0
TEXT
  5
57E
100
AcDbEntity
  8
0
100
AcDbText
 62
5
  6
CONTINUOUS
 10
29.3631841236
 20
121.9565271649
  7
STANDARD
 40
2.5
  1
2
 72
5
 11
31.3055633057
 21
121.9565271649
100
AcDbText
  0
LINE
  5
57F
100
AcDbEntity
  8
0
100
AcDbLine
 62
2
  6
CONTINUOUS
 10
22.6594318387
 20
110.8315271649
 11
22.6594318387
 21
122.3315271649
  0
LINE
  5
580
100
AcDbEntity
  8
0
100
AcDbLine
 62
2
  6
CONTINUOUS
 10
24.6594318387
 20
110.8315271649
 11
24.6594318387
 21
122.3315271649
  0
LINE
  5
581
100
AcDbEntity
  8
0
100
AcDbLine
 62
2
  6
CONTINUOUS
 10
22.6594318387
 20
121.3315271649
 11
15.6594318387
 21
121.3315271649
  0
LINE
  5
582
100
AcDbEntity
  8
0
100
AcDbLine
 62
2
  6
CONTINUOUS
 10
15.6594318387
 20
121.3315271649
 11
23.6594318387
 21
121.3315271649
  0
LINE
  5
583
100
AcDbEntity
  8
0
100
AcDbLine
 62
2
  6
CONTINUOUS
 10
24.6594318387
 20
121.3315271649
 11
31.3055633057
 21
121.3315271649
  0
LINE
  5
584
100
AcDbEntity
  8
0
100
AcDbLine
 62
2
  6
CONTINUOUS
 10
31.3055633057
 20
121.3315271649
 11
23.6594318387
 21
121.3315271649
  0
INSERT
  5
585
100
AcDbEntity
  8
0
100
AcDbBlockReference
 62
2
  6
CONTINUOUS
  2
_FILLED
 10
22.6594318387
 20
121.3315271649
 41
3.5
 42
3.5
 43
3.5
  0
INSERT
  5
586
100
AcDbEntity
  8
0
100
AcDbBlockReference
 62
2
  6
CONTINUOUS
  2
_FILLED
 10
24.6594318387
 20
121.3315271649
 41
3.5
 42
3.5
 43
3.5
 50
180.0
  0
ENDBLK
  5
587
100
AcDbEntity
  8
0
  6
BYBLOCK
 62
0
100
AcDbBlockEnd
  0
BLOCK
  5
588
100
AcDbEntity
  8
0
100
AcDbBlockBegin
 62
2
  6
CONTINUOUS
  2
*D6
 70
65
 10
0.0
 20
0.0
  3
*D6
  1

  0
TEXT
  5
589
100
AcDbEntity
  8
0
100
AcDbText
 62
5
  6
CONTINUOUS
 10
51.2344318387
 20
115.6021315948
  7
STANDARD
 40
2.5
  1
2
 50
90.0
 72
5
 11
51.2344318387
 21
117.544510777
100
AcDbText
  0
LINE
  5
58A
100
AcDbEntity
  8
0
100
AcDbLine
 62
2
  6
CONTINUOUS
 10
30.6594318387
 20
109.3315271649
 11
52.8594318387
 21
109.3315271649
  0
LINE
  5
58B
100
AcDbEntity
  8
0
100
AcDbLine
 62
2
  6
CONTINUOUS
 10
30.6594318387
 20
111.3315271649
 11
52.8594318387
 21
111.3315271649
  0
LINE
  5
58C
100
AcDbEntity
  8
0
100
AcDbLine
 62
2
  6
CONTINUOUS
 10
51.8594318387
 20
109.3315271649
 11
51.8594318387
 21
102.3315271649
  0
LINE
  5
58D
100
AcDbEntity
  8
0
100
AcDbLine
 62
2
  6
CONTINUOUS
 10
51.8594318387
 20
102.3315271649
 11
51.8594318387
 21
110.3315271649
  0
LINE
  5
58E
100
AcDbEntity
  8
0
100
AcDbLine
 62
2
  6
CONTINUOUS
 10
51.8594318387
 20
111.3315271649
 11
51.8594318387
 21
117.544510777
  0
LINE
  5
58F
100
AcDbEntity
  8
0
100
AcDbLine
 62
2
  6
CONTINUOUS
 10
51.8594318387
 20
117.544510777
 11
51.8594318387
 21
110.3315271649
  0
INSERT
  5
590
100
AcDbEntity
  8
0
100
AcDbBlockReference
 62
2
  6
CONTINUOUS
  2
_FILLED
 10
51.8594318387
 20
109.3315271649
 41
3.5
 42
3.5
 43
3.5
 50
90.0
  0
INSERT
  5
591
100
AcDbEntity
  8
0
100
AcDbBlockReference
 62
2
  6
CONTINUOUS
  2
_FILLED
 10
51.8594318387
 20
111.3315271649
 41
3.5
 42
3.5
 43
3.5
 50
270.0
  0
ENDBLK
  5
592
100
AcDbEntity
  8
0
  6
BYBLOCK
 62
0
100
AcDbBlockEnd
  0
BLOCK
  5
593
100
AcDbEntity
  8
0
100
AcDbBlockBegin
 62
2
  6
CONTINUOUS
  2
*D7
 70
65
 10
0.0
 20
0.0
  3
*D7
  1

  0
TEXT
  5
594
100
AcDbEntity
  8
0
100
AcDbText
 62
5
  6
CONTINUOUS
 10
148.1956625647
 20
1134.7501655946
  7
STANDARD
 40
2.5
  1
12
 50
90.0
 72
5
 11
148.1956625647
 21
1138.634923959
100
AcDbText
  0
LINE
  5
595
100
AcDbEntity
  8
0
100
AcDbLine
 62
2
  6
CONTINUOUS
 10
138.8206625647
 20
1130.6925447768
 11
149.8206625647
 21
1130.6925447768
  0
LINE
  5
596
100
AcDbEntity
  8
0
100
AcDbLine
 62
2
  6
CONTINUOUS
 10
138.2206625647
 20
1142.6925447768
 11
149.8206625647
 21
1142.6925447768
  0
LINE
  5
597
100
AcDbEntity
  8
0
100
AcDbLine
 62
2
  6
CONTINUOUS
 10
148.8206625647
 20
1130.6925447768
 11
148.8206625647
 21
1136.6925447768
  0
LINE
  5
598
100
AcDbEntity
  8
0
100
AcDbLine
 62
2
  6
CONTINUOUS
 10
148.8206625647
 20
1142.6925447768
 11
148.8206625647
 21
1136.6925447768
  0
INSERT
  5
599
100
AcDbEntity
  8
0
100
AcDbBlockReference
 62
2
  6
CONTINUOUS
  2
_FILLED
 10
148.8206625647
 20
1130.6925447768
 41
3.5
 42
3.5
 43
3.5
 50
270.0
  0
INSERT
  5
59A
100
AcDbEntity
  8
0
100
AcDbBlockReference
 62
2
  6
CONTINUOUS
  2
_FILLED
 10
148.8206625647
 20
1142.6925447768
 41
3.5
 42
3.5
 43
3.5
 50
90.0
  0
ENDBLK
  5
59B
100
AcDbEntity
  8
0
  6
BYBLOCK
 62
0
100
AcDbBlockEnd
  0
BLOCK
  5
59C
100
AcDbEntity
  8
0
100
AcDbBlockBegin
 62
2
  6
CONTINUOUS
  2
*D8
 70
65
 10
0.0
 20
0.0
  3
*D8
  1

  0
TEXT
  5
59D
100
AcDbEntity
  8
0
100
AcDbText
 62
5
  6
CONTINUOUS
 10
155.1956625647
 20
1275.2789760036
  7
STANDARD
 40
2.5
  1
295
 50
90.0
 72
5
 11
155.1956625647
 21
1281.10611355
100
AcDbText
  0
LINE
  5
59E
100
AcDbEntity
  8
0
100
AcDbLine
 62
2
  6
CONTINUOUS
 10
138.8206625647
 20
1130.6925447768
 11
156.8206625647
 21
1130.6925447768
  0
LINE
  5
59F
100
AcDbEntity
  8
0
100
AcDbLine
 62
2
  6
CONTINUOUS
 10
138.2206625647
 20
1425.6925447768
 11
156.8206625647
 21
1425.6925447768
  0
LINE
  5
5A0
100
AcDbEntity
  8
0
100
AcDbLine
 62
2
  6
CONTINUOUS
 10
155.8206625647
 20
1130.6925447768
 11
155.8206625647
 21
1278.1925447768
  0
LINE
  5
5A1
100
AcDbEntity
  8
0
100
AcDbLine
 62
2
  6
CONTINUOUS
 10
155.8206625647
 20
1425.6925447768
 11
155.8206625647
 21
1278.1925447768
  0
INSERT
  5
5A2
100
AcDbEntity
  8
0
100
AcDbBlockReference
 62
2
  6
CONTINUOUS
  2
_FILLED
 10
155.8206625647
 20
1130.6925447768
 41
3.5
 42
3.5
 43
3.5
 50
270.0
  0
INSERT
  5
5A3
100
AcDbEntity
  8
0
100
AcDbBlockReference
 62
2
  6
CONTINUOUS
  2
_FILLED
 10
155.8206625647
 20
1425.6925447768
 41
3.5
 42
3.5
 43
3.5
 50
90.0
  0
ENDBLK
  5
5A4
100
AcDbEntity
  8
0
  6
BYBLOCK
 62
0
100
AcDbBlockEnd
  0
BLOCK
  5
5A5
100
AcDbEntity
  8
0
100
AcDbBlockBegin
 62
2
  6
CONTINUOUS
  2
*D9
 70
65
 10
0.0
 20
0.0
  3
*D9
  1

  0
TEXT
  5
5A6
100
AcDbEntity
  8
0
100
AcDbText
 62
5
  6
CONTINUOUS
 10
162.1956625647
 20
1404.574515037
  7
STANDARD
 40
2.5
  1
556.5
 50
90.0
 72
5
 11
162.1956625647
 21
1413.3105745166
100
AcDbText
  0
LINE
  5
5A7
100
AcDbEntity
  8
0
100
AcDbLine
 62
2
  6
CONTINUOUS
 10
138.2206625647
 20
1687.1925447768
 11
163.8206625647
 21
1687.1925447768
  0
LINE
  5
5A8
100
AcDbEntity
  8
0
100
AcDbLine
 62
2
  6
CONTINUOUS
 10
138.8206625647
 20
1130.6925447768
 11
163.8206625647
 21
1130.6925447768
  0
LINE
  5
5A9
100
AcDbEntity
  8
0
100
AcDbLine
 62
2
  6
CONTINUOUS
 10
162.8206625647
 20
1687.1925447768
 11
162.8206625647
 21
1408.9425447768
  0
LINE
  5
5AA
100
AcDbEntity
  8
0
100
AcDbLine
 62
2
  6
CONTINUOUS
 10
162.8206625647
 20
1130.6925447768
 11
162.8206625647
 21
1408.9425447768
  0
INSERT
  5
5AB
100
AcDbEntity
  8
0
100
AcDbBlockReference
 62
2
  6
CONTINUOUS
  2
_FILLED
 10
162.8206625647
 20
1687.1925447768
 41
3.5
 42
3.5
 43
3.5
 50
90.0
  0
INSERT
  5
5AC
100
AcDbEntity
  8
0
100
AcDbBlockReference
 62
2
  6
CONTINUOUS
  2
_FILLED
 10
162.8206625647
 20
1130.6925447768
 41
3.5
 42
3.5
 43
3.5
 50
270.0
  0
ENDBLK
  5
5AD
100
AcDbEntity
  8
0
  6
BYBLOCK
 62
0
100
AcDbBlockEnd
  0
BLOCK
  5
5AE
100
AcDbEntity
  8
0
100
AcDbBlockBegin
 62
2
  6
CONTINUOUS
  2
*D10
 70
65
 10
0.0
 20
0.0
  3
*D10
  1

  0
TEXT
  5
5AF
100
AcDbEntity
  8
0
100
AcDbText
 62
5
  6
CONTINUOUS
 10
169.1956625647
 20
1467.574515037
  7
STANDARD
 40
2.5
  1
682.5
 50
90.0
 72
5
 11
169.1956625647
 21
1476.3105745166
100
AcDbText
  0
LINE
  5
5B0
100
AcDbEntity
  8
0
100
AcDbLine
 62
2
  6
CONTINUOUS
 10
138.2206625647
 20
1813.1925447768
 11
170.8206625647
 21
1813.1925447768
  0
LINE
  5
5B1
100
AcDbEntity
  8
0
100
AcDbLine
 62
2
  6
CONTINUOUS
 10
138.8206625647
 20
1130.6925447768
 11
170.8206625647
 21
1130.6925447768
  0
LINE
  5
5B2
100
AcDbEntity
  8
0
100
AcDbLine
 62
2
  6
CONTINUOUS
 10
169.8206625647
 20
1813.1925447768
 11
169.8206625647
 21
1471.9425447768
  0
LINE
  5
5B3
100
AcDbEntity
  8
0
100
AcDbLine
 62
2
  6
CONTINUOUS
 10
169.8206625647
 20
1130.6925447768
 11
169.8206625647
 21
1471.9425447768
  0
INSERT
  5
5B4
100
AcDbEntity
  8
0
100
AcDbBlockReference
 62
2
  6
CONTINUOUS
  2
_FILLED
 10
169.8206625647
 20
1813.1925447768
 41
3.5
 42
3.5
 43
3.5
 50
90.0
  0
INSERT
  5
5B5
100
AcDbEntity
  8
0
100
AcDbBlockReference
 62
2
  6
CONTINUOUS
  2
_FILLED
 10
169.8206625647
 20
1130.6925447768
 41
3.5
 42
3.5
 43
3.5
 50
270.0
  0
ENDBLK
  5
5B6
100
AcDbEntity
  8
0
  6
BYBLOCK
 62
0
100
AcDbBlockEnd
  0
BLOCK
  5
5B7
100
AcDbEntity
  8
0
100
AcDbBlockBegin
 62
2
  6
CONTINUOUS
  2
*D11
 70
65
 10
0.0
 20
0.0
  3
*D11
  1

  0
TEXT
  5
5B8
100
AcDbEntity
  8
0
100
AcDbText
 62
5
  6
CONTINUOUS
 10
176.1956625647
 20
1502.574515037
  7
STANDARD
 40
2.5
  1
752.5
 50
90.0
 72
5
 11
176.1956625647
 21
1511.3105745166
100
AcDbText
  0
LINE
  5
5B9
100
AcDbEntity
  8
0
100
AcDbLine
 62
2
  6
CONTINUOUS
 10
138.8206625647
 20
1130.6925447768
 11
177.8206625647
 21
1130.6925447768
  0
LINE
  5
5BA
100
AcDbEntity
  8
0
100
AcDbLine
 62
2
  6
CONTINUOUS
 10
138.8206625647
 20
1883.1925447768
 11
177.8206625647
 21
1883.1925447768
  0
LINE
  5
5BB
100
AcDbEntity
  8
0
100
AcDbLine
 62
2
  6
CONTINUOUS
 10
176.8206625647
 20
1130.6925447768
 11
176.8206625647
 21
1506.9425447768
  0
LINE
  5
5BC
100
AcDbEntity
  8
0
100
AcDbLine
 62
2
  6
CONTINUOUS
 10
176.8206625647
 20
1883.1925447768
 11
176.8206625647
 21
1506.9425447768
  0
INSERT
  5
5BD
100
AcDbEntity
  8
0
100
AcDbBlockReference
 62
2
  6
CONTINUOUS
  2
_FILLED
 10
176.8206625647
 20
1130.6925447768
 41
3.5
 42
3.5
 43
3.5
 50
270.0
  0
INSERT
  5
5BE
100
AcDbEntity
  8
0
100
AcDbBlockReference
 62
2
  6
CONTINUOUS
  2
_FILLED
 10
176.8206625647
 20
1883.1925447768
 41
3.5
 42
3.5
 43
3.5
 50
90.0
  0
ENDBLK
  5
5BF
100
AcDbEntity
  8
0
  6
BYBLOCK
 62
0
100
AcDbBlockEnd
  0
BLOCK
  5
5C0
100
AcDbEntity
  8
0
100
AcDbBlockBegin
 62
2
  6
CONTINUOUS
  2
*D12
 70
65
 10
0.0
 20
0.0
  3
*D12
  1

  0
TEXT
  5
5C1
100
AcDbEntity
  8
0
100
AcDbText
 62
5
  6
CONTINUOUS
 10
110.1956625647
 20
1443.574515037
  7
STANDARD
 40
2.5
  1
634.5
 50
90.0
 72
5
 11
110.1956625647
 21
1452.3105745166
100
AcDbText
  0
LINE
  5
5C2
100
AcDbEntity
  8
0
100
AcDbLine
 62
2
  6
CONTINUOUS
 10
135.8206625647
 20
1130.6925447768
 11
109.8206625647
 21
1130.6925447768
  0
LINE
  5
5C3
100
AcDbEntity
  8
0
100
AcDbLine
 62
2
  6
CONTINUOUS
 10
118.3206625647
 20
1765.1925447768
 11
109.8206625647
 21
1765.1925447768
  0
LINE
  5
5C4
100
AcDbEntity
  8
0
100
AcDbLine
 62
2
  6
CONTINUOUS
 10
110.8206625647
 20
1130.6925447768
 11
110.8206625647
 21
1447.9425447768
  0
LINE
  5
5C5
100
AcDbEntity
  8
0
100
AcDbLine
 62
2
  6
CONTINUOUS
 10
110.8206625647
 20
1765.1925447768
 11
110.8206625647
 21
1447.9425447768
  0
INSERT
  5
5C6
100
AcDbEntity
  8
0
100
AcDbBlockReference
 62
2
  6
CONTINUOUS
  2
_FILLED
 10
110.8206625647
 20
1130.6925447768
 41
3.5
 42
3.5
 43
3.5
 50
270.0
  0
INSERT
  5
5C7
100
AcDbEntity
  8
0
100
AcDbBlockReference
 62
2
  6
CONTINUOUS
  2
_FILLED
 10
110.8206625647
 20
1765.1925447768
 41
3.5
 42
3.5
 43
3.5
 50
90.0
  0
ENDBLK
  5
5C8
100
AcDbEntity
  8
0
  6
BYBLOCK
 62
0
100
AcDbBlockEnd
  0
BLOCK
  5
5C9
100
AcDbEntity
  8
0
100
AcDbBlockBegin
 62
2
  6
CONTINUOUS
  2
*D13
 70
65
 10
0.0
 20
0.0
  3
*D13
  1

  0
TEXT
  5
5CA
100
AcDbEntity
  8
0
100
AcDbText
 62
5
  6
CONTINUOUS
 10
103.1956625647
 20
1433.3886414311
  7
STANDARD
 40
2.5
  1
730 bis Kennkerbe
 50
90.0
 72
5
 11
103.1956625647
 21
1462.4964481225
100
AcDbText
  0
LINE
  5
5CB
100
AcDbEntity
  8
0
100
AcDbLine
 62
2
  6
CONTINUOUS
 10
118.3206625647
 20
1765.1925447768
 11
103.1956625647
 21
1765.1925447768
  0
LINE
  5
5CC
100
AcDbEntity
  8
0
100
AcDbLine
 62
2
  6
CONTINUOUS
 10
103.1956625647
 20
1765.1925447768
 11
102.8206625647
 21
1765.1925447768
  0
LINE
  5
5CD
100
AcDbEntity
  8
0
100
AcDbLine
 62
2
  6
CONTINUOUS
 10
103.8206625647
 20
1080.6568095106
 11
103.8206625647
 21
1422.9246771437
  0
LINE
  5
5CE
100
AcDbEntity
  8
0
100
AcDbLine
 62
2
  6
CONTINUOUS
 10
103.8206625647
 20
1765.1925447768
 11
103.8206625647
 21
1422.9246771437
  0
INSERT
  5
5CF
100
AcDbEntity
  8
0
100
AcDbBlockReference
 62
2
  6
CONTINUOUS
  2
_NONE
 10
103.8206625647
 20
1080.6568095106
 41
3.5
 42
3.5
 43
3.5
 50
270.0
  0
INSERT
  5
5D0
100
AcDbEntity
  8
0
100
AcDbBlockReference
 62
2
  6
CONTINUOUS
  2
_FILLED
 10
103.8206625647
 20
1765.1925447768
 41
3.5
 42
3.5
 43
3.5
 50
90.0
  0
ENDBLK
  5
5D1
100
AcDbEntity
  8
0
  6
BYBLOCK
 62
0
100
AcDbBlockEnd
  0
BLOCK
  5
5D2
100
AcDbEntity
  8
0
100
AcDbBlockBegin
 62
2
  6
CONTINUOUS
  2
*D14
 70
65
 10
0.0
 20
0.0
  3
*D14
  1

  0
TEXT
  5
5D3
100
AcDbEntity
  8
0
100
AcDbText
 62
5
  6
CONTINUOUS
 10
110.1956625647
 20
591.7789760036
  7
STANDARD
 40
2.5
  1
639
 50
90.0
 72
5
 11
110.1956625647
 21
597.60611355
100
AcDbText
  0
LINE
  5
5D4
100
AcDbEntity
  8
0
100
AcDbLine
 62
2
  6
CONTINUOUS
 10
123.8206625647
 20
914.1925447768
 11
109.8206625647
 21
914.1925447768
  0
LINE
  5
5D5
100
AcDbEntity
  8
0
100
AcDbLine
 62
2
  6
CONTINUOUS
 10
118.3206625647
 20
275.1925447768
 11
109.8206625647
 21
275.1925447768
  0
LINE
  5
5D6
100
AcDbEntity
  8
0
100
AcDbLine
 62
2
  6
CONTINUOUS
 10
110.8206625647
 20
914.1925447768
 11
110.8206625647
 21
594.6925447768
  0
LINE
  5
5D7
100
AcDbEntity
  8
0
100
AcDbLine
 62
2
  6
CONTINUOUS
 10
110.8206625647
 20
275.1925447768
 11
110.8206625647
 21
594.6925447768
  0
INSERT
  5
5D8
100
AcDbEntity
  8
0
100
AcDbBlockReference
 62
2
  6
CONTINUOUS
  2
_FILLED
 10
110.8206625647
 20
914.1925447768
 41
3.5
 42
3.5
 43
3.5
 50
90.0
  0
INSERT
  5
5D9
100
AcDbEntity
  8
0
100
AcDbBlockReference
 62
2
  6
CONTINUOUS
  2
_FILLED
 10
110.8206625647
 20
275.1925447768
 41
3.5
 42
3.5
 43
3.5
 50
270.0
  0
ENDBLK
  5
5DA
100
AcDbEntity
  8
0
  6
BYBLOCK
 62
0
100
AcDbBlockEnd
  0
BLOCK
  5
5DB
100
AcDbEntity
  8
0
100
AcDbBlockBegin
 62
2
  6
CONTINUOUS
  2
*D15
 70
65
 10
0.0
 20
0.0
  3
*D15
  1

  0
TEXT
  5
5DC
100
AcDbEntity
  8
0
100
AcDbText
 62
5
  6
CONTINUOUS
 10
103.1956625647
 20
580.1386414311
  7
STANDARD
 40
2.5
  1
760 bis Kennkerbe
 50
90.0
 72
5
 11
103.1956625647
 21
609.2464481225
100
AcDbText
  0
LINE
  5
5DD
100
AcDbEntity
  8
0
100
AcDbLine
 62
2
  6
CONTINUOUS
 10
118.3206625647
 20
275.1925447768
 11
103.1956625647
 21
275.1925447768
  0
LINE
  5
5DE
100
AcDbEntity
  8
0
100
AcDbLine
 62
2
  6
CONTINUOUS
 10
103.1956625647
 20
275.1925447768
 11
102.8206625647
 21
275.1925447768
  0
LINE
  5
5DF
100
AcDbEntity
  8
0
100
AcDbLine
 62
2
  6
CONTINUOUS
 10
103.8206625647
 20
964.2237897593
 11
103.8206625647
 21
619.708167268
  0
LINE
  5
5E0
100
AcDbEntity
  8
0
100
AcDbLine
 62
2
  6
CONTINUOUS
 10
103.8206625647
 20
275.1925447768
 11
103.8206625647
 21
619.708167268
  0
INSERT
  5
5E1
100
AcDbEntity
  8
0
100
AcDbBlockReference
 62
2
  6
CONTINUOUS
  2
_NONE
 10
103.8206625647
 20
964.2237897593
 41
3.5
 42
3.5
 43
3.5
 50
90.0
  0
INSERT
  5
5E2
100
AcDbEntity
  8
0
100
AcDbBlockReference
 62
2
  6
CONTINUOUS
  2
_FILLED
 10
103.8206625647
 20
275.1925447768
 41
3.5
 42
3.5
 43
3.5
 50
270.0
  0
ENDBLK
  5
5E3
100
AcDbEntity
  8
0
  6
BYBLOCK
 62
0
100
AcDbBlockEnd
  0
BLOCK
  5
5E4
100
AcDbEntity
  8
0
100
AcDbBlockBegin
 62
2
  6
CONTINUOUS
  2
*D16
 70
65
 10
0.0
 20
0.0
  3
*D16
  1

  0
TEXT
  5
5E5
100
AcDbEntity
  8
0
100
AcDbText
 62
5
  6
CONTINUOUS
 10
148.1956625647
 20
906.2501655946
  7
STANDARD
 40
2.5
  1
12
 50
90.0
 72
5
 11
148.1956625647
 21
910.134923959
100
AcDbText
  0
LINE
  5
5E6
100
AcDbEntity
  8
0
100
AcDbLine
 62
2
  6
CONTINUOUS
 10
135.8206625647
 20
914.1925447768
 11
149.8206625647
 21
914.1925447768
  0
LINE
  5
5E7
100
AcDbEntity
  8
0
100
AcDbLine
 62
2
  6
CONTINUOUS
 10
138.2206625647
 20
902.1925447768
 11
149.8206625647
 21
902.1925447768
  0
LINE
  5
5E8
100
AcDbEntity
  8
0
100
AcDbLine
 62
2
  6
CONTINUOUS
 10
148.8206625647
 20
914.1925447768
 11
148.8206625647
 21
908.1925447768
  0
LINE
  5
5E9
100
AcDbEntity
  8
0
100
AcDbLine
 62
2
  6
CONTINUOUS
 10
148.8206625647
 20
902.1925447768
 11
148.8206625647
 21
908.1925447768
  0
INSERT
  5
5EA
100
AcDbEntity
  8
0
100
AcDbBlockReference
 62
2
  6
CONTINUOUS
  2
_FILLED
 10
148.8206625647
 20
914.1925447768
 41
3.5
 42
3.5
 43
3.5
 50
90.0
  0
INSERT
  5
5EB
100
AcDbEntity
  8
0
100
AcDbBlockReference
 62
2
  6
CONTINUOUS
  2
_FILLED
 10
148.8206625647
 20
902.1925447768
 41
3.5
 42
3.5
 43
3.5
 50
270.0
  0
ENDBLK
  5
5EC
100
AcDbEntity
  8
0
  6
BYBLOCK
 62
0
100
AcDbBlockEnd
  0
BLOCK
  5
5ED
100
AcDbEntity
  8
0
100
AcDbBlockBegin
 62
2
  6
CONTINUOUS
  2
*D17
 70
65
 10
0.0
 20
0.0
  3
*D17
  1

  0
TEXT
  5
5EE
100
AcDbEntity
  8
0
100
AcDbText
 62
5
  6
CONTINUOUS
 10
155.1956625647
 20
765.2789760036
  7
STANDARD
 40
2.5
  1
292
 50
90.0
 72
5
 11
155.1956625647
 21
771.10611355
100
AcDbText
  0
LINE
  5
5EF
100
AcDbEntity
  8
0
100
AcDbLine
 62
2
  6
CONTINUOUS
 10
135.8206625647
 20
914.1925447768
 11
156.8206625647
 21
914.1925447768
  0
LINE
  5
5F0
100
AcDbEntity
  8
0
100
AcDbLine
 62
2
  6
CONTINUOUS
 10
138.2206625647
 20
622.1925447768
 11
156.8206625647
 21
622.1925447768
  0
LINE
  5
5F1
100
AcDbEntity
  8
0
100
AcDbLine
 62
2
  6
CONTINUOUS
 10
155.8206625647
 20
914.1925447768
 11
155.8206625647
 21
768.1925447768
  0
LINE
  5
5F2
100
AcDbEntity
  8
0
100
AcDbLine
 62
2
  6
CONTINUOUS
 10
155.8206625647
 20
622.1925447768
 11
155.8206625647
 21
768.1925447768
  0
INSERT
  5
5F3
100
AcDbEntity
  8
0
100
AcDbBlockReference
 62
2
  6
CONTINUOUS
  2
_FILLED
 10
155.8206625647
 20
914.1925447768
 41
3.5
 42
3.5
 43
3.5
 50
90.0
  0
INSERT
  5
5F4
100
AcDbEntity
  8
0
100
AcDbBlockReference
 62
2
  6
CONTINUOUS
  2
_FILLED
 10
155.8206625647
 20
622.1925447768
 41
3.5
 42
3.5
 43
3.5
 50
270.0
  0
ENDBLK
  5
5F5
100
AcDbEntity
  8
0
  6
BYBLOCK
 62
0
100
AcDbBlockEnd
  0
BLOCK
  5
5F6
100
AcDbEntity
  8
0
100
AcDbBlockBegin
 62
2
  6
CONTINUOUS
  2
*D18
 70
65
 10
0.0
 20
0.0
  3
*D18
  1

  0
TEXT
  5
5F7
100
AcDbEntity
  8
0
100
AcDbText
 62
5
  6
CONTINUOUS
 10
162.1956625647
 20
615.7789760036
  7
STANDARD
 40
2.5
  1
591
 50
90.0
 72
5
 11
162.1956625647
 21
621.60611355
100
AcDbText
  0
LINE
  5
5F8
100
AcDbEntity
  8
0
100
AcDbLine
 62
2
  6
CONTINUOUS
 10
135.8206625647
 20
914.1925447768
 11
163.8206625647
 21
914.1925447768
  0
LINE
  5
5F9
100
AcDbEntity
  8
0
100
AcDbLine
 62
2
  6
CONTINUOUS
 10
138.2206625647
 20
323.1925447768
 11
163.8206625647
 21
323.1925447768
  0
LINE
  5
5FA
100
AcDbEntity
  8
0
100
AcDbLine
 62
2
  6
CONTINUOUS
 10
162.8206625647
 20
914.1925447768
 11
162.8206625647
 21
618.6925447768
  0
LINE
  5
5FB
100
AcDbEntity
  8
0
100
AcDbLine
 62
2
  6
CONTINUOUS
 10
162.8206625647
 20
323.1925447768
 11
162.8206625647
 21
618.6925447768
  0
INSERT
  5
5FC
100
AcDbEntity
  8
0
100
AcDbBlockReference
 62
2
  6
CONTINUOUS
  2
_FILLED
 10
162.8206625647
 20
914.1925447768
 41
3.5
 42
3.5
 43
3.5
 50
90.0
  0
INSERT
  5
5FD
100
AcDbEntity
  8
0
100
AcDbBlockReference
 62
2
  6
CONTINUOUS
  2
_FILLED
 10
162.8206625647
 20
323.1925447768
 41
3.5
 42
3.5
 43
3.5
 50
270.0
  0
ENDBLK
  5
5FE
100
AcDbEntity
  8
0
  6
BYBLOCK
 62
0
100
AcDbBlockEnd
  0
BLOCK
  5
5FF
100
AcDbEntity
  8
0
100
AcDbBlockBegin
 62
2
  6
CONTINUOUS
  2
*D19
 70
65
 10
0.0
 20
0.0
  3
*D19
  1

  0
TEXT
  5
600
100
AcDbEntity
  8
0
100
AcDbText
 62
5
  6
CONTINUOUS
 10
169.1956625647
 20
567.7789760036
  7
STANDARD
 40
2.5
  1
687
 50
90.0
 72
5
 11
169.1956625647
 21
573.60611355
100
AcDbText
  0
LINE
  5
601
100
AcDbEntity
  8
0
100
AcDbLine
 62
2
  6
CONTINUOUS
 10
135.8206625647
 20
914.1925447768
 11
170.8206625647
 21
914.1925447768
  0
LINE
  5
602
100
AcDbEntity
  8
0
100
AcDbLine
 62
2
  6
CONTINUOUS
 10
138.2206625647
 20
227.1925447768
 11
170.8206625647
 21
227.1925447768
  0
LINE
  5
603
100
AcDbEntity
  8
0
100
AcDbLine
 62
2
  6
CONTINUOUS
 10
169.8206625647
 20
914.1925447768
 11
169.8206625647
 21
570.6925447768
  0
LINE
  5
604
100
AcDbEntity
  8
0
100
AcDbLine
 62
2
  6
CONTINUOUS
 10
169.8206625647
 20
227.1925447768
 11
169.8206625647
 21
570.6925447768
  0
INSERT
  5
605
100
AcDbEntity
  8
0
100
AcDbBlockReference
 62
2
  6
CONTINUOUS
  2
_FILLED
 10
169.8206625647
 20
914.1925447768
 41
3.5
 42
3.5
 43
3.5
 50
90.0
  0
INSERT
  5
606
100
AcDbEntity
  8
0
100
AcDbBlockReference
 62
2
  6
CONTINUOUS
  2
_FILLED
 10
169.8206625647
 20
227.1925447768
 41
3.5
 42
3.5
 43
3.5
 50
270.0
  0
ENDBLK
  5
607
100
AcDbEntity
  8
0
  6
BYBLOCK
 62
0
100
AcDbBlockEnd
  0
BLOCK
  5
608
100
AcDbEntity
  8
0
100
AcDbBlockBegin
 62
2
  6
CONTINUOUS
  2
*D20
 70
65
 10
0.0
 20
0.0
  3
*D20
  1

  0
TEXT
  5
609
100
AcDbEntity
  8
0
100
AcDbText
 62
5
  6
CONTINUOUS
 10
176.1956625647
 20
532.7789760036
  7
STANDARD
 40
2.5
  1
757
 50
90.0
 72
5
 11
176.1956625647
 21
538.60611355
100
AcDbText
  0
LINE
  5
60A
100
AcDbEntity
  8
0
100
AcDbLine
 62
2
  6
CONTINUOUS
 10
135.8206625647
 20
914.1925447768
 11
177.8206625647
 21
914.1925447768
  0
LINE
  5
60B
100
AcDbEntity
  8
0
100
AcDbLine
 62
2
  6
CONTINUOUS
 10
138.8206625647
 20
157.1925447768
 11
177.8206625647
 21
157.1925447768
  0
LINE
  5
60C
100
AcDbEntity
  8
0
100
AcDbLine
 62
2
  6
CONTINUOUS
 10
176.8206625647
 20
914.1925447768
 11
176.8206625647
 21
535.6925447768
  0
LINE
  5
60D
100
AcDbEntity
  8
0
100
AcDbLine
 62
2
  6
CONTINUOUS
 10
176.8206625647
 20
157.1925447768
 11
176.8206625647
 21
535.6925447768
  0
INSERT
  5
60E
100
AcDbEntity
  8
0
100
AcDbBlockReference
 62
2
  6
CONTINUOUS
  2
_FILLED
 10
176.8206625647
 20
914.1925447768
 41
3.5
 42
3.5
 43
3.5
 50
90.0
  0
INSERT
  5
60F
100
AcDbEntity
  8
0
100
AcDbBlockReference
 62
2
  6
CONTINUOUS
  2
_FILLED
 10
176.8206625647
 20
157.1925447768
 41
3.5
 42
3.5
 43
3.5
 50
270.0
  0
ENDBLK
  5
610
100
AcDbEntity
  8
0
  6
BYBLOCK
 62
0
100
AcDbBlockEnd
  0
BLOCK
  5
611
100
AcDbEntity
  8
0
100
AcDbBlockBegin
 62
2
  6
CONTINUOUS
  2
*D21
 70
65
 10
0.0
 20
0.0
  3
*D21
  1

  0
TEXT
  5
612
100
AcDbEntity
  8
0
100
AcDbText
 62
5
  6
CONTINUOUS
 10
51.2344318387
 20
273.2501655946
  7
STANDARD
 40
2.5
  1
74
 50
90.0
 72
5
 11
51.2344318387
 21
277.134923959
100
AcDbText
  0
LINE
  5
613
100
AcDbEntity
  8
0
100
AcDbLine
 62
2
  6
CONTINUOUS
 10
30.7445766174
 20
312.1925447768
 11
52.8594318387
 21
312.1925447768
  0
LINE
  5
614
100
AcDbEntity
  8
0
100
AcDbLine
 62
2
  6
CONTINUOUS
 10
30.6901464858
 20
238.1925447768
 11
52.8594318387
 21
238.1925447768
  0
LINE
  5
615
100
AcDbEntity
  8
0
100
AcDbLine
 62
2
  6
CONTINUOUS
 10
51.8594318387
 20
312.1925447768
 11
51.8594318387
 21
275.1925447768
  0
LINE
  5
616
100
AcDbEntity
  8
0
100
AcDbLine
 62
2
  6
CONTINUOUS
 10
51.8594318387
 20
238.1925447768
 11
51.8594318387
 21
275.1925447768
  0
INSERT
  5
617
100
AcDbEntity
  8
0
100
AcDbBlockReference
 62
2
  6
CONTINUOUS
  2
_FILLED
 10
51.8594318387
 20
312.1925447768
 41
3.5
 42
3.5
 43
3.5
 50
90.0
  0
INSERT
  5
618
100
AcDbEntity
  8
0
100
AcDbBlockReference
 62
2
  6
CONTINUOUS
  2
_FILLED
 10
51.8594318387
 20
238.1925447768
 41
3.5
 42
3.5
 43
3.5
 50
270.0
  0
ENDBLK
  5
619
100
AcDbEntity
  8
0
  6
BYBLOCK
 62
0
100
AcDbBlockEnd
  0
BLOCK
  5
61A
100
AcDbEntity
  8
0
100
AcDbBlockBegin
 62
2
  6
CONTINUOUS
  2
*D22
 70
65
 10
0.0
 20
0.0
  3
*D22
  1

  0
TEXT
  5
61B
100
AcDbEntity
  8
0
100
AcDbText
 62
5
  6
CONTINUOUS
 10
51.2344318387
 20
1763.2501655946
  7
STANDARD
 40
2.5
  1
74
 50
90.0
 72
5
 11
51.2344318387
 21
1767.134923959
100
AcDbText
  0
LINE
  5
61C
100
AcDbEntity
  8
0
100
AcDbLine
 62
2
  6
CONTINUOUS
 10
30.6466066292
 20
1728.1925447768
 11
52.8594318387
 21
1728.1925447768
  0
LINE
  5
61D
100
AcDbEntity
  8
0
100
AcDbLine
 62
2
  6
CONTINUOUS
 10
30.6690385163
 20
1802.1925447768
 11
52.8594318387
 21
1802.1925447768
  0
LINE
  5
61E
100
AcDbEntity
  8
0
100
AcDbLine
 62
2
  6
CONTINUOUS
 10
51.8594318387
 20
1728.1925447768
 11
51.8594318387
 21
1765.1925447768
  0
LINE
  5
61F
100
AcDbEntity
  8
0
100
AcDbLine
 62
2
  6
CONTINUOUS
 10
51.8594318387
 20
1802.1925447768
 11
51.8594318387
 21
1765.1925447768
  0
INSERT
  5
620
100
AcDbEntity
  8
0
100
AcDbBlockReference
 62
2
  6
CONTINUOUS
  2
_FILLED
 10
51.8594318387
 20
1728.1925447768
 41
3.5
 42
3.5
 43
3.5
 50
270.0
  0
INSERT
  5
621
100
AcDbEntity
  8
0
100
AcDbBlockReference
 62
2
  6
CONTINUOUS
  2
_FILLED
 10
51.8594318387
 20
1802.1925447768
 41
3.5
 42
3.5
 43
3.5
 50
90.0
  0
ENDBLK
  5
622
100
AcDbEntity
  8
0
  6
BYBLOCK
 62
0
100
AcDbBlockEnd
  0
BLOCK
  5
623
100
AcDbEntity
  8
0
100
AcDbBlockBegin
 62
2
  6
CONTINUOUS
  2
*D23
 70
65
 10
0.0
 20
0.0
  3
*D23
  1

  0
TEXT
  5
624
100
AcDbEntity
  8
0
100
AcDbText
 62
5
  6
CONTINUOUS
 10
51.2344318387
 20
1846.7501655946
  7
STANDARD
 40
2.5
  1
93
 50
90.0
 72
5
 11
51.2344318387
 21
1850.634923959
100
AcDbText
  0
LINE
  5
625
100
AcDbEntity
  8
0
100
AcDbLine
 62
2
  6
CONTINUOUS
 10
30.6690385163
 20
1802.1925447768
 11
52.8594318387
 21
1802.1925447768
  0
LINE
  5
626
100
AcDbEntity
  8
0
100
AcDbLine
 62
2
  6
CONTINUOUS
 10
30.6594318387
 20
1895.1925447768
 11
52.8594318387
 21
1895.1925447768
  0
LINE
  5
627
100
AcDbEntity
  8
0
100
AcDbLine
 62
2
  6
CONTINUOUS
 10
51.8594318387
 20
1802.1925447768
 11
51.8594318387
 21
1848.6925447768
  0
LINE
  5
628
100
AcDbEntity
  8
0
100
AcDbLine
 62
2
  6
CONTINUOUS
 10
51.8594318387
 20
1895.1925447768
 11
51.8594318387
 21
1848.6925447768
  0
INSERT
  5
629
100
AcDbEntity
  8
0
100
AcDbBlockReference
 62
2
  6
CONTINUOUS
  2
_FILLED
 10
51.8594318387
 20
1802.1925447768
 41
3.5
 42
3.5
 43
3.5
 50
270.0
  0
INSERT
  5
62A
100
AcDbEntity
  8
0
100
AcDbBlockReference
 62
2
  6
CONTINUOUS
  2
_FILLED
 10
51.8594318387
 20
1895.1925447768
 41
3.5
 42
3.5
 43
3.5
 50
90.0
  0
ENDBLK
  5
62B
100
AcDbEntity
  8
0
  6
BYBLOCK
 62
0
100
AcDbBlockEnd
  0
BLOCK
  5
62C
100
AcDbEntity
  8
0
100
AcDbBlockBegin
 62
2
  6
CONTINUOUS
  2
*D24
 70
65
 10
0.0
 20
0.0
  3
*D24
  1

  0
TEXT
  5
62D
100
AcDbEntity
  8
0
100
AcDbText
 62
5
  6
CONTINUOUS
 10
51.2344318387
 20
189.7501655946
  7
STANDARD
 40
2.5
  1
93
 50
90.0
 72
5
 11
51.2344318387
 21
193.634923959
100
AcDbText
  0
LINE
  5
62E
100
AcDbEntity
  8
0
100
AcDbLine
 62
2
  6
CONTINUOUS
 10
30.7300753073
 20
238.1925447768
 11
52.8594318387
 21
238.1925447768
  0
LINE
  5
62F
100
AcDbEntity
  8
0
100
AcDbLine
 62
2
  6
CONTINUOUS
 10
30.6594318387
 20
145.1925447768
 11
52.8594318387
 21
145.1925447768
  0
LINE
  5
630
100
AcDbEntity
  8
0
100
AcDbLine
 62
2
  6
CONTINUOUS
 10
51.8594318387
 20
238.1925447768
 11
51.8594318387
 21
191.6925447768
  0
LINE
  5
631
100
AcDbEntity
  8
0
100
AcDbLine
 62
2
  6
CONTINUOUS
 10
51.8594318387
 20
145.1925447768
 11
51.8594318387
 21
191.6925447768
  0
INSERT
  5
632
100
AcDbEntity
  8
0
100
AcDbBlockReference
 62
2
  6
CONTINUOUS
  2
_FILLED
 10
51.8594318387
 20
238.1925447768
 41
3.5
 42
3.5
 43
3.5
 50
90.0
  0
INSERT
  5
633
100
AcDbEntity
  8
0
100
AcDbBlockReference
 62
2
  6
CONTINUOUS
  2
_FILLED
 10
51.8594318387
 20
145.1925447768
 41
3.5
 42
3.5
 43
3.5
 50
270.0
  0
ENDBLK
  5
634
100
AcDbEntity
  8
0
  6
BYBLOCK
 62
0
100
AcDbBlockEnd
  0
BLOCK
  5
635
100
AcDbEntity
  8
0
100
AcDbBlockBegin
 62
2
  6
CONTINUOUS
  2
*D25
 70
65
 10
0.0
 20
0.0
  3
*D25
  1

  0
TEXT
  5
636
100
AcDbEntity
  8
0
100
AcDbText
 62
5
  6
CONTINUOUS
 10
32.7183763427
 20
222.6753858664
  7
STANDARD
 40
2.5
  1
17
 72
5
 11
36.603134707
 21
222.6753858664
100
AcDbText
  0
LINE
  5
637
100
AcDbEntity
  8
0
100
AcDbLine
 62
2
  6
CONTINUOUS
 10
41.6594318387
 20
258.8396950271
 11
41.6594318387
 21
221.0503858664
  0
LINE
  5
638
100
AcDbEntity
  8
0
100
AcDbLine
 62
2
  6
CONTINUOUS
 10
41.6594318387
 20
222.0503858664
 11
33.1594318387
 21
222.0503858664
  0
LINE
  5
639
100
AcDbEntity
  8
0
100
AcDbLine
 62
2
  6
CONTINUOUS
 10
24.6594318387
 20
222.0503858664
 11
33.1594318387
 21
222.0503858664
  0
INSERT
  5
63A
100
AcDbEntity
  8
0
100
AcDbBlockReference
 62
2
  6
CONTINUOUS
  2
_FILLED
 10
41.6594318387
 20
222.0503858664
 41
3.5
 42
3.5
 43
3.5
  0
INSERT
  5
63B
100
AcDbEntity
  8
0
100
AcDbBlockReference
 62
2
  6
CONTINUOUS
  2
_FILLED
 10
24.6594318387
 20
222.0503858664
 41
3.5
 42
3.5
 43
3.5
 50
180.0
  0
ENDBLK
  5
63C
100
AcDbEntity
  8
0
  6
BYBLOCK
 62
0
100
AcDbBlockEnd
  0
BLOCK
  5
63D
100
AcDbEntity
  8
0
100
AcDbBlockBegin
 62
2
  6
CONTINUOUS
  2
*D26
 70
65
 10
0.0
 20
0.0
  3
*D26
  1

  0
TEXT
  5
63E
100
AcDbEntity
  8
0
100
AcDbText
 62
5
  6
CONTINUOUS
 10
96.1956625647
 20
1508.574515037
  7
STANDARD
 40
2.5
  1
764.5
 50
90.0
 72
5
 11
96.1956625647
 21
1517.3105745166
100
AcDbText
  0
LINE
  5
63F
100
AcDbEntity
  8
0
100
AcDbLine
 62
2
  6
CONTINUOUS
 10
123.8206625647
 20
1895.1925447768
 11
95.8206625647
 21
1895.1925447768
  0
LINE
  5
640
100
AcDbEntity
  8
0
100
AcDbLine
 62
2
  6
CONTINUOUS
 10
123.8206625647
 20
1130.6925447768
 11
105.0669408505
 21
1130.6925447768
  0
LINE
  5
641
100
AcDbEntity
  8
0
100
AcDbLine
 62
2
  6
CONTINUOUS
 10
102.4216564302
 20
1130.6925447768
 11
95.8206625647
 21
1130.6925447768
  0
LINE
  5
642
100
AcDbEntity
  8
0
100
AcDbLine
 62
2
  6
CONTINUOUS
 10
96.8206625647
 20
1895.1925447768
 11
96.8206625647
 21
1512.9425447768
  0
LINE
  5
643
100
AcDbEntity
  8
0
100
AcDbLine
 62
2
  6
CONTINUOUS
 10
96.8206625647
 20
1130.6925447768
 11
96.8206625647
 21
1512.9425447768
  0
INSERT
  5
644
100
AcDbEntity
  8
0
100
AcDbBlockReference
 62
2
  6
CONTINUOUS
  2
_FILLED
 10
96.8206625647
 20
1895.1925447768
 41
3.5
 42
3.5
 43
3.5
 50
90.0
  0
INSERT
  5
645
100
AcDbEntity
  8
0
100
AcDbBlockReference
 62
2
  6
CONTINUOUS
  2
_FILLED
 10
96.8206625647
 20
1130.6925447768
 41
3.5
 42
3.5
 43
3.5
 50
270.0
  0
ENDBLK
  5
646
100
AcDbEntity
  8
0
  6
BYBLOCK
 62
0
100
AcDbBlockEnd
  0
BLOCK
  5
647
100
AcDbEntity
  8
0
100
AcDbBlockBegin
 62
2
  6
CONTINUOUS
  2
*D27
 70
65
 10
0.0
 20
0.0
  3
*D27
  1

  0
TEXT
  5
648
100
AcDbEntity
  8
0
100
AcDbText
 62
5
  6
CONTINUOUS
 10
96.1956625647
 20
526.7789760036
  7
STANDARD
 40
2.5
  1
769
 50
90.0
 72
5
 11
96.1956625647
 21
532.60611355
100
AcDbText
  0
LINE
  5
649
100
AcDbEntity
  8
0
100
AcDbLine
 62
2
  6
CONTINUOUS
 10
123.8206625647
 20
914.1925447768
 11
105.1739098069
 21
914.1925447768
  0
LINE
  5
64A
100
AcDbEntity
  8
0
100
AcDbLine
 62
2
  6
CONTINUOUS
 10
102.4986787705
 20
914.1925447768
 11
95.8206625647
 21
914.1925447768
  0
LINE
  5
64B
100
AcDbEntity
  8
0
100
AcDbLine
 62
2
  6
CONTINUOUS
 10
123.8206625647
 20
145.1925447768
 11
95.8206625647
 21
145.1925447768
  0
LINE
  5
64C
100
AcDbEntity
  8
0
100
AcDbLine
 62
2
  6
CONTINUOUS
 10
96.8206625647
 20
914.1925447768
 11
96.8206625647
 21
529.6925447768
  0
LINE
  5
64D
100
AcDbEntity
  8
0
100
AcDbLine
 62
2
  6
CONTINUOUS
 10
96.8206625647
 20
145.1925447768
 11
96.8206625647
 21
529.6925447768
  0
INSERT
  5
64E
100
AcDbEntity
  8
0
100
AcDbBlockReference
 62
2
  6
CONTINUOUS
  2
_FILLED
 10
96.8206625647
 20
914.1925447768
 41
3.5
 42
3.5
 43
3.5
 50
90.0
  0
INSERT
  5
64F
100
AcDbEntity
  8
0
100
AcDbBlockReference
 62
2
  6
CONTINUOUS
  2
_FILLED
 10
96.8206625647
 20
145.1925447768
 41
3.5
 42
3.5
 43
3.5
 50
270.0
  0
ENDBLK
  5
650
100
AcDbEntity
  8
0
  6
BYBLOCK
 62
0
100
AcDbBlockEnd
  0
ENDSEC
  0
SECTION
  2
ENTITIES
  0
DIMENSION
  5
651
100
AcDbEntity
  8
0
100
AcDbDimension
 62
2
  6
CONTINUOUS
  2
*D0
 10
30.6594318387
 20
1913.1925447768
 11
27.6594318387
 21
1913.1925447768
 70
160
 71
2
 42
6.0
  3
DIMSTYLE_1
100
AcDbAlignedDimension
 13
24.6594318387
 23
1895.1925447768
 14
30.6594318387
 24
1895.1925447768
100
AcDbRotatedDimension
  0
DIMENSION
  5
652
100
AcDbEntity
  8
0
100
AcDbDimension
 62
2
  6
CONTINUOUS
  2
*D1
 10
120.8206625647
 20
1913.1925447768
 11
129.8206625647
 21
1913.1925447768
 70
160
 71
2
 42
18.0
  3
DIMSTYLE_2
100
AcDbAlignedDimension
 13
138.8206625647
 23
1895.1925447768
 14
120.8206625647
 24
1895.1925447768
 50
180.0
100
AcDbRotatedDimension
  0
DIMENSION
  5
653
100
AcDbEntity
  8
0
100
AcDbDimension
 62
2
  6
CONTINUOUS
  2
*D2
 10
89.8206625647
 20
145.1925447768
 11
89.8206625647
 21
1020.1925447768
 70
160
 71
2
 42
1750.0
  3
DIMSTYLE_3
100
AcDbAlignedDimension
 13
123.8206625647
 23
1895.1925447768
 14
123.8206625647
 24
145.1925447768
 50
270.0
100
AcDbRotatedDimension
  0
DIMENSION
  5
654
100
AcDbEntity
  8
0
100
AcDbDimension
 62
2
  6
CONTINUOUS
  2
*D3
 10
82.8206625647
 20
1903.1925447768
 11
82.8206625647
 21
1020.1925447768
 70
160
 71
2
 42
1766.0
  3
DIMSTYLE_3
100
AcDbAlignedDimension
 13
120.8206625647
 23
137.1925447768
 14
120.8206625647
 24
1903.1925447768
 50
90.0
100
AcDbRotatedDimension
  0
DIMENSION
  5
655
100
AcDbEntity
  8
0
100
AcDbDimension
 62
2
  6
CONTINUOUS
  2
*D4
 10
58.8594318387
 20
95.4315271649
 11
58.8594318387
 21
102.3315271649
 70
160
 71
2
 42
13.8
  3
DIMSTYLE_2
100
AcDbAlignedDimension
 13
32.6594318387
 23
109.2315271649
 14
32.6594318387
 24
95.4315271649
 50
270.0
100
AcDbRotatedDimension
  0
DIMENSION
  5
656
100
AcDbEntity
  8
0
100
AcDbDimension
 62
2
  6
CONTINUOUS
  2
*D5
 10
24.6594318387
 20
121.3315271649
 11
30.3343737147
 21
121.3315271649
 70
160
 71
1
 42
2.0
  3
DIMSTYLE_1
100
AcDbAlignedDimension
 13
22.6594318387
 23
110.8315271649
 14
24.6594318387
 24
110.8315271649
100
AcDbRotatedDimension
  0
DIMENSION
  5
657
100
AcDbEntity
  8
0
100
AcDbDimension
 62
2
  6
CONTINUOUS
  2
*D6
 10
51.8594318387
 20
111.3315271649
 11
51.8594318387
 21
116.5733211859
 70
160
 71
1
 42
2.0
  3
DIMSTYLE_1
100
AcDbAlignedDimension
 13
30.6594318387
 23
109.3315271649
 14
30.6594318387
 24
111.3315271649
 50
90.0
100
AcDbRotatedDimension
  0
DIMENSION
  5
658
100
AcDbEntity
  8
0
100
AcDbDimension
 62
2
  6
CONTINUOUS
  2
*D7
 10
148.8206625647
 20
1142.6925447768
 11
148.8206625647
 21
1136.6925447768
 70
160
 71
2
 42
12.0
  3
DIMSTYLE_2
100
AcDbAlignedDimension
 13
138.8206625647
 23
1130.6925447768
 14
138.2206625647
 24
1142.6925447768
 50
90.0
100
AcDbRotatedDimension
  0
DIMENSION
  5
659
100
AcDbEntity
  8
0
100
AcDbDimension
 62
2
  6
CONTINUOUS
  2
*D8
 10
155.8206625647
 20
1425.6925447768
 11
155.8206625647
 21
1278.1925447768
 70
160
 71
2
 42
295.0
  3
DIMSTYLE_4
100
AcDbAlignedDimension
 13
138.8206625647
 23
1130.6925447768
 14
138.2206625647
 24
1425.6925447768
 50
90.0
100
AcDbRotatedDimension
  0
DIMENSION
  5
65A
100
AcDbEntity
  8
0
100
AcDbDimension
 62
2
  6
CONTINUOUS
  2
*D9
 10
162.8206625647
 20
1130.6925447768
 11
162.8206625647
 21
1408.9425447768
 70
160
 71
2
 42
556.5
  3
DIMSTYLE_5
100
AcDbAlignedDimension
 13
138.2206625647
 23
1687.1925447768
 14
138.8206625647
 24
1130.6925447768
 50
270.0
100
AcDbRotatedDimension
  0
DIMENSION
  5
65B
100
AcDbEntity
  8
0
100
AcDbDimension
 62
2
  6
CONTINUOUS
  2
*D10
 10
169.8206625647
 20
1130.6925447768
 11
169.8206625647
 21
1471.9425447768
 70
160
 71
2
 42
682.5
  3
DIMSTYLE_5
100
AcDbAlignedDimension
 13
138.2206625647
 23
1813.1925447768
 14
138.8206625647
 24
1130.6925447768
 50
270.0
100
AcDbRotatedDimension
  0
DIMENSION
  5
65C
100
AcDbEntity
  8
0
100
AcDbDimension
 62
2
  6
CONTINUOUS
  2
*D11
 10
176.8206625647
 20
1883.1925447768
 11
176.8206625647
 21
1506.9425447768
 70
160
 71
2
 42
752.5
  3
DIMSTYLE_5
100
AcDbAlignedDimension
 13
138.8206625647
 23
1130.6925447768
 14
138.8206625647
 24
1883.1925447768
 50
90.0
100
AcDbRotatedDimension
  0
DIMENSION
  5
65D
100
AcDbEntity
  8
0
100
AcDbDimension
 62
2
  6
CONTINUOUS
  2
*D12
 10
110.8206625647
 20
1765.1925447768
 11
110.8206625647
 21
1447.9425447768
 70
160
 71
2
 42
634.5
  3
DIMSTYLE_5
100
AcDbAlignedDimension
 13
135.8206625647
 23
1130.6925447768
 14
118.3206625647
 24
1765.1925447768
 50
90.0
100
AcDbRotatedDimension
  0
DIMENSION
  5
65E
100
AcDbEntity
  8
0
100
AcDbDimension
 62
2
  6
CONTINUOUS
  2
*D13
 10
103.8206625647
 20
1765.1925447768
 11
103.8206625647
 21
1447.9425447768
 70
160
 71
2
 42
634.5
  1
730 bis Kennkerbe
  3
DIMSTYLE_5
100
AcDbAlignedDimension
 13
104.8206625647
 23
1080.6568095106
 14
118.3206625647
 24
1765.1925447768
 50
90.0
100
AcDbRotatedDimension
1001
ACAD
1000
DSTYLE
1002
{
1070
173
1070
1
1070
6
1000
_NONE
1002
}
  0
DIMENSION
  5
65F
100
AcDbEntity
  8
0
100
AcDbDimension
 62
2
  6
CONTINUOUS
  2
*D14
 10
110.8206625647
 20
275.1925447768
 11
110.8206625647
 21
594.6925447768
 70
160
 71
2
 42
639.0
  3
DIMSTYLE_5
100
AcDbAlignedDimension
 13
123.8206625647
 23
914.1925447768
 14
118.3206625647
 24
275.1925447768
 50
270.0
100
AcDbRotatedDimension
  0
DIMENSION
  5
660
100
AcDbEntity
  8
0
100
AcDbDimension
 62
2
  6
CONTINUOUS
  2
*D15
 10
103.8206625647
 20
275.1925447768
 11
103.8206625647
 21
594.6925447768
 70
160
 71
2
 42
639.0
  1
760 bis Kennkerbe
  3
DIMSTYLE_5
100
AcDbAlignedDimension
 13
104.8206625647
 23
964.2237897593
 14
118.3206625647
 24
275.1925447768
 50
270.0
100
AcDbRotatedDimension
1001
ACAD
1000
DSTYLE
1002
{
1070
173
1070
1
1070
6
1000
_NONE
1002
}
  0
DIMENSION
  5
661
100
AcDbEntity
  8
0
100
AcDbDimension
 62
2
  6
CONTINUOUS
  2
*D16
 10
148.8206625647
 20
902.1925447768
 11
148.8206625647
 21
908.1925447768
 70
160
 71
2
 42
12.0
  3
DIMSTYLE_2
100
AcDbAlignedDimension
 13
135.8206625647
 23
914.1925447768
 14
138.2206625647
 24
902.1925447768
 50
270.0
100
AcDbRotatedDimension
  0
DIMENSION
  5
662
100
AcDbEntity
  8
0
100
AcDbDimension
 62
2
  6
CONTINUOUS
  2
*D17
 10
155.8206625647
 20
622.1925447768
 11
155.8206625647
 21
768.1925447768
 70
160
 71
2
 42
292.0
  3
DIMSTYLE_4
100
AcDbAlignedDimension
 13
135.8206625647
 23
914.1925447768
 14
138.2206625647
 24
622.1925447768
 50
270.0
100
AcDbRotatedDimension
  0
DIMENSION
  5
663
100
AcDbEntity
  8
0
100
AcDbDimension
 62
2
  6
CONTINUOUS
  2
*D18
 10
162.8206625647
 20
323.1925447768
 11
162.8206625647
 21
618.6925447768
 70
160
 71
2
 42
591.0
  3
DIMSTYLE_5
100
AcDbAlignedDimension
 13
135.8206625647
 23
914.1925447768
 14
138.2206625647
 24
323.1925447768
 50
270.0
100
AcDbRotatedDimension
  0
DIMENSION
  5
664
100
AcDbEntity
  8
0
100
AcDbDimension
 62
2
  6
CONTINUOUS
  2
*D19
 10
169.8206625647
 20
227.1925447768
 11
169.8206625647
 21
570.6925447768
 70
160
 71
2
 42
687.0
  3
DIMSTYLE_5
100
AcDbAlignedDimension
 13
135.8206625647
 23
914.1925447768
 14
138.2206625647
 24
227.1925447768
 50
270.0
100
AcDbRotatedDimension
  0
DIMENSION
  5
665
100
AcDbEntity
  8
0
100
AcDbDimension
 62
2
  6
CONTINUOUS
  2
*D20
 10
176.8206625647
 20
157.1925447768
 11
176.8206625647
 21
535.6925447768
 70
160
 71
2
 42
757.0
  3
DIMSTYLE_5
100
AcDbAlignedDimension
 13
135.8206625647
 23
914.1925447768
 14
138.8206625647
 24
157.1925447768
 50
270.0
100
AcDbRotatedDimension
  0
DIMENSION
  5
666
100
AcDbEntity
  8
0
100
AcDbDimension
 62
2
  6
CONTINUOUS
  2
*D21
 10
51.8594318387
 20
238.1925447768
 11
51.8594318387
 21
275.1925447768
 70
160
 71
2
 42
74.0
  3
DIMSTYLE_6
100
AcDbAlignedDimension
 13
30.7445766174
 23
312.1925447768
 14
30.6901464858
 24
238.1925447768
 50
270.0
100
AcDbRotatedDimension
  0
DIMENSION
  5
667
100
AcDbEntity
  8
0
100
AcDbDimension
 62
2
  6
CONTINUOUS
  2
*D22
 10
51.8594318387
 20
1802.1925447768
 11
51.8594318387
 21
1765.1925447768
 70
160
 71
2
 42
74.0
  3
DIMSTYLE_6
100
AcDbAlignedDimension
 13
30.6466066292
 23
1728.1925447768
 14
30.6690385163
 24
1802.1925447768
 50
90.0
100
AcDbRotatedDimension
  0
DIMENSION
  5
668
100
AcDbEntity
  8
0
100
AcDbDimension
 62
2
  6
CONTINUOUS
  2
*D23
 10
51.8594318387
 20
1895.1925447768
 11
51.8594318387
 21
1848.6925447768
 70
160
 71
2
 42
93.0
  3
DIMSTYLE_6
100
AcDbAlignedDimension
 13
30.6690385163
 23
1802.1925447768
 14
30.6594318387
 24
1895.1925447768
 50
90.0
100
AcDbRotatedDimension
  0
DIMENSION
  5
669
100
AcDbEntity
  8
0
100
AcDbDimension
 62
2
  6
CONTINUOUS
  2
*D24
 10
51.8594318387
 20
145.1925447768
 11
51.8594318387
 21
191.6925447768
 70
160
 71
2
 42
93.0
  3
DIMSTYLE_6
100
AcDbAlignedDimension
 13
30.7300753073
 23
238.1925447768
 14
30.6594318387
 24
145.1925447768
 50
270.0
100
AcDbRotatedDimension
  0
DIMENSION
  5
66A
100
AcDbEntity
  8
0
100
AcDbDimension
 62
2
  6
CONTINUOUS
  2
*D25
 10
24.6594318387
 20
222.0503858664
 11
34.6607555248
 21
222.0503858664
 70
160
 71
2
 42
17.0
  3
DIMSTYLE_2
100
AcDbAlignedDimension
 13
41.6594318387
 23
258.8396950271
 14
24.6594318387
 24
255.4604939692
 50
180.0
100
AcDbRotatedDimension
  0
DIMENSION
  5
66B
100
AcDbEntity
  8
0
100
AcDbDimension
 62
2
  6
CONTINUOUS
  2
*D26
 10
96.8206625647
 20
1130.6925447768
 11
96.8206625647
 21
1512.9425447768
 70
160
 71
2
 42
764.5
  3
DIMSTYLE_5
100
AcDbAlignedDimension
 13
123.8206625647
 23
1895.1925447768
 14
123.8206625647
 24
1130.6925447768
 50
270.0
100
AcDbRotatedDimension
  0
DIMENSION
  5
66C
100
AcDbEntity
  8
0
100
AcDbDimension
 62
2
  6
CONTINUOUS
  2
*D27
 10
96.8206625647
 20
145.1925447768
 11
96.8206625647
 21
529.6925447768
 70
160
 71
2
 42
769.0
  3
DIMSTYLE_5
100
AcDbAlignedDimension
 13
123.8206625647
 23
914.1925447768
 14
123.8206625647
 24
145.1925447768
 50
270.0
100
AcDbRotatedDimension
  0
TEXT
  5
66D
100
AcDbEntity
  8
0
100
AcDbText
 62
5
  6
CONTINUOUS
 10
25.9063850746
 20
76.8648604983
  7
STANDARD
 40
5.0
  1
A-A
 72
5
 11
37.5234854463
 21
76.8648604983
100
AcDbText
  0
INSERT
  5
66E
100
AcDbEntity
  8
0
100
AcDbBlockReference
 62
2
  6
CONTINUOUS
  2
SYMBOL_0_BL15
 10
31.0000000239
 20
34.9999999785
  0
LINE
  5
66F
100
AcDbEntity
  8
S-AXIS
100
AcDbLine
 62
7
  6
CENTER
 10
44.8594318387
 20
102.3315271649
 11
19.6594318387
 21
102.3315271649
  0
INSERT
  5
670
100
AcDbEntity
  8
HATCHING_BL0
100
AcDbBlockReference
  2
HATCHING_BL0
 10
28.8997565955
 20
1818.7571680319
  0
INSERT
  5
671
100
AcDbEntity
  8
93773501000_O_BL1
100
AcDbBlockReference
  2
93773501000_O_BL1
 10
81.7400472017
 20
129.7620359709
  0
INSERT
  5
672
100
AcDbEntity
  8
94818203000_BL2
100
AcDbBlockReference
  2
94818203000_BL2
 10
81.2400472017
 20
529.6925447768
  0
INSERT
  5
673
100
AcDbEntity
  8
94528905000_M_BL3
100
AcDbBlockReference
  2
94528905000_M_BL3
 10
82.6400472017
 20
950.0620359709
  0
INSERT
  5
674
100
AcDbEntity
  8
94529001000_BL4
100
AcDbBlockReference
  2
94529001000_BL4
 10
81.9900472017
 20
275.1925447768
  0
INSERT
  5
675
100
AcDbEntity
  8
94673901000_BL5
100
AcDbBlockReference
  2
94673901000_BL5
 10
79.091825931
 20
275.1925447768
  0
INSERT
  5
676
100
AcDbEntity
  8
94528905000_M_BL6
100
AcDbBlockReference
  2
94528905000_M_BL6
 10
82.9914443762
 20
305.2925447768
  0
INSERT
  5
677
100
AcDbEntity
  8
94673901000_BL7
100
AcDbBlockReference
  2
94673901000_BL7
 10
79.091825931
 20
940.3120359709
  0
INSERT
  5
678
100
AcDbEntity
  8
94529001000_BL8
100
AcDbBlockReference
  2
94529001000_BL8
 10
81.9900472017
 20
950.5187723036
  0
INSERT
  5
679
100
AcDbEntity
  8
94528905000_M_BL9
100
AcDbBlockReference
  2
94528905000_M_BL9
 10
82.9914443762
 20
1735.0925447768
  0
INSERT
  5
67A
100
AcDbEntity
  8
93794901000_BL10
100
AcDbBlockReference
  2
93794901000_BL10
 10
81.6961132189
 20
613.0120373699
  0
INSERT
  5
67B
100
AcDbEntity
  8
93794901000_BL11
100
AcDbBlockReference
  2
93794901000_BL11
 10
80.2400472017
 20
919.1925447768
  0
INSERT
  5
67C
100
AcDbEntity
  8
94819605000_BL12
100
AcDbBlockReference
  2
94819605000_BL12
 10
81.2400472017
 20
994.2620359709
  0
INSERT
  5
67D
100
AcDbEntity
  8
93773501000_O_BL13
100
AcDbBlockReference
  2
93773501000_O_BL13
 10
81.7400472017
 20
1888.6925447768
  0
INSERT
  5
67E
100
AcDbEntity
  8
91511100000_BL14
100
AcDbBlockReference
  2
91511100000_BL14
 10
29.3594318387
 20
102.3315271649
  0
ENDSEC
  0
SECTION
  2
OBJECTS
  0
DICTIONARY
  5
C
100
AcDbDictionary
280
0
281
1
  3
ACAD_GROUP
350
D
  3
ACAD_MLINESTYLE
350
17
  3
ACAD_LAYOUT
350
1A
  3
ACAD_PLOTSETTINGS
350
19
  3
ACAD_PLOTSTYLENAME
350
E
  0
DICTIONARY
  5
D
102
{ACAD_REACTORS
330
C
102
}
100
AcDbDictionary
280
0
281
1
  0
ACDBDICTIONARYWDFLT
  5
E
102
{ACAD_REACTORS
330
C
102
}
100
AcDbDictionary
281
1
  3
Normal
350
F
100
AcDbDictionaryWithDefault
340
F
  0
DICTIONARY
  5
17
102
{ACAD_REACTORS
330
C
102
}
100
AcDbDictionary
280
0
281
1
  3
Standard
350
18
  0
DICTIONARY
  5
19
102
{ACAD_REACTORS
330
C
102
}
100
AcDbDictionary
281
1
  0
DICTIONARY
  5
1A
102
{ACAD_REACTORS
330
C
102
}
100
AcDbDictionary
281
1
  3
Model
350
67F
  3
Layout1
350
680
  0
ACDBPLACEHOLDER
  5
F
102
{ACAD_REACTORS
330
E
102
}
  0
MLINESTYLE
  5
18
102
{ACAD_REACTORS
330
17
102
}
100
AcDbMlineStyle
  2
STANDARD
 70
0
  3

 62
256
 51
90.0
 52
90.0
 71
2
 49
0.5
 62
256
  6
BYLAYER
 49
-0.5
 62
256
  6
BYLAYER
  0
LAYOUT
  5
67F
102
{ACAD_REACTORS
330
1A
102
}
100
AcDbPlotSettings
  1

  2
none_device
  4

  6

 40
0.0
 41
0.0
 42
0.0
 43
0.0
 44
200.0
 45
1935.0
 46
0.0
 47
0.0
 48
0.0
 49
0.0
140
0.0
141
0.0
142
1.0
143
1.0
 70
1024
 72
1
 73
0
 74
0
  7

 75
0
147
1.0
148
0.0
149
0.0
100
AcDbLayout
  1
Model
 70
0
 71
0
 10
0.0
 20
0.0
 11
200.0
 21
1935.0
 12
0.0
 22
0.0
 32
0.0
 14
0.0
 24
0.0
 34
0.0
 15
0.0
 25
0.0
 35
0.0
146
0.0
 13
0.0
 23
0.0
 33
0.0
 16
1.0
 26
0.0
 36
0.0
 17
0.0
 27
1.0
 37
0.0
 76
0
330
21B
345
0
346
0
  0
LAYOUT
  5
680
102
{ACAD_REACTORS
330
1A
102
}
100
AcDbPlotSettings
  1

  2
none_device
  4

  6

 40
0.0
 41
0.0
 42
0.0
 43
0.0
 44
200.0
 45
1935.0
 46
0.0
 47
0.0
 48
0.0
 49
0.0
140
0.0
141
0.0
142
1.0
143
1.0
 70
0
 72
1
 73
0
 74
0
  7

 75
0
147
1.0
148
0.0
149
0.0
100
AcDbLayout
  1
Layout1
 70
0
 71
1
 10
0.0
 20
0.0
 11
200.0
 21
1935.0
 12
0.0
 22
0.0
 32
0.0
 14
0.0
 24
0.0
 34
0.0
 15
0.0
 25
0.0
 35
0.0
146
0.0
 13
0.0
 23
0.0
 33
0.0
 16
1.0
 26
0.0
 36
0.0
 17
0.0
 27
1.0
 37
0.0
 76
0
330
21C
345
0
346
0
  0
ENDSEC
  0
EOF
