  0
SECTION
  2
HEADER
  9
$ACADVER
  1
AC1021
  9
$DWGCODEPAGE
  3
ANSI_1252
  9
$EXTMAX
 10
200.0
 20
1935.0
 30
0.0
  9
$EXTMIN
 10
0.0
 20
0.0
 30
0.0
  9
$LIMMIN
 10
0.0
 20
0.0
  9
$LIMMAX
 10
200.0
 20
1935.0
  9
$VIEWCTR
 10
100.0
 20
967.5
  9
$VIEWSIZE
 40
1935.0
  9
$CLAYER
  8
0
  9
$LTSCALE
 40
126.1333333333
  9
$CELTYPE
  6
BYLAYER
  9
$DIMSCALE
 40
1.0
  9
$DIMASZ
 40
3.5
  9
$DIMEXO
 40
0.0
  9
$DIMDLI
 40
87.1466666667
  9
$DIMEXE
 40
1.0
  9
$DIMCEN
 40
20.64
  9
$DIMLFAC
 40
1.0
  9
$DIMBLK
  1
_FILLED
  9
$DIMTXT
 40
2.5
  9
$DIMTOL
 70
1
  9
$DIMLIM
 70
0
  9
$DIMTFAC
 40
1.0
  9
$DIMTP
 40
0.001
  9
$DIMTM
 40
0.001
  9
$DIMGAP
 40
0.625
  9
$DIMDSEP
 70
46
  9
$PDMODE
 70
3
  9
$PDSIZE
 40
2.0
  9
$HANDSEED
  5
67C
  9
$TILEMODE
 70
1
  9
$MEASUREMENT
 70
1
  9
$INSUNITS
 70
4
  0
ENDSEC
  0
SECTION
  2
CLASSES
  0
CLASS
  1
ACDBDICTIONARYWDFLT
  2
AcDbDictionaryWithDefault
  3
AutoCAD 2000
 90
0
 91
1
280
0
281
0
  0
CLASS
  1
ACDBPLACEHOLDER
  2
AcDbPlaceHolder
  3
AutoCAD 2000
 90
0
 91
1
280
0
281
0
  0
CLASS
  1
LAYOUT
  2
AcDbLayout
  3
AutoCAD 2000
 90
0
 91
0
280
0
281
0
  0
ENDSEC
  0
SECTION
  2
TABLES
  0
TABLE
  2
VPORT
  5
8
100
AcDbSymbolTable
 70
2
  0
VPORT
  5
1F4
100
AcDbSymbolTableRecord
100
AcDbViewportTableRecord
  2
*ACTIVE
 70
0
 10
0.0
 20
0.0
 11
1.0
 21
1.0
 12
100.0
 22
967.5
 13
0.0
 23
0.0
 14
1.0
 24
1.0
 15
0.0
 25
0.0
 16
0.0
 26
0.0
 36
1.0
 17
0.0
 27
0.0
 37
0.0
 40
1935.0
 41
0.1033591731
 42
50.0
 43
0.0
 44
0.0
 50
0.0
 51
0.0
 71
0
 72
100
 73
1
 74
1
 75
0
 76
0
 77
0
 78
0
  0
ENDTAB
  0
TABLE
  2
LTYPE
  5
5
100
AcDbSymbolTable
 70
6
  0
LTYPE
  5
14
100
AcDbSymbolTableRecord
100
AcDbLinetypeTableRecord
  2
BYBLOCK
 70
0
  3

 72
65
 73
0
 40
0.0
  0
LTYPE
  5
15
100
AcDbSymbolTableRecord
100
AcDbLinetypeTableRecord
  2
BYLAYER
 70
0
  3

 72
65
 73
0
 40
0.0
  0
LTYPE
  5
16
100
AcDbSymbolTableRecord
100
AcDbLinetypeTableRecord
  2
CONTINUOUS
 70
64
  3
Solid line
 72
65
 73
0
 40
0.0
  0
LTYPE
  5
1F5
100
AcDbSymbolTableRecord
100
AcDbLinetypeTableRecord
  2
CENTER
 70
64
  3
____ _ ____ _ ____ _ ____ _ ____ _ ____ _ ____
 72
65
 73
4
 40
0.6
 49
0.375
 74
0
 49
-0.075
 74
0
 49
0.075
 74
0
 49
-0.075
 74
0
  0
LTYPE
  5
1F6
100
AcDbSymbolTableRecord
100
AcDbLinetypeTableRecord
  2
HIDDEN
 70
64
  3
- - - - - - - - - - - - - - - - - - - -
 72
65
 73
2
 40
0.2
 49
0.1
 74
0
 49
-0.1
 74
0
  0
LTYPE
  5
1F7
100
AcDbSymbolTableRecord
100
AcDbLinetypeTableRecord
  2
PHANTOM
 70
64
  3
_____ _ _ _____ _ _ _____ _ _ _____
 72
65
 73
6
 40
0.8
 49
0.45
 74
0
 49
-0.05
 74
0
 49
0.1
 74
0
 49
-0.05
 74
0
 49
0.1
 74
0
 49
-0.05
 74
0
  0
LTYPE
  5
1F8
100
AcDbSymbolTableRecord
100
AcDbLinetypeTableRecord
  2
DOT
 70
64
  3
. . . . . . . . . . . . . . . . . . . .
 72
65
 73
2
 40
0.2
 49
0.1
 74
0
 49
-0.1
 74
0
  0
LTYPE
  5
1F9
100
AcDbSymbolTableRecord
100
AcDbLinetypeTableRecord
  2
DASHED
 70
64
  3
- - - - - - - - - - - - - - - - - - - -
 72
65
 73
2
 40
0.2
 49
0.1
 74
0
 49
-0.1
 74
0
  0
ENDTAB
  0
TABLE
  2
LAYER
  5
2
100
AcDbSymbolTable
 70
36
  0
LAYER
  5
10
100
AcDbSymbolTableRecord
100
AcDbLayerTableRecord
  2
0
 70
0
 62
7
  6
CONTINUOUS
370
-3
390
F
  0
LAYER
  5
1FA
100
AcDbSymbolTableRecord
100
AcDbLayerTableRecord
  2
DEFAULT_1
 70
0
 62
7
  6
CENTER
370
-3
390
F
  0
LAYER
  5
1FB
100
AcDbSymbolTableRecord
100
AcDbLayerTableRecord
  2
DEFAULT_2
 70
0
 62
8
  6
HIDDEN
370
-3
390
F
  0
LAYER
  5
1FC
100
AcDbSymbolTableRecord
100
AcDbLayerTableRecord
  2
DEFAULT_3
 70
0
 62
7
  6
PHANTOM
370
-3
390
F
  0
LAYER
  5
1FD
100
AcDbSymbolTableRecord
100
AcDbLayerTableRecord
  2
AXIS
 70
0
 62
7
  6
CONTINUOUS
370
-3
390
F
  0
LAYER
  5
1FE
100
AcDbSymbolTableRecord
100
AcDbLayerTableRecord
  2
COORDSYS
 70
0
 62
7
  6
CONTINUOUS
370
-3
390
F
  0
LAYER
  5
1FF
100
AcDbSymbolTableRecord
100
AcDbLayerTableRecord
  2
CURVES
 70
0
 62
7
  6
CONTINUOUS
370
-3
390
F
  0
LAYER
  5
200
100
AcDbSymbolTableRecord
100
AcDbLayerTableRecord
  2
EINBAUREFERENZ
 70
0
 62
7
  6
CONTINUOUS
370
-3
390
F
  0
LAYER
  5
201
100
AcDbSymbolTableRecord
100
AcDbLayerTableRecord
  2
PLANES
 70
0
 62
7
  6
CONTINUOUS
370
-3
390
F
  0
LAYER
  5
202
100
AcDbSymbolTableRecord
100
AcDbLayerTableRecord
  2
POINTS
 70
0
 62
7
  6
CONTINUOUS
370
-3
390
F
  0
LAYER
  5
203
100
AcDbSymbolTableRecord
100
AcDbLayerTableRecord
  2
PROFIL-EINBAULAGE
 70
0
 62
7
  6
CONTINUOUS
370
-3
390
F
  0
LAYER
  5
204
100
AcDbSymbolTableRecord
100
AcDbLayerTableRecord
  2
S-AXIS
 70
0
 62
7
  6
CONTINUOUS
370
-3
390
F
  0
LAYER
  5
205
100
AcDbSymbolTableRecord
100
AcDbLayerTableRecord
  2
S-COORDSYS
 70
0
 62
7
  6
CONTINUOUS
370
-3
390
F
  0
LAYER
  5
206
100
AcDbSymbolTableRecord
100
AcDbLayerTableRecord
  2
S-PLANES
 70
0
 62
7
  6
CONTINUOUS
370
-3
390
F
  0
LAYER
  5
207
100
AcDbSymbolTableRecord
100
AcDbLayerTableRecord
  2
THREADS
 70
0
 62
7
  6
CONTINUOUS
370
-3
390
F
  0
LAYER
  5
208
100
AcDbSymbolTableRecord
100
AcDbLayerTableRecord
  2
XSEC_DATUMS
 70
0
 62
7
  6
CONTINUOUS
370
-3
390
F
  0
LAYER
  5
209
100
AcDbSymbolTableRecord
100
AcDbLayerTableRecord
  2
HATCHING_BL0
 70
0
 62
7
  6
CONTINUOUS
370
-3
390
F
  0
LAYER
  5
20A
100
AcDbSymbolTableRecord
100
AcDbLayerTableRecord
  2
93773501000_O_BL1
 70
0
 62
7
  6
CONTINUOUS
370
-3
390
F
  0
LAYER
  5
20B
100
AcDbSymbolTableRecord
100
AcDbLayerTableRecord
  2
94818203000_BL2
 70
0
 62
7
  6
CONTINUOUS
370
-3
390
F
  0
LAYER
  5
20C
100
AcDbSymbolTableRecord
100
AcDbLayerTableRecord
  2
94528905000_M_BL3
 70
0
 62
7
  6
CONTINUOUS
370
-3
390
F
  0
LAYER
  5
20D
100
AcDbSymbolTableRecord
100
AcDbLayerTableRecord
  2
94529001000_BL4
 70
0
 62
7
  6
CONTINUOUS
370
-3
390
F
  0
LAYER
  5
20E
100
AcDbSymbolTableRecord
100
AcDbLayerTableRecord
  2
94673901000_BL5
 70
0
 62
7
  6
CONTINUOUS
370
-3
390
F
  0
LAYER
  5
20F
100
AcDbSymbolTableRecord
100
AcDbLayerTableRecord
  2
94528905000_M_BL6
 70
0
 62
7
  6
CONTINUOUS
370
-3
390
F
  0
LAYER
  5
210
100
AcDbSymbolTableRecord
100
AcDbLayerTableRecord
  2
94673901000_BL7
 70
0
 62
7
  6
CONTINUOUS
370
-3
390
F
  0
LAYER
  5
211
100
AcDbSymbolTableRecord
100
AcDbLayerTableRecord
  2
94529001000_BL8
 70
0
 62
7
  6
CONTINUOUS
370
-3
390
F
  0
LAYER
  5
212
100
AcDbSymbolTableRecord
100
AcDbLayerTableRecord
  2
94528905000_M_BL9
 70
0
 62
7
  6
CONTINUOUS
370
-3
390
F
  0
LAYER
  5
213
100
AcDbSymbolTableRecord
100
AcDbLayerTableRecord
  2
93794901000_BL10
 70
0
 62
7
  6
CONTINUOUS
370
-3
390
F
  0
LAYER
  5
214
100
AcDbSymbolTableRecord
100
AcDbLayerTableRecord
  2
93794901000_BL11
 70
0
 62
7
  6
CONTINUOUS
370
-3
390
F
  0
LAYER
  5
215
100
AcDbSymbolTableRecord
100
AcDbLayerTableRecord
  2
94819605000_BL12
 70
0
 62
7
  6
CONTINUOUS
370
-3
390
F
  0
LAYER
  5
216
100
AcDbSymbolTableRecord
100
AcDbLayerTableRecord
  2
93773501000_O_BL13
 70
0
 62
7
  6
CONTINUOUS
370
-3
390
F
  0
LAYER
  5
217
100
AcDbSymbolTableRecord
100
AcDbLayerTableRecord
  2
91511100000_BL14
 70
0
 62
7
  6
CONTINUOUS
370
-3
390
F
  0
ENDTAB
  0
TABLE
  2
STYLE
  5
3
100
AcDbSymbolTable
 70
1
  0
STYLE
  5
11
100
AcDbSymbolTableRecord
100
AcDbTextStyleTableRecord
  2
STANDARD
 70
0
 40
0.0
 41
1.0
 50
0.0
 71
0
 42
0.2
  3
arial.ttf
  4

  0
STYLE
  5
218
100
AcDbSymbolTableRecord
100
AcDbTextStyleTableRecord
  2
TEXTSTYLE_1
 70
0
 40
0.0
 41
0.8
 50
0.0
 71
0
 42
0.2
  3
gdt
  4

  0
STYLE
  5
219
100
AcDbSymbolTableRecord
100
AcDbTextStyleTableRecord
  2
TEXTSTYLE_2
 70
0
 40
0.0
 41
1.0
 50
0.0
 71
0
 42
0.2
  3
arialbd.ttf
  4

  0
ENDTAB
  0
TABLE
  2
VIEW
  5
6
100
AcDbSymbolTable
 70
0
  0
ENDTAB
  0
TABLE
  2
UCS
  5
7
100
AcDbSymbolTable
 70
0
  0
ENDTAB
  0
TABLE
  2
APPID
  5
9
100
AcDbSymbolTable
 70
1
  0
APPID
  5
21A
100
AcDbSymbolTableRecord
100
AcDbRegAppTableRecord
  2
ACAD
 70
0
  0
ENDTAB
  0
TABLE
  2
BLOCK_RECORD
  5
1
100
AcDbSymbolTable
 70
0
  0
BLOCK_RECORD
  5
21B
100
AcDbSymbolTableRecord
100
AcDbBlockTableRecord
  2
*Model_Space
  0
BLOCK_RECORD
  5
21C
100
AcDbSymbolTableRecord
100
AcDbBlockTableRecord
  2
*Paper_Space
  0
BLOCK_RECORD
  5
21D
100
AcDbSymbolTableRecord
100
AcDbBlockTableRecord
  2
_FILLED
  0
BLOCK_RECORD
  5
21E
100
AcDbSymbolTableRecord
100
AcDbBlockTableRecord
  2
_NONE
  0
BLOCK_RECORD
  5
21F
100
AcDbSymbolTableRecord
100
AcDbBlockTableRecord
  2
*D0
  0
BLOCK_RECORD
  5
220
100
AcDbSymbolTableRecord
100
AcDbBlockTableRecord
  2
*D1
  0
BLOCK_RECORD
  5
221
100
AcDbSymbolTableRecord
100
AcDbBlockTableRecord
  2
*D2
  0
BLOCK_RECORD
  5
222
100
AcDbSymbolTableRecord
100
AcDbBlockTableRecord
  2
*D3
  0
BLOCK_RECORD
  5
223
100
AcDbSymbolTableRecord
100
AcDbBlockTableRecord
  2
*D4
  0
BLOCK_RECORD
  5
224
100
AcDbSymbolTableRecord
100
AcDbBlockTableRecord
  2
*D5
  0
BLOCK_RECORD
  5
225
100
AcDbSymbolTableRecord
100
AcDbBlockTableRecord
  2
*D6
  0
BLOCK_RECORD
  5
226
100
AcDbSymbolTableRecord
100
AcDbBlockTableRecord
  2
*D7
  0
BLOCK_RECORD
  5
227
100
AcDbSymbolTableRecord
100
AcDbBlockTableRecord
  2
*D8
  0
BLOCK_RECORD
  5
228
100
AcDbSymbolTableRecord
100
AcDbBlockTableRecord
  2
*D9
  0
BLOCK_RECORD
  5
229
100
AcDbSymbolTableRecord
100
AcDbBlockTableRecord
  2
*D10
  0
BLOCK_RECORD
  5
22A
100
AcDbSymbolTableRecord
100
AcDbBlockTableRecord
  2
*D11
  0
BLOCK_RECORD
  5
22B
100
AcDbSymbolTableRecord
100
AcDbBlockTableRecord
  2
*D12
  0
BLOCK_RECORD
  5
22C
100
AcDbSymbolTableRecord
100
AcDbBlockTableRecord
  2
*D13
  0
BLOCK_RECORD
  5
22D
100
AcDbSymbolTableRecord
100
AcDbBlockTableRecord
  2
*D14
  0
BLOCK_RECORD
  5
22E
100
AcDbSymbolTableRecord
100
AcDbBlockTableRecord
  2
*D15
  0
BLOCK_RECORD
  5
22F
100
AcDbSymbolTableRecord
100
AcDbBlockTableRecord
  2
*D16
  0
BLOCK_RECORD
  5
230
100
AcDbSymbolTableRecord
100
AcDbBlockTableRecord
  2
*D17
  0
BLOCK_RECORD
  5
231
100
AcDbSymbolTableRecord
100
AcDbBlockTableRecord
  2
*D18
  0
BLOCK_RECORD
  5
232
100
AcDbSymbolTableRecord
100
AcDbBlockTableRecord
  2
*D19
  0
BLOCK_RECORD
  5
233
100
AcDbSymbolTableRecord
100
AcDbBlockTableRecord
  2
*D20
  0
BLOCK_RECORD
  5
234
100
AcDbSymbolTableRecord
100
AcDbBlockTableRecord
  2
*D21
  0
BLOCK_RECORD
  5
235
100
AcDbSymbolTableRecord
100
AcDbBlockTableRecord
  2
*D22
  0
BLOCK_RECORD
  5
236
100
AcDbSymbolTableRecord
100
AcDbBlockTableRecord
  2
*D23
  0
BLOCK_RECORD
  5
237
100
AcDbSymbolTableRecord
100
AcDbBlockTableRecord
  2
*D24
  0
BLOCK_RECORD
  5
238
100
AcDbSymbolTableRecord
100
AcDbBlockTableRecord
  2
*D25
  0
BLOCK_RECORD
  5
239
100
AcDbSymbolTableRecord
100
AcDbBlockTableRecord
  2
*D26
  0
BLOCK_RECORD
  5
23A
100
AcDbSymbolTableRecord
100
AcDbBlockTableRecord
  2
*D27
  0
BLOCK_RECORD
  5
23B
100
AcDbSymbolTableRecord
100
AcDbBlockTableRecord
  2
SYMBOL_0_BL15
  0
BLOCK_RECORD
  5
23C
100
AcDbSymbolTableRecord
100
AcDbBlockTableRecord
  2
HATCHING_BL0
  0
BLOCK_RECORD
  5
23D
100
AcDbSymbolTableRecord
100
AcDbBlockTableRecord
  2
93773501000_O_BL1
  0
BLOCK_RECORD
  5
23E
100
AcDbSymbolTableRecord
100
AcDbBlockTableRecord
  2
94818203000_BL2
  0
BLOCK_RECORD
  5
23F
100
AcDbSymbolTableRecord
100
AcDbBlockTableRecord
  2
94528905000_M_BL3
  0
BLOCK_RECORD
  5
240
100
AcDbSymbolTableRecord
100
AcDbBlockTableRecord
  2
94529001000_BL4
  0
BLOCK_RECORD
  5
241
100
AcDbSymbolTableRecord
100
AcDbBlockTableRecord
  2
94673901000_BL5
  0
BLOCK_RECORD
  5
242
100
AcDbSymbolTableRecord
100
AcDbBlockTableRecord
  2
94528905000_M_BL6
  0
BLOCK_RECORD
  5
243
100
AcDbSymbolTableRecord
100
AcDbBlockTableRecord
  2
94673901000_BL7
  0
BLOCK_RECORD
  5
244
100
AcDbSymbolTableRecord
100
AcDbBlockTableRecord
  2
94529001000_BL8
  0
BLOCK_RECORD
  5
245
100
AcDbSymbolTableRecord
100
AcDbBlockTableRecord
  2
94528905000_M_BL9
  0
BLOCK_RECORD
  5
246
100
AcDbSymbolTableRecord
100
AcDbBlockTableRecord
  2
93794901000_BL10
  0
BLOCK_RECORD
  5
247
100
AcDbSymbolTableRecord
100
AcDbBlockTableRecord
  2
93794901000_BL11
  0
BLOCK_RECORD
  5
248
100
AcDbSymbolTableRecord
100
AcDbBlockTableRecord
  2
94819605000_BL12
  0
BLOCK_RECORD
  5
249
100
AcDbSymbolTableRecord
100
AcDbBlockTableRecord
  2
93773501000_O_BL13
  0
BLOCK_RECORD
  5
24A
100
AcDbSymbolTableRecord
100
AcDbBlockTableRecord
  2
91511100000_BL14
  0
ENDTAB
  0
TABLE
  2
DIMSTYLE
  5
A
100
AcDbSymbolTable
 70
1
100
AcDbDimStyleTable
 71
0
  0
DIMSTYLE
105
24B
100
AcDbSymbolTableRecord
100
AcDbDimStyleTableRecord
  2
STANDARD
 70
0
  3

  4

 40
1.0
 41
3.5
 42
0.0
 43
0.38
 44
1.0
 45
0.0
 46
0.0
 47
0.001
 48
0.001
140
2.5
141
0.09
142
0.0
143
25.4
144
1.0
145
0.0
146
1.0
147
0.625
 71
1.0
 72
0.0
 73
0
 74
0
 75
0
 76
0
 77
1
 78
8
170
0
171
2
172
0
173
0
174
0
175
0
176
0
177
0
178
5
270
2
271
3
272
3
273
2
274
2
275
0
280
0
281
0
282
0
283
1
284
8
285
0
286
0
287
3
288
0
340
11
278
46
341
21D
342
21D
343
21D
344
21D
  0
DIMSTYLE
105
24C
100
AcDbSymbolTableRecord
100
AcDbDimStyleTableRecord
  2
DIMSTYLE_1
 70
0
  3

  4

 40
1.0
 41
3.5
 42
0.0
 43
0.38
 44
1.0
 45
0.0
 46
0.0
 47
0.1
 48
0.1
140
2.5
141
0.09
142
0.0
143
25.4
144
1.0
145
0.0
146
1.0
147
0.625
 71
0.0
 72
0.0
 73
0
 74
0
 75
0
 76
0
 77
1
 78
8
170
0
171
2
172
0
173
0
174
0
175
0
176
0
177
0
178
5
270
2
271
3
272
3
273
2
274
2
275
0
280
0
281
0
282
0
283
1
284
8
285
0
286
0
287
3
288
0
340
11
278
46
341
21D
342
21D
343
21D
344
21D
  0
DIMSTYLE
105
24D
100
AcDbSymbolTableRecord
100
AcDbDimStyleTableRecord
  2
DIMSTYLE_2
 70
0
  3

  4

 40
1.0
 41
3.5
 42
0.0
 43
0.38
 44
1.0
 45
0.0
 46
0.0
 47
0.2
 48
0.2
140
2.5
141
0.09
142
0.0
143
25.4
144
1.0
145
0.0
146
1.0
147
0.625
 71
0.0
 72
0.0
 73
0
 74
0
 75
0
 76
0
 77
1
 78
8
170
0
171
2
172
0
173
0
174
0
175
0
176
0
177
0
178
5
270
2
271
3
272
3
273
2
274
2
275
0
280
0
281
0
282
0
283
1
284
8
285
0
286
0
287
3
288
0
340
11
278
46
341
21D
342
21D
343
21D
344
21D
  0
DIMSTYLE
105
24E
100
AcDbSymbolTableRecord
100
AcDbDimStyleTableRecord
  2
DIMSTYLE_3
 70
0
  3

  4

 40
1.0
 41
3.5
 42
0.0
 43
0.38
 44
1.0
 45
0.0
 46
0.0
 47
0.3
 48
0.3
140
2.5
141
0.09
142
0.0
143
25.4
144
1.0
145
0.0
146
1.0
147
0.625
 71
0.0
 72
0.0
 73
0
 74
0
 75
0
 76
0
 77
1
 78
8
170
0
171
2
172
0
173
0
174
0
175
0
176
0
177
0
178
5
270
2
271
3
272
3
273
2
274
2
275
0
280
0
281
0
282
0
283
1
284
8
285
0
286
0
287
3
288
0
340
11
278
46
341
21D
342
21D
343
21D
344
21D
  0
DIMSTYLE
105
24F
100
AcDbSymbolTableRecord
100
AcDbDimStyleTableRecord
  2
DIMSTYLE_4
 70
0
  3

  4

 40
1.0
 41
3.5
 42
0.0
 43
0.38
 44
1.0
 45
0.0
 46
0.0
 47
0.8
 48
0.8
140
2.5
141
0.09
142
0.0
143
25.4
144
1.0
145
0.0
146
1.0
147
0.625
 71
0.0
 72
0.0
 73
0
 74
0
 75
0
 76
0
 77
1
 78
8
170
0
171
2
172
0
173
0
174
0
175
0
176
0
177
0
178
5
270
2
271
3
272
3
273
2
274
2
275
0
280
0
281
0
282
0
283
1
284
8
285
0
286
0
287
3
288
0
340
11
278
46
341
21D
342
21D
343
21D
344
21D
  0
DIMSTYLE
105
250
100
AcDbSymbolTableRecord
100
AcDbDimStyleTableRecord
  2
DIMSTYLE_5
 70
0
  3

  4

 40
1.0
 41
3.5
 42
0.0
 43
0.38
 44
1.0
 45
0.0
 46
0.0
 47
1.2
 48
1.2
140
2.5
141
0.09
142
0.0
143
25.4
144
1.0
145
0.0
146
1.0
147
0.625
 71
0.0
 72
0.0
 73
0
 74
0
 75
0
 76
0
 77
1
 78
8
170
0
171
2
172
0
173
0
174
0
175
0
176
0
177
0
178
5
270
2
271
3
272
3
273
2
274
2
275
0
280
0
281
0
282
0
283
1
284
8
285
0
286
0
287
3
288
0
340
11
278
46
341
21D
342
21D
343
21D
344
21D
  0
DIMSTYLE
105
251
100
AcDbSymbolTableRecord
100
AcDbDimStyleTableRecord
  2
DIMSTYLE_6
 70
0
  3

  4

 40
1.0
 41
3.5
 42
0.0
 43
0.38
 44
1.0
 45
0.0
 46
0.0
 47
0.5
 48
0.5
140
2.5
141
0.09
142
0.0
143
25.4
144
1.0
145
0.0
146
1.0
147
0.625
 71
0.0
 72
0.0
 73
0
 74
0
 75
0
 76
0
 77
1
 78
8
170
0
171
2
172
0
173
0
174
0
175
0
176
0
177
0
178
5
270
2
271
3
272
3
273
2
274
2
275
0
280
0
281
0
282
0
283
1
284
8
285
0
286
0
287
3
288
0
340
11
278
46
341
21D
342
21D
343
21D
344
21D
  0
ENDTAB
  0
ENDSEC
  0
SECTION
  2
BLOCKS
  0
BLOCK
  5
20
100
AcDbEntity
  8
0
100
AcDbBlockBegin
  2
*Model_Space
 70
0
 10
0.0
 20
0.0
 30
0.0
  3
*Model_Space
  1

  0
ENDBLK
  5
21
100
AcDbEntity
  8
0
100
AcDbBlockEnd
  0
BLOCK
  5
1C
100
AcDbEntity
  8
0
100
AcDbBlockBegin
  2
*Paper_Space
 70
0
 10
0.0
 20
0.0
 30
0.0
  3
*Paper_Space
  1

  0
ENDBLK
  5
1D
100
AcDbEntity
  8
0
100
AcDbBlockEnd
  0
BLOCK
  5
252
100
AcDbEntity
  8
0
100
AcDbBlockBegin
 62
2
  6
CONTINUOUS
  2
SYMBOL_0_BL15
 70
64
 10
31.0000000239
 20
34.9999999785
  3
SYMBOL_0_BL15
  1

  0
TEXT
  5
253
100
AcDbEntity
  8
0
100
AcDbText
 62
5
  6
CONTINUOUS
 10
11.6434778505
 20
32.1908716548
  7
TEXTSTYLE_2
 40
4.0
  1
K-19731-01-L
 72
5
 11
46.409277107
 21
32.1908716548
100
AcDbText
  0
TEXT
  5
254
100
AcDbEntity
  8
0
100
AcDbText
 62
5
  6
CONTINUOUS
 10
10.9089559916
 20
24.1776342906
  7
STANDARD
 40
2.5
  1
Scale
 72
5
 11
19.6357217908
 21
24.1776342906
100
AcDbText
  0
TEXT
  5
255
100
AcDbEntity
  8
0
100
AcDbText
 62
5
  6
CONTINUOUS
 10
10.9089559916
 20
20.4276342906
  7
STANDARD
 40
2.5
  1
1:1
 72
5
 11
15.7602571068
 21
20.4276342906
100
AcDbText
  0
TEXT
  5
256
100
AcDbEntity
  8
0
100
AcDbText
 62
5
  6
CONTINUOUS
 10
10.9089559916
 20
13.0518233866
  7
STANDARD
 40
2.5
  1
Draft
 72
5
 11
18.4647180733
 21
13.0518233866
100
AcDbText
  0
TEXT
  5
257
100
AcDbEntity
  8
0
100
AcDbText
 62
5
  6
CONTINUOUS
 10
23.3811982505
 20
13.113338109
  7
STANDARD
 40
2.5
  1
12.04.2017
 72
5
 11
40.8533172096
 21
13.113338109
100
AcDbText
  0
TEXT
  5
258
100
AcDbEntity
  8
0
100
AcDbText
 62
5
  6
CONTINUOUS
 10
45.71759366
 20
13.1067461609
  7
STANDARD
 40
2.5
  1
Dr
 72
5
 11
49.435065779
 21
13.1067461609
100
AcDbText
  0
LINE
  5
259
100
AcDbEntity
  8
0
100
AcDbLine
 62
2
  6
CONTINUOUS
 10
10.0000000239
 20
59.9999999785
 11
52.0000000239
 21
59.9999999785
  0
LINE
  5
25A
100
AcDbEntity
  8
0
100
AcDbLine
 62
2
  6
CONTINUOUS
 10
52.0000000239
 20
59.9999999785
 11
52.0000000239
 21
9.9999999785
  0
LINE
  5
25B
100
AcDbEntity
  8
0
100
AcDbLine
 62
2
  6
CONTINUOUS
 10
10.0000000239
 20
9.9999999785
 11
52.0000000239
 21
9.9999999785
  0
LINE
  5
25C
100
AcDbEntity
  8
0
100
AcDbLine
 62
2
  6
CONTINUOUS
 10
10.0000000239
 20
39.9999999785
 11
21.0000000239
 21
39.9999999785
  0
LINE
  5
25D
100
AcDbEntity
  8
0
100
AcDbLine
 62
2
  6
CONTINUOUS
 10
10.0000000239
 20
27.9999999785
 11
21.0000000239
 21
27.9999999785
  0
LINE
  5
25E
100
AcDbEntity
  8
0
100
AcDbLine
 62
2
  6
CONTINUOUS
 10
10.0000000239
 20
18.9999999785
 11
21.0000000239
 21
18.9999999785
  0
LINE
  5
25F
100
AcDbEntity
  8
0
100
AcDbLine
 62
2
  6
CONTINUOUS
 10
21.0000000239
 20
39.9999999785
 11
43.0000000239
 21
39.9999999785
  0
LINE
  5
260
100
AcDbEntity
  8
0
100
AcDbLine
 62
2
  6
CONTINUOUS
 10
43.0000000239
 20
39.9999999785
 11
52.0000000239
 21
39.9999999785
  0
LINE
  5
261
100
AcDbEntity
  8
0
100
AcDbLine
 62
2
  6
CONTINUOUS
 10
21.0000000239
 20
27.9999999785
 11
43.0000000239
 21
27.9999999785
  0
LINE
  5
262
100
AcDbEntity
  8
0
100
AcDbLine
 62
2
  6
CONTINUOUS
 10
43.0000000239
 20
27.9999999785
 11
52.0000000239
 21
27.9999999785
  0
LINE
  5
263
100
AcDbEntity
  8
0
100
AcDbLine
 62
2
  6
CONTINUOUS
 10
21.0000000239
 20
18.9999999785
 11
21.0000000239
 21
9.9999999785
  0
LINE
  5
264
100
AcDbEntity
  8
0
100
AcDbLine
 62
2
  6
CONTINUOUS
 10
21.0000000239
 20
18.9999999785
 11
43.0000000239
 21
18.9999999785
  0
LINE
  5
265
100
AcDbEntity
  8
0
100
AcDbLine
 62
2
  6
CONTINUOUS
 10
43.0000000239
 20
18.9999999785
 11
43.0000000239
 21
9.9999999785
  0
LINE
  5
266
100
AcDbEntity
  8
0
100
AcDbLine
 62
2
  6
CONTINUOUS
 10
43.0000000239
 20
18.9999999785
 11
52.0000000239
 21
18.9999999785
  0
LINE
  5
267
100
AcDbEntity
  8
0
100
AcDbLine
 62
2
  6
CONTINUOUS
 10
10.0000000239
 20
9.9999999785
 11
10.0000000239
 21
59.9999999785
  0
ARC
  5
268
100
AcDbEntity
  8
0
100
AcDbCircle
 62
2
  6
CONTINUOUS
 10
17.6290122978
 20
56.1308274644
 40
1.2679261569
100
AcDbArc
 50
90.0
 51
180.0
  0
LINE
  5
269
100
AcDbEntity
  8
0
100
AcDbLine
 62
2
  6
CONTINUOUS
 10
17.6290122978
 20
57.3987536213
 11
44.0849627663
 21
57.3987536213
  0
ARC
  5
26A
100
AcDbEntity
  8
0
100
AcDbCircle
 62
2
  6
CONTINUOUS
 10
44.0849627663
 20
56.1308274644
 40
1.2679261569
100
AcDbArc
 50
0.0
 51
90.0
  0
LINE
  5
26B
100
AcDbEntity
  8
0
100
AcDbLine
 62
2
  6
CONTINUOUS
 10
45.3528889231
 20
56.1308274644
 11
45.3528889231
 21
43.6666783678
  0
ARC
  5
26C
100
AcDbEntity
  8
0
100
AcDbCircle
 62
2
  6
CONTINUOUS
 10
44.0849627663
 20
43.6666783678
 40
1.2679261569
100
AcDbArc
 50
270.0
 51
360.0
  0
LINE
  5
26D
100
AcDbEntity
  8
0
100
AcDbLine
 62
2
  6
CONTINUOUS
 10
44.0849627663
 20
42.3987522109
 11
17.6290122978
 21
42.3987522109
  0
ARC
  5
26E
100
AcDbEntity
  8
0
100
AcDbCircle
 62
2
  6
CONTINUOUS
 10
17.6290122978
 20
43.6666783678
 40
1.2679261569
100
AcDbArc
 50
180.0
 51
270.0
  0
LINE
  5
26F
100
AcDbEntity
  8
0
100
AcDbLine
 62
2
  6
CONTINUOUS
 10
16.3610861409
 20
43.6666783678
 11
16.3610861409
 21
56.1308274644
  0
ARC
  5
270
100
AcDbEntity
  8
0
100
AcDbCircle
 62
2
  6
CONTINUOUS
 10
25.0981141224
 20
49.7181091975
 40
2.8108394023
100
AcDbArc
 50
35.2282226131
 51
336.934010569
  0
LINE
  5
271
100
AcDbEntity
  8
0
100
AcDbLine
 62
2
  6
CONTINUOUS
 10
27.3941788183
 20
51.3394990511
 11
29.5865173301
 21
52.961744213
  0
ARC
  5
272
100
AcDbEntity
  8
0
100
AcDbCircle
 62
2
  6
CONTINUOUS
 10
25.0981141224
 20
49.7181091975
 40
5.5377731507
100
AcDbArc
 50
35.8545159817
 51
11.4705154501
  0
LINE
  5
273
100
AcDbEntity
  8
0
100
AcDbLine
 62
2
  6
CONTINUOUS
 10
30.5252822719
 20
50.8193709036
 11
25.2029961896
 21
50.8193709036
  0
ARC
  5
274
100
AcDbEntity
  8
0
100
AcDbCircle
 62
2
  6
CONTINUOUS
 10
25.2029961896
 20
49.7181091975
 40
1.1012617061
100
AcDbArc
 50
90.0
 51
270.0
  0
LINE
  5
275
100
AcDbEntity
  8
0
100
AcDbLine
 62
2
  6
CONTINUOUS
 10
25.2029961896
 20
48.6168474914
 11
27.6842387906
 21
48.6168474914
  0
ARC
  5
276
100
AcDbEntity
  8
0
100
AcDbCircle
 62
2
  6
CONTINUOUS
 10
25.2029961896
 20
49.7181091975
 40
5.9153485927
100
AcDbArc
 50
349.2706340045
 51
10.7293659955
  0
LINE
  5
277
100
AcDbEntity
  8
0
100
AcDbLine
 62
2
  6
CONTINUOUS
 10
31.014929743
 20
48.6168474914
 11
32.8593870987
 21
48.6168474914
  0
LINE
  5
278
100
AcDbEntity
  8
0
100
AcDbLine
 62
2
  6
CONTINUOUS
 10
32.8593870987
 20
48.6168474914
 11
32.8593870987
 21
48.0399961216
  0
ARC
  5
279
100
AcDbEntity
  8
0
100
AcDbCircle
 62
2
  6
CONTINUOUS
 10
36.7610000003
 20
48.0399961216
 40
3.9016129016
100
AcDbArc
 50
180.0
 51
360.0
  0
LINE
  5
27A
100
AcDbEntity
  8
0
100
AcDbLine
 62
2
  6
CONTINUOUS
 10
40.6626129019
 20
48.0399961216
 11
40.6626129019
 21
54.9622125599
  0
LINE
  5
27B
100
AcDbEntity
  8
0
100
AcDbLine
 62
2
  6
CONTINUOUS
 10
40.6626129019
 20
54.9622125599
 11
37.9356791535
 21
54.9622125599
  0
LINE
  5
27C
100
AcDbEntity
  8
0
100
AcDbLine
 62
2
  6
CONTINUOUS
 10
37.9356791535
 20
54.9622125599
 11
37.9356791535
 21
48.0399961216
  0
ARC
  5
27D
100
AcDbEntity
  8
0
100
AcDbCircle
 62
2
  6
CONTINUOUS
 10
36.7610000003
 20
48.0399961216
 40
1.1746791532
100
AcDbArc
 50
180.0
 51
360.0
  0
LINE
  5
27E
100
AcDbEntity
  8
0
100
AcDbLine
 62
2
  6
CONTINUOUS
 10
35.5863208471
 20
48.0399961216
 11
35.5863208471
 21
54.9622125599
  0
LINE
  5
27F
100
AcDbEntity
  8
0
100
AcDbLine
 62
2
  6
CONTINUOUS
 10
35.5863208471
 20
54.9622125599
 11
32.8593870987
 21
54.9622125599
  0
LINE
  5
280
100
AcDbEntity
  8
0
100
AcDbLine
 62
2
  6
CONTINUOUS
 10
32.8593870987
 20
54.9622125599
 11
32.8593870987
 21
50.8193709036
  0
LINE
  5
281
100
AcDbEntity
  8
0
100
AcDbLine
 62
2
  6
CONTINUOUS
 10
32.8593870987
 20
50.8193709036
 11
31.014929743
 21
50.8193709036
  0
LINE
  5
282
100
AcDbEntity
  8
0
100
AcDbLine
 62
2
  6
CONTINUOUS
 10
45.1996126437
 20
56.7334185992
 11
45.2185459944
 21
56.6972621935
  0
LWPOLYLINE
  5
283
100
AcDbEntity
  8
0
100
AcDbPolyline
 62
2
  6
CONTINUOUS
 90
42
 70
0
 10
17.4964779251
 20
57.3918123624
 10
17.6290122978
 20
57.398757363
 10
44.0849627663
 20
57.398757363
 10
44.217497139
 20
57.3918123624
 10
44.3485794374
 20
57.3710523604
 10
44.4767734964
 20
57.3367023572
 10
44.600674795
 20
57.2891373527
 10
44.7189258447
 20
57.2288823471
 10
44.8302310623
 20
57.1565973403
 10
44.9333709645
 20
57.0730773324
 10
45.0272155289
 20
56.9792373236
 10
45.1107365748
 20
56.8760973139
 10
45.1830190283
 20
56.7647973034
 10
45.2432709475
 20
56.6465372923
 10
45.2908322
 20
56.5226372807
 10
45.3251816945
 20
56.3944472686
 10
45.345943091
 20
56.2633622563
 10
45.3528889232
 20
56.1308222438
 10
24.5102931399
 20
55.2245960958
 10
23.6929701738
 20
55.0746474408
 10
22.9072856488
 20
54.8040901322
 10
22.1709301607
 20
54.4190160805
 10
21.5004836049
 20
53.9280956735
 10
20.9110418611
 20
53.3423825519
 10
20.4158768919
 20
52.6750647241
 10
20.0261379092
 20
51.9411676226
 10
16.3610861409
 20
43.6666760719
 10
16.3610861409
 20
56.1308222438
 10
16.368031973
 20
56.2633622563
 10
16.3887933695
 20
56.3944472686
 10
16.4231428641
 20
56.5226372807
 10
16.4707041165
 20
56.6465372923
 10
16.5309560358
 20
56.7647973034
 10
16.6032384892
 20
56.8760973139
 10
16.6867595352
 20
56.9792373236
 10
16.7806040996
 20
57.0730773324
 10
16.8837440018
 20
57.1565973403
 10
16.9950492193
 20
57.2288823471
 10
17.113300269
 20
57.2891373527
 10
17.2372015677
 20
57.3367023572
 10
17.3653956267
 20
57.3710523604
 10
17.4964779251
 20
57.3918123624
  0
HATCH
  5
284
100
AcDbEntity
  8
0
100
AcDbHatch
 62
2
  6
CONTINUOUS
 10
0.0
 20
0.0
 30
0.0
210
0.0
220
0.0
230
1.0
  2
SOLID
 70
1
 71
1
 91
1
 92
1
 93
41
 72
1
 10
17.4964779251
 20
57.3918123624
 11
17.6290122978
 21
57.398757363
 72
1
 10
17.6290122978
 20
57.398757363
 11
44.0849627663
 21
57.398757363
 72
1
 10
44.0849627663
 20
57.398757363
 11
44.217497139
 21
57.3918123624
 72
1
 10
44.217497139
 20
57.3918123624
 11
44.3485794374
 21
57.3710523604
 72
1
 10
44.3485794374
 20
57.3710523604
 11
44.4767734964
 21
57.3367023572
 72
1
 10
44.4767734964
 20
57.3367023572
 11
44.600674795
 21
57.2891373527
 72
1
 10
44.600674795
 20
57.2891373527
 11
44.7189258447
 21
57.2288823471
 72
1
 10
44.7189258447
 20
57.2288823471
 11
44.8302310623
 21
57.1565973403
 72
1
 10
44.8302310623
 20
57.1565973403
 11
44.9333709645
 21
57.0730773324
 72
1
 10
44.9333709645
 20
57.0730773324
 11
45.0272155289
 21
56.9792373236
 72
1
 10
45.0272155289
 20
56.9792373236
 11
45.1107365748
 21
56.8760973139
 72
1
 10
45.1107365748
 20
56.8760973139
 11
45.1830190283
 21
56.7647973034
 72
1
 10
45.1830190283
 20
56.7647973034
 11
45.2432709475
 21
56.6465372923
 72
1
 10
45.2432709475
 20
56.6465372923
 11
45.2908322
 21
56.5226372807
 72
1
 10
45.2908322
 20
56.5226372807
 11
45.3251816945
 21
56.3944472686
 72
1
 10
45.3251816945
 20
56.3944472686
 11
45.345943091
 21
56.2633622563
 72
1
 10
45.345943091
 20
56.2633622563
 11
45.3528889232
 21
56.1308222438
 72
1
 10
45.3528889232
 20
56.1308222438
 11
24.5102931399
 21
55.2245960958
 72
1
 10
24.5102931399
 20
55.2245960958
 11
23.6929701738
 21
55.0746474408
 72
1
 10
23.6929701738
 20
55.0746474408
 11
22.9072856488
 21
54.8040901322
 72
1
 10
22.9072856488
 20
54.8040901322
 11
22.1709301607
 21
54.4190160805
 72
1
 10
22.1709301607
 20
54.4190160805
 11
21.5004836049
 21
53.9280956735
 72
1
 10
21.5004836049
 20
53.9280956735
 11
20.9110418611
 21
53.3423825519
 72
1
 10
20.9110418611
 20
53.3423825519
 11
20.4158768919
 21
52.6750647241
 72
1
 10
20.4158768919
 20
52.6750647241
 11
20.0261379092
 21
51.9411676226
 72
1
 10
20.0261379092
 20
51.9411676226
 11
16.3610861409
 21
43.6666760719
 72
1
 10
16.3610861409
 20
43.6666760719
 11
16.3610861409
 21
56.1308222438
 72
1
 10
16.3610861409
 20
56.1308222438
 11
16.368031973
 21
56.2633622563
 72
1
 10
16.368031973
 20
56.2633622563
 11
16.3887933695
 21
56.3944472686
 72
1
 10
16.3887933695
 20
56.3944472686
 11
16.4231428641
 21
56.5226372807
 72
1
 10
16.4231428641
 20
56.5226372807
 11
16.4707041165
 21
56.6465372923
 72
1
 10
16.4707041165
 20
56.6465372923
 11
16.5309560358
 21
56.7647973034
 72
1
 10
16.5309560358
 20
56.7647973034
 11
16.6032384892
 21
56.8760973139
 72
1
 10
16.6032384892
 20
56.8760973139
 11
16.6867595352
 21
56.9792373236
 72
1
 10
16.6867595352
 20
56.9792373236
 11
16.7806040996
 21
57.0730773324
 72
1
 10
16.7806040996
 20
57.0730773324
 11
16.8837440018
 21
57.1565973403
 72
1
 10
16.8837440018
 20
57.1565973403
 11
16.9950492193
 21
57.2288823471
 72
1
 10
16.9950492193
 20
57.2288823471
 11
17.113300269
 21
57.2891373527
 72
1
 10
17.113300269
 20
57.2891373527
 11
17.2372015677
 21
57.3367023572
 72
1
 10
17.2372015677
 20
57.3367023572
 11
17.3653956267
 21
57.3710523604
 72
1
 10
17.3653956267
 20
57.3710523604
 11
17.4964779251
 21
57.3918123624
 97
1
330
283
 75
0
 76
1
 98
1
 10
0.0
 20
0.0
  0
LWPOLYLINE
  5
285
100
AcDbEntity
  8
0
100
AcDbPolyline
 62
2
  6
CONTINUOUS
 90
23
 70
0
 10
26.9669939813
 20
54.9309989471
 10
26.1659444963
 20
55.151954039
 10
45.3528889232
 20
56.1308222438
 10
45.3528889231
 20
43.6666760719
 10
40.1398958888
 20
46.0891912997
 10
40.3656203039
 20
46.5469163427
 10
40.5296686661
 20
47.0301863881
 10
40.6292340626
 20
47.5307364352
 10
40.6626129019
 20
48.0400014831
 10
40.6626129019
 20
54.9622171339
 10
37.9356791535
 20
54.9622171339
 10
35.5863208471
 20
54.9622171339
 10
32.8593870987
 20
54.9622171339
 10
32.8593870987
 20
50.8193667444
 10
31.0149297429
 20
50.8193667444
 10
30.6289655903
 20
49.9949006497
 10
30.5252822719
 20
50.8193667444
 10
27.3941788183
 20
51.3394990511
 10
29.5865173301
 20
52.961744213
 10
29.0506384437
 20
53.5968310176
 10
28.425763901
 20
54.1445839144
 10
27.7259634749
 20
54.5926696135
 10
26.9669939813
 20
54.9309989471
  0
HATCH
  5
286
100
AcDbEntity
  8
0
100
AcDbHatch
 62
2
  6
CONTINUOUS
 10
0.0
 20
0.0
 30
0.0
210
0.0
220
0.0
230
1.0
  2
SOLID
 70
1
 71
1
 91
1
 92
1
 93
22
 72
1
 10
26.9669939813
 20
54.9309989471
 11
26.1659444963
 21
55.151954039
 72
1
 10
26.1659444963
 20
55.151954039
 11
45.3528889232
 21
56.1308222438
 72
1
 10
45.3528889232
 20
56.1308222438
 11
45.3528889231
 21
43.6666760719
 72
1
 10
45.3528889231
 20
43.6666760719
 11
40.1398958888
 21
46.0891912997
 72
1
 10
40.1398958888
 20
46.0891912997
 11
40.3656203039
 21
46.5469163427
 72
1
 10
40.3656203039
 20
46.5469163427
 11
40.5296686661
 21
47.0301863881
 72
1
 10
40.5296686661
 20
47.0301863881
 11
40.6292340626
 21
47.5307364352
 72
1
 10
40.6292340626
 20
47.5307364352
 11
40.6626129019
 21
48.0400014831
 72
1
 10
40.6626129019
 20
48.0400014831
 11
40.6626129019
 21
54.9622171339
 72
1
 10
40.6626129019
 20
54.9622171339
 11
37.9356791535
 21
54.9622171339
 72
1
 10
37.9356791535
 20
54.9622171339
 11
35.5863208471
 21
54.9622171339
 72
1
 10
35.5863208471
 20
54.9622171339
 11
32.8593870987
 21
54.9622171339
 72
1
 10
32.8593870987
 20
54.9622171339
 11
32.8593870987
 21
50.8193667444
 72
1
 10
32.8593870987
 20
50.8193667444
 11
31.0149297429
 21
50.8193667444
 72
1
 10
31.0149297429
 20
50.8193667444
 11
30.6289655903
 21
49.9949006497
 72
1
 10
30.6289655903
 20
49.9949006497
 11
30.5252822719
 21
50.8193667444
 72
1
 10
30.5252822719
 20
50.8193667444
 11
27.3941788183
 21
51.3394990511
 72
1
 10
27.3941788183
 20
51.3394990511
 11
29.5865173301
 21
52.961744213
 72
1
 10
29.5865173301
 20
52.961744213
 11
29.0506384437
 21
53.5968310176
 72
1
 10
29.0506384437
 20
53.5968310176
 11
28.425763901
 21
54.1445839144
 72
1
 10
28.425763901
 20
54.1445839144
 11
27.7259634749
 21
54.5926696135
 72
1
 10
27.7259634749
 20
54.5926696135
 11
26.9669939813
 21
54.9309989471
 97
1
330
285
 75
0
 76
1
 98
1
 10
0.0
 20
0.0
  0
LWPOLYLINE
  5
287
100
AcDbEntity
  8
0
100
AcDbPolyline
 62
2
  6
CONTINUOUS
 90
20
 70
0
 10
24.5005684601
 20
52.4646993247
 10
24.9072650814
 20
52.5224620264
 10
25.3180376874
 20
52.5203318459
 10
25.7241133608
 20
52.4583542776
 10
26.1168194973
 20
52.3378529835
 10
26.4877690273
 20
52.1614015236
 10
26.8290395394
 20
51.9327683916
 10
27.1333424806
 20
51.6568365314
 10
27.3941788183
 20
51.3394990511
 10
30.5252822719
 20
50.8193667444
 10
25.2029961896
 20
50.8193667444
 10
25.0592526925
 20
50.8099494571
 10
22.4413895628
 20
50.6360595011
 10
22.6035508656
 20
51.0134749
 10
22.8189888395
 20
51.3632250264
 10
23.0831023513
 20
51.6778402269
 10
23.3902506985
 20
51.9506012291
 10
23.7338740791
 20
52.175682645
 10
24.1066336894
 20
52.3482773854
 10
24.5005684601
 20
52.4646993247
  0
HATCH
  5
288
100
AcDbEntity
  8
0
100
AcDbHatch
 62
2
  6
CONTINUOUS
 10
0.0
 20
0.0
 30
0.0
210
0.0
220
0.0
230
1.0
  2
SOLID
 70
1
 71
1
 91
1
 92
1
 93
19
 72
1
 10
24.5005684601
 20
52.4646993247
 11
24.9072650814
 21
52.5224620264
 72
1
 10
24.9072650814
 20
52.5224620264
 11
25.3180376874
 21
52.5203318459
 72
1
 10
25.3180376874
 20
52.5203318459
 11
25.7241133608
 21
52.4583542776
 72
1
 10
25.7241133608
 20
52.4583542776
 11
26.1168194973
 21
52.3378529835
 72
1
 10
26.1168194973
 20
52.3378529835
 11
26.4877690273
 21
52.1614015236
 72
1
 10
26.4877690273
 20
52.1614015236
 11
26.8290395394
 21
51.9327683916
 72
1
 10
26.8290395394
 20
51.9327683916
 11
27.1333424806
 21
51.6568365314
 72
1
 10
27.1333424806
 20
51.6568365314
 11
27.3941788183
 21
51.3394990511
 72
1
 10
27.3941788183
 20
51.3394990511
 11
30.5252822719
 21
50.8193667444
 72
1
 10
30.5252822719
 20
50.8193667444
 11
25.2029961896
 21
50.8193667444
 72
1
 10
25.2029961896
 20
50.8193667444
 11
25.0592526925
 21
50.8099494571
 72
1
 10
25.0592526925
 20
50.8099494571
 11
22.4413895628
 21
50.6360595011
 72
1
 10
22.4413895628
 20
50.6360595011
 11
22.6035508656
 21
51.0134749
 72
1
 10
22.6035508656
 20
51.0134749
 11
22.8189888395
 21
51.3632250264
 72
1
 10
22.8189888395
 20
51.3632250264
 11
23.0831023513
 21
51.6778402269
 72
1
 10
23.0831023513
 20
51.6778402269
 11
23.3902506985
 21
51.9506012291
 72
1
 10
23.3902506985
 20
51.9506012291
 11
23.7338740791
 21
52.175682645
 72
1
 10
23.7338740791
 20
52.175682645
 11
24.1066336894
 21
52.3482773854
 72
1
 10
24.1066336894
 20
52.3482773854
 11
24.5005684601
 21
52.4646993247
 97
1
330
287
 75
0
 76
1
 98
1
 10
0.0
 20
0.0
  0
LWPOLYLINE
  5
289
100
AcDbEntity
  8
0
100
AcDbPolyline
 62
2
  6
CONTINUOUS
 90
8
 70
0
 10
24.6523653366
 20
50.6718298112
 10
24.5325905397
 20
50.5917988506
 10
22.3359682285
 20
50.2390393331
 10
22.4413895628
 20
50.6360595011
 10
25.0592526925
 20
50.8099494571
 10
24.9179686864
 20
50.7818463209
 10
24.78156158
 20
50.7355423477
 10
24.6523653366
 20
50.6718298112
  0
HATCH
  5
28A
100
AcDbEntity
  8
0
100
AcDbHatch
 62
2
  6
CONTINUOUS
 10
0.0
 20
0.0
 30
0.0
210
0.0
220
0.0
230
1.0
  2
SOLID
 70
1
 71
1
 91
1
 92
1
 93
7
 72
1
 10
24.6523653366
 20
50.6718298112
 11
24.5325905397
 21
50.5917988506
 72
1
 10
24.5325905397
 20
50.5917988506
 11
22.3359682285
 21
50.2390393331
 72
1
 10
22.3359682285
 20
50.2390393331
 11
22.4413895628
 21
50.6360595011
 72
1
 10
22.4413895628
 20
50.6360595011
 11
25.0592526925
 21
50.8099494571
 72
1
 10
25.0592526925
 20
50.8099494571
 11
24.9179686864
 21
50.7818463209
 72
1
 10
24.9179686864
 20
50.7818463209
 11
24.78156158
 21
50.7355423477
 72
1
 10
24.78156158
 20
50.7355423477
 11
24.6523653366
 21
50.6718298112
 97
1
330
289
 75
0
 76
1
 98
1
 10
0.0
 20
0.0
  0
LWPOLYLINE
  5
28B
100
AcDbEntity
  8
0
100
AcDbPolyline
 62
2
  6
CONTINUOUS
 90
8
 70
0
 10
24.2492755759
 20
50.2687400506
 10
24.1855630394
 20
50.1395438071
 10
22.2895383581
 20
49.830893601
 10
22.3359682285
 20
50.2390393331
 10
24.5325905397
 20
50.5917988506
 10
24.4242865694
 20
50.4968188178
 10
24.3293065366
 20
50.3885148474
 10
24.2492755759
 20
50.2687400506
  0
HATCH
  5
28C
100
AcDbEntity
  8
0
100
AcDbHatch
 62
2
  6
CONTINUOUS
 10
0.0
 20
0.0
 30
0.0
210
0.0
220
0.0
230
1.0
  2
SOLID
 70
1
 71
1
 91
1
 92
1
 93
7
 72
1
 10
24.2492755759
 20
50.2687400506
 11
24.1855630394
 21
50.1395438071
 72
1
 10
24.1855630394
 20
50.1395438071
 11
22.2895383581
 21
49.830893601
 72
1
 10
22.2895383581
 20
49.830893601
 11
22.3359682285
 21
50.2390393331
 72
1
 10
22.3359682285
 20
50.2390393331
 11
24.5325905397
 21
50.5917988506
 72
1
 10
24.5325905397
 20
50.5917988506
 11
24.4242865694
 21
50.4968188178
 72
1
 10
24.4242865694
 20
50.4968188178
 11
24.3293065366
 21
50.3885148474
 72
1
 10
24.3293065366
 20
50.3885148474
 11
24.2492755759
 21
50.2687400506
 97
1
330
28B
 75
0
 76
1
 98
1
 10
0.0
 20
0.0
  0
LWPOLYLINE
  5
28D
100
AcDbEntity
  8
0
100
AcDbPolyline
 62
2
  6
CONTINUOUS
 90
7
 70
0
 10
31.0993048012
 20
50.1923388153
 10
31.1162282192
 20
49.8763366836
 10
30.6081153911
 20
49.1641981161
 10
30.6289655903
 20
49.9949006497
 10
31.0149297429
 20
50.8193667444
 10
31.0655063992
 20
50.5069837221
 10
31.0993048012
 20
50.1923388153
  0
HATCH
  5
28E
100
AcDbEntity
  8
0
100
AcDbHatch
 62
2
  6
CONTINUOUS
 10
0.0
 20
0.0
 30
0.0
210
0.0
220
0.0
230
1.0
  2
SOLID
 70
1
 71
1
 91
1
 92
1
 93
6
 72
1
 10
31.0993048012
 20
50.1923388153
 11
31.1162282192
 21
49.8763366836
 72
1
 10
31.1162282192
 20
49.8763366836
 11
30.6081153911
 21
49.1641981161
 72
1
 10
30.6081153911
 20
49.1641981161
 11
30.6289655903
 21
49.9949006497
 72
1
 10
30.6289655903
 20
49.9949006497
 11
31.0149297429
 21
50.8193667444
 72
1
 10
31.0149297429
 20
50.8193667444
 11
31.0655063992
 21
50.5069837221
 72
1
 10
31.0655063992
 20
50.5069837221
 11
31.0993048012
 21
50.1923388153
 97
1
330
28D
 75
0
 76
1
 98
1
 10
0.0
 20
0.0
  0
LWPOLYLINE
  5
28F
100
AcDbEntity
  8
0
100
AcDbPolyline
 62
2
  6
CONTINUOUS
 90
7
 70
0
 10
24.1111559301
 20
49.8618526947
 10
24.1017344835
 20
49.7181091975
 10
22.3030915597
 20
49.4203391196
 10
22.2895383581
 20
49.830893601
 10
24.1855630394
 20
50.1395438071
 10
24.1392590662
 20
50.0031367007
 10
24.1111559301
 20
49.8618526947
  0
HATCH
  5
290
100
AcDbEntity
  8
0
100
AcDbHatch
 62
2
  6
CONTINUOUS
 10
0.0
 20
0.0
 30
0.0
210
0.0
220
0.0
230
1.0
  2
SOLID
 70
1
 71
1
 91
1
 92
1
 93
6
 72
1
 10
24.1111559301
 20
49.8618526947
 11
24.1017344835
 21
49.7181091975
 72
1
 10
24.1017344835
 20
49.7181091975
 11
22.3030915597
 21
49.4203391196
 72
1
 10
22.3030915597
 20
49.4203391196
 11
22.2895383581
 21
49.830893601
 72
1
 10
22.2895383581
 20
49.830893601
 11
24.1855630394
 21
50.1395438071
 72
1
 10
24.1855630394
 20
50.1395438071
 11
24.1392590662
 21
50.0031367007
 72
1
 10
24.1392590662
 20
50.0031367007
 11
24.1111559301
 21
49.8618526947
 97
1
330
28F
 75
0
 76
1
 98
1
 10
0.0
 20
0.0
  0
LWPOLYLINE
  5
291
100
AcDbEntity
  8
0
100
AcDbPolyline
 62
2
  6
CONTINUOUS
 90
7
 70
0
 10
24.1392590662
 20
49.4330816944
 10
24.1855630394
 20
49.2966745879
 10
22.3763383759
 20
49.0161441476
 10
22.3030915597
 20
49.4203391196
 10
24.1017344835
 20
49.7181091975
 10
24.1111559301
 20
49.5743657004
 10
24.1392590662
 20
49.4330816944
  0
HATCH
  5
292
100
AcDbEntity
  8
0
100
AcDbHatch
 62
2
  6
CONTINUOUS
 10
0.0
 20
0.0
 30
0.0
210
0.0
220
0.0
230
1.0
  2
SOLID
 70
1
 71
1
 91
1
 92
1
 93
6
 72
1
 10
24.1392590662
 20
49.4330816944
 11
24.1855630394
 21
49.2966745879
 72
1
 10
24.1855630394
 20
49.2966745879
 11
22.3763383759
 21
49.0161441476
 72
1
 10
22.3763383759
 20
49.0161441476
 11
22.3030915597
 21
49.4203391196
 72
1
 10
22.3030915597
 20
49.4203391196
 11
24.1017344835
 21
49.7181091975
 72
1
 10
24.1017344835
 20
49.7181091975
 11
24.1111559301
 21
49.5743657004
 72
1
 10
24.1111559301
 20
49.5743657004
 11
24.1392590662
 21
49.4330816944
 97
1
330
291
 75
0
 76
1
 98
1
 10
0.0
 20
0.0
  0
LWPOLYLINE
  5
293
100
AcDbEntity
  8
0
100
AcDbPolyline
 62
2
  6
CONTINUOUS
 90
7
 70
0
 10
31.0993048012
 20
49.2438795798
 10
31.0655063992
 20
48.929234673
 10
30.4632011408
 20
48.3459675312
 10
30.6081153911
 20
49.1641981161
 10
31.1162282192
 20
49.8763366836
 10
31.1162282192
 20
49.5598817115
 10
31.0993048012
 20
49.2438795798
  0
HATCH
  5
294
100
AcDbEntity
  8
0
100
AcDbHatch
 62
2
  6
CONTINUOUS
 10
0.0
 20
0.0
 30
0.0
210
0.0
220
0.0
230
1.0
  2
SOLID
 70
1
 71
1
 91
1
 92
1
 93
6
 72
1
 10
31.0993048012
 20
49.2438795798
 11
31.0655063992
 21
48.929234673
 72
1
 10
31.0655063992
 20
48.929234673
 11
30.4632011408
 21
48.3459675312
 72
1
 10
30.4632011408
 20
48.3459675312
 11
30.6081153911
 21
49.1641981161
 72
1
 10
30.6081153911
 20
49.1641981161
 11
31.1162282192
 21
49.8763366836
 72
1
 10
31.1162282192
 20
49.8763366836
 11
31.1162282192
 21
49.5598817115
 72
1
 10
31.1162282192
 20
49.5598817115
 11
31.0993048012
 21
49.2438795798
 97
1
330
293
 75
0
 76
1
 98
1
 10
0.0
 20
0.0
  0
LWPOLYLINE
  5
295
100
AcDbEntity
  8
0
100
AcDbPolyline
 62
2
  6
CONTINUOUS
 90
7
 70
0
 10
24.3293065366
 20
49.0477035476
 10
24.4242865694
 20
48.9393995773
 10
22.5077144663
 20
48.6269411229
 10
22.3763383759
 20
49.0161441476
 10
24.1855630394
 20
49.2966745879
 10
24.2492755759
 20
49.1674783445
 10
24.3293065366
 20
49.0477035476
  0
HATCH
  5
296
100
AcDbEntity
  8
0
100
AcDbHatch
 62
2
  6
CONTINUOUS
 10
0.0
 20
0.0
 30
0.0
210
0.0
220
0.0
230
1.0
  2
SOLID
 70
1
 71
1
 91
1
 92
1
 93
6
 72
1
 10
24.3293065366
 20
49.0477035476
 11
24.4242865694
 21
48.9393995773
 72
1
 10
24.4242865694
 20
48.9393995773
 11
22.5077144663
 21
48.6269411229
 72
1
 10
22.5077144663
 20
48.6269411229
 11
22.3763383759
 21
49.0161441476
 72
1
 10
22.3763383759
 20
49.0161441476
 11
24.1855630394
 21
49.2966745879
 72
1
 10
24.1855630394
 20
49.2966745879
 11
24.2492755759
 21
49.1674783445
 72
1
 10
24.2492755759
 20
49.1674783445
 11
24.3293065366
 21
49.0477035476
 97
1
330
295
 75
0
 76
1
 98
1
 10
0.0
 20
0.0
  0
LWPOLYLINE
  5
297
100
AcDbEntity
  8
0
100
AcDbPolyline
 62
2
  6
CONTINUOUS
 90
9
 70
0
 10
24.9179686864
 20
48.6543720741
 10
25.0592526925
 20
48.626268938
 10
22.6944140166
 20
48.2610422989
 10
22.5077144663
 20
48.6269411229
 10
24.4242865694
 20
48.9393995773
 10
24.5325905397
 20
48.8444195445
 10
24.6523653366
 20
48.7643885839
 10
24.78156158
 20
48.7006760474
 10
24.9179686864
 20
48.6543720741
  0
HATCH
  5
298
100
AcDbEntity
  8
0
100
AcDbHatch
 62
2
  6
CONTINUOUS
 10
0.0
 20
0.0
 30
0.0
210
0.0
220
0.0
230
1.0
  2
SOLID
 70
1
 71
1
 91
1
 92
1
 93
8
 72
1
 10
24.9179686864
 20
48.6543720741
 11
25.0592526925
 21
48.626268938
 72
1
 10
25.0592526925
 20
48.626268938
 11
22.6944140166
 21
48.2610422989
 72
1
 10
22.6944140166
 20
48.2610422989
 11
22.5077144663
 21
48.6269411229
 72
1
 10
22.5077144663
 20
48.6269411229
 11
24.4242865694
 21
48.9393995773
 72
1
 10
24.4242865694
 20
48.9393995773
 11
24.5325905397
 21
48.8444195445
 72
1
 10
24.5325905397
 20
48.8444195445
 11
24.6523653366
 21
48.7643885839
 72
1
 10
24.6523653366
 20
48.7643885839
 11
24.78156158
 21
48.7006760474
 72
1
 10
24.78156158
 20
48.7006760474
 11
24.9179686864
 21
48.6543720741
 97
1
330
297
 75
0
 76
1
 98
1
 10
0.0
 20
0.0
  0
LWPOLYLINE
  5
299
100
AcDbEntity
  8
0
100
AcDbPolyline
 62
2
  6
CONTINUOUS
 90
9
 70
0
 10
32.8593870987
 20
48.6168415373
 10
32.8593870987
 20
48.0400014831
 10
32.8927659379
 20
47.5307364352
 10
29.8169521117
 20
46.8199201942
 10
30.1974857512
 20
47.5586323028
 10
30.4632011408
 20
48.3459675312
 10
31.0655063992
 20
48.929234673
 10
31.0149297429
 20
48.6168415373
 10
32.8593870987
 20
48.6168415373
  0
HATCH
  5
29A
100
AcDbEntity
  8
0
100
AcDbHatch
 62
2
  6
CONTINUOUS
 10
0.0
 20
0.0
 30
0.0
210
0.0
220
0.0
230
1.0
  2
SOLID
 70
1
 71
1
 91
1
 92
1
 93
8
 72
1
 10
32.8593870987
 20
48.6168415373
 11
32.8593870987
 21
48.0400014831
 72
1
 10
32.8593870987
 20
48.0400014831
 11
32.8927659379
 21
47.5307364352
 72
1
 10
32.8927659379
 20
47.5307364352
 11
29.8169521117
 21
46.8199201942
 72
1
 10
29.8169521117
 20
46.8199201942
 11
30.1974857512
 21
47.5586323028
 72
1
 10
30.1974857512
 20
47.5586323028
 11
30.4632011408
 21
48.3459675312
 72
1
 10
30.4632011408
 20
48.3459675312
 11
31.0655063992
 21
48.929234673
 72
1
 10
31.0655063992
 20
48.929234673
 11
31.0149297429
 21
48.6168415373
 72
1
 10
31.0149297429
 20
48.6168415373
 11
32.8593870987
 21
48.6168415373
 97
1
330
299
 75
0
 76
1
 98
1
 10
0.0
 20
0.0
  0
LWPOLYLINE
  5
29B
100
AcDbEntity
  8
0
100
AcDbPolyline
 62
2
  6
CONTINUOUS
 90
19
 70
0
 10
27.6842387906
 20
48.6168415373
 10
27.4961137435
 20
48.2516795326
 10
27.2567743458
 20
47.9178302789
 10
26.9713321963
 20
47.6224297867
 10
26.6458835153
 20
47.3717869581
 10
26.2873789475
 20
47.1712548002
 10
25.9034751155
 20
47.0251161014
 10
25.5023710973
 20
46.9364919623
 10
25.0926333168
 20
46.9072751387
 10
24.6830125906
 20
46.9380896178
 10
24.2822572349
 20
47.0282772912
 10
23.8989262276
 20
47.1759120104
 10
23.5412064125
 20
47.377840724
 10
23.2167376524
 20
47.6297508175
 10
22.9324496635
 20
47.9262622184
 10
22.6944140166
 20
48.2610422989
 10
25.0592526925
 20
48.626268938
 10
25.2029961896
 20
48.6168415373
 10
27.6842387906
 20
48.6168415373
  0
HATCH
  5
29C
100
AcDbEntity
  8
0
100
AcDbHatch
 62
2
  6
CONTINUOUS
 10
0.0
 20
0.0
 30
0.0
210
0.0
220
0.0
230
1.0
  2
SOLID
 70
1
 71
1
 91
1
 92
1
 93
18
 72
1
 10
27.6842387906
 20
48.6168415373
 11
27.4961137435
 21
48.2516795326
 72
1
 10
27.4961137435
 20
48.2516795326
 11
27.2567743458
 21
47.9178302789
 72
1
 10
27.2567743458
 20
47.9178302789
 11
26.9713321963
 21
47.6224297867
 72
1
 10
26.9713321963
 20
47.6224297867
 11
26.6458835153
 21
47.3717869581
 72
1
 10
26.6458835153
 20
47.3717869581
 11
26.2873789475
 21
47.1712548002
 72
1
 10
26.2873789475
 20
47.1712548002
 11
25.9034751155
 21
47.0251161014
 72
1
 10
25.9034751155
 20
47.0251161014
 11
25.5023710973
 21
46.9364919623
 72
1
 10
25.5023710973
 20
46.9364919623
 11
25.0926333168
 21
46.9072751387
 72
1
 10
25.0926333168
 20
46.9072751387
 11
24.6830125906
 21
46.9380896178
 72
1
 10
24.6830125906
 20
46.9380896178
 11
24.2822572349
 21
47.0282772912
 72
1
 10
24.2822572349
 20
47.0282772912
 11
23.8989262276
 21
47.1759120104
 72
1
 10
23.8989262276
 20
47.1759120104
 11
23.5412064125
 21
47.377840724
 72
1
 10
23.5412064125
 20
47.377840724
 11
23.2167376524
 21
47.6297508175
 72
1
 10
23.2167376524
 20
47.6297508175
 11
22.9324496635
 21
47.9262622184
 72
1
 10
22.9324496635
 20
47.9262622184
 11
22.6944140166
 21
48.2610422989
 72
1
 10
22.6944140166
 20
48.2610422989
 11
25.0592526925
 21
48.626268938
 72
1
 10
25.0592526925
 20
48.626268938
 11
25.2029961896
 21
48.6168415373
 72
1
 10
25.2029961896
 20
48.6168415373
 11
27.6842387906
 21
48.6168415373
 97
1
330
29B
 75
0
 76
1
 98
1
 10
0.0
 20
0.0
  0
LWPOLYLINE
  5
29D
100
AcDbEntity
  8
0
100
AcDbPolyline
 62
2
  6
CONTINUOUS
 90
28
 70
0
 10
35.5863208471
 20
48.0400014831
 10
35.5863208471
 20
54.9622171339
 10
37.9356791535
 20
54.9622171339
 10
37.9356791535
 20
48.0400014831
 10
37.9256296104
 20
47.8866714687
 10
37.8956529319
 20
47.7359664545
 10
37.8462620271
 20
47.5904664408
 10
37.7783019882
 20
47.4526614279
 10
37.6929356302
 20
47.3248914159
 10
37.5916235952
 20
47.209376405
 10
37.4760993602
 20
47.1080663955
 10
37.3483395768
 20
47.0227013874
 10
37.2105302505
 20
46.9547363811
 10
37.065029337
 20
46.9053413764
 10
36.9143263972
 20
46.8753713736
 10
36.7610000003
 20
46.8653169684
 10
36.6076736033
 20
46.8753713736
 10
36.4569706635
 20
46.9053413764
 10
36.31146975
 20
46.9547363811
 10
36.1736604237
 20
47.0227013874
 10
36.0459006404
 20
47.1080663955
 10
35.9303764053
 20
47.209376405
 10
35.8290643703
 20
47.3248914159
 10
35.7436980123
 20
47.4526614279
 10
35.6757379734
 20
47.5904664408
 10
35.6263470686
 20
47.7359664545
 10
35.5963703901
 20
47.8866714687
 10
35.5863208471
 20
48.0400014831
  0
HATCH
  5
29E
100
AcDbEntity
  8
0
100
AcDbHatch
 62
2
  6
CONTINUOUS
 10
0.0
 20
0.0
 30
0.0
210
0.0
220
0.0
230
1.0
  2
SOLID
 70
1
 71
1
 91
1
 92
1
 93
27
 72
1
 10
35.5863208471
 20
48.0400014831
 11
35.5863208471
 21
54.9622171339
 72
1
 10
35.5863208471
 20
54.9622171339
 11
37.9356791535
 21
54.9622171339
 72
1
 10
37.9356791535
 20
54.9622171339
 11
37.9356791535
 21
48.0400014831
 72
1
 10
37.9356791535
 20
48.0400014831
 11
37.9256296104
 21
47.8866714687
 72
1
 10
37.9256296104
 20
47.8866714687
 11
37.8956529319
 21
47.7359664545
 72
1
 10
37.8956529319
 20
47.7359664545
 11
37.8462620271
 21
47.5904664408
 72
1
 10
37.8462620271
 20
47.5904664408
 11
37.7783019882
 21
47.4526614279
 72
1
 10
37.7783019882
 20
47.4526614279
 11
37.6929356302
 21
47.3248914159
 72
1
 10
37.6929356302
 20
47.3248914159
 11
37.5916235952
 21
47.209376405
 72
1
 10
37.5916235952
 20
47.209376405
 11
37.4760993602
 21
47.1080663955
 72
1
 10
37.4760993602
 20
47.1080663955
 11
37.3483395768
 21
47.0227013874
 72
1
 10
37.3483395768
 20
47.0227013874
 11
37.2105302505
 21
46.9547363811
 72
1
 10
37.2105302505
 20
46.9547363811
 11
37.065029337
 21
46.9053413764
 72
1
 10
37.065029337
 20
46.9053413764
 11
36.9143263972
 21
46.8753713736
 72
1
 10
36.9143263972
 20
46.8753713736
 11
36.7610000003
 21
46.8653169684
 72
1
 10
36.7610000003
 20
46.8653169684
 11
36.6076736033
 21
46.8753713736
 72
1
 10
36.6076736033
 20
46.8753713736
 11
36.4569706635
 21
46.9053413764
 72
1
 10
36.4569706635
 20
46.9053413764
 11
36.31146975
 21
46.9547363811
 72
1
 10
36.31146975
 20
46.9547363811
 11
36.1736604237
 21
47.0227013874
 72
1
 10
36.1736604237
 20
47.0227013874
 11
36.0459006404
 21
47.1080663955
 72
1
 10
36.0459006404
 20
47.1080663955
 11
35.9303764053
 21
47.209376405
 72
1
 10
35.9303764053
 20
47.209376405
 11
35.8290643703
 21
47.3248914159
 72
1
 10
35.8290643703
 20
47.3248914159
 11
35.7436980123
 21
47.4526614279
 72
1
 10
35.7436980123
 20
47.4526614279
 11
35.6757379734
 21
47.5904664408
 72
1
 10
35.6757379734
 20
47.5904664408
 11
35.6263470686
 21
47.7359664545
 72
1
 10
35.6263470686
 20
47.7359664545
 11
35.5963703901
 21
47.8866714687
 72
1
 10
35.5963703901
 20
47.8866714687
 11
35.5863208471
 21
48.0400014831
 97
1
330
29D
 75
0
 76
1
 98
1
 10
0.0
 20
0.0
  0
LWPOLYLINE
  5
29F
100
AcDbEntity
  8
0
100
AcDbPolyline
 62
2
  6
CONTINUOUS
 90
8
 70
0
 10
32.9923313344
 20
47.0301863881
 10
33.1563796967
 20
46.5469163427
 10
33.3821041117
 20
46.0891912997
 10
28.7480950465
 20
45.5534278506
 10
29.3301683772
 20
46.146464163
 10
29.8169521117
 20
46.8199201942
 10
32.8927659379
 20
47.5307364352
 10
32.9923313344
 20
47.0301863881
  0
HATCH
  5
2A0
100
AcDbEntity
  8
0
100
AcDbHatch
 62
2
  6
CONTINUOUS
 10
0.0
 20
0.0
 30
0.0
210
0.0
220
0.0
230
1.0
  2
SOLID
 70
1
 71
1
 91
1
 92
1
 93
7
 72
1
 10
32.9923313344
 20
47.0301863881
 11
33.1563796967
 21
46.5469163427
 72
1
 10
33.1563796967
 20
46.5469163427
 11
33.3821041117
 21
46.0891912997
 72
1
 10
33.3821041117
 20
46.0891912997
 11
28.7480950465
 21
45.5534278506
 72
1
 10
28.7480950465
 20
45.5534278506
 11
29.3301683772
 21
46.146464163
 72
1
 10
29.3301683772
 20
46.146464163
 11
29.8169521117
 21
46.8199201942
 72
1
 10
29.8169521117
 20
46.8199201942
 11
32.8927659379
 21
47.5307364352
 72
1
 10
32.8927659379
 20
47.5307364352
 11
32.9923313344
 21
47.0301863881
 97
1
330
29F
 75
0
 76
1
 98
1
 10
0.0
 20
0.0
  0
LWPOLYLINE
  5
2A1
100
AcDbEntity
  8
0
100
AcDbPolyline
 62
2
  6
CONTINUOUS
 90
8
 70
0
 10
33.6656423722
 20
45.6648412598
 10
34.00214306
 20
45.2811412237
 10
34.3858485548
 20
44.9446311921
 10
27.3523542712
 20
44.659914577
 10
28.0838381739
 20
45.0541641554
 10
28.7480950465
 20
45.5534278506
 10
33.3821041117
 20
46.0891912997
 10
33.6656423722
 20
45.6648412598
  0
HATCH
  5
2A2
100
AcDbEntity
  8
0
100
AcDbHatch
 62
2
  6
CONTINUOUS
 10
0.0
 20
0.0
 30
0.0
210
0.0
220
0.0
230
1.0
  2
SOLID
 70
1
 71
1
 91
1
 92
1
 93
7
 72
1
 10
33.6656423722
 20
45.6648412598
 11
34.00214306
 21
45.2811412237
 72
1
 10
34.00214306
 20
45.2811412237
 11
34.3858485548
 21
44.9446311921
 72
1
 10
34.3858485548
 20
44.9446311921
 11
27.3523542712
 21
44.659914577
 72
1
 10
27.3523542712
 20
44.659914577
 11
28.0838381739
 21
45.0541641554
 72
1
 10
28.0838381739
 20
45.0541641554
 11
28.7480950465
 21
45.5534278506
 72
1
 10
28.7480950465
 20
45.5534278506
 11
33.3821041117
 21
46.0891912997
 72
1
 10
33.3821041117
 20
46.0891912997
 11
33.6656423722
 21
45.6648412598
 97
1
330
2A1
 75
0
 76
1
 98
1
 10
0.0
 20
0.0
  0
LWPOLYLINE
  5
2A3
100
AcDbEntity
  8
0
100
AcDbPolyline
 62
2
  6
CONTINUOUS
 90
24
 70
0
 10
34.8101935494
 20
44.6611011654
 10
35.2679173833
 20
44.4353811442
 10
35.7511882747
 20
44.2713261287
 10
36.2517373247
 20
44.1717561194
 10
16.3610861409
 20
43.6666760719
 10
20.0261379092
 20
51.9411676226
 10
19.750600337
 20
51.1572157897
 10
19.5954682224
 20
50.3408608074
 10
19.5642345443
 20
49.5104838523
 10
19.6576025652
 20
48.684781822
 10
19.8734699961
 20
47.8823463527
 10
20.2069763321
 20
47.121245207
 10
20.6506122924
 20
46.4186154575
 10
21.1943889001
 20
45.7902776256
 10
21.8260623961
 20
45.2503794643
 10
22.5314099211
 20
44.8110774052
 10
23.2945497596
 20
44.4822628421
 10
24.0982989358
 20
44.2713261287
 10
24.9245601072
 20
44.1830563096
 10
25.754729048
 20
44.2194013213
 10
26.5701135443
 20
44.3795561005
 10
27.3523542712
 20
44.659914577
 10
34.3858485548
 20
44.9446311921
 10
34.8101935494
 20
44.6611011654
  0
HATCH
  5
2A4
100
AcDbEntity
  8
0
100
AcDbHatch
 62
2
  6
CONTINUOUS
 10
0.0
 20
0.0
 30
0.0
210
0.0
220
0.0
230
1.0
  2
SOLID
 70
1
 71
1
 91
1
 92
1
 93
23
 72
1
 10
34.8101935494
 20
44.6611011654
 11
35.2679173833
 21
44.4353811442
 72
1
 10
35.2679173833
 20
44.4353811442
 11
35.7511882747
 21
44.2713261287
 72
1
 10
35.7511882747
 20
44.2713261287
 11
36.2517373247
 21
44.1717561194
 72
1
 10
36.2517373247
 20
44.1717561194
 11
16.3610861409
 21
43.6666760719
 72
1
 10
16.3610861409
 20
43.6666760719
 11
20.0261379092
 21
51.9411676226
 72
1
 10
20.0261379092
 20
51.9411676226
 11
19.750600337
 21
51.1572157897
 72
1
 10
19.750600337
 20
51.1572157897
 11
19.5954682224
 21
50.3408608074
 72
1
 10
19.5954682224
 20
50.3408608074
 11
19.5642345443
 21
49.5104838523
 72
1
 10
19.5642345443
 20
49.5104838523
 11
19.6576025652
 21
48.684781822
 72
1
 10
19.6576025652
 20
48.684781822
 11
19.8734699961
 21
47.8823463527
 72
1
 10
19.8734699961
 20
47.8823463527
 11
20.2069763321
 21
47.121245207
 72
1
 10
20.2069763321
 20
47.121245207
 11
20.6506122924
 21
46.4186154575
 72
1
 10
20.6506122924
 20
46.4186154575
 11
21.1943889001
 21
45.7902776256
 72
1
 10
21.1943889001
 20
45.7902776256
 11
21.8260623961
 21
45.2503794643
 72
1
 10
21.8260623961
 20
45.2503794643
 11
22.5314099211
 21
44.8110774052
 72
1
 10
22.5314099211
 20
44.8110774052
 11
23.2945497596
 21
44.4822628421
 72
1
 10
23.2945497596
 20
44.4822628421
 11
24.0982989358
 21
44.2713261287
 72
1
 10
24.0982989358
 20
44.2713261287
 11
24.9245601072
 21
44.1830563096
 72
1
 10
24.9245601072
 20
44.1830563096
 11
25.754729048
 21
44.2194013213
 72
1
 10
25.754729048
 20
44.2194013213
 11
26.5701135443
 21
44.3795561005
 72
1
 10
26.5701135443
 20
44.3795561005
 11
27.3523542712
 21
44.659914577
 72
1
 10
27.3523542712
 20
44.659914577
 11
34.3858485548
 21
44.9446311921
 72
1
 10
34.3858485548
 20
44.9446311921
 11
34.8101935494
 21
44.6611011654
 97
1
330
2A3
 75
0
 76
1
 98
1
 10
0.0
 20
0.0
  0
LWPOLYLINE
  5
2A5
100
AcDbEntity
  8
0
100
AcDbPolyline
 62
2
  6
CONTINUOUS
 90
43
 70
0
 10
36.7610000003
 20
44.13838322
 10
37.2702626758
 20
44.1717561194
 10
37.7708117258
 20
44.2713261287
 10
38.2540826172
 20
44.4353811442
 10
38.7118064511
 20
44.6611011654
 10
39.1361514457
 20
44.9446311921
 10
39.5198569406
 20
45.2811412237
 10
39.8563576283
 20
45.6648412598
 10
40.1398958888
 20
46.0891912997
 10
45.3528889231
 20
43.6666760719
 10
45.345943091
 20
43.5341510594
 10
45.3251816945
 20
43.4030660471
 10
45.2908322
 20
43.2748610351
 10
45.2432709475
 20
43.1509610234
 10
45.1830190283
 20
43.0327160123
 10
45.1107365748
 20
42.9214160018
 10
45.0272155289
 20
42.8182759921
 10
44.9333709645
 20
42.7244209833
 10
44.8302310623
 20
42.6409009754
 10
44.7189258447
 20
42.5686159687
 10
44.600674795
 20
42.508375963
 10
44.4767734964
 20
42.4608109585
 10
44.3485794374
 20
42.4264609553
 10
44.217497139
 20
42.4057009533
 10
44.0849627663
 20
42.3987559527
 10
17.6290122978
 20
42.3987559527
 10
17.4964779251
 20
42.4057009533
 10
17.3653956267
 20
42.4264609553
 10
17.2372015677
 20
42.4608109585
 10
17.113300269
 20
42.508375963
 10
16.9950492193
 20
42.5686159687
 10
16.8837440018
 20
42.6409009754
 10
16.7806040996
 20
42.7244209833
 10
16.6867595352
 20
42.8182759921
 10
16.6032384892
 20
42.9214160018
 10
16.5309560358
 20
43.0327160123
 10
16.4707041165
 20
43.1509610234
 10
16.4231428641
 20
43.2748610351
 10
16.3887933695
 20
43.4030660471
 10
16.368031973
 20
43.5341510594
 10
16.3610861409
 20
43.6666760719
 10
36.2517373247
 20
44.1717561194
 10
36.7610000003
 20
44.13838322
  0
HATCH
  5
2A6
100
AcDbEntity
  8
0
100
AcDbHatch
 62
2
  6
CONTINUOUS
 10
0.0
 20
0.0
 30
0.0
210
0.0
220
0.0
230
1.0
  2
SOLID
 70
1
 71
1
 91
1
 92
1
 93
42
 72
1
 10
36.7610000003
 20
44.13838322
 11
37.2702626758
 21
44.1717561194
 72
1
 10
37.2702626758
 20
44.1717561194
 11
37.7708117258
 21
44.2713261287
 72
1
 10
37.7708117258
 20
44.2713261287
 11
38.2540826172
 21
44.4353811442
 72
1
 10
38.2540826172
 20
44.4353811442
 11
38.7118064511
 21
44.6611011654
 72
1
 10
38.7118064511
 20
44.6611011654
 11
39.1361514457
 21
44.9446311921
 72
1
 10
39.1361514457
 20
44.9446311921
 11
39.5198569406
 21
45.2811412237
 72
1
 10
39.5198569406
 20
45.2811412237
 11
39.8563576283
 21
45.6648412598
 72
1
 10
39.8563576283
 20
45.6648412598
 11
40.1398958888
 21
46.0891912997
 72
1
 10
40.1398958888
 20
46.0891912997
 11
45.3528889231
 21
43.6666760719
 72
1
 10
45.3528889231
 20
43.6666760719
 11
45.345943091
 21
43.5341510594
 72
1
 10
45.345943091
 20
43.5341510594
 11
45.3251816945
 21
43.4030660471
 72
1
 10
45.3251816945
 20
43.4030660471
 11
45.2908322
 21
43.2748610351
 72
1
 10
45.2908322
 20
43.2748610351
 11
45.2432709475
 21
43.1509610234
 72
1
 10
45.2432709475
 20
43.1509610234
 11
45.1830190283
 21
43.0327160123
 72
1
 10
45.1830190283
 20
43.0327160123
 11
45.1107365748
 21
42.9214160018
 72
1
 10
45.1107365748
 20
42.9214160018
 11
45.0272155289
 21
42.8182759921
 72
1
 10
45.0272155289
 20
42.8182759921
 11
44.9333709645
 21
42.7244209833
 72
1
 10
44.9333709645
 20
42.7244209833
 11
44.8302310623
 21
42.6409009754
 72
1
 10
44.8302310623
 20
42.6409009754
 11
44.7189258447
 21
42.5686159687
 72
1
 10
44.7189258447
 20
42.5686159687
 11
44.600674795
 21
42.508375963
 72
1
 10
44.600674795
 20
42.508375963
 11
44.4767734964
 21
42.4608109585
 72
1
 10
44.4767734964
 20
42.4608109585
 11
44.3485794374
 21
42.4264609553
 72
1
 10
44.3485794374
 20
42.4264609553
 11
44.217497139
 21
42.4057009533
 72
1
 10
44.217497139
 20
42.4057009533
 11
44.0849627663
 21
42.3987559527
 72
1
 10
44.0849627663
 20
42.3987559527
 11
17.6290122978
 21
42.3987559527
 72
1
 10
17.6290122978
 20
42.3987559527
 11
17.4964779251
 21
42.4057009533
 72
1
 10
17.4964779251
 20
42.4057009533
 11
17.3653956267
 21
42.4264609553
 72
1
 10
17.3653956267
 20
42.4264609553
 11
17.2372015677
 21
42.4608109585
 72
1
 10
17.2372015677
 20
42.4608109585
 11
17.113300269
 21
42.508375963
 72
1
 10
17.113300269
 20
42.508375963
 11
16.9950492193
 21
42.5686159687
 72
1
 10
16.9950492193
 20
42.5686159687
 11
16.8837440018
 21
42.6409009754
 72
1
 10
16.8837440018
 20
42.6409009754
 11
16.7806040996
 21
42.7244209833
 72
1
 10
16.7806040996
 20
42.7244209833
 11
16.6867595352
 21
42.8182759921
 72
1
 10
16.6867595352
 20
42.8182759921
 11
16.6032384892
 21
42.9214160018
 72
1
 10
16.6032384892
 20
42.9214160018
 11
16.5309560358
 21
43.0327160123
 72
1
 10
16.5309560358
 20
43.0327160123
 11
16.4707041165
 21
43.1509610234
 72
1
 10
16.4707041165
 20
43.1509610234
 11
16.4231428641
 21
43.2748610351
 72
1
 10
16.4231428641
 20
43.2748610351
 11
16.3887933695
 21
43.4030660471
 72
1
 10
16.3887933695
 20
43.4030660471
 11
16.368031973
 21
43.5341510594
 72
1
 10
16.368031973
 20
43.5341510594
 11
16.3610861409
 21
43.6666760719
 72
1
 10
16.3610861409
 20
43.6666760719
 11
36.2517373247
 21
44.1717561194
 72
1
 10
36.2517373247
 20
44.1717561194
 11
36.7610000003
 21
44.13838322
 97
1
330
2A5
 75
0
 76
1
 98
1
 10
0.0
 20
0.0
  0
SOLID
  5
2A7
100
AcDbEntity
  8
0
100
AcDbTrace
 62
2
  6
CONTINUOUS
 10
25.3408515753
 20
55.2505598297
 11
24.5102931399
 21
55.2245960958
 12
26.1659444963
 22
55.151954039
 13
45.3528889232
 23
56.1308222438
  0
ENDBLK
  5
2A8
100
AcDbEntity
  8
0
  6
BYBLOCK
 62
0
100
AcDbBlockEnd
  0
BLOCK
  5
2A9
100
AcDbEntity
  8
HATCHING_BL0
100
AcDbBlockBegin
  2
HATCHING_BL0
 70
64
 10
37.1282603133
 20
1826.6314686261
  3
HATCHING_BL0
  1

  0
TEXT
  5
2AA
100
AcDbEntity
  8
HATCHING_BL0
100
AcDbText
 62
7
  6
CONTINUOUS
 10
18.3664374098
 20
1832.5520798027
  7
STANDARD
 40
5.0
  1
A
 72
5
 11
23.0132775585
 21
1832.5520798027
100
AcDbText
  0
LEADER
  5
2AB
100
AcDbEntity
  8
HATCHING_BL0
100
AcDbLeader
 62
7
  6
CONTINUOUS
  3
STANDARD
 71
1
 72
0
 73
3
 75
0
 76
2
 10
23.9798203095
 20
1813.2108574496
 30
0.0
 10
23.9798203095
 20
1840.0520798027
 30
0.0
1001
ACAD
1000
DSTYLE
1002
{
1070
77
1070
0
1002
}
  0
TEXT
  5
2AC
100
AcDbEntity
  8
HATCHING_BL0
100
AcDbText
 62
7
  6
CONTINUOUS
 10
51.2432430681
 20
1832.5520798027
  7
STANDARD
 40
5.0
  1
A
 72
5
 11
55.8900832168
 21
1832.5520798027
100
AcDbText
  0
LEADER
  5
2AD
100
AcDbEntity
  8
HATCHING_BL0
100
AcDbLeader
 62
7
  6
CONTINUOUS
  3
STANDARD
 71
1
 72
0
 73
3
 75
0
 76
2
 10
50.2767003172
 20
1813.2108574496
 30
0.0
 10
50.2767003172
 20
1840.0520798027
 30
0.0
1001
ACAD
1000
DSTYLE
1002
{
1070
77
1070
0
1002
}
  0
LINE
  5
2AE
100
AcDbEntity
  8
HATCHING_BL0
100
AcDbLine
 62
7
  6
CENTER
 10
23.9798203095
 20
1813.2108574496
 11
50.2767003172
 21
1813.2108574496
  0
ENDBLK
  5
2AF
100
AcDbEntity
  8
0
  6
BYBLOCK
 62
0
100
AcDbBlockEnd
  0
BLOCK
  5
2B0
100
AcDbEntity
  8
93773501000_O_BL1
100
AcDbBlockBegin
  2
93773501000_O_BL1
 70
64
 10
86.75070267
 20
123.1302661564
  3
93773501000_O_BL1
  1

  0
LINE
  5
2B1
100
AcDbEntity
  8
93773501000_O_BL1
100
AcDbLine
 62
7
  6
CONTINUOUS
 10
141.1216229921
 20
146.2108574496
 11
123.1216229921
 21
146.2108574496
  0
LINE
  5
2B2
100
AcDbEntity
  8
93773501000_O_BL1
100
AcDbLine
 62
9
  6
CONTINUOUS
 10
138.6216229921
 20
150.7108574496
 11
125.6216229921
 21
150.7108574496
  0
LINE
  5
2B3
100
AcDbEntity
  8
93773501000_O_BL1
100
AcDbLine
 62
9
  6
CONTINUOUS
 10
141.1216229921
 20
153.8108574496
 11
123.1216229921
 21
153.8108574496
  0
LINE
  5
2B4
100
AcDbEntity
  8
93773501000_O_BL1
100
AcDbLine
 62
7
  6
CONTINUOUS
 10
123.1216229921
 20
146.2108574496
 11
123.1216229921
 21
153.8108574496
  0
LINE
  5
2B5
100
AcDbEntity
  8
93773501000_O_BL1
100
AcDbLine
 62
9
  6
CONTINUOUS
 10
125.6216229921
 20
150.7108574496
 11
125.6216229921
 21
154.2108574496
  0
LINE
  5
2B6
100
AcDbEntity
  8
93773501000_O_BL1
100
AcDbLine
 62
9
  6
CONTINUOUS
 10
138.6216229921
 20
150.7108574496
 11
138.6216229921
 21
154.2108574496
  0
LINE
  5
2B7
100
AcDbEntity
  8
93773501000_O_BL1
100
AcDbLine
 62
7
  6
CONTINUOUS
 10
141.1216229921
 20
146.2108574496
 11
141.1216229921
 21
153.8108574496
  0
LINE
  5
2B8
100
AcDbEntity
  8
93773501000_O_BL1
100
AcDbLine
 62
7
  6
CONTINUOUS
 10
36.8797823479
 20
146.2108574496
 11
38.3797823479
 21
146.2108574496
  0
LINE
  5
2B9
100
AcDbEntity
  8
93773501000_O_BL1
100
AcDbLine
 62
9
  6
CONTINUOUS
 10
38.3797823479
 20
153.8108574496
 11
32.3797823479
 21
153.8108574496
  0
LINE
  5
2BA
100
AcDbEntity
  8
93773501000_O_BL1
100
AcDbLine
 62
7
  6
CONTINUOUS
 10
32.3797823479
 20
150.7108574496
 11
32.3797823479
 21
153.8108574496
  0
LINE
  5
2BB
100
AcDbEntity
  8
93773501000_O_BL1
100
AcDbLine
 62
7
  6
CONTINUOUS
 10
32.3797823479
 20
150.7108574496
 11
32.3797823479
 21
153.8108574496
  0
LINE
  5
2BC
100
AcDbEntity
  8
93773501000_O_BL1
100
AcDbLine
 62
9
  6
CONTINUOUS
 10
34.8797823479
 20
146.6797285755
 11
34.8797823479
 21
154.2108574496
  0
LINE
  5
2BD
100
AcDbEntity
  8
93773501000_O_BL1
100
AcDbLine
 62
7
  6
CONTINUOUS
 10
38.3797823479
 20
146.2108574496
 11
38.3797823479
 21
154.2108574496
  0
LINE
  5
2BE
100
AcDbEntity
  8
93773501000_O_BL1
100
AcDbLine
 62
7
  6
CONTINUOUS
 10
35.3797823479
 20
92.0496748632
 11
34.8797823479
 21
92.0496748632
  0
LINE
  5
2BF
100
AcDbEntity
  8
93773501000_O_BL1
100
AcDbLine
 62
9
  6
CONTINUOUS
 10
32.3797823479
 20
94.5496748632
 11
32.4221612325
 21
94.5496748632
  0
LINE
  5
2C0
100
AcDbEntity
  8
93773501000_O_BL1
100
AcDbLine
 62
9
  6
CONTINUOUS
 10
34.8797823479
 20
110.0496748632
 11
34.8797823479
 21
110.0059482542
  0
LINE
  5
2C1
100
AcDbEntity
  8
93773501000_O_BL1
100
AcDbLine
 62
9
  6
CONTINUOUS
 10
34.8797823479
 20
92.0496748632
 11
34.8797823479
 21
92.0934014721
  0
LINE
  5
2C2
100
AcDbEntity
  8
93773501000_O_BL1
100
AcDbLine
 62
7
  6
CONTINUOUS
 10
38.3797823479
 20
94.0496748632
 11
38.3797823479
 21
94.1496748632
  0
LINE
  5
2C3
100
AcDbEntity
  8
93773501000_O_BL1
100
AcDbLine
 62
7
  6
CONTINUOUS
 10
38.3797823479
 20
107.9618068975
 11
38.3797823479
 21
108.049146014
  0
LINE
  5
2C4
100
AcDbEntity
  8
93773501000_O_BL1
100
AcDbLine
 62
9
  6
CONTINUOUS
 10
32.3797823479
 20
107.5496748632
 11
32.4221582932
 21
107.5496748632
  0
LINE
  5
2C5
100
AcDbEntity
  8
93773501000_O_BL1
100
AcDbLine
 62
9
  6
CONTINUOUS
 10
38.3797823479
 20
107.9618068975
 11
38.0797823479
 21
107.9618068975
  0
LINE
  5
2C6
100
AcDbEntity
  8
93773501000_O_BL1
100
AcDbLine
 62
7
  6
CONTINUOUS
 10
34.8797823479
 20
110.0496748632
 11
35.3797823479
 21
110.0496748632
  0
ARC
  5
2C7
100
AcDbEntity
  8
93773501000_O_BL1
100
AcDbCircle
 62
7
  6
CONTINUOUS
 10
123.5216229921
 20
153.8108574496
 40
0.4
100
AcDbArc
 50
89.9999999998
 51
180.0
  0
ARC
  5
2C8
100
AcDbEntity
  8
93773501000_O_BL1
100
AcDbCircle
 62
7
  6
CONTINUOUS
 10
140.7216229921
 20
153.8108574496
 40
0.4
100
AcDbArc
 50
0.0
 51
90.0000000001
  0
ARC
  5
2C9
100
AcDbEntity
  8
93773501000_O_BL1
100
AcDbCircle
 62
7
  6
CONTINUOUS
 10
32.7797823479
 20
153.8108574496
 40
0.4
100
AcDbArc
 50
90.0000000001
 51
180.0
  0
ARC
  5
2CA
100
AcDbEntity
  8
93773501000_O_BL1
100
AcDbCircle
 62
7
  6
CONTINUOUS
 10
36.8797823479
 20
150.7108574496
 40
4.5
100
AcDbArc
 50
180.0
 51
270.0
  0
ARC
  5
2CB
100
AcDbEntity
  8
93773501000_O_BL1
100
AcDbCircle
 62
7
  6
CONTINUOUS
 10
34.8797823479
 20
94.5496748632
 40
2.5
100
AcDbArc
 50
180.0
 51
270.0
  0
ARC
  5
2CC
100
AcDbEntity
  8
93773501000_O_BL1
100
AcDbCircle
 62
7
  6
CONTINUOUS
 10
34.8797823479
 20
107.5496748632
 40
2.5
100
AcDbArc
 50
90.0
 51
180.0
  0
SPLINE
  5
2CD
100
AcDbEntity
  8
93773501000_O_BL1
100
AcDbSpline
 62
7
  6
CONTINUOUS
 70
0
 71
3
 72
12
 73
8
 74
0
 42
0.0000001
 43
0.0000001
 44
0.0000000001
 40
0.0
 40
0.0
 40
0.0
 40
0.0
 40
0.2950115656
 40
0.5762827964
 40
0.8230063738
 40
0.9228004485
 40
1.0
 40
1.0
 40
1.0
 40
1.0
 10
138.6216229921
 20
150.7108574496
 30
0.0
 10
138.9023927254
 20
150.3341653239
 30
0.0
 10
139.4514128226
 20
149.598353106
 30
0.0
 10
140.2129274892
 20
148.5329190125
 30
0.0
 10
140.7576560748
 20
147.6898703496
 30
0.0
 10
141.0466005518
 20
147.0812098369
 30
0.0
 10
141.1216229921
 20
146.8026719247
 30
0.0
 10
141.1216229921
 20
146.6797285755
 30
0.0
  0
SPLINE
  5
2CE
100
AcDbEntity
  8
93773501000_O_BL1
100
AcDbSpline
 62
7
  6
CONTINUOUS
 70
0
 71
3
 72
12
 73
8
 74
0
 42
0.0000001
 43
0.0000001
 44
0.0000000001
 40
0.0
 40
0.0
 40
0.0
 40
0.0
 40
0.0772206737
 40
0.1770425366
 40
0.4238065817
 40
0.7050583377
 40
1.0
 40
1.0
 40
1.0
 40
1.0
 10
123.1216229921
 20
146.6797285755
 30
0.0
 10
123.1216229921
 20
146.8027056429
 30
0.0
 10
123.1966632017
 20
147.0813227535
 30
0.0
 10
123.4857200064
 20
147.6900892018
 30
0.0
 10
124.0304940852
 20
148.5331973151
 30
0.0
 10
124.7919839495
 20
149.5985567061
 30
0.0
 10
125.3409196043
 20
150.3342543355
 30
0.0
 10
125.6216229921
 20
150.7108574496
 30
0.0
  0
ENDBLK
  5
2CF
100
AcDbEntity
  8
0
  6
BYBLOCK
 62
0
100
AcDbBlockEnd
  0
BLOCK
  5
2D0
100
AcDbEntity
  8
94818203000_BL2
100
AcDbBlockBegin
  2
94818203000_BL2
 70
64
 10
86.25070267
 20
538.7108574496
  3
94818203000_BL2
  1

  0
LINE
  5
2D1
100
AcDbEntity
  8
94818203000_BL2
100
AcDbLine
 62
7
  6
CONTINUOUS
 10
141.1216229921
 20
154.2108574496
 11
123.1216229921
 21
154.2108574496
  0
LINE
  5
2D2
100
AcDbEntity
  8
94818203000_BL2
100
AcDbLine
 62
7
  6
CENTER
 10
132.1216229921
 20
166.2108574496
 11
123.7216229921
 21
166.2108574496
  0
LINE
  5
2D3
100
AcDbEntity
  8
94818203000_BL2
100
AcDbLine
 62
7
  6
CENTER
 10
132.1216229921
 20
166.2108574496
 11
140.5216229921
 21
166.2108574496
  0
LINE
  5
2D4
100
AcDbEntity
  8
94818203000_BL2
100
AcDbLine
 62
7
  6
CENTER
 10
132.1216229921
 20
236.2108574496
 11
123.7216229921
 21
236.2108574496
  0
LINE
  5
2D5
100
AcDbEntity
  8
94818203000_BL2
100
AcDbLine
 62
7
  6
CENTER
 10
132.1216229921
 20
236.2108574496
 11
140.5216229921
 21
236.2108574496
  0
LINE
  5
2D6
100
AcDbEntity
  8
94818203000_BL2
100
AcDbLine
 62
7
  6
CENTER
 10
132.1216229921
 20
332.2108574496
 11
123.7216229921
 21
332.2108574496
  0
LINE
  5
2D7
100
AcDbEntity
  8
94818203000_BL2
100
AcDbLine
 62
7
  6
CENTER
 10
132.1216229921
 20
332.2108574496
 11
140.5216229921
 21
332.2108574496
  0
LINE
  5
2D8
100
AcDbEntity
  8
94818203000_BL2
100
AcDbLine
 62
7
  6
CENTER
 10
132.1216229921
 20
631.2108574496
 11
123.7216229921
 21
631.2108574496
  0
LINE
  5
2D9
100
AcDbEntity
  8
94818203000_BL2
100
AcDbLine
 62
7
  6
CENTER
 10
132.1216229921
 20
631.2108574496
 11
140.5216229921
 21
631.2108574496
  0
LINE
  5
2DA
100
AcDbEntity
  8
94818203000_BL2
100
AcDbLine
 62
7
  6
CENTER
 10
132.1216229921
 20
911.2108574496
 11
123.7216229921
 21
911.2108574496
  0
LINE
  5
2DB
100
AcDbEntity
  8
94818203000_BL2
100
AcDbLine
 62
7
  6
CENTER
 10
132.1216229921
 20
911.2108574496
 11
140.5216229921
 21
911.2108574496
  0
LINE
  5
2DC
100
AcDbEntity
  8
94818203000_BL2
100
AcDbLine
 62
7
  6
CONTINUOUS
 10
141.1216229921
 20
923.2108574496
 11
123.1216229921
 21
923.2108574496
  0
LINE
  5
2DD
100
AcDbEntity
  8
94818203000_BL2
100
AcDbLine
 62
7
  6
CONTINUOUS
 10
123.1216229921
 20
923.2108574496
 11
123.1216229921
 21
154.2108574496
  0
LINE
  5
2DE
100
AcDbEntity
  8
94818203000_BL2
100
AcDbLine
 62
9
  6
CONTINUOUS
 10
126.1216229921
 20
923.2108574496
 11
126.1216229921
 21
320.730897826
  0
LINE
  5
2DF
100
AcDbEntity
  8
94818203000_BL2
100
AcDbLine
 62
9
  6
CONTINUOUS
 10
126.1216229921
 20
247.6908170733
 11
126.1216229921
 21
154.2108574496
  0
LINE
  5
2E0
100
AcDbEntity
  8
94818203000_BL2
100
AcDbLine
 62
7
  6
CENTER
 10
132.1216229921
 20
911.2108574496
 11
132.1216229921
 21
902.8108574496
  0
LINE
  5
2E1
100
AcDbEntity
  8
94818203000_BL2
100
AcDbLine
 62
7
  6
CENTER
 10
132.1216229921
 20
631.2108574496
 11
132.1216229921
 21
622.8108574496
  0
LINE
  5
2E2
100
AcDbEntity
  8
94818203000_BL2
100
AcDbLine
 62
7
  6
CENTER
 10
132.1216229921
 20
332.2108574496
 11
132.1216229921
 21
323.8108574496
  0
LINE
  5
2E3
100
AcDbEntity
  8
94818203000_BL2
100
AcDbLine
 62
7
  6
CENTER
 10
132.1216229921
 20
236.2108574496
 11
132.1216229921
 21
227.8108574496
  0
LINE
  5
2E4
100
AcDbEntity
  8
94818203000_BL2
100
AcDbLine
 62
7
  6
CENTER
 10
132.1216229921
 20
166.2108574496
 11
132.1216229921
 21
157.8108574496
  0
LINE
  5
2E5
100
AcDbEntity
  8
94818203000_BL2
100
AcDbLine
 62
7
  6
CENTER
 10
132.1216229921
 20
166.2108574496
 11
132.1216229921
 21
174.6108574496
  0
LINE
  5
2E6
100
AcDbEntity
  8
94818203000_BL2
100
AcDbLine
 62
7
  6
CENTER
 10
132.1216229921
 20
236.2108574496
 11
132.1216229921
 21
244.6108574496
  0
LINE
  5
2E7
100
AcDbEntity
  8
94818203000_BL2
100
AcDbLine
 62
7
  6
CENTER
 10
132.1216229921
 20
332.2108574496
 11
132.1216229921
 21
340.6108574496
  0
LINE
  5
2E8
100
AcDbEntity
  8
94818203000_BL2
100
AcDbLine
 62
7
  6
CENTER
 10
132.1216229921
 20
631.2108574496
 11
132.1216229921
 21
639.6108574496
  0
LINE
  5
2E9
100
AcDbEntity
  8
94818203000_BL2
100
AcDbLine
 62
7
  6
CENTER
 10
132.1216229921
 20
911.2108574496
 11
132.1216229921
 21
919.6108574496
  0
LINE
  5
2EA
100
AcDbEntity
  8
94818203000_BL2
100
AcDbLine
 62
9
  6
CONTINUOUS
 10
138.1216229921
 20
923.2108574496
 11
138.1216229921
 21
320.730897826
  0
LINE
  5
2EB
100
AcDbEntity
  8
94818203000_BL2
100
AcDbLine
 62
9
  6
CONTINUOUS
 10
138.1216229921
 20
247.6908170733
 11
138.1216229921
 21
154.2108574496
  0
LINE
  5
2EC
100
AcDbEntity
  8
94818203000_BL2
100
AcDbLine
 62
7
  6
CONTINUOUS
 10
141.1216229921
 20
923.2108574496
 11
141.1216229921
 21
154.2108574496
  0
LINE
  5
2ED
100
AcDbEntity
  8
94818203000_BL2
100
AcDbLine
 62
7
  6
CONTINUOUS
 10
38.3797823479
 20
154.2108574496
 11
32.3797823479
 21
154.2108574496
  0
LINE
  5
2EE
100
AcDbEntity
  8
94818203000_BL2
100
AcDbLine
 62
7
  6
CENTER
 10
39.3797823479
 20
166.2108574496
 11
31.3797823479
 21
166.2108574496
  0
LINE
  5
2EF
100
AcDbEntity
  8
94818203000_BL2
100
AcDbLine
 62
7
  6
CENTER
 10
39.3797823479
 20
236.2108574496
 11
31.3797823479
 21
236.2108574496
  0
LINE
  5
2F0
100
AcDbEntity
  8
94818203000_BL2
100
AcDbLine
 62
7
  6
CENTER
 10
39.3797823479
 20
332.2108574496
 11
31.3797823479
 21
332.2108574496
  0
LINE
  5
2F1
100
AcDbEntity
  8
94818203000_BL2
100
AcDbLine
 62
7
  6
CENTER
 10
39.3797823479
 20
631.2108574496
 11
31.3797823479
 21
631.2108574496
  0
LINE
  5
2F2
100
AcDbEntity
  8
94818203000_BL2
100
AcDbLine
 62
7
  6
CONTINUOUS
 10
38.3797823479
 20
923.2108574496
 11
32.3797823479
 21
923.2108574496
  0
LINE
  5
2F3
100
AcDbEntity
  8
94818203000_BL2
100
AcDbLine
 62
7
  6
CONTINUOUS
 10
32.3797823479
 20
923.2108574496
 11
32.3797823479
 21
320.7149306693
  0
LINE
  5
2F4
100
AcDbEntity
  8
94818203000_BL2
100
AcDbLine
 62
7
  6
CONTINUOUS
 10
32.3797823479
 20
247.7067842299
 11
32.3797823479
 21
154.2108574496
  0
LINE
  5
2F5
100
AcDbEntity
  8
94818203000_BL2
100
AcDbLine
 62
7
  6
CONTINUOUS
 10
32.5513552232
 20
302.2108574496
 11
32.5513552232
 21
266.2108574496
  0
LINE
  5
2F6
100
AcDbEntity
  8
94818203000_BL2
100
AcDbLine
 62
9
  6
CONTINUOUS
 10
35.3797823479
 20
923.2108574496
 11
35.3797823479
 21
154.2108574496
  0
LINE
  5
2F7
100
AcDbEntity
  8
94818203000_BL2
100
AcDbLine
 62
7
  6
CONTINUOUS
 10
38.3797823479
 20
923.2108574496
 11
38.3797823479
 21
154.2108574496
  0
CIRCLE
  5
2F8
100
AcDbEntity
  8
94818203000_BL2
100
AcDbCircle
 62
7
  6
CONTINUOUS
 10
132.1216229921
 20
166.2108574496
 40
4.15
  0
CIRCLE
  5
2F9
100
AcDbEntity
  8
94818203000_BL2
100
AcDbCircle
 62
7
  6
CONTINUOUS
 10
132.1216229921
 20
236.2108574496
 40
4.15
  0
CIRCLE
  5
2FA
100
AcDbEntity
  8
94818203000_BL2
100
AcDbCircle
 62
7
  6
CONTINUOUS
 10
132.1216229921
 20
166.2108574496
 40
2.6
  0
CIRCLE
  5
2FB
100
AcDbEntity
  8
94818203000_BL2
100
AcDbCircle
 62
7
  6
CONTINUOUS
 10
132.1216229921
 20
236.2108574496
 40
2.6
  0
CIRCLE
  5
2FC
100
AcDbEntity
  8
94818203000_BL2
100
AcDbCircle
 62
7
  6
CONTINUOUS
 10
132.1216229921
 20
332.2108574496
 40
4.15
  0
CIRCLE
  5
2FD
100
AcDbEntity
  8
94818203000_BL2
100
AcDbCircle
 62
7
  6
CONTINUOUS
 10
132.1216229921
 20
332.2108574496
 40
2.6
  0
CIRCLE
  5
2FE
100
AcDbEntity
  8
94818203000_BL2
100
AcDbCircle
 62
7
  6
CONTINUOUS
 10
132.1216229921
 20
631.2108574496
 40
4.15
  0
CIRCLE
  5
2FF
100
AcDbEntity
  8
94818203000_BL2
100
AcDbCircle
 62
7
  6
CONTINUOUS
 10
132.1216229921
 20
911.2108574496
 40
4.15
  0
CIRCLE
  5
300
100
AcDbEntity
  8
94818203000_BL2
100
AcDbCircle
 62
7
  6
CONTINUOUS
 10
132.1216229921
 20
631.2108574496
 40
2.6
  0
CIRCLE
  5
301
100
AcDbEntity
  8
94818203000_BL2
100
AcDbCircle
 62
7
  6
CONTINUOUS
 10
132.1216229921
 20
911.2108574496
 40
2.6
  0
SPLINE
  5
302
100
AcDbEntity
  8
94818203000_BL2
100
AcDbSpline
 62
7
  6
CONTINUOUS
 70
0
 71
3
 72
10
 73
6
 74
0
 42
0.0000001
 43
0.0000001
 44
0.0000000001
 40
0.0
 40
0.0
 40
0.0
 40
0.0
 40
0.5763936339
 40
0.8162512267
 40
1.0
 40
1.0
 40
1.0
 40
1.0
 10
32.5513552232
 20
266.2108574496
 30
0.0
 10
32.5513552232
 20
265.8763149884
 30
0.0
 10
32.5040605257
 20
265.4023940727
 30
0.0
 10
32.4113658042
 20
264.8303868458
 30
0.0
 10
32.3797823479
 20
264.5854555765
 30
0.0
 10
32.3797823479
 20
264.478806642
 30
0.0
  0
SPLINE
  5
303
100
AcDbEntity
  8
94818203000_BL2
100
AcDbSpline
 62
7
  6
CONTINUOUS
 70
0
 71
3
 72
10
 73
6
 74
0
 42
0.0000001
 43
0.0000001
 44
0.0000000001
 40
0.0
 40
0.0
 40
0.0
 40
0.0
 40
0.1837493613
 40
0.4236057305
 40
1.0
 40
1.0
 40
1.0
 40
1.0
 10
32.3797823479
 20
303.9429082572
 30
0.0
 10
32.3797823479
 20
303.8362589816
 30
0.0
 10
32.4113658107
 20
303.5913280823
 30
0.0
 10
32.504060555
 20
303.0193208583
 30
0.0
 10
32.5513552232
 20
302.5454002795
 30
0.0
 10
32.5513552232
 20
302.2108574496
 30
0.0
  0
ENDBLK
  5
304
100
AcDbEntity
  8
0
  6
BYBLOCK
 62
0
100
AcDbBlockEnd
  0
BLOCK
  5
305
100
AcDbEntity
  8
94528905000_M_BL3
100
AcDbBlockBegin
  2
94528905000_M_BL3
 70
64
 10
87.65070267
 20
953.9302661564
  3
94528905000_M_BL3
  1

  0
LINE
  5
306
100
AcDbEntity
  8
94528905000_M_BL3
100
AcDbLine
 62
7
  6
CONTINUOUS
 10
131.2466229921
 20
251.595312993
 11
132.9966229921
 21
251.595312993
  0
LINE
  5
307
100
AcDbEntity
  8
94528905000_M_BL3
100
AcDbLine
 62
7
  6
CONTINUOUS
 10
132.9966229921
 20
254.6264019062
 11
131.2466229921
 21
254.6264019062
  0
LINE
  5
308
100
AcDbEntity
  8
94528905000_M_BL3
100
AcDbLine
 62
7
  6
CONTINUOUS
 10
131.2466229921
 20
1806.8264019062
 11
130.3716229921
 21
1805.3108574496
  0
LINE
  5
309
100
AcDbEntity
  8
94528905000_M_BL3
100
AcDbLine
 62
7
  6
CONTINUOUS
 10
132.9966229921
 20
1803.795312993
 11
133.8716229921
 21
1805.3108574496
  0
LINE
  5
30A
100
AcDbEntity
  8
94528905000_M_BL3
100
AcDbLine
 62
7
  6
CONTINUOUS
 10
130.3716229921
 20
253.1108574496
 11
131.2466229921
 21
251.595312993
  0
LINE
  5
30B
100
AcDbEntity
  8
94528905000_M_BL3
100
AcDbLine
 62
7
  6
CONTINUOUS
 10
133.8716229921
 20
253.1108574496
 11
132.9966229921
 21
254.6264019062
  0
LINE
  5
30C
100
AcDbEntity
  8
94528905000_M_BL3
100
AcDbLine
 62
7
  6
CONTINUOUS
 10
131.2466229921
 20
254.6264019062
 11
130.3716229921
 21
253.1108574496
  0
LINE
  5
30D
100
AcDbEntity
  8
94528905000_M_BL3
100
AcDbLine
 62
7
  6
CONTINUOUS
 10
132.9966229921
 20
251.595312993
 11
133.8716229921
 21
253.1108574496
  0
LINE
  5
30E
100
AcDbEntity
  8
94528905000_M_BL3
100
AcDbLine
 62
7
  6
CONTINUOUS
 10
130.3716229921
 20
1805.3108574496
 11
131.2466229921
 21
1803.795312993
  0
LINE
  5
30F
100
AcDbEntity
  8
94528905000_M_BL3
100
AcDbLine
 62
7
  6
CONTINUOUS
 10
133.8716229921
 20
1805.3108574496
 11
132.9966229921
 21
1806.8264019062
  0
LINE
  5
310
100
AcDbEntity
  8
94528905000_M_BL3
100
AcDbLine
 62
7
  6
CONTINUOUS
 10
131.2466229921
 20
1803.795312993
 11
132.9966229921
 21
1803.795312993
  0
LINE
  5
311
100
AcDbEntity
  8
94528905000_M_BL3
100
AcDbLine
 62
7
  6
CONTINUOUS
 10
132.9966229921
 20
1806.8264019062
 11
131.2466229921
 21
1806.8264019062
  0
CIRCLE
  5
312
100
AcDbEntity
  8
94528905000_M_BL3
100
AcDbCircle
 62
7
  6
CONTINUOUS
 10
132.1216229921
 20
254.1108574496
 40
5.5
  0
CIRCLE
  5
313
100
AcDbEntity
  8
94528905000_M_BL3
100
AcDbCircle
 62
7
  6
CONTINUOUS
 10
132.1216229921
 20
253.1108574496
 40
1.75
  0
CIRCLE
  5
314
100
AcDbEntity
  8
94528905000_M_BL3
100
AcDbCircle
 62
7
  6
CONTINUOUS
 10
132.1216229921
 20
253.1108574496
 40
1.515
  0
CIRCLE
  5
315
100
AcDbEntity
  8
94528905000_M_BL3
100
AcDbCircle
 62
7
  6
CONTINUOUS
 10
132.1216229921
 20
256.6108574496
 40
0.75
  0
CIRCLE
  5
316
100
AcDbEntity
  8
94528905000_M_BL3
100
AcDbCircle
 62
7
  6
CONTINUOUS
 10
132.1216229921
 20
1804.3108574496
 40
5.5
  0
CIRCLE
  5
317
100
AcDbEntity
  8
94528905000_M_BL3
100
AcDbCircle
 62
7
  6
CONTINUOUS
 10
132.1216229921
 20
1805.3108574496
 40
1.75
  0
CIRCLE
  5
318
100
AcDbEntity
  8
94528905000_M_BL3
100
AcDbCircle
 62
7
  6
CONTINUOUS
 10
132.1216229921
 20
1805.3108574496
 40
1.515
  0
CIRCLE
  5
319
100
AcDbEntity
  8
94528905000_M_BL3
100
AcDbCircle
 62
7
  6
CONTINUOUS
 10
132.1216229921
 20
1801.8108574496
 40
0.75
  0
ARC
  5
31A
100
AcDbEntity
  8
94528905000_M_BL3
100
AcDbCircle
 62
7
  6
CONTINUOUS
 10
35.0340310368
 20
253.1108574496
 40
4.0
100
AcDbArc
 50
326.8389561101
 51
33.1610438899
  0
ARC
  5
31B
100
AcDbEntity
  8
94528905000_M_BL3
100
AcDbCircle
 62
7
  6
CONTINUOUS
 10
35.0340310368
 20
1805.3108574496
 40
4.0
100
AcDbArc
 50
326.8389561101
 51
33.1610438899
  0
ARC
  5
31C
100
AcDbEntity
  8
94528905000_M_BL3
100
AcDbCircle
 62
7
  6
CONTINUOUS
 10
35.0340310368
 20
101.0496748632
 40
4.0
100
AcDbArc
 50
311.4096221093
 51
48.5903778907
  0
ENDBLK
  5
31D
100
AcDbEntity
  8
0
  6
BYBLOCK
 62
0
100
AcDbBlockEnd
  0
BLOCK
  5
31E
100
AcDbEntity
  8
94529001000_BL4
100
AcDbBlockBegin
  2
94529001000_BL4
 70
64
 10
87.00070267
 20
284.2108574496
  3
94529001000_BL4
  1

  0
LINE
  5
31F
100
AcDbEntity
  8
94529001000_BL4
100
AcDbLine
 62
7
  6
CONTINUOUS
 10
123.6216229921
 20
261.9608574496
 11
124.4216229921
 21
261.9608574496
  0
LINE
  5
320
100
AcDbEntity
  8
94529001000_BL4
100
AcDbLine
 62
7
  6
CONTINUOUS
 10
139.8216229921
 20
261.9608574496
 11
140.6216229921
 21
261.9608574496
  0
LINE
  5
321
100
AcDbEntity
  8
94529001000_BL4
100
AcDbLine
 62
7
  6
CONTINUOUS
 10
128.9216229921
 20
264.4108574496
 11
136.3216229921
 21
264.4108574496
  0
LINE
  5
322
100
AcDbEntity
  8
94529001000_BL4
100
AcDbLine
 62
7
  6
CONTINUOUS
 10
128.9216229921
 20
265.2108574496
 11
136.3216229921
 21
265.2108574496
  0
LINE
  5
323
100
AcDbEntity
  8
94529001000_BL4
100
AcDbLine
 62
9
  6
CONTINUOUS
 10
126.9216229921
 20
267.2108574496
 11
126.1216229921
 21
267.2108574496
  0
LINE
  5
324
100
AcDbEntity
  8
94529001000_BL4
100
AcDbLine
 62
9
  6
CONTINUOUS
 10
138.3216229921
 20
267.2108574496
 11
139.1216229921
 21
267.2108574496
  0
LINE
  5
325
100
AcDbEntity
  8
94529001000_BL4
100
AcDbLine
 62
7
  6
CONTINUOUS
 10
124.4216229921
 20
284.0608574496
 11
126.1216229921
 21
284.0608574496
  0
LINE
  5
326
100
AcDbEntity
  8
94529001000_BL4
100
AcDbLine
 62
7
  6
CENTER
 10
143.6216229921
 20
284.2108574496
 11
120.6216229921
 21
284.2108574496
  0
LINE
  5
327
100
AcDbEntity
  8
94529001000_BL4
100
AcDbLine
 62
7
  6
CONTINUOUS
 10
124.2716229921
 20
284.2108574496
 11
126.2716229921
 21
284.2108574496
  0
LINE
  5
328
100
AcDbEntity
  8
94529001000_BL4
100
AcDbLine
 62
7
  6
CONTINUOUS
 10
124.4216229921
 20
284.3608574496
 11
126.1216229921
 21
284.3608574496
  0
LINE
  5
329
100
AcDbEntity
  8
94529001000_BL4
100
AcDbLine
 62
9
  6
CONTINUOUS
 10
126.9216229921
 20
301.2108574496
 11
126.1216229921
 21
301.2108574496
  0
LINE
  5
32A
100
AcDbEntity
  8
94529001000_BL4
100
AcDbLine
 62
9
  6
CONTINUOUS
 10
138.3216229921
 20
301.2108574496
 11
139.1216229921
 21
301.2108574496
  0
LINE
  5
32B
100
AcDbEntity
  8
94529001000_BL4
100
AcDbLine
 62
7
  6
CONTINUOUS
 10
136.3216229921
 20
303.2108574496
 11
128.9216229921
 21
303.2108574496
  0
LINE
  5
32C
100
AcDbEntity
  8
94529001000_BL4
100
AcDbLine
 62
7
  6
CONTINUOUS
 10
136.3216229921
 20
304.0108574496
 11
128.9216229921
 21
304.0108574496
  0
LINE
  5
32D
100
AcDbEntity
  8
94529001000_BL4
100
AcDbLine
 62
7
  6
CONTINUOUS
 10
123.6216229921
 20
306.4608574496
 11
124.4216229921
 21
306.4608574496
  0
LINE
  5
32E
100
AcDbEntity
  8
94529001000_BL4
100
AcDbLine
 62
7
  6
CONTINUOUS
 10
139.8216229921
 20
306.4608574496
 11
140.6216229921
 21
306.4608574496
  0
LINE
  5
32F
100
AcDbEntity
  8
94529001000_BL4
100
AcDbLine
 62
7
  6
CONTINUOUS
 10
124.4216229921
 20
284.0608574496
 11
124.2716229921
 21
284.2108574496
  0
LINE
  5
330
100
AcDbEntity
  8
94529001000_BL4
100
AcDbLine
 62
7
  6
CONTINUOUS
 10
126.1216229921
 20
284.3608574496
 11
126.2716229921
 21
284.2108574496
  0
LINE
  5
331
100
AcDbEntity
  8
94529001000_BL4
100
AcDbLine
 62
7
  6
CONTINUOUS
 10
123.6216229921
 20
253.7108574496
 11
123.6216229921
 21
314.7108574496
  0
LINE
  5
332
100
AcDbEntity
  8
94529001000_BL4
100
AcDbLine
 62
7
  6
CONTINUOUS
 10
124.4216229921
 20
261.9608574496
 11
124.4216229921
 21
284.0608574496
  0
LINE
  5
333
100
AcDbEntity
  8
94529001000_BL4
100
AcDbLine
 62
7
  6
CONTINUOUS
 10
124.4216229921
 20
284.3608574496
 11
124.4216229921
 21
306.4608574496
  0
LINE
  5
334
100
AcDbEntity
  8
94529001000_BL4
100
AcDbLine
 62
7
  6
CONTINUOUS
 10
126.1216229921
 20
301.2108574496
 11
126.1216229921
 21
284.3608574496
  0
LINE
  5
335
100
AcDbEntity
  8
94529001000_BL4
100
AcDbLine
 62
7
  6
CONTINUOUS
 10
126.1216229921
 20
284.0608574496
 11
126.1216229921
 21
267.2108574496
  0
LINE
  5
336
100
AcDbEntity
  8
94529001000_BL4
100
AcDbLine
 62
7
  6
CONTINUOUS
 10
126.9216229921
 20
301.2108574496
 11
126.9216229921
 21
267.2108574496
  0
LINE
  5
337
100
AcDbEntity
  8
94529001000_BL4
100
AcDbLine
 62
9
  6
CONTINUOUS
 10
128.9216229921
 20
265.2108574496
 11
128.9216229921
 21
264.4108574496
  0
LINE
  5
338
100
AcDbEntity
  8
94529001000_BL4
100
AcDbLine
 62
9
  6
CONTINUOUS
 10
128.9216229921
 20
303.2108574496
 11
128.9216229921
 21
304.0108574496
  0
LINE
  5
339
100
AcDbEntity
  8
94529001000_BL4
100
AcDbLine
 62
7
  6
CENTER
 10
132.1216229921
 20
326.2243301151
 11
132.1216229921
 21
242.1973847841
  0
LINE
  5
33A
100
AcDbEntity
  8
94529001000_BL4
100
AcDbLine
 62
9
  6
CONTINUOUS
 10
136.3216229921
 20
265.2108574496
 11
136.3216229921
 21
264.4108574496
  0
LINE
  5
33B
100
AcDbEntity
  8
94529001000_BL4
100
AcDbLine
 62
9
  6
CONTINUOUS
 10
136.3216229921
 20
303.2108574496
 11
136.3216229921
 21
304.0108574496
  0
LINE
  5
33C
100
AcDbEntity
  8
94529001000_BL4
100
AcDbLine
 62
7
  6
CONTINUOUS
 10
138.3216229921
 20
267.2108574496
 11
138.3216229921
 21
301.2108574496
  0
LINE
  5
33D
100
AcDbEntity
  8
94529001000_BL4
100
AcDbLine
 62
7
  6
CONTINUOUS
 10
139.1216229921
 20
267.2108574496
 11
139.1216229921
 21
301.2108574496
  0
LINE
  5
33E
100
AcDbEntity
  8
94529001000_BL4
100
AcDbLine
 62
7
  6
CONTINUOUS
 10
139.8216229921
 20
261.9608574496
 11
139.8216229921
 21
306.4608574496
  0
LINE
  5
33F
100
AcDbEntity
  8
94529001000_BL4
100
AcDbLine
 62
7
  6
CONTINUOUS
 10
140.6216229921
 20
253.7108574496
 11
140.6216229921
 21
314.7108574496
  0
LINE
  5
340
100
AcDbEntity
  8
94529001000_BL4
100
AcDbLine
 62
7
  6
CONTINUOUS
 10
124.4216229921
 20
284.3608574496
 11
124.2716229921
 21
284.2108574496
  0
LINE
  5
341
100
AcDbEntity
  8
94529001000_BL4
100
AcDbLine
 62
7
  6
CONTINUOUS
 10
126.1216229921
 20
284.0608574496
 11
126.2716229921
 21
284.2108574496
  0
LINE
  5
342
100
AcDbEntity
  8
94529001000_BL4
100
AcDbLine
 62
7
  6
CONTINUOUS
 10
32.3797823479
 20
245.2108574496
 11
30.3797823479
 21
245.2108574496
  0
LINE
  5
343
100
AcDbEntity
  8
94529001000_BL4
100
AcDbLine
 62
9
  6
CONTINUOUS
 10
30.3797823479
 20
253.7108574496
 11
32.3797823479
 21
253.7108574496
  0
LINE
  5
344
100
AcDbEntity
  8
94529001000_BL4
100
AcDbLine
 62
7
  6
CONTINUOUS
 10
30.3797823479
 20
261.9608574496
 11
31.1797823479
 21
261.9608574496
  0
LINE
  5
345
100
AcDbEntity
  8
94529001000_BL4
100
AcDbLine
 62
7
  6
CONTINUOUS
 10
32.4704160364
 20
265.2108574496
 11
32.3797823479
 21
265.2108574496
  0
LINE
  5
346
100
AcDbEntity
  8
94529001000_BL4
100
AcDbLine
 62
7
  6
CONTINUOUS
 10
32.3797823479
 20
303.2108574496
 11
32.4704176975
 21
303.2108574496
  0
LINE
  5
347
100
AcDbEntity
  8
94529001000_BL4
100
AcDbLine
 62
7
  6
CONTINUOUS
 10
30.3797823479
 20
306.4608574496
 11
31.1797823479
 21
306.4608574496
  0
LINE
  5
348
100
AcDbEntity
  8
94529001000_BL4
100
AcDbLine
 62
9
  6
CONTINUOUS
 10
30.3797823479
 20
314.7108574496
 11
32.3797823479
 21
314.7108574496
  0
LINE
  5
349
100
AcDbEntity
  8
94529001000_BL4
100
AcDbLine
 62
7
  6
CONTINUOUS
 10
32.3797823479
 20
323.2108574496
 11
30.3797823479
 21
323.2108574496
  0
LINE
  5
34A
100
AcDbEntity
  8
94529001000_BL4
100
AcDbLine
 62
7
  6
CONTINUOUS
 10
30.3797823479
 20
245.2108574496
 11
30.3797823479
 21
323.2108574496
  0
LINE
  5
34B
100
AcDbEntity
  8
94529001000_BL4
100
AcDbLine
 62
7
  6
CONTINUOUS
 10
31.1797823479
 20
261.9608574496
 11
31.1797823479
 21
306.4608574496
  0
LINE
  5
34C
100
AcDbEntity
  8
94529001000_BL4
100
AcDbLine
 62
7
  6
CONTINUOUS
 10
32.3797823479
 20
320.7149306693
 11
32.3797823479
 21
247.7067842299
  0
ARC
  5
34D
100
AcDbEntity
  8
94529001000_BL4
100
AcDbCircle
 62
7
  6
CONTINUOUS
 10
128.9216229921
 20
267.2108574496
 40
2.7999942656
100
AcDbArc
 50
180.0
 51
270.0
  0
ARC
  5
34E
100
AcDbEntity
  8
94529001000_BL4
100
AcDbCircle
 62
7
  6
CONTINUOUS
 10
128.9216229921
 20
301.2108574496
 40
2.7999942656
100
AcDbArc
 50
90.0
 51
180.0
  0
ARC
  5
34F
100
AcDbEntity
  8
94529001000_BL4
100
AcDbCircle
 62
7
  6
CONTINUOUS
 10
128.9216229921
 20
267.2108574496
 40
2.0
100
AcDbArc
 50
180.0
 51
270.0
  0
ARC
  5
350
100
AcDbEntity
  8
94529001000_BL4
100
AcDbCircle
 62
7
  6
CONTINUOUS
 10
128.9216229921
 20
301.2108574496
 40
2.0
100
AcDbArc
 50
90.0
 51
180.0
  0
ARC
  5
351
100
AcDbEntity
  8
94529001000_BL4
100
AcDbCircle
 62
7
  6
CONTINUOUS
 10
132.1216229921
 20
314.7108574496
 40
8.5
100
AcDbArc
 50
0.0
 51
180.0
  0
ARC
  5
352
100
AcDbEntity
  8
94529001000_BL4
100
AcDbCircle
 62
7
  6
CONTINUOUS
 10
132.1216229921
 20
253.7108574496
 40
8.5
100
AcDbArc
 50
180.0
 51
360.0
  0
CIRCLE
  5
353
100
AcDbEntity
  8
94529001000_BL4
100
AcDbCircle
 62
7
  6
CONTINUOUS
 10
132.1216229921
 20
314.3108574496
 40
5.65
  0
CIRCLE
  5
354
100
AcDbEntity
  8
94529001000_BL4
100
AcDbCircle
 62
7
  6
CONTINUOUS
 10
132.1216229921
 20
254.1108574496
 40
5.65
  0
ARC
  5
355
100
AcDbEntity
  8
94529001000_BL4
100
AcDbCircle
 62
7
  6
CONTINUOUS
 10
136.3216229921
 20
267.2108574496
 40
2.7999942656
100
AcDbArc
 50
270.0
 51
360.0
  0
ARC
  5
356
100
AcDbEntity
  8
94529001000_BL4
100
AcDbCircle
 62
7
  6
CONTINUOUS
 10
136.3216229921
 20
301.2108574496
 40
2.7999942656
100
AcDbArc
 50
0.0
 51
90.0
  0
ARC
  5
357
100
AcDbEntity
  8
94529001000_BL4
100
AcDbCircle
 62
7
  6
CONTINUOUS
 10
136.3216229921
 20
267.2108574496
 40
2.0
100
AcDbArc
 50
270.0
 51
360.0
  0
ARC
  5
358
100
AcDbEntity
  8
94529001000_BL4
100
AcDbCircle
 62
7
  6
CONTINUOUS
 10
136.3216229921
 20
301.2108574496
 40
2.0
100
AcDbArc
 50
0.0
 51
90.0
  0
ENDBLK
  5
359
100
AcDbEntity
  8
0
  6
BYBLOCK
 62
0
100
AcDbBlockEnd
  0
BLOCK
  5
35A
100
AcDbEntity
  8
94673901000_BL5
100
AcDbBlockBegin
  2
94673901000_BL5
 70
64
 10
83.7004573672
 20
284.2108574496
  3
94673901000_BL5
  1

  0
LINE
  5
35B
100
AcDbEntity
  8
94673901000_BL5
100
AcDbLine
 62
9
  6
CONTINUOUS
 10
135.3744727419
 20
265.8689639092
 11
128.8687732424
 21
265.8689639092
  0
LINE
  5
35C
100
AcDbEntity
  8
94673901000_BL5
100
AcDbLine
 62
9
  6
CONTINUOUS
 10
138.021585004
 20
267.2108574496
 11
138.3216229921
 21
267.2108574496
  0
LINE
  5
35D
100
AcDbEntity
  8
94673901000_BL5
100
AcDbLine
 62
9
  6
CONTINUOUS
 10
126.9216229921
 20
267.8580076999
 11
137.3635165326
 21
267.8580076999
  0
LINE
  5
35E
100
AcDbEntity
  8
94673901000_BL5
100
AcDbLine
 62
7
  6
CONTINUOUS
 10
132.1216229921
 20
283.8108574496
 11
133.6216229921
 21
283.8108574496
  0
LINE
  5
35F
100
AcDbEntity
  8
94673901000_BL5
100
AcDbLine
 62
7
  6
CONTINUOUS
 10
133.6216229921
 20
284.6108574496
 11
132.1216229921
 21
284.6108574496
  0
LINE
  5
360
100
AcDbEntity
  8
94673901000_BL5
100
AcDbLine
 62
9
  6
CONTINUOUS
 10
126.9216229921
 20
300.5637071993
 11
137.3635165326
 21
300.5637071993
  0
LINE
  5
361
100
AcDbEntity
  8
94673901000_BL5
100
AcDbLine
 62
9
  6
CONTINUOUS
 10
138.3216229921
 20
301.2108574496
 11
138.021585004
 21
301.2108574496
  0
LINE
  5
362
100
AcDbEntity
  8
94673901000_BL5
100
AcDbLine
 62
9
  6
CONTINUOUS
 10
128.8687732424
 20
302.5527509901
 11
135.3744727419
 21
302.5527509901
  0
LINE
  5
363
100
AcDbEntity
  8
94673901000_BL5
100
AcDbLine
 62
7
  6
CONTINUOUS
 10
130.1216229921
 20
284.2108574496
 11
132.1216229921
 21
283.0561569112
  0
LINE
  5
364
100
AcDbEntity
  8
94673901000_BL5
100
AcDbLine
 62
9
  6
CONTINUOUS
 10
135.8191468195
 20
265.4242898315
 11
135.3744727419
 21
265.8689639092
  0
LINE
  5
365
100
AcDbEntity
  8
94673901000_BL5
100
AcDbLine
 62
9
  6
CONTINUOUS
 10
137.8081906102
 20
267.4133336223
 11
137.3635165326
 21
267.8580076999
  0
LINE
  5
366
100
AcDbEntity
  8
94673901000_BL5
100
AcDbLine
 62
9
  6
CONTINUOUS
 10
128.4240991648
 20
302.9974250677
 11
128.8687732424
 21
302.5527509901
  0
LINE
  5
367
100
AcDbEntity
  8
94673901000_BL5
100
AcDbLine
 62
9
  6
CONTINUOUS
 10
128.8687732424
 20
265.8689639092
 11
128.8687732424
 21
302.5527509901
  0
LINE
  5
368
100
AcDbEntity
  8
94673901000_BL5
100
AcDbLine
 62
7
  6
CONTINUOUS
 10
132.1216229921
 20
283.0561569112
 11
132.1216229921
 21
283.8108574496
  0
LINE
  5
369
100
AcDbEntity
  8
94673901000_BL5
100
AcDbLine
 62
7
  6
CONTINUOUS
 10
132.1216229921
 20
284.6108574496
 11
132.1216229921
 21
285.365557988
  0
LINE
  5
36A
100
AcDbEntity
  8
94673901000_BL5
100
AcDbLine
 62
7
  6
CONTINUOUS
 10
133.6216229921
 20
283.8108574496
 11
133.6216229921
 21
284.6108574496
  0
LINE
  5
36B
100
AcDbEntity
  8
94673901000_BL5
100
AcDbLine
 62
9
  6
CONTINUOUS
 10
135.3744727419
 20
265.8689639092
 11
135.3744727419
 21
302.5527509901
  0
LINE
  5
36C
100
AcDbEntity
  8
94673901000_BL5
100
AcDbLine
 62
9
  6
CONTINUOUS
 10
137.3635165326
 20
300.5637071993
 11
137.3635165326
 21
267.8580076999
  0
LINE
  5
36D
100
AcDbEntity
  8
94673901000_BL5
100
AcDbLine
 62
7
  6
CONTINUOUS
 10
138.0161147126
 20
301.2107999298
 11
138.0161147126
 21
267.2109149694
  0
LINE
  5
36E
100
AcDbEntity
  8
94673901000_BL5
100
AcDbLine
 62
9
  6
CONTINUOUS
 10
135.3744727419
 20
302.5527509901
 11
135.8191468195
 21
302.9974250677
  0
LINE
  5
36F
100
AcDbEntity
  8
94673901000_BL5
100
AcDbLine
 62
9
  6
CONTINUOUS
 10
137.3635165326
 20
300.5637071993
 11
137.8081906102
 21
301.0083812769
  0
LINE
  5
370
100
AcDbEntity
  8
94673901000_BL5
100
AcDbLine
 62
9
  6
CONTINUOUS
 10
128.8687732424
 20
265.8689639092
 11
128.4240991648
 21
265.4242898315
  0
LINE
  5
371
100
AcDbEntity
  8
94673901000_BL5
100
AcDbLine
 62
7
  6
CONTINUOUS
 10
132.1216229921
 20
285.365557988
 11
130.1216229921
 21
284.2108574496
  0
LINE
  5
372
100
AcDbEntity
  8
94673901000_BL5
100
AcDbLine
 62
7
  6
CONTINUOUS
 10
40.3797823479
 20
264.2108574496
 11
46.6933677377
 21
264.8744420138
  0
LINE
  5
373
100
AcDbEntity
  8
94673901000_BL5
100
AcDbLine
 62
9
  6
CONTINUOUS
 10
40.3802083047
 20
267.1944679056
 11
46.6933677377
 21
267.8580076999
  0
LINE
  5
374
100
AcDbEntity
  8
94673901000_BL5
100
AcDbLine
 62
7
  6
CONTINUOUS
 10
40.3797823479
 20
264.2108574496
 11
38.3797823479
 21
264.2108574496
  0
LINE
  5
375
100
AcDbEntity
  8
94673901000_BL5
100
AcDbLine
 62
9
  6
CONTINUOUS
 10
40.3797823479
 20
267.2108574496
 11
38.3797823479
 21
267.2108574496
  0
LINE
  5
376
100
AcDbEntity
  8
94673901000_BL5
100
AcDbLine
 62
9
  6
CONTINUOUS
 10
49.3797823479
 20
267.8580076999
 11
46.6933677378
 21
267.8580077078
  0
LINE
  5
377
100
AcDbEntity
  8
94673901000_BL5
100
AcDbLine
 62
7
  6
CONTINUOUS
 10
49.3797823479
 20
283.0561569112
 11
49.5797823479
 21
283.0561569112
  0
LINE
  5
378
100
AcDbEntity
  8
94673901000_BL5
100
AcDbLine
 62
7
  6
CONTINUOUS
 10
49.3797823479
 20
283.8108574496
 11
49.5797823479
 21
283.8108574496
  0
LINE
  5
379
100
AcDbEntity
  8
94673901000_BL5
100
AcDbLine
 62
7
  6
CENTER
 10
29.0792917422
 20
284.2108574496
 11
52.5797823479
 21
284.2108574496
  0
LINE
  5
37A
100
AcDbEntity
  8
94673901000_BL5
100
AcDbLine
 62
7
  6
CONTINUOUS
 10
49.3797823479
 20
284.6108574496
 11
49.5797823479
 21
284.6108574496
  0
LINE
  5
37B
100
AcDbEntity
  8
94673901000_BL5
100
AcDbLine
 62
7
  6
CONTINUOUS
 10
49.3797823479
 20
285.365557988
 11
49.5797823479
 21
285.365557988
  0
LINE
  5
37C
100
AcDbEntity
  8
94673901000_BL5
100
AcDbLine
 62
9
  6
CONTINUOUS
 10
49.3797823479
 20
300.5637071993
 11
46.6933677377
 21
300.5637071993
  0
LINE
  5
37D
100
AcDbEntity
  8
94673901000_BL5
100
AcDbLine
 62
9
  6
CONTINUOUS
 10
38.3797823479
 20
301.2108574496
 11
40.3797823479
 21
301.2108574496
  0
LINE
  5
37E
100
AcDbEntity
  8
94673901000_BL5
100
AcDbLine
 62
7
  6
CONTINUOUS
 10
38.3797823479
 20
304.2108574496
 11
40.3797823479
 21
304.2108574496
  0
LINE
  5
37F
100
AcDbEntity
  8
94673901000_BL5
100
AcDbLine
 62
9
  6
CONTINUOUS
 10
46.6933677377
 20
300.5637071993
 11
40.3802083047
 21
301.2272469936
  0
LINE
  5
380
100
AcDbEntity
  8
94673901000_BL5
100
AcDbLine
 62
7
  6
CONTINUOUS
 10
46.6933677377
 20
303.5472728854
 11
40.3802083047
 21
304.2108126798
  0
LINE
  5
381
100
AcDbEntity
  8
94673901000_BL5
100
AcDbLine
 62
7
  6
CONTINUOUS
 10
40.3797823479
 20
301.2108574496
 11
40.3797823479
 21
267.2108574496
  0
LINE
  5
382
100
AcDbEntity
  8
94673901000_BL5
100
AcDbLine
 62
9
  6
CONTINUOUS
 10
46.6933677377
 20
300.5637071993
 11
46.6933677377
 21
267.8580076999
  0
LINE
  5
383
100
AcDbEntity
  8
94673901000_BL5
100
AcDbLine
 62
7
  6
CONTINUOUS
 10
49.3797823479
 20
300.5637071993
 11
49.3797823479
 21
267.8580076999
  0
LINE
  5
384
100
AcDbEntity
  8
94673901000_BL5
100
AcDbLine
 62
7
  6
CONTINUOUS
 10
49.5797823479
 20
285.365557988
 11
49.5797823479
 21
283.0561569112
  0
ARC
  5
385
100
AcDbEntity
  8
94673901000_BL5
100
AcDbCircle
 62
9
  6
CONTINUOUS
 10
128.4486831248
 20
267.436167316
 40
2.0120276794
100
AcDbArc
 50
253.0166699288
 51
269.2999141102
  0
ARC
  5
386
100
AcDbEntity
  8
94673901000_BL5
100
AcDbCircle
 62
9
  6
CONTINUOUS
 10
128.4486823157
 20
300.9855524476
 40
2.0120228054
100
AcDbArc
 50
90.7000645416
 51
106.9806663763
  0
ARC
  5
387
100
AcDbEntity
  8
94673901000_BL5
100
AcDbCircle
 62
9
  6
CONTINUOUS
 10
128.8895481239
 20
300.5395656139
 40
2.0099748627
100
AcDbArc
 50
161.592657454
 51
168.7688397748
  0
ARC
  5
388
100
AcDbEntity
  8
94673901000_BL5
100
AcDbCircle
 62
9
  6
CONTINUOUS
 10
128.8895481238
 20
267.8821492853
 40
2.0099748627
100
AcDbArc
 50
191.2311602252
 51
198.4073425461
  0
ARC
  5
389
100
AcDbEntity
  8
94673901000_BL5
100
AcDbCircle
 62
9
  6
CONTINUOUS
 10
128.8707401642
 20
300.5453864565
 40
1.9902911943
100
AcDbArc
 50
161.2911395878
 51
161.5806824039
  0
ARC
  5
38A
100
AcDbEntity
  8
94673901000_BL5
100
AcDbCircle
 62
9
  6
CONTINUOUS
 10
128.8707401581
 20
267.8763284407
 40
1.9902911878
100
AcDbArc
 50
198.4193175955
 51
198.7088604126
  0
ARC
  5
38B
100
AcDbEntity
  8
94673901000_BL5
100
AcDbCircle
 62
7
  6
CONTINUOUS
 10
136.0109796752
 20
267.2434365853
 40
2.0327511965
100
AcDbArc
 50
278.3271761057
 51
283.9682282896
  0
ARC
  5
38C
100
AcDbEntity
  8
94673901000_BL5
100
AcDbCircle
 62
7
  6
CONTINUOUS
 10
136.0109929281
 20
301.1783531718
 40
2.0326753592
100
AcDbArc
 50
76.0316145018
 51
81.3540527656
  0
ARC
  5
38D
100
AcDbEntity
  8
94673901000_BL5
100
AcDbCircle
 62
7
  6
CONTINUOUS
 10
136.0135571882
 20
301.1888421676
 40
2.0218775556
100
AcDbArc
 50
73.6053211143
 51
76.0303826764
  0
ARC
  5
38E
100
AcDbEntity
  8
94673901000_BL5
100
AcDbCircle
 62
7
  6
CONTINUOUS
 10
136.0135573809
 20
267.2328718351
 40
2.021876633
100
AcDbArc
 50
283.9696077066
 51
286.3951342496
  0
ARC
  5
38F
100
AcDbEntity
  8
94673901000_BL5
100
AcDbCircle
 62
7
  6
CONTINUOUS
 10
136.022359064
 20
301.2098259658
 40
1.9992641942
100
AcDbArc
 50
0.029560712
 51
73.6775766837
  0
ARC
  5
390
100
AcDbEntity
  8
94673901000_BL5
100
AcDbCircle
 62
7
  6
CONTINUOUS
 10
136.022359144
 20
267.211888903
 40
1.9992641142
100
AcDbArc
 50
286.3228799203
 51
359.970440159
  0
ARC
  5
391
100
AcDbEntity
  8
94673901000_BL5
100
AcDbCircle
 62
7
  6
CONTINUOUS
 10
46.3797823479
 20
267.8580076999
 40
3.0
100
AcDbArc
 50
276.0
 51
360.0
  0
ARC
  5
392
100
AcDbEntity
  8
94673901000_BL5
100
AcDbCircle
 62
7
  6
CONTINUOUS
 10
46.3797823479
 20
300.5637071993
 40
3.0
100
AcDbArc
 50
0.0
 51
84.0
  0
SPLINE
  5
393
100
AcDbEntity
  8
94673901000_BL5
100
AcDbSpline
 62
9
  6
CONTINUOUS
 70
0
 71
3
 72
15
 73
11
 74
0
 42
0.0000001
 43
0.0000001
 44
0.0000000001
 40
0.0
 40
0.0
 40
0.0
 40
0.0
 40
0.0496003836
 40
0.098122615
 40
0.1682822838
 40
0.2520846427
 40
0.4081783296
 40
0.5242973605
 40
0.7764562012
 40
1.0
 40
1.0
 40
1.0
 40
1.0
 10
138.0161147126
 20
301.2107999298
 30
0.0
 10
138.0130412102
 20
301.2147875214
 30
0.0
 10
138.0030389687
 20
301.2221343507
 30
0.0
 10
137.9874008804
 20
301.2101811196
 30
0.0
 10
137.9763120341
 20
301.19366379
 30
0.0
 10
137.9603483705
 20
301.1662568329
 30
0.0
 10
137.9429705405
 20
301.1343204108
 30
0.0
 10
137.9003773275
 20
301.0996042242
 30
0.0
 10
137.863402537
 20
301.0647383603
 30
0.0
 10
137.8286095245
 20
300.998485554
 30
0.0
 10
137.8081906102
 20
301.0083812769
 30
0.0
  0
SPLINE
  5
394
100
AcDbEntity
  8
94673901000_BL5
100
AcDbSpline
 62
9
  6
CONTINUOUS
 70
0
 71
3
 72
15
 73
11
 74
0
 42
0.0000001
 43
0.0000001
 44
0.0000000001
 40
0.0
 40
0.0
 40
0.0
 40
0.0
 40
0.0496003836
 40
0.098122615
 40
0.1682822838
 40
0.2520846427
 40
0.4081783296
 40
0.5242973605
 40
0.7764562012
 40
1.0
 40
1.0
 40
1.0
 40
1.0
 10
138.0161147126
 20
267.2109149694
 30
0.0
 10
138.0130412102
 20
267.2069273778
 30
0.0
 10
138.0030389687
 20
267.1995805485
 30
0.0
 10
137.9874008804
 20
267.2115337796
 30
0.0
 10
137.9763120341
 20
267.2280511092
 30
0.0
 10
137.9603483705
 20
267.2554580663
 30
0.0
 10
137.9429705405
 20
267.2873944884
 30
0.0
 10
137.9003773275
 20
267.3221106751
 30
0.0
 10
137.863402537
 20
267.3569765389
 30
0.0
 10
137.8286095245
 20
267.4232293452
 30
0.0
 10
137.8081906102
 20
267.4133336223
 30
0.0
  0
SPLINE
  5
395
100
AcDbEntity
  8
94673901000_BL5
100
AcDbSpline
 62
9
  6
CONTINUOUS
 70
0
 71
3
 72
9
 73
5
 74
0
 42
0.0000001
 43
0.0000001
 44
0.0000000001
 40
0.0
 40
0.0
 40
0.0
 40
0.0
 40
0.5071087384
 40
1.0
 40
1.0
 40
1.0
 40
1.0
 10
128.3156895427
 20
303.1136594033
 30
0.0
 10
128.3330708473
 20
303.0931675559
 30
0.0
 10
128.3574066967
 20
303.0551130731
 30
0.0
 10
128.4354988236
 20
303.0209230454
 30
0.0
 10
128.4240991648
 20
302.9974250677
 30
0.0
  0
SPLINE
  5
396
100
AcDbEntity
  8
94673901000_BL5
100
AcDbSpline
 62
9
  6
CONTINUOUS
 70
0
 71
3
 72
16
 73
12
 74
0
 42
0.0000001
 43
0.0000001
 44
0.0000000001
 40
0.0
 40
0.0
 40
0.0
 40
0.0
 40
0.0518457162
 40
0.0996592902
 40
0.1687964974
 40
0.2518181064
 40
0.4066326948
 40
0.5218483669
 40
0.6336359316
 40
0.7750325309
 40
1.0
 40
1.0
 40
1.0
 40
1.0
 10
136.0146363942
 20
303.20534917
 30
0.0
 10
136.018854995
 20
303.2022981876
 30
0.0
 10
136.0269902479
 20
303.1928191505
 30
0.0
 10
136.0160717255
 20
303.1765566162
 30
0.0
 10
135.999939056
 20
303.1655415469
 30
0.0
 10
135.9733714583
 20
303.1496101264
 30
0.0
 10
135.9420702265
 20
303.131831338
 30
0.0
 10
135.9180165128
 20
303.1018296172
 30
0.0
 10
135.8951220981
 20
303.0714062439
 30
0.0
 10
135.860058972
 20
303.0464979462
 30
0.0
 10
135.8092863456
 20
303.0177503423
 30
0.0
 10
135.8191468195
 20
302.9974250677
 30
0.0
  0
SPLINE
  5
397
100
AcDbEntity
  8
94673901000_BL5
100
AcDbSpline
 62
9
  6
CONTINUOUS
 70
0
 71
3
 72
16
 73
12
 74
0
 42
0.0000001
 43
0.0000001
 44
0.0000000001
 40
0.0
 40
0.0
 40
0.0
 40
0.0
 40
0.0518457162
 40
0.0996592902
 40
0.1687964974
 40
0.2518181064
 40
0.4066326948
 40
0.5218483669
 40
0.6336359316
 40
0.7750325309
 40
1.0
 40
1.0
 40
1.0
 40
1.0
 10
136.0146363942
 20
265.2163657292
 30
0.0
 10
136.018854995
 20
265.2194167116
 30
0.0
 10
136.0269902479
 20
265.2288957487
 30
0.0
 10
136.0160717255
 20
265.245158283
 30
0.0
 10
135.999939056
 20
265.2561733523
 30
0.0
 10
135.9733714583
 20
265.2721047729
 30
0.0
 10
135.9420702265
 20
265.2898835612
 30
0.0
 10
135.9180165128
 20
265.319885282
 30
0.0
 10
135.8951220981
 20
265.3503086553
 30
0.0
 10
135.860058972
 20
265.375216953
 30
0.0
 10
135.8092863456
 20
265.4039645569
 30
0.0
 10
135.8191468195
 20
265.4242898315
 30
0.0
  0
SPLINE
  5
398
100
AcDbEntity
  8
94673901000_BL5
100
AcDbSpline
 62
9
  6
CONTINUOUS
 70
0
 71
3
 72
9
 73
5
 74
0
 42
0.0000001
 43
0.0000001
 44
0.0000000001
 40
0.0
 40
0.0
 40
0.0
 40
0.0
 40
0.507127267
 40
1.0
 40
1.0
 40
1.0
 40
1.0
 10
128.315701351
 20
265.308069419
 30
0.0
 10
128.3330790244
 20
265.328561613
 30
0.0
 10
128.3574198783
 20
265.3666042735
 30
0.0
 10
128.4354970944
 20
265.4007954183
 30
0.0
 10
128.4240991648
 20
265.4242898315
 30
0.0
  0
SPLINE
  5
399
100
AcDbEntity
  8
94673901000_BL5
100
AcDbSpline
 62
9
  6
CONTINUOUS
 70
0
 71
3
 72
9
 73
5
 74
0
 42
0.0000001
 43
0.0000001
 44
0.0000000001
 40
0.0
 40
0.0
 40
0.0
 40
0.0
 40
0.5004894952
 40
1.0
 40
1.0
 40
1.0
 40
1.0
 10
126.9856145918
 20
301.1837911982
 30
0.0
 10
127.1163395455
 20
301.5698052787
 30
0.0
 10
127.630857206
 20
302.2764642414
 30
0.0
 10
128.462046084
 20
302.5483070092
 30
0.0
 10
128.8687732424
 20
302.5527509901
 30
0.0
  0
SPLINE
  5
39A
100
AcDbEntity
  8
94673901000_BL5
100
AcDbSpline
 62
9
  6
CONTINUOUS
 70
0
 71
3
 72
11
 73
7
 74
0
 42
0.0000001
 43
0.0000001
 44
0.0000000001
 40
0.0
 40
0.0
 40
0.0
 40
0.0
 40
0.2496681654
 40
0.5
 40
0.7503318346
 40
1.0
 40
1.0
 40
1.0
 40
1.0
 10
135.3744727419
 20
302.5527509901
 30
0.0
 10
135.631968515
 20
302.5499375407
 30
0.0
 10
136.1519634217
 20
302.4417246167
 30
0.0
 10
136.8088156318
 20
301.9980500893
 30
0.0
 10
137.2524901593
 20
301.3411978793
 30
0.0
 10
137.3607030832
 20
300.8212029725
 30
0.0
 10
137.3635165326
 20
300.5637071993
 30
0.0
  0
SPLINE
  5
39B
100
AcDbEntity
  8
94673901000_BL5
100
AcDbSpline
 62
9
  6
CONTINUOUS
 70
0
 71
3
 72
11
 73
7
 74
0
 42
0.0000001
 43
0.0000001
 44
0.0000000001
 40
0.0
 40
0.0
 40
0.0
 40
0.0
 40
0.2496374777
 40
0.5
 40
0.7503625223
 40
1.0
 40
1.0
 40
1.0
 40
1.0
 10
135.8191468192
 20
302.9974250674
 30
0.0
 10
136.076612899
 20
302.9946119416
 30
0.0
 10
136.5965741251
 20
302.8863512848
 30
0.0
 10
137.2536167003
 20
302.4428511578
 30
0.0
 10
137.6971168273
 20
301.7858085826
 30
0.0
 10
137.8053774842
 20
301.2658473565
 30
0.0
 10
137.80819061
 20
301.0083812767
 30
0.0
  0
SPLINE
  5
39C
100
AcDbEntity
  8
94673901000_BL5
100
AcDbSpline
 62
9
  6
CONTINUOUS
 70
0
 71
3
 72
11
 73
7
 74
0
 42
0.0000001
 43
0.0000001
 44
0.0000000001
 40
0.0
 40
0.0
 40
0.0
 40
0.0
 40
0.2496681654
 40
0.5
 40
0.7503318346
 40
1.0
 40
1.0
 40
1.0
 40
1.0
 10
137.3635165326
 20
267.8580076999
 30
0.0
 10
137.3607030832
 20
267.6005119267
 30
0.0
 10
137.2524901593
 20
267.0805170199
 30
0.0
 10
136.8088156318
 20
266.4236648099
 30
0.0
 10
136.1519634217
 20
265.9799902825
 30
0.0
 10
135.631968515
 20
265.8717773586
 30
0.0
 10
135.3744727419
 20
265.8689639092
 30
0.0
  0
SPLINE
  5
39D
100
AcDbEntity
  8
94673901000_BL5
100
AcDbSpline
 62
9
  6
CONTINUOUS
 70
0
 71
3
 72
11
 73
7
 74
0
 42
0.0000001
 43
0.0000001
 44
0.0000000001
 40
0.0
 40
0.0
 40
0.0
 40
0.0
 40
0.2496374777
 40
0.5
 40
0.7503625223
 40
1.0
 40
1.0
 40
1.0
 40
1.0
 10
137.80819061
 20
267.4133336225
 30
0.0
 10
137.8053774842
 20
267.1558675427
 30
0.0
 10
137.6971168273
 20
266.6359063166
 30
0.0
 10
137.2536167003
 20
265.9788637415
 30
0.0
 10
136.5965741251
 20
265.5353636144
 30
0.0
 10
136.076612899
 20
265.4271029576
 30
0.0
 10
135.8191468192
 20
265.4242898318
 30
0.0
  0
SPLINE
  5
39E
100
AcDbEntity
  8
94673901000_BL5
100
AcDbSpline
 62
9
  6
CONTINUOUS
 70
0
 71
3
 72
9
 73
5
 74
0
 42
0.0000001
 43
0.0000001
 44
0.0000000001
 40
0.0
 40
0.0
 40
0.0
 40
0.0
 40
0.4995105048
 40
1.0
 40
1.0
 40
1.0
 40
1.0
 10
128.8687732424
 20
265.8689639092
 30
0.0
 10
128.462046084
 20
265.87340789
 30
0.0
 10
127.630857206
 20
266.1452506578
 30
0.0
 10
127.1163395455
 20
266.8519096205
 30
0.0
 10
126.9856145918
 20
267.237923701
 30
0.0
  0
SPLINE
  5
39F
100
AcDbEntity
  8
94673901000_BL5
100
AcDbSpline
 62
9
  6
CONTINUOUS
 70
0
 71
3
 72
14
 73
10
 74
0
 42
0.0000001
 43
0.0000001
 44
0.0000000001
 40
0.0
 40
0.0
 40
0.0
 40
0.0
 40
0.3776820376
 40
0.5481208497
 40
0.6976595954
 40
0.820892234
 40
0.9133709115
 40
0.9724701644
 40
1.0
 40
1.0
 40
1.0
 40
1.0
 10
46.6933677377
 20
267.8580076999
 30
0.0
 10
46.732602161
 20
267.4805933935
 30
0.0
 10
46.7791958424
 20
266.9314928965
 30
0.0
 10
46.8142084227
 20
266.231791586
 30
0.0
 10
46.8229945083
 20
265.7855343555
 30
0.0
 10
46.8182949955
 20
265.4212819423
 30
0.0
 10
46.7936863363
 20
265.138984756
 30
0.0
 10
46.7682951008
 20
264.9745946727
 30
0.0
 10
46.7208747915
 20
264.877333121
 30
0.0
 10
46.6933677377
 20
264.8744420138
 30
0.0
  0
SPLINE
  5
3A0
100
AcDbEntity
  8
94673901000_BL5
100
AcDbSpline
 62
7
  6
CONTINUOUS
 70
0
 71
3
 72
13
 73
9
 74
0
 42
0.0000001
 43
0.0000001
 44
0.0000000001
 40
0.0
 40
0.0
 40
0.0
 40
0.0
 40
0.023535275
 40
0.0753518635
 40
0.1578016021
 40
0.2707521577
 40
0.5831769056
 40
1.0
 40
1.0
 40
1.0
 40
1.0
 10
40.3802083047
 20
264.2109022195
 30
0.0
 10
40.3880410311
 20
264.2117254722
 30
0.0
 10
40.4013555195
 20
264.2401085345
 30
0.0
 10
40.4112753729
 20
264.2875298089
 30
0.0
 10
40.4226455227
 20
264.3718567147
 30
0.0
 10
40.4351674288
 20
264.5400470465
 30
0.0
 10
40.444021047
 20
264.8228012925
 30
0.0
 10
40.4447140126
 20
265.0665132726
 30
0.0
 10
40.4439768267
 20
265.2059974802
 30
0.0
  0
SPLINE
  5
3A1
100
AcDbEntity
  8
94673901000_BL5
100
AcDbSpline
 62
7
  6
CONTINUOUS
 70
0
 71
3
 72
9
 73
5
 74
0
 42
0.0000001
 43
0.0000001
 44
0.0000000001
 40
0.0
 40
0.0
 40
0.0
 40
0.0
 40
0.2192185014
 40
1.0
 40
1.0
 40
1.0
 40
1.0
 10
40.4439768267
 20
265.2059974802
 30
0.0
 10
40.443208465
 20
265.3513805379
 30
0.0
 10
40.4336454891
 20
266.0145309214
 30
0.0
 10
40.4070876163
 20
266.6773539462
 30
0.0
 10
40.3802083047
 20
267.1944679056
 30
0.0
  0
SPLINE
  5
3A2
100
AcDbEntity
  8
94673901000_BL5
100
AcDbSpline
 62
9
  6
CONTINUOUS
 70
0
 71
3
 72
14
 73
10
 74
0
 42
0.0000001
 43
0.0000001
 44
0.0000000001
 40
0.0
 40
0.0
 40
0.0
 40
0.0
 40
0.0275298356
 40
0.0866290885
 40
0.179107766
 40
0.3023404046
 40
0.4518791503
 40
0.6223179624
 40
1.0
 40
1.0
 40
1.0
 40
1.0
 10
46.6933677377
 20
303.5472728854
 30
0.0
 10
46.7208747915
 20
303.5443817782
 30
0.0
 10
46.7682951008
 20
303.4471202265
 30
0.0
 10
46.7936863363
 20
303.2827301432
 30
0.0
 10
46.8182949955
 20
303.0004329569
 30
0.0
 10
46.8229945083
 20
302.6361805437
 30
0.0
 10
46.8142084227
 20
302.1899233132
 30
0.0
 10
46.7791958424
 20
301.4902220028
 30
0.0
 10
46.732602161
 20
300.9411215057
 30
0.0
 10
46.6933677377
 20
300.5637071993
 30
0.0
  0
SPLINE
  5
3A3
100
AcDbEntity
  8
94673901000_BL5
100
AcDbSpline
 62
7
  6
CONTINUOUS
 70
0
 71
3
 72
13
 73
9
 74
0
 42
0.0000001
 43
0.0000001
 44
0.0000000001
 40
0.0
 40
0.0
 40
0.0
 40
0.0
 40
0.0235352288
 40
0.0753518244
 40
0.1578016002
 40
0.2707522048
 40
0.5831770189
 40
1.0
 40
1.0
 40
1.0
 40
1.0
 10
40.3802083047
 20
304.2108126798
 30
0.0
 10
40.3880410964
 20
304.2099894202
 30
0.0
 10
40.4013556279
 20
304.1816060026
 30
0.0
 10
40.411275527
 20
304.1341842708
 30
0.0
 10
40.4226457033
 20
304.0498564299
 30
0.0
 10
40.4351676159
 20
303.8816643198
 30
0.0
 10
40.4440211636
 20
303.5989071467
 30
0.0
 10
40.4447140262
 20
303.3551926752
 30
0.0
 10
40.443976772
 20
303.2157070692
 30
0.0
  0
SPLINE
  5
3A4
100
AcDbEntity
  8
94673901000_BL5
100
AcDbSpline
 62
7
  6
CONTINUOUS
 70
0
 71
3
 72
9
 73
5
 74
0
 42
0.0000001
 43
0.0000001
 44
0.0000000001
 40
0.0
 40
0.0
 40
0.0
 40
0.0
 40
0.2192189109
 40
1.0
 40
1.0
 40
1.0
 40
1.0
 10
40.443976772
 20
303.2157070692
 30
0.0
 10
40.4432083493
 20
303.0703244965
 30
0.0
 10
40.4336452233
 20
302.4071775658
 30
0.0
 10
40.4070874624
 20
301.7443579922
 30
0.0
 10
40.3802083047
 20
301.2272469936
 30
0.0
  0
ELLIPSE
  5
3A5
100
AcDbEntity
  8
94673901000_BL5
100
AcDbEllipse
 62
7
  6
CONTINUOUS
 10
68.9228757106
 20
267.2108574496
 30
0.0
 11
28.5430933627
 21
0.0
 31
0.0
 40
0.1051042353
 41
3.1415926536
 42
3.1470558621
  0
ELLIPSE
  5
3A6
100
AcDbEntity
  8
94673901000_BL5
100
AcDbEllipse
 62
7
  6
CONTINUOUS
 10
68.9228757106
 20
301.2108574496
 30
0.0
 11
28.5430933627
 21
-0.0
 31
0.0
 40
0.1051042353
 41
3.1361294451
 42
3.1415926536
  0
ENDBLK
  5
3A7
100
AcDbEntity
  8
0
  6
BYBLOCK
 62
0
100
AcDbBlockEnd
  0
BLOCK
  5
3A8
100
AcDbEntity
  8
94528905000_M_BL6
100
AcDbBlockBegin
  2
94528905000_M_BL6
 70
64
 10
88.0020998446
 20
314.3108574496
  3
94528905000_M_BL6
  1

  0
LINE
  5
3A9
100
AcDbEntity
  8
94528905000_M_BL6
100
AcDbLine
 62
7
  6
CONTINUOUS
 10
131.2466229921
 20
313.795312993
 11
132.9966229921
 21
313.795312993
  0
LINE
  5
3AA
100
AcDbEntity
  8
94528905000_M_BL6
100
AcDbLine
 62
7
  6
CONTINUOUS
 10
132.9966229921
 20
316.8264019062
 11
131.2466229921
 21
316.8264019062
  0
LINE
  5
3AB
100
AcDbEntity
  8
94528905000_M_BL6
100
AcDbLine
 62
7
  6
CONTINUOUS
 10
130.3716229921
 20
315.3108574496
 11
131.2466229921
 21
313.795312993
  0
LINE
  5
3AC
100
AcDbEntity
  8
94528905000_M_BL6
100
AcDbLine
 62
7
  6
CONTINUOUS
 10
133.8716229921
 20
315.3108574496
 11
132.9966229921
 21
316.8264019062
  0
LINE
  5
3AD
100
AcDbEntity
  8
94528905000_M_BL6
100
AcDbLine
 62
7
  6
CONTINUOUS
 10
131.2466229921
 20
316.8264019062
 11
130.3716229921
 21
315.3108574496
  0
LINE
  5
3AE
100
AcDbEntity
  8
94528905000_M_BL6
100
AcDbLine
 62
7
  6
CONTINUOUS
 10
132.9966229921
 20
313.795312993
 11
133.8716229921
 21
315.3108574496
  0
CIRCLE
  5
3AF
100
AcDbEntity
  8
94528905000_M_BL6
100
AcDbCircle
 62
7
  6
CONTINUOUS
 10
132.1216229921
 20
314.3108574496
 40
5.5
  0
CIRCLE
  5
3B0
100
AcDbEntity
  8
94528905000_M_BL6
100
AcDbCircle
 62
7
  6
CONTINUOUS
 10
132.1216229921
 20
315.3108574496
 40
1.75
  0
CIRCLE
  5
3B1
100
AcDbEntity
  8
94528905000_M_BL6
100
AcDbCircle
 62
7
  6
CONTINUOUS
 10
132.1216229921
 20
315.3108574496
 40
1.515
  0
CIRCLE
  5
3B2
100
AcDbEntity
  8
94528905000_M_BL6
100
AcDbCircle
 62
7
  6
CONTINUOUS
 10
132.1216229921
 20
311.8108574496
 40
0.75
  0
ARC
  5
3B3
100
AcDbEntity
  8
94528905000_M_BL6
100
AcDbCircle
 62
7
  6
CONTINUOUS
 10
35.0340310368
 20
315.3108574496
 40
4.0
100
AcDbArc
 50
326.8389561101
 51
33.1610438899
  0
ENDBLK
  5
3B4
100
AcDbEntity
  8
0
  6
BYBLOCK
 62
0
100
AcDbBlockEnd
  0
BLOCK
  5
3B5
100
AcDbEntity
  8
94673901000_BL7
100
AcDbBlockBegin
  2
94673901000_BL7
 70
64
 10
84.60070267
 20
944.1802661564
  3
94673901000_BL7
  1

  0
LINE
  5
3B6
100
AcDbEntity
  8
94673901000_BL7
100
AcDbLine
 62
7
  6
CONTINUOUS
 10
132.1216229921
 20
1775.365557988
 11
130.1216229921
 21
1774.2108574496
  0
LINE
  5
3B7
100
AcDbEntity
  8
94673901000_BL7
100
AcDbLine
 62
9
  6
CONTINUOUS
 10
135.3744727419
 20
1792.5527509901
 11
135.8191468195
 21
1792.9974250677
  0
LINE
  5
3B8
100
AcDbEntity
  8
94673901000_BL7
100
AcDbLine
 62
9
  6
CONTINUOUS
 10
137.3635165326
 20
1790.5637071993
 11
137.8081906102
 21
1791.0083812769
  0
LINE
  5
3B9
100
AcDbEntity
  8
94673901000_BL7
100
AcDbLine
 62
9
  6
CONTINUOUS
 10
128.8687732424
 20
1755.8689639092
 11
128.4240991648
 21
1755.4242898315
  0
LINE
  5
3BA
100
AcDbEntity
  8
94673901000_BL7
100
AcDbLine
 62
9
  6
CONTINUOUS
 10
128.8687732424
 20
1755.8689639092
 11
128.8687732424
 21
1792.5527509901
  0
LINE
  5
3BB
100
AcDbEntity
  8
94673901000_BL7
100
AcDbLine
 62
7
  6
CONTINUOUS
 10
132.1216229921
 20
1773.0561569112
 11
132.1216229921
 21
1773.8108574496
  0
LINE
  5
3BC
100
AcDbEntity
  8
94673901000_BL7
100
AcDbLine
 62
7
  6
CONTINUOUS
 10
132.1216229921
 20
1774.6108574496
 11
132.1216229921
 21
1775.365557988
  0
LINE
  5
3BD
100
AcDbEntity
  8
94673901000_BL7
100
AcDbLine
 62
7
  6
CONTINUOUS
 10
133.6216229921
 20
1773.8108574496
 11
133.6216229921
 21
1774.6108574496
  0
LINE
  5
3BE
100
AcDbEntity
  8
94673901000_BL7
100
AcDbLine
 62
9
  6
CONTINUOUS
 10
135.3744727419
 20
1755.8689639092
 11
135.3744727419
 21
1792.5527509901
  0
LINE
  5
3BF
100
AcDbEntity
  8
94673901000_BL7
100
AcDbLine
 62
9
  6
CONTINUOUS
 10
137.3635165326
 20
1790.5637071993
 11
137.3635165326
 21
1757.8580076999
  0
LINE
  5
3C0
100
AcDbEntity
  8
94673901000_BL7
100
AcDbLine
 62
7
  6
CONTINUOUS
 10
138.0161147126
 20
1791.2107999298
 11
138.0161147126
 21
1757.2109149694
  0
LINE
  5
3C1
100
AcDbEntity
  8
94673901000_BL7
100
AcDbLine
 62
9
  6
CONTINUOUS
 10
135.8191468195
 20
1755.4242898315
 11
135.3744727419
 21
1755.8689639092
  0
LINE
  5
3C2
100
AcDbEntity
  8
94673901000_BL7
100
AcDbLine
 62
9
  6
CONTINUOUS
 10
137.8081906102
 20
1757.4133336223
 11
137.3635165326
 21
1757.8580076999
  0
LINE
  5
3C3
100
AcDbEntity
  8
94673901000_BL7
100
AcDbLine
 62
9
  6
CONTINUOUS
 10
128.4240991648
 20
1792.9974250677
 11
128.8687732424
 21
1792.5527509901
  0
LINE
  5
3C4
100
AcDbEntity
  8
94673901000_BL7
100
AcDbLine
 62
7
  6
CONTINUOUS
 10
130.1216229921
 20
1774.2108574496
 11
132.1216229921
 21
1773.0561569112
  0
LINE
  5
3C5
100
AcDbEntity
  8
94673901000_BL7
100
AcDbLine
 62
9
  6
CONTINUOUS
 10
135.3744727419
 20
1755.8689639092
 11
128.8687732424
 21
1755.8689639092
  0
LINE
  5
3C6
100
AcDbEntity
  8
94673901000_BL7
100
AcDbLine
 62
9
  6
CONTINUOUS
 10
138.021585004
 20
1757.2108574496
 11
138.3216229921
 21
1757.2108574496
  0
LINE
  5
3C7
100
AcDbEntity
  8
94673901000_BL7
100
AcDbLine
 62
9
  6
CONTINUOUS
 10
126.9216229921
 20
1757.8580076999
 11
137.3635165326
 21
1757.8580076999
  0
LINE
  5
3C8
100
AcDbEntity
  8
94673901000_BL7
100
AcDbLine
 62
7
  6
CONTINUOUS
 10
132.1216229921
 20
1773.8108574496
 11
133.6216229921
 21
1773.8108574496
  0
LINE
  5
3C9
100
AcDbEntity
  8
94673901000_BL7
100
AcDbLine
 62
7
  6
CONTINUOUS
 10
133.6216229921
 20
1774.6108574496
 11
132.1216229921
 21
1774.6108574496
  0
LINE
  5
3CA
100
AcDbEntity
  8
94673901000_BL7
100
AcDbLine
 62
9
  6
CONTINUOUS
 10
126.9216229921
 20
1790.5637071993
 11
137.3635165326
 21
1790.5637071993
  0
LINE
  5
3CB
100
AcDbEntity
  8
94673901000_BL7
100
AcDbLine
 62
9
  6
CONTINUOUS
 10
138.3216229921
 20
1791.2108574496
 11
138.021585004
 21
1791.2108574496
  0
LINE
  5
3CC
100
AcDbEntity
  8
94673901000_BL7
100
AcDbLine
 62
9
  6
CONTINUOUS
 10
128.8687732424
 20
1792.5527509901
 11
135.3744727419
 21
1792.5527509901
  0
LINE
  5
3CD
100
AcDbEntity
  8
94673901000_BL7
100
AcDbLine
 62
7
  6
CONTINUOUS
 10
40.3797823479
 20
1791.2108574496
 11
40.3797823479
 21
1757.2108574496
  0
LINE
  5
3CE
100
AcDbEntity
  8
94673901000_BL7
100
AcDbLine
 62
9
  6
CONTINUOUS
 10
46.6933677377
 20
1790.5637071993
 11
46.6933677377
 21
1757.8580076999
  0
LINE
  5
3CF
100
AcDbEntity
  8
94673901000_BL7
100
AcDbLine
 62
7
  6
CONTINUOUS
 10
49.3797823479
 20
1790.5637071993
 11
49.3797823479
 21
1757.8580076999
  0
LINE
  5
3D0
100
AcDbEntity
  8
94673901000_BL7
100
AcDbLine
 62
7
  6
CONTINUOUS
 10
49.5797823479
 20
1775.365557988
 11
49.5797823479
 21
1773.0561569112
  0
LINE
  5
3D1
100
AcDbEntity
  8
94673901000_BL7
100
AcDbLine
 62
7
  6
CONTINUOUS
 10
40.3797823479
 20
1754.2108574496
 11
46.6933677377
 21
1754.8744420138
  0
LINE
  5
3D2
100
AcDbEntity
  8
94673901000_BL7
100
AcDbLine
 62
9
  6
CONTINUOUS
 10
40.3802083047
 20
1757.1944679056
 11
46.6933677377
 21
1757.8580076999
  0
LINE
  5
3D3
100
AcDbEntity
  8
94673901000_BL7
100
AcDbLine
 62
7
  6
CONTINUOUS
 10
40.3797823479
 20
1754.2108574496
 11
38.3797823479
 21
1754.2108574496
  0
LINE
  5
3D4
100
AcDbEntity
  8
94673901000_BL7
100
AcDbLine
 62
9
  6
CONTINUOUS
 10
40.3797823479
 20
1757.2108574496
 11
38.3797823479
 21
1757.2108574496
  0
LINE
  5
3D5
100
AcDbEntity
  8
94673901000_BL7
100
AcDbLine
 62
9
  6
CONTINUOUS
 10
49.3797823479
 20
1757.8580076999
 11
46.6933677378
 21
1757.8580077078
  0
LINE
  5
3D6
100
AcDbEntity
  8
94673901000_BL7
100
AcDbLine
 62
7
  6
CONTINUOUS
 10
49.3797823479
 20
1773.0561569112
 11
49.5797823479
 21
1773.0561569112
  0
LINE
  5
3D7
100
AcDbEntity
  8
94673901000_BL7
100
AcDbLine
 62
7
  6
CONTINUOUS
 10
49.3797823479
 20
1773.8108574496
 11
49.5797823479
 21
1773.8108574496
  0
LINE
  5
3D8
100
AcDbEntity
  8
94673901000_BL7
100
AcDbLine
 62
7
  6
CENTER
 10
30.8797823479
 20
1774.2108574496
 11
52.5797823479
 21
1774.2108574496
  0
LINE
  5
3D9
100
AcDbEntity
  8
94673901000_BL7
100
AcDbLine
 62
7
  6
CONTINUOUS
 10
49.3797823479
 20
1774.6108574496
 11
49.5797823479
 21
1774.6108574496
  0
LINE
  5
3DA
100
AcDbEntity
  8
94673901000_BL7
100
AcDbLine
 62
7
  6
CONTINUOUS
 10
49.3797823479
 20
1775.365557988
 11
49.5797823479
 21
1775.365557988
  0
LINE
  5
3DB
100
AcDbEntity
  8
94673901000_BL7
100
AcDbLine
 62
9
  6
CONTINUOUS
 10
49.3797823479
 20
1790.5637071993
 11
46.6933677377
 21
1790.5637071993
  0
LINE
  5
3DC
100
AcDbEntity
  8
94673901000_BL7
100
AcDbLine
 62
9
  6
CONTINUOUS
 10
38.3797823479
 20
1791.2108574496
 11
40.3797823479
 21
1791.2108574496
  0
LINE
  5
3DD
100
AcDbEntity
  8
94673901000_BL7
100
AcDbLine
 62
7
  6
CONTINUOUS
 10
38.3797823479
 20
1794.2108574496
 11
40.3797823479
 21
1794.2108574496
  0
LINE
  5
3DE
100
AcDbEntity
  8
94673901000_BL7
100
AcDbLine
 62
9
  6
CONTINUOUS
 10
46.6933677377
 20
1790.5637071993
 11
40.3802083047
 21
1791.2272469936
  0
LINE
  5
3DF
100
AcDbEntity
  8
94673901000_BL7
100
AcDbLine
 62
7
  6
CONTINUOUS
 10
46.6933677377
 20
1793.5472728854
 11
40.3802083047
 21
1794.2108126798
  0
LINE
  5
3E0
100
AcDbEntity
  8
94673901000_BL7
100
AcDbLine
 62
7
  6
CONTINUOUS
 10
46.6933677377
 20
94.8132594274
 11
40.3802083047
 21
94.149719633
  0
LINE
  5
3E1
100
AcDbEntity
  8
94673901000_BL7
100
AcDbLine
 62
7
  6
CONTINUOUS
 10
34.5808548166
 20
94.1496748632
 11
36.4797823479
 21
94.1496748632
  0
LINE
  5
3E2
100
AcDbEntity
  8
94673901000_BL7
100
AcDbLine
 62
7
  6
CONTINUOUS
 10
36.4797823479
 20
94.1496748632
 11
40.3797823479
 21
94.1496748632
  0
LINE
  5
3E3
100
AcDbEntity
  8
94673901000_BL7
100
AcDbLine
 62
7
  6
CONTINUOUS
 10
36.4797823479
 20
107.9496748632
 11
36.4797823479
 21
94.1496748632
  0
LINE
  5
3E4
100
AcDbEntity
  8
94673901000_BL7
100
AcDbLine
 62
9
  6
CONTINUOUS
 10
46.6933677377
 20
97.7968251135
 11
40.3802083047
 21
97.1332853191
  0
LINE
  5
3E5
100
AcDbEntity
  8
94673901000_BL7
100
AcDbLine
 62
9
  6
CONTINUOUS
 10
37.6797823479
 20
97.1496748632
 11
40.3797823479
 21
97.1496748632
  0
LINE
  5
3E6
100
AcDbEntity
  8
94673901000_BL7
100
AcDbLine
 62
9
  6
CONTINUOUS
 10
49.3797823479
 20
97.7968251135
 11
46.6933677379
 21
97.7968251274
  0
LINE
  5
3E7
100
AcDbEntity
  8
94673901000_BL7
100
AcDbLine
 62
9
  6
CONTINUOUS
 10
37.4797823479
 20
94.1496748632
 11
37.4797823479
 21
97.0496748632
  0
LINE
  5
3E8
100
AcDbEntity
  8
94673901000_BL7
100
AcDbLine
 62
9
  6
CONTINUOUS
 10
37.4797823479
 20
105.0496748632
 11
37.4797823479
 21
107.9496748632
  0
LINE
  5
3E9
100
AcDbEntity
  8
94673901000_BL7
100
AcDbLine
 62
7
  6
CONTINUOUS
 10
49.3797823479
 20
99.5496748632
 11
49.5797823479
 21
99.5496748632
  0
LINE
  5
3EA
100
AcDbEntity
  8
94673901000_BL7
100
AcDbLine
 62
7
  6
CONTINUOUS
 10
49.3797823479
 20
101.0496748632
 11
49.5797823479
 21
101.0496748632
  0
LINE
  5
3EB
100
AcDbEntity
  8
94673901000_BL7
100
AcDbLine
 62
7
  6
CONTINUOUS
 10
40.3797823479
 20
97.1496748632
 11
40.3797823479
 21
104.9496748632
  0
LINE
  5
3EC
100
AcDbEntity
  8
94673901000_BL7
100
AcDbLine
 62
7
  6
CONTINUOUS
 10
49.3797823479
 20
103.0496748632
 11
49.5797823479
 21
103.0496748632
  0
LINE
  5
3ED
100
AcDbEntity
  8
94673901000_BL7
100
AcDbLine
 62
9
  6
CONTINUOUS
 10
49.3797823479
 20
104.3025246129
 11
46.6933677377
 21
104.3025246129
  0
LINE
  5
3EE
100
AcDbEntity
  8
94673901000_BL7
100
AcDbLine
 62
9
  6
CONTINUOUS
 10
40.3797823479
 20
104.9496748632
 11
37.6797823479
 21
104.9496748632
  0
LINE
  5
3EF
100
AcDbEntity
  8
94673901000_BL7
100
AcDbLine
 62
9
  6
CONTINUOUS
 10
40.3802083047
 20
104.9660644072
 11
46.6933677377
 21
104.3025246129
  0
LINE
  5
3F0
100
AcDbEntity
  8
94673901000_BL7
100
AcDbLine
 62
9
  6
CONTINUOUS
 10
46.6933677377
 20
104.3025246129
 11
46.6933677377
 21
97.7968251135
  0
LINE
  5
3F1
100
AcDbEntity
  8
94673901000_BL7
100
AcDbLine
 62
7
  6
CONTINUOUS
 10
34.5808548166
 20
107.9496748632
 11
36.4797823479
 21
107.9496748632
  0
LINE
  5
3F2
100
AcDbEntity
  8
94673901000_BL7
100
AcDbLine
 62
7
  6
CONTINUOUS
 10
36.4797823479
 20
107.9496748632
 11
40.3797823479
 21
107.9496748632
  0
LINE
  5
3F3
100
AcDbEntity
  8
94673901000_BL7
100
AcDbLine
 62
7
  6
CONTINUOUS
 10
40.3802083047
 20
107.9496300933
 11
46.6933677377
 21
107.286090299
  0
LINE
  5
3F4
100
AcDbEntity
  8
94673901000_BL7
100
AcDbLine
 62
7
  6
CONTINUOUS
 10
49.3797823479
 20
104.3025246129
 11
49.3797823479
 21
97.7968251135
  0
LINE
  5
3F5
100
AcDbEntity
  8
94673901000_BL7
100
AcDbLine
 62
7
  6
CONTINUOUS
 10
49.5797823479
 20
103.0496748632
 11
49.5797823479
 21
99.5496748632
  0
ARC
  5
3F6
100
AcDbEntity
  8
94673901000_BL7
100
AcDbCircle
 62
9
  6
CONTINUOUS
 10
128.4486831248
 20
1757.436167316
 40
2.0120276794
100
AcDbArc
 50
253.0166699288
 51
269.2999141102
  0
ARC
  5
3F7
100
AcDbEntity
  8
94673901000_BL7
100
AcDbCircle
 62
9
  6
CONTINUOUS
 10
128.4486823157
 20
1790.9855524476
 40
2.0120228055
100
AcDbArc
 50
90.7000645417
 51
106.9806663762
  0
ARC
  5
3F8
100
AcDbEntity
  8
94673901000_BL7
100
AcDbCircle
 62
9
  6
CONTINUOUS
 10
128.8895481238
 20
1790.5395656139
 40
2.0099748627
100
AcDbArc
 50
161.592657454
 51
168.7688397748
  0
ARC
  5
3F9
100
AcDbEntity
  8
94673901000_BL7
100
AcDbCircle
 62
9
  6
CONTINUOUS
 10
128.8895481239
 20
1757.8821492853
 40
2.0099748627
100
AcDbArc
 50
191.2311602252
 51
198.407342546
  0
ARC
  5
3FA
100
AcDbEntity
  8
94673901000_BL7
100
AcDbCircle
 62
9
  6
CONTINUOUS
 10
128.8707401826
 20
1757.8763284489
 40
1.9902912137
100
AcDbArc
 50
198.419317598
 51
198.7088604113
  0
ARC
  5
3FB
100
AcDbEntity
  8
94673901000_BL7
100
AcDbCircle
 62
9
  6
CONTINUOUS
 10
128.870740158
 20
1790.5453864586
 40
1.9902911877
100
AcDbArc
 50
161.2911395868
 51
161.5806824039
  0
ARC
  5
3FC
100
AcDbEntity
  8
94673901000_BL7
100
AcDbCircle
 62
7
  6
CONTINUOUS
 10
136.0109796752
 20
1757.2434365852
 40
2.0327511964
100
AcDbArc
 50
278.3271761057
 51
283.9682282898
  0
ARC
  5
3FD
100
AcDbEntity
  8
94673901000_BL7
100
AcDbCircle
 62
7
  6
CONTINUOUS
 10
136.0109929281
 20
1791.1783531717
 40
2.0326753593
100
AcDbArc
 50
76.0316145019
 51
81.3540527654
  0
ARC
  5
3FE
100
AcDbEntity
  8
94673901000_BL7
100
AcDbCircle
 62
7
  6
CONTINUOUS
 10
136.0135571882
 20
1791.1888421675
 40
2.0218775558
100
AcDbArc
 50
73.6053211145
 51
76.0303826765
  0
ARC
  5
3FF
100
AcDbEntity
  8
94673901000_BL7
100
AcDbCircle
 62
7
  6
CONTINUOUS
 10
136.0135573808
 20
1757.2328718355
 40
2.0218766335
100
AcDbArc
 50
283.9696077067
 51
286.3951342493
  0
ARC
  5
400
100
AcDbEntity
  8
94673901000_BL7
100
AcDbCircle
 62
7
  6
CONTINUOUS
 10
136.022359064
 20
1791.2098259658
 40
1.9992641942
100
AcDbArc
 50
0.029560712
 51
73.6775766837
  0
ARC
  5
401
100
AcDbEntity
  8
94673901000_BL7
100
AcDbCircle
 62
7
  6
CONTINUOUS
 10
136.022359144
 20
1757.211888903
 40
1.9992641142
100
AcDbArc
 50
286.3228799202
 51
359.970440159
  0
ARC
  5
402
100
AcDbEntity
  8
94673901000_BL7
100
AcDbCircle
 62
7
  6
CONTINUOUS
 10
46.3797823479
 20
1757.8580076999
 40
3.0
100
AcDbArc
 50
276.0
 51
360.0
  0
ARC
  5
403
100
AcDbEntity
  8
94673901000_BL7
100
AcDbCircle
 62
7
  6
CONTINUOUS
 10
46.3797823479
 20
1790.5637071993
 40
3.0
100
AcDbArc
 50
0.0
 51
83.9999999972
  0
ARC
  5
404
100
AcDbEntity
  8
94673901000_BL7
100
AcDbCircle
 62
7
  6
CONTINUOUS
 10
18.35115158
 20
95.026851729
 40
22.093140514
100
AcDbArc
 50
0.0041115978
 51
0.3199885924
  0
ARC
  5
405
100
AcDbEntity
  8
94673901000_BL7
100
AcDbCircle
 62
7
  6
CONTINUOUS
 10
18.3512911212
 20
107.0724977382
 40
22.0930009728
100
AcDbArc
 50
359.6800370646
 51
359.9958890483
  0
ARC
  5
406
100
AcDbEntity
  8
94673901000_BL7
100
AcDbCircle
 62
7
  6
CONTINUOUS
 10
46.3797823479
 20
97.7968251135
 40
3.0
100
AcDbArc
 50
276.0000000009
 51
360.0
  0
ARC
  5
407
100
AcDbEntity
  8
94673901000_BL7
100
AcDbCircle
 62
7
  6
CONTINUOUS
 10
46.3797823479
 20
104.3025246129
 40
3.0
100
AcDbArc
 50
0.0
 51
83.9999999991
  0
SPLINE
  5
408
100
AcDbEntity
  8
94673901000_BL7
100
AcDbSpline
 62
9
  6
CONTINUOUS
 70
0
 71
3
 72
15
 73
11
 74
0
 42
0.0000001
 43
0.0000001
 44
0.0000000001
 40
0.0
 40
0.0
 40
0.0
 40
0.0
 40
0.0496003836
 40
0.098122615
 40
0.1682822838
 40
0.2520846427
 40
0.4081783296
 40
0.5242973605
 40
0.7764562012
 40
1.0
 40
1.0
 40
1.0
 40
1.0
 10
138.0161147126
 20
1791.2107999298
 30
0.0
 10
138.0130412102
 20
1791.2147875214
 30
0.0
 10
138.0030389687
 20
1791.2221343507
 30
0.0
 10
137.9874008804
 20
1791.2101811196
 30
0.0
 10
137.9763120341
 20
1791.19366379
 30
0.0
 10
137.9603483705
 20
1791.1662568329
 30
0.0
 10
137.9429705405
 20
1791.1343204108
 30
0.0
 10
137.9003773275
 20
1791.0996042242
 30
0.0
 10
137.863402537
 20
1791.0647383603
 30
0.0
 10
137.8286095245
 20
1790.998485554
 30
0.0
 10
137.8081906102
 20
1791.0083812769
 30
0.0
  0
SPLINE
  5
409
100
AcDbEntity
  8
94673901000_BL7
100
AcDbSpline
 62
9
  6
CONTINUOUS
 70
0
 71
3
 72
15
 73
11
 74
0
 42
0.0000001
 43
0.0000001
 44
0.0000000001
 40
0.0
 40
0.0
 40
0.0
 40
0.0
 40
0.0496003836
 40
0.098122615
 40
0.1682822838
 40
0.2520846427
 40
0.4081783296
 40
0.5242973605
 40
0.7764562012
 40
1.0
 40
1.0
 40
1.0
 40
1.0
 10
138.0161147126
 20
1757.2109149694
 30
0.0
 10
138.0130412102
 20
1757.2069273778
 30
0.0
 10
138.0030389687
 20
1757.1995805485
 30
0.0
 10
137.9874008804
 20
1757.2115337796
 30
0.0
 10
137.9763120341
 20
1757.2280511092
 30
0.0
 10
137.9603483705
 20
1757.2554580663
 30
0.0
 10
137.9429705405
 20
1757.2873944884
 30
0.0
 10
137.9003773275
 20
1757.3221106751
 30
0.0
 10
137.863402537
 20
1757.3569765389
 30
0.0
 10
137.8286095245
 20
1757.4232293452
 30
0.0
 10
137.8081906102
 20
1757.4133336223
 30
0.0
  0
SPLINE
  5
40A
100
AcDbEntity
  8
94673901000_BL7
100
AcDbSpline
 62
9
  6
CONTINUOUS
 70
0
 71
3
 72
9
 73
5
 74
0
 42
0.0000001
 43
0.0000001
 44
0.0000000001
 40
0.0
 40
0.0
 40
0.0
 40
0.0
 40
0.5071087384
 40
1.0
 40
1.0
 40
1.0
 40
1.0
 10
128.3156895427
 20
1793.1136594033
 30
0.0
 10
128.3330708473
 20
1793.0931675559
 30
0.0
 10
128.3574066967
 20
1793.0551130731
 30
0.0
 10
128.4354988236
 20
1793.0209230454
 30
0.0
 10
128.4240991648
 20
1792.9974250677
 30
0.0
  0
SPLINE
  5
40B
100
AcDbEntity
  8
94673901000_BL7
100
AcDbSpline
 62
9
  6
CONTINUOUS
 70
0
 71
3
 72
16
 73
12
 74
0
 42
0.0000001
 43
0.0000001
 44
0.0000000001
 40
0.0
 40
0.0
 40
0.0
 40
0.0
 40
0.0518457162
 40
0.0996592902
 40
0.1687964974
 40
0.2518181064
 40
0.4066326948
 40
0.5218483669
 40
0.6336359316
 40
0.7750325309
 40
1.0
 40
1.0
 40
1.0
 40
1.0
 10
136.0146363942
 20
1793.20534917
 30
0.0
 10
136.018854995
 20
1793.2022981876
 30
0.0
 10
136.0269902479
 20
1793.1928191505
 30
0.0
 10
136.0160717255
 20
1793.1765566162
 30
0.0
 10
135.999939056
 20
1793.1655415469
 30
0.0
 10
135.9733714583
 20
1793.1496101264
 30
0.0
 10
135.9420702265
 20
1793.131831338
 30
0.0
 10
135.9180165128
 20
1793.1018296172
 30
0.0
 10
135.8951220981
 20
1793.0714062439
 30
0.0
 10
135.860058972
 20
1793.0464979462
 30
0.0
 10
135.8092863456
 20
1793.0177503423
 30
0.0
 10
135.8191468195
 20
1792.9974250677
 30
0.0
  0
SPLINE
  5
40C
100
AcDbEntity
  8
94673901000_BL7
100
AcDbSpline
 62
9
  6
CONTINUOUS
 70
0
 71
3
 72
16
 73
12
 74
0
 42
0.0000001
 43
0.0000001
 44
0.0000000001
 40
0.0
 40
0.0
 40
0.0
 40
0.0
 40
0.0518457162
 40
0.0996592902
 40
0.1687964974
 40
0.2518181064
 40
0.4066326948
 40
0.5218483669
 40
0.6336359316
 40
0.7750325309
 40
1.0
 40
1.0
 40
1.0
 40
1.0
 10
136.0146363942
 20
1755.2163657292
 30
0.0
 10
136.018854995
 20
1755.2194167116
 30
0.0
 10
136.0269902479
 20
1755.2288957487
 30
0.0
 10
136.0160717255
 20
1755.245158283
 30
0.0
 10
135.999939056
 20
1755.2561733523
 30
0.0
 10
135.9733714583
 20
1755.2721047729
 30
0.0
 10
135.9420702265
 20
1755.2898835612
 30
0.0
 10
135.9180165128
 20
1755.319885282
 30
0.0
 10
135.8951220981
 20
1755.3503086553
 30
0.0
 10
135.860058972
 20
1755.375216953
 30
0.0
 10
135.8092863456
 20
1755.4039645569
 30
0.0
 10
135.8191468195
 20
1755.4242898315
 30
0.0
  0
SPLINE
  5
40D
100
AcDbEntity
  8
94673901000_BL7
100
AcDbSpline
 62
9
  6
CONTINUOUS
 70
0
 71
3
 72
9
 73
5
 74
0
 42
0.0000001
 43
0.0000001
 44
0.0000000001
 40
0.0
 40
0.0
 40
0.0
 40
0.0
 40
0.507127267
 40
1.0
 40
1.0
 40
1.0
 40
1.0
 10
128.315701351
 20
1755.308069419
 30
0.0
 10
128.3330790244
 20
1755.328561613
 30
0.0
 10
128.3574198783
 20
1755.3666042735
 30
0.0
 10
128.4354970944
 20
1755.4007954183
 30
0.0
 10
128.4240991648
 20
1755.4242898315
 30
0.0
  0
SPLINE
  5
40E
100
AcDbEntity
  8
94673901000_BL7
100
AcDbSpline
 62
9
  6
CONTINUOUS
 70
0
 71
3
 72
9
 73
5
 74
0
 42
0.0000001
 43
0.0000001
 44
0.0000000001
 40
0.0
 40
0.0
 40
0.0
 40
0.0
 40
0.5004894952
 40
1.0
 40
1.0
 40
1.0
 40
1.0
 10
126.9856145918
 20
1791.1837911982
 30
0.0
 10
127.1163395455
 20
1791.5698052787
 30
0.0
 10
127.630857206
 20
1792.2764642414
 30
0.0
 10
128.462046084
 20
1792.5483070092
 30
0.0
 10
128.8687732424
 20
1792.5527509901
 30
0.0
  0
SPLINE
  5
40F
100
AcDbEntity
  8
94673901000_BL7
100
AcDbSpline
 62
9
  6
CONTINUOUS
 70
0
 71
3
 72
11
 73
7
 74
0
 42
0.0000001
 43
0.0000001
 44
0.0000000001
 40
0.0
 40
0.0
 40
0.0
 40
0.0
 40
0.2496681654
 40
0.5
 40
0.7503318346
 40
1.0
 40
1.0
 40
1.0
 40
1.0
 10
135.3744727419
 20
1792.5527509901
 30
0.0
 10
135.631968515
 20
1792.5499375407
 30
0.0
 10
136.1519634217
 20
1792.4417246167
 30
0.0
 10
136.8088156318
 20
1791.9980500893
 30
0.0
 10
137.2524901593
 20
1791.3411978793
 30
0.0
 10
137.3607030832
 20
1790.8212029725
 30
0.0
 10
137.3635165326
 20
1790.5637071993
 30
0.0
  0
SPLINE
  5
410
100
AcDbEntity
  8
94673901000_BL7
100
AcDbSpline
 62
9
  6
CONTINUOUS
 70
0
 71
3
 72
11
 73
7
 74
0
 42
0.0000001
 43
0.0000001
 44
0.0000000001
 40
0.0
 40
0.0
 40
0.0
 40
0.0
 40
0.2496374777
 40
0.5
 40
0.7503625223
 40
1.0
 40
1.0
 40
1.0
 40
1.0
 10
135.8191468192
 20
1792.9974250674
 30
0.0
 10
136.076612899
 20
1792.9946119416
 30
0.0
 10
136.5965741251
 20
1792.8863512848
 30
0.0
 10
137.2536167003
 20
1792.4428511578
 30
0.0
 10
137.6971168273
 20
1791.7858085826
 30
0.0
 10
137.8053774842
 20
1791.2658473565
 30
0.0
 10
137.80819061
 20
1791.0083812767
 30
0.0
  0
SPLINE
  5
411
100
AcDbEntity
  8
94673901000_BL7
100
AcDbSpline
 62
9
  6
CONTINUOUS
 70
0
 71
3
 72
11
 73
7
 74
0
 42
0.0000001
 43
0.0000001
 44
0.0000000001
 40
0.0
 40
0.0
 40
0.0
 40
0.0
 40
0.2496681654
 40
0.5
 40
0.7503318346
 40
1.0
 40
1.0
 40
1.0
 40
1.0
 10
137.3635165326
 20
1757.8580076999
 30
0.0
 10
137.3607030832
 20
1757.6005119267
 30
0.0
 10
137.2524901593
 20
1757.0805170199
 30
0.0
 10
136.8088156318
 20
1756.4236648099
 30
0.0
 10
136.1519634217
 20
1755.9799902825
 30
0.0
 10
135.631968515
 20
1755.8717773586
 30
0.0
 10
135.3744727419
 20
1755.8689639092
 30
0.0
  0
SPLINE
  5
412
100
AcDbEntity
  8
94673901000_BL7
100
AcDbSpline
 62
9
  6
CONTINUOUS
 70
0
 71
3
 72
11
 73
7
 74
0
 42
0.0000001
 43
0.0000001
 44
0.0000000001
 40
0.0
 40
0.0
 40
0.0
 40
0.0
 40
0.2496374777
 40
0.5
 40
0.7503625223
 40
1.0
 40
1.0
 40
1.0
 40
1.0
 10
137.80819061
 20
1757.4133336225
 30
0.0
 10
137.8053774842
 20
1757.1558675427
 30
0.0
 10
137.6971168273
 20
1756.6359063166
 30
0.0
 10
137.2536167003
 20
1755.9788637415
 30
0.0
 10
136.5965741251
 20
1755.5353636144
 30
0.0
 10
136.076612899
 20
1755.4271029576
 30
0.0
 10
135.8191468192
 20
1755.4242898318
 30
0.0
  0
SPLINE
  5
413
100
AcDbEntity
  8
94673901000_BL7
100
AcDbSpline
 62
9
  6
CONTINUOUS
 70
0
 71
3
 72
9
 73
5
 74
0
 42
0.0000001
 43
0.0000001
 44
0.0000000001
 40
0.0
 40
0.0
 40
0.0
 40
0.0
 40
0.4995105048
 40
1.0
 40
1.0
 40
1.0
 40
1.0
 10
128.8687732424
 20
1755.8689639092
 30
0.0
 10
128.462046084
 20
1755.87340789
 30
0.0
 10
127.630857206
 20
1756.1452506578
 30
0.0
 10
127.1163395455
 20
1756.8519096205
 30
0.0
 10
126.9856145918
 20
1757.237923701
 30
0.0
  0
SPLINE
  5
414
100
AcDbEntity
  8
94673901000_BL7
100
AcDbSpline
 62
9
  6
CONTINUOUS
 70
0
 71
3
 72
14
 73
10
 74
0
 42
0.0000001
 43
0.0000001
 44
0.0000000001
 40
0.0
 40
0.0
 40
0.0
 40
0.0
 40
0.3776820376
 40
0.5481208497
 40
0.6976595954
 40
0.820892234
 40
0.9133709115
 40
0.9724701644
 40
1.0
 40
1.0
 40
1.0
 40
1.0
 10
46.6933677377
 20
1757.8580076999
 30
0.0
 10
46.732602161
 20
1757.4805933935
 30
0.0
 10
46.7791958424
 20
1756.9314928965
 30
0.0
 10
46.8142084227
 20
1756.231791586
 30
0.0
 10
46.8229945083
 20
1755.7855343555
 30
0.0
 10
46.8182949955
 20
1755.4212819423
 30
0.0
 10
46.7936863363
 20
1755.138984756
 30
0.0
 10
46.7682951008
 20
1754.9745946727
 30
0.0
 10
46.7208747915
 20
1754.877333121
 30
0.0
 10
46.6933677377
 20
1754.8744420138
 30
0.0
  0
SPLINE
  5
415
100
AcDbEntity
  8
94673901000_BL7
100
AcDbSpline
 62
7
  6
CONTINUOUS
 70
0
 71
3
 72
13
 73
9
 74
0
 42
0.0000001
 43
0.0000001
 44
0.0000000001
 40
0.0
 40
0.0
 40
0.0
 40
0.0
 40
0.023535275
 40
0.0753518635
 40
0.1578016021
 40
0.2707521577
 40
0.5831769056
 40
1.0
 40
1.0
 40
1.0
 40
1.0
 10
40.3802083047
 20
1754.2109022195
 30
0.0
 10
40.3880410311
 20
1754.2117254722
 30
0.0
 10
40.4013555195
 20
1754.2401085345
 30
0.0
 10
40.4112753729
 20
1754.2875298089
 30
0.0
 10
40.4226455227
 20
1754.3718567147
 30
0.0
 10
40.4351674288
 20
1754.5400470465
 30
0.0
 10
40.444021047
 20
1754.8228012925
 30
0.0
 10
40.4447140126
 20
1755.0665132726
 30
0.0
 10
40.4439768267
 20
1755.2059974802
 30
0.0
  0
SPLINE
  5
416
100
AcDbEntity
  8
94673901000_BL7
100
AcDbSpline
 62
7
  6
CONTINUOUS
 70
0
 71
3
 72
9
 73
5
 74
0
 42
0.0000001
 43
0.0000001
 44
0.0000000001
 40
0.0
 40
0.0
 40
0.0
 40
0.0
 40
0.2192185014
 40
1.0
 40
1.0
 40
1.0
 40
1.0
 10
40.4439768267
 20
1755.2059974802
 30
0.0
 10
40.443208465
 20
1755.3513805379
 30
0.0
 10
40.4336454891
 20
1756.0145309214
 30
0.0
 10
40.4070876163
 20
1756.6773539462
 30
0.0
 10
40.3802083047
 20
1757.1944679056
 30
0.0
  0
SPLINE
  5
417
100
AcDbEntity
  8
94673901000_BL7
100
AcDbSpline
 62
9
  6
CONTINUOUS
 70
0
 71
3
 72
14
 73
10
 74
0
 42
0.0000001
 43
0.0000001
 44
0.0000000001
 40
0.0
 40
0.0
 40
0.0
 40
0.0
 40
0.0275298356
 40
0.0866290885
 40
0.179107766
 40
0.3023404046
 40
0.4518791503
 40
0.6223179624
 40
1.0
 40
1.0
 40
1.0
 40
1.0
 10
46.6933677377
 20
1793.5472728854
 30
0.0
 10
46.7208747915
 20
1793.5443817782
 30
0.0
 10
46.7682951008
 20
1793.4471202265
 30
0.0
 10
46.7936863363
 20
1793.2827301432
 30
0.0
 10
46.8182949955
 20
1793.0004329569
 30
0.0
 10
46.8229945083
 20
1792.6361805437
 30
0.0
 10
46.8142084227
 20
1792.1899233132
 30
0.0
 10
46.7791958424
 20
1791.4902220028
 30
0.0
 10
46.732602161
 20
1790.9411215057
 30
0.0
 10
46.6933677377
 20
1790.5637071993
 30
0.0
  0
SPLINE
  5
418
100
AcDbEntity
  8
94673901000_BL7
100
AcDbSpline
 62
7
  6
CONTINUOUS
 70
0
 71
3
 72
13
 73
9
 74
0
 42
0.0000001
 43
0.0000001
 44
0.0000000001
 40
0.0
 40
0.0
 40
0.0
 40
0.0
 40
0.0235352288
 40
0.0753518244
 40
0.1578016002
 40
0.2707522048
 40
0.5831770189
 40
1.0
 40
1.0
 40
1.0
 40
1.0
 10
40.3802083047
 20
1794.2108126798
 30
0.0
 10
40.3880410964
 20
1794.2099894202
 30
0.0
 10
40.4013556279
 20
1794.1816060026
 30
0.0
 10
40.411275527
 20
1794.1341842708
 30
0.0
 10
40.4226457033
 20
1794.0498564299
 30
0.0
 10
40.4351676159
 20
1793.8816643198
 30
0.0
 10
40.4440211636
 20
1793.5989071467
 30
0.0
 10
40.4447140262
 20
1793.3551926752
 30
0.0
 10
40.443976772
 20
1793.2157070692
 30
0.0
  0
SPLINE
  5
419
100
AcDbEntity
  8
94673901000_BL7
100
AcDbSpline
 62
7
  6
CONTINUOUS
 70
0
 71
3
 72
9
 73
5
 74
0
 42
0.0000001
 43
0.0000001
 44
0.0000000001
 40
0.0
 40
0.0
 40
0.0
 40
0.0
 40
0.2192189109
 40
1.0
 40
1.0
 40
1.0
 40
1.0
 10
40.443976772
 20
1793.2157070692
 30
0.0
 10
40.4432083493
 20
1793.0703244965
 30
0.0
 10
40.4336452233
 20
1792.4071775658
 30
0.0
 10
40.4070874624
 20
1791.7443579922
 30
0.0
 10
40.3802083047
 20
1791.2272469936
 30
0.0
  0
SPLINE
  5
41A
100
AcDbEntity
  8
94673901000_BL7
100
AcDbSpline
 62
7
  6
CONTINUOUS
 70
0
 71
3
 72
9
 73
5
 74
0
 42
0.0000001
 43
0.0000001
 44
0.0000000001
 40
0.0
 40
0.0
 40
0.0
 40
0.0
 40
0.2719207816
 40
1.0
 40
1.0
 40
1.0
 40
1.0
 10
40.3802083047
 20
97.1332853191
 30
0.0
 10
40.3895439166
 20
96.9536834255
 30
0.0
 10
40.4205811169
 20
96.2930426031
 30
0.0
 10
40.4412927748
 20
95.6317715099
 30
0.0
 10
40.4439475457
 20
95.150238063
 30
0.0
  0
SPLINE
  5
41B
100
AcDbEntity
  8
94673901000_BL7
100
AcDbSpline
 62
7
  6
CONTINUOUS
 70
0
 71
3
 72
13
 73
9
 74
0
 42
0.0000001
 43
0.0000001
 44
0.0000000001
 40
0.0
 40
0.0
 40
0.0
 40
0.0
 40
0.4179847521
 40
0.7296530173
 40
0.8420473503
 40
0.9241002237
 40
0.9758734503
 40
1.0
 40
1.0
 40
1.0
 40
1.0
 10
40.4442920371
 20
95.0284371531
 30
0.0
 10
40.4442920371
 20
94.9047612543
 30
0.0
 10
40.4424864834
 20
94.6891251788
 30
0.0
 10
40.4329234067
 20
94.4393162699
 30
0.0
 10
40.420512982
 20
94.291069235
 30
0.0
 10
40.4094933806
 20
94.2171789635
 30
0.0
 10
40.4000759554
 20
94.1749054488
 30
0.0
 10
40.3873079099
 20
94.1504658316
 30
0.0
 10
40.3802083047
 20
94.149719633
 30
0.0
  0
SPLINE
  5
41C
100
AcDbEntity
  8
94673901000_BL7
100
AcDbSpline
 62
9
  6
CONTINUOUS
 70
0
 71
3
 72
14
 73
10
 74
0
 42
0.0000001
 43
0.0000001
 44
0.0000000001
 40
0.0
 40
0.0
 40
0.0
 40
0.0
 40
0.3776820376
 40
0.5481208497
 40
0.6976595953
 40
0.820892234
 40
0.9133709115
 40
0.9724701644
 40
1.0
 40
1.0
 40
1.0
 40
1.0
 10
46.6933677377
 20
97.7968251135
 30
0.0
 10
46.7326021611
 20
97.4194108071
 30
0.0
 10
46.7791958424
 20
96.8703103101
 30
0.0
 10
46.8142084227
 20
96.1706089997
 30
0.0
 10
46.8229945084
 20
95.7243517692
 30
0.0
 10
46.8182949955
 20
95.3600993559
 30
0.0
 10
46.7936863364
 20
95.0778021698
 30
0.0
 10
46.7682951007
 20
94.9134120861
 30
0.0
 10
46.7208747915
 20
94.8161505349
 30
0.0
 10
46.6933677377
 20
94.8132594274
 30
0.0
  0
SPLINE
  5
41D
100
AcDbEntity
  8
94673901000_BL7
100
AcDbSpline
 62
7
  6
CONTINUOUS
 70
0
 71
3
 72
9
 73
5
 74
0
 42
0.0000001
 43
0.0000001
 44
0.0000000001
 40
0.0
 40
0.0
 40
0.0
 40
0.0
 40
0.2719210866
 40
1.0
 40
1.0
 40
1.0
 40
1.0
 10
40.3802083047
 20
104.9660644072
 30
0.0
 10
40.3895439761
 20
105.1456674448
 30
0.0
 10
40.4205813141
 20
105.8063117344
 30
0.0
 10
40.4412930296
 20
106.4675863036
 30
0.0
 10
40.4439476031
 20
106.9491220766
 30
0.0
  0
SPLINE
  5
41E
100
AcDbEntity
  8
94673901000_BL7
100
AcDbSpline
 62
7
  6
CONTINUOUS
 70
0
 71
3
 72
13
 73
9
 74
0
 42
0.0000001
 43
0.0000001
 44
0.0000000001
 40
0.0
 40
0.0
 40
0.0
 40
0.0
 40
0.4179847521
 40
0.7296530173
 40
0.8420473503
 40
0.9241002237
 40
0.9758734503
 40
1.0
 40
1.0
 40
1.0
 40
1.0
 10
40.4442920371
 20
107.0709125733
 30
0.0
 10
40.4442920371
 20
107.194588472
 30
0.0
 10
40.4424864834
 20
107.4102245476
 30
0.0
 10
40.4329234067
 20
107.6600334565
 30
0.0
 10
40.420512982
 20
107.8082804913
 30
0.0
 10
40.4094933806
 20
107.8821707629
 30
0.0
 10
40.4000759554
 20
107.9244442776
 30
0.0
 10
40.3873079099
 20
107.9488838947
 30
0.0
 10
40.3802083047
 20
107.9496300933
 30
0.0
  0
SPLINE
  5
41F
100
AcDbEntity
  8
94673901000_BL7
100
AcDbSpline
 62
9
  6
CONTINUOUS
 70
0
 71
3
 72
14
 73
10
 74
0
 42
0.0000001
 43
0.0000001
 44
0.0000000001
 40
0.0
 40
0.0
 40
0.0
 40
0.0
 40
0.0275298356
 40
0.0866290885
 40
0.179107766
 40
0.3023404047
 40
0.4518791503
 40
0.6223179624
 40
1.0
 40
1.0
 40
1.0
 40
1.0
 10
46.6933677377
 20
107.286090299
 30
0.0
 10
46.7208747915
 20
107.2831991915
 30
0.0
 10
46.7682951007
 20
107.1859376403
 30
0.0
 10
46.7936863364
 20
107.0215475566
 30
0.0
 10
46.8182949955
 20
106.7392503705
 30
0.0
 10
46.8229945084
 20
106.3749979572
 30
0.0
 10
46.8142084227
 20
105.9287407267
 30
0.0
 10
46.7791958424
 20
105.2290394163
 30
0.0
 10
46.7326021611
 20
104.6799389192
 30
0.0
 10
46.6933677377
 20
104.3025246129
 30
0.0
  0
ELLIPSE
  5
420
100
AcDbEntity
  8
94673901000_BL7
100
AcDbEllipse
 62
7
  6
CONTINUOUS
 10
68.9228757106
 20
1757.2108574496
 30
0.0
 11
28.5430933627
 21
-0.0
 31
0.0
 40
0.1051042353
 41
3.1415926536
 42
3.1470558621
  0
ELLIPSE
  5
421
100
AcDbEntity
  8
94673901000_BL7
100
AcDbEllipse
 62
7
  6
CONTINUOUS
 10
68.9228757106
 20
1791.2108574496
 30
0.0
 11
28.5430933627
 21
-0.0
 31
0.0
 40
0.1051042353
 41
3.1361294451
 42
3.1415926536
  0
ELLIPSE
  5
422
100
AcDbEntity
  8
94673901000_BL7
100
AcDbEllipse
 62
7
  6
CONTINUOUS
 10
68.9228757106
 20
97.1496748632
 30
0.0
 11
28.5430933627
 21
-0.0
 31
0.0
 40
0.1051042353
 41
3.1415926536
 42
3.1470558621
  0
ELLIPSE
  5
423
100
AcDbEntity
  8
94673901000_BL7
100
AcDbEllipse
 62
7
  6
CONTINUOUS
 10
68.9228757106
 20
104.9496748632
 30
0.0
 11
28.5430933627
 21
0.0
 31
0.0
 40
0.1051042353
 41
3.1361294451
 42
3.1415926536
  0
ENDBLK
  5
424
100
AcDbEntity
  8
0
  6
BYBLOCK
 62
0
100
AcDbBlockEnd
  0
BLOCK
  5
425
100
AcDbEntity
  8
94529001000_BL8
100
AcDbBlockBegin
  2
94529001000_BL8
 70
64
 10
87.00070267
 20
954.3870024891
  3
94529001000_BL8
  1

  0
LINE
  5
426
100
AcDbEntity
  8
94529001000_BL8
100
AcDbLine
 62
7
  6
CONTINUOUS
 10
124.4216229921
 20
1774.3608574496
 11
124.2716229921
 21
1774.2108574496
  0
LINE
  5
427
100
AcDbEntity
  8
94529001000_BL8
100
AcDbLine
 62
7
  6
CONTINUOUS
 10
126.1216229921
 20
1774.0608574496
 11
126.2716229921
 21
1774.2108574496
  0
LINE
  5
428
100
AcDbEntity
  8
94529001000_BL8
100
AcDbLine
 62
7
  6
CONTINUOUS
 10
123.6216229921
 20
1743.7108574496
 11
123.6216229921
 21
1804.7108574496
  0
LINE
  5
429
100
AcDbEntity
  8
94529001000_BL8
100
AcDbLine
 62
7
  6
CONTINUOUS
 10
124.4216229921
 20
1751.9608574496
 11
124.4216229921
 21
1774.0608574496
  0
LINE
  5
42A
100
AcDbEntity
  8
94529001000_BL8
100
AcDbLine
 62
7
  6
CONTINUOUS
 10
124.4216229921
 20
1774.3608574496
 11
124.4216229921
 21
1796.4608574496
  0
LINE
  5
42B
100
AcDbEntity
  8
94529001000_BL8
100
AcDbLine
 62
7
  6
CONTINUOUS
 10
126.1216229921
 20
1791.2108574496
 11
126.1216229921
 21
1774.3608574496
  0
LINE
  5
42C
100
AcDbEntity
  8
94529001000_BL8
100
AcDbLine
 62
7
  6
CONTINUOUS
 10
126.1216229921
 20
1774.0608574496
 11
126.1216229921
 21
1757.2108574496
  0
LINE
  5
42D
100
AcDbEntity
  8
94529001000_BL8
100
AcDbLine
 62
7
  6
CONTINUOUS
 10
126.9216229921
 20
1791.2108574496
 11
126.9216229921
 21
1757.2108574496
  0
LINE
  5
42E
100
AcDbEntity
  8
94529001000_BL8
100
AcDbLine
 62
9
  6
CONTINUOUS
 10
128.9216229921
 20
1755.2108574496
 11
128.9216229921
 21
1754.4108574496
  0
LINE
  5
42F
100
AcDbEntity
  8
94529001000_BL8
100
AcDbLine
 62
9
  6
CONTINUOUS
 10
128.9216229921
 20
1793.2108574496
 11
128.9216229921
 21
1794.0108574496
  0
LINE
  5
430
100
AcDbEntity
  8
94529001000_BL8
100
AcDbLine
 62
7
  6
CENTER
 10
132.1216229921
 20
1816.2243301151
 11
132.1216229921
 21
1732.1973847841
  0
LINE
  5
431
100
AcDbEntity
  8
94529001000_BL8
100
AcDbLine
 62
9
  6
CONTINUOUS
 10
136.3216229921
 20
1755.2108574496
 11
136.3216229921
 21
1754.4108574496
  0
LINE
  5
432
100
AcDbEntity
  8
94529001000_BL8
100
AcDbLine
 62
9
  6
CONTINUOUS
 10
136.3216229921
 20
1793.2108574496
 11
136.3216229921
 21
1794.0108574496
  0
LINE
  5
433
100
AcDbEntity
  8
94529001000_BL8
100
AcDbLine
 62
7
  6
CONTINUOUS
 10
138.3216229921
 20
1757.2108574496
 11
138.3216229921
 21
1791.2108574496
  0
LINE
  5
434
100
AcDbEntity
  8
94529001000_BL8
100
AcDbLine
 62
7
  6
CONTINUOUS
 10
139.1216229921
 20
1757.2108574496
 11
139.1216229921
 21
1791.2108574496
  0
LINE
  5
435
100
AcDbEntity
  8
94529001000_BL8
100
AcDbLine
 62
7
  6
CONTINUOUS
 10
139.8216229921
 20
1751.9608574496
 11
139.8216229921
 21
1796.4608574496
  0
LINE
  5
436
100
AcDbEntity
  8
94529001000_BL8
100
AcDbLine
 62
7
  6
CONTINUOUS
 10
140.6216229921
 20
1743.7108574496
 11
140.6216229921
 21
1804.7108574496
  0
LINE
  5
437
100
AcDbEntity
  8
94529001000_BL8
100
AcDbLine
 62
7
  6
CONTINUOUS
 10
124.4216229921
 20
1774.0608574496
 11
124.2716229921
 21
1774.2108574496
  0
LINE
  5
438
100
AcDbEntity
  8
94529001000_BL8
100
AcDbLine
 62
7
  6
CONTINUOUS
 10
126.1216229921
 20
1774.3608574496
 11
126.2716229921
 21
1774.2108574496
  0
LINE
  5
439
100
AcDbEntity
  8
94529001000_BL8
100
AcDbLine
 62
7
  6
CONTINUOUS
 10
123.6216229921
 20
1751.9608574496
 11
124.4216229921
 21
1751.9608574496
  0
LINE
  5
43A
100
AcDbEntity
  8
94529001000_BL8
100
AcDbLine
 62
7
  6
CONTINUOUS
 10
139.8216229921
 20
1751.9608574496
 11
140.6216229921
 21
1751.9608574496
  0
LINE
  5
43B
100
AcDbEntity
  8
94529001000_BL8
100
AcDbLine
 62
7
  6
CONTINUOUS
 10
128.9216229921
 20
1754.4108574496
 11
136.3216229921
 21
1754.4108574496
  0
LINE
  5
43C
100
AcDbEntity
  8
94529001000_BL8
100
AcDbLine
 62
7
  6
CONTINUOUS
 10
128.9216229921
 20
1755.2108574496
 11
136.3216229921
 21
1755.2108574496
  0
LINE
  5
43D
100
AcDbEntity
  8
94529001000_BL8
100
AcDbLine
 62
9
  6
CONTINUOUS
 10
126.9216229921
 20
1757.2108574496
 11
126.1216229921
 21
1757.2108574496
  0
LINE
  5
43E
100
AcDbEntity
  8
94529001000_BL8
100
AcDbLine
 62
9
  6
CONTINUOUS
 10
138.3216229921
 20
1757.2108574496
 11
139.1216229921
 21
1757.2108574496
  0
LINE
  5
43F
100
AcDbEntity
  8
94529001000_BL8
100
AcDbLine
 62
7
  6
CONTINUOUS
 10
124.4216229921
 20
1774.0608574496
 11
126.1216229921
 21
1774.0608574496
  0
LINE
  5
440
100
AcDbEntity
  8
94529001000_BL8
100
AcDbLine
 62
7
  6
CENTER
 10
143.6216229921
 20
1774.2108574496
 11
120.6216229921
 21
1774.2108574496
  0
LINE
  5
441
100
AcDbEntity
  8
94529001000_BL8
100
AcDbLine
 62
7
  6
CONTINUOUS
 10
124.2716229921
 20
1774.2108574496
 11
126.2716229921
 21
1774.2108574496
  0
LINE
  5
442
100
AcDbEntity
  8
94529001000_BL8
100
AcDbLine
 62
7
  6
CONTINUOUS
 10
124.4216229921
 20
1774.3608574496
 11
126.1216229921
 21
1774.3608574496
  0
LINE
  5
443
100
AcDbEntity
  8
94529001000_BL8
100
AcDbLine
 62
9
  6
CONTINUOUS
 10
126.9216229921
 20
1791.2108574496
 11
126.1216229921
 21
1791.2108574496
  0
LINE
  5
444
100
AcDbEntity
  8
94529001000_BL8
100
AcDbLine
 62
9
  6
CONTINUOUS
 10
138.3216229921
 20
1791.2108574496
 11
139.1216229921
 21
1791.2108574496
  0
LINE
  5
445
100
AcDbEntity
  8
94529001000_BL8
100
AcDbLine
 62
7
  6
CONTINUOUS
 10
136.3216229921
 20
1793.2108574496
 11
128.9216229921
 21
1793.2108574496
  0
LINE
  5
446
100
AcDbEntity
  8
94529001000_BL8
100
AcDbLine
 62
7
  6
CONTINUOUS
 10
136.3216229921
 20
1794.0108574496
 11
128.9216229921
 21
1794.0108574496
  0
LINE
  5
447
100
AcDbEntity
  8
94529001000_BL8
100
AcDbLine
 62
7
  6
CONTINUOUS
 10
123.6216229921
 20
1796.4608574496
 11
124.4216229921
 21
1796.4608574496
  0
LINE
  5
448
100
AcDbEntity
  8
94529001000_BL8
100
AcDbLine
 62
7
  6
CONTINUOUS
 10
139.8216229921
 20
1796.4608574496
 11
140.6216229921
 21
1796.4608574496
  0
LINE
  5
449
100
AcDbEntity
  8
94529001000_BL8
100
AcDbLine
 62
7
  6
CONTINUOUS
 10
30.3797823479
 20
1735.2108574496
 11
30.3797823479
 21
1813.2108574496
  0
LINE
  5
44A
100
AcDbEntity
  8
94529001000_BL8
100
AcDbLine
 62
7
  6
CONTINUOUS
 10
31.1797823479
 20
1751.9608574496
 11
31.1797823479
 21
1796.4608574496
  0
LINE
  5
44B
100
AcDbEntity
  8
94529001000_BL8
100
AcDbLine
 62
7
  6
CONTINUOUS
 10
32.3797823479
 20
1810.7149306693
 11
32.3797823479
 21
1737.7067842299
  0
LINE
  5
44C
100
AcDbEntity
  8
94529001000_BL8
100
AcDbLine
 62
7
  6
CONTINUOUS
 10
32.3797823479
 20
1735.2108574496
 11
30.3797823479
 21
1735.2108574496
  0
LINE
  5
44D
100
AcDbEntity
  8
94529001000_BL8
100
AcDbLine
 62
9
  6
CONTINUOUS
 10
30.3797823479
 20
1743.7108574496
 11
32.3797823479
 21
1743.7108574496
  0
LINE
  5
44E
100
AcDbEntity
  8
94529001000_BL8
100
AcDbLine
 62
7
  6
CONTINUOUS
 10
30.3797823479
 20
1751.9608574496
 11
31.1797823479
 21
1751.9608574496
  0
LINE
  5
44F
100
AcDbEntity
  8
94529001000_BL8
100
AcDbLine
 62
7
  6
CONTINUOUS
 10
32.4704160364
 20
1755.2108574496
 11
32.3797823479
 21
1755.2108574496
  0
LINE
  5
450
100
AcDbEntity
  8
94529001000_BL8
100
AcDbLine
 62
7
  6
CONTINUOUS
 10
32.3797823479
 20
1793.2108574496
 11
32.4704176975
 21
1793.2108574496
  0
LINE
  5
451
100
AcDbEntity
  8
94529001000_BL8
100
AcDbLine
 62
7
  6
CONTINUOUS
 10
30.3797823479
 20
1796.4608574496
 11
31.1797823479
 21
1796.4608574496
  0
LINE
  5
452
100
AcDbEntity
  8
94529001000_BL8
100
AcDbLine
 62
9
  6
CONTINUOUS
 10
30.3797823479
 20
1804.7108574496
 11
32.3797823479
 21
1804.7108574496
  0
LINE
  5
453
100
AcDbEntity
  8
94529001000_BL8
100
AcDbLine
 62
7
  6
CONTINUOUS
 10
32.3797823479
 20
1813.2108574496
 11
30.3797823479
 21
1813.2108574496
  0
LINE
  5
454
100
AcDbEntity
  8
94529001000_BL8
100
AcDbLine
 62
7
  6
CONTINUOUS
 10
30.3797823479
 20
92.5496748632
 11
30.3797823479
 21
109.5496748632
  0
LINE
  5
455
100
AcDbEntity
  8
94529001000_BL8
100
AcDbLine
 62
7
  6
CONTINUOUS
 10
32.3797823479
 20
92.5496748632
 11
30.3797823479
 21
92.5496748632
  0
LINE
  5
456
100
AcDbEntity
  8
94529001000_BL8
100
AcDbLine
 62
7
  6
CONTINUOUS
 10
30.3797823479
 20
92.5496748632
 11
32.3797823479
 21
92.5496748632
  0
LINE
  5
457
100
AcDbEntity
  8
94529001000_BL8
100
AcDbLine
 62
7
  6
CONTINUOUS
 10
32.3797823479
 20
109.5496748632
 11
32.3797823479
 21
107.0496748632
  0
LINE
  5
458
100
AcDbEntity
  8
94529001000_BL8
100
AcDbLine
 62
7
  6
CONTINUOUS
 10
32.3797823479
 20
95.0496748632
 11
32.3797823479
 21
92.5496748632
  0
LINE
  5
459
100
AcDbEntity
  8
94529001000_BL8
100
AcDbLine
 62
7
  6
CONTINUOUS
 10
30.3797823479
 20
109.5496748632
 11
32.3797823479
 21
109.5496748632
  0
ARC
  5
45A
100
AcDbEntity
  8
94529001000_BL8
100
AcDbCircle
 62
7
  6
CONTINUOUS
 10
128.9216229921
 20
1757.2108574496
 40
2.7999942656
100
AcDbArc
 50
180.0
 51
270.0
  0
ARC
  5
45B
100
AcDbEntity
  8
94529001000_BL8
100
AcDbCircle
 62
7
  6
CONTINUOUS
 10
128.9216229921
 20
1791.2108574496
 40
2.7999942656
100
AcDbArc
 50
90.0
 51
180.0
  0
ARC
  5
45C
100
AcDbEntity
  8
94529001000_BL8
100
AcDbCircle
 62
7
  6
CONTINUOUS
 10
128.9216229921
 20
1757.2108574496
 40
2.0
100
AcDbArc
 50
180.0
 51
270.0
  0
ARC
  5
45D
100
AcDbEntity
  8
94529001000_BL8
100
AcDbCircle
 62
7
  6
CONTINUOUS
 10
128.9216229921
 20
1791.2108574496
 40
2.0
100
AcDbArc
 50
90.0
 51
180.0
  0
ARC
  5
45E
100
AcDbEntity
  8
94529001000_BL8
100
AcDbCircle
 62
7
  6
CONTINUOUS
 10
132.1216229921
 20
1743.7108574496
 40
8.5
100
AcDbArc
 50
180.0
 51
360.0
  0
CIRCLE
  5
45F
100
AcDbEntity
  8
94529001000_BL8
100
AcDbCircle
 62
7
  6
CONTINUOUS
 10
132.1216229921
 20
1744.1108574496
 40
5.65
  0
ARC
  5
460
100
AcDbEntity
  8
94529001000_BL8
100
AcDbCircle
 62
7
  6
CONTINUOUS
 10
132.1216229921
 20
1804.7108574496
 40
8.5
100
AcDbArc
 50
0.0
 51
180.0
  0
CIRCLE
  5
461
100
AcDbEntity
  8
94529001000_BL8
100
AcDbCircle
 62
7
  6
CONTINUOUS
 10
132.1216229921
 20
1804.3108574496
 40
5.65
  0
ARC
  5
462
100
AcDbEntity
  8
94529001000_BL8
100
AcDbCircle
 62
7
  6
CONTINUOUS
 10
136.3216229921
 20
1757.2108574496
 40
2.7999942656
100
AcDbArc
 50
270.0
 51
360.0
  0
ARC
  5
463
100
AcDbEntity
  8
94529001000_BL8
100
AcDbCircle
 62
7
  6
CONTINUOUS
 10
136.3216229921
 20
1791.2108574496
 40
2.7999942656
100
AcDbArc
 50
0.0
 51
90.0
  0
ARC
  5
464
100
AcDbEntity
  8
94529001000_BL8
100
AcDbCircle
 62
7
  6
CONTINUOUS
 10
136.3216229921
 20
1757.2108574496
 40
2.0
100
AcDbArc
 50
270.0
 51
360.0
  0
ARC
  5
465
100
AcDbEntity
  8
94529001000_BL8
100
AcDbCircle
 62
7
  6
CONTINUOUS
 10
136.3216229921
 20
1791.2108574496
 40
2.0
100
AcDbArc
 50
0.0
 51
90.0
  0
ENDBLK
  5
466
100
AcDbEntity
  8
0
  6
BYBLOCK
 62
0
100
AcDbBlockEnd
  0
BLOCK
  5
467
100
AcDbEntity
  8
94528905000_M_BL9
100
AcDbBlockBegin
  2
94528905000_M_BL9
 70
64
 10
88.0020998446
 20
1744.1108574496
  3
94528905000_M_BL9
  1

  0
LINE
  5
468
100
AcDbEntity
  8
94528905000_M_BL9
100
AcDbLine
 62
7
  6
CONTINUOUS
 10
131.2466229921
 20
1744.6264019062
 11
130.3716229921
 21
1743.1108574496
  0
LINE
  5
469
100
AcDbEntity
  8
94528905000_M_BL9
100
AcDbLine
 62
7
  6
CONTINUOUS
 10
132.9966229921
 20
1741.595312993
 11
133.8716229921
 21
1743.1108574496
  0
LINE
  5
46A
100
AcDbEntity
  8
94528905000_M_BL9
100
AcDbLine
 62
7
  6
CONTINUOUS
 10
130.3716229921
 20
1743.1108574496
 11
131.2466229921
 21
1741.595312993
  0
LINE
  5
46B
100
AcDbEntity
  8
94528905000_M_BL9
100
AcDbLine
 62
7
  6
CONTINUOUS
 10
133.8716229921
 20
1743.1108574496
 11
132.9966229921
 21
1744.6264019062
  0
LINE
  5
46C
100
AcDbEntity
  8
94528905000_M_BL9
100
AcDbLine
 62
7
  6
CONTINUOUS
 10
131.2466229921
 20
1741.595312993
 11
132.9966229921
 21
1741.595312993
  0
LINE
  5
46D
100
AcDbEntity
  8
94528905000_M_BL9
100
AcDbLine
 62
7
  6
CONTINUOUS
 10
132.9966229921
 20
1744.6264019062
 11
131.2466229921
 21
1744.6264019062
  0
CIRCLE
  5
46E
100
AcDbEntity
  8
94528905000_M_BL9
100
AcDbCircle
 62
7
  6
CONTINUOUS
 10
132.1216229921
 20
1744.1108574496
 40
5.5
  0
CIRCLE
  5
46F
100
AcDbEntity
  8
94528905000_M_BL9
100
AcDbCircle
 62
7
  6
CONTINUOUS
 10
132.1216229921
 20
1743.1108574496
 40
1.75
  0
CIRCLE
  5
470
100
AcDbEntity
  8
94528905000_M_BL9
100
AcDbCircle
 62
7
  6
CONTINUOUS
 10
132.1216229921
 20
1743.1108574496
 40
1.515
  0
CIRCLE
  5
471
100
AcDbEntity
  8
94528905000_M_BL9
100
AcDbCircle
 62
7
  6
CONTINUOUS
 10
132.1216229921
 20
1746.6108574496
 40
0.75
  0
ARC
  5
472
100
AcDbEntity
  8
94528905000_M_BL9
100
AcDbCircle
 62
7
  6
CONTINUOUS
 10
35.0340310368
 20
1743.1108574496
 40
4.0
100
AcDbArc
 50
326.8389561101
 51
33.1610438899
  0
ENDBLK
  5
473
100
AcDbEntity
  8
0
  6
BYBLOCK
 62
0
100
AcDbBlockEnd
  0
BLOCK
  5
474
100
AcDbEntity
  8
93794901000_BL10
100
AcDbBlockBegin
  2
93794901000_BL10
 70
64
 10
85.2067686872
 20
622.8802675555
  3
93794901000_BL10
  1

  0
LINE
  5
475
100
AcDbEntity
  8
93794901000_BL10
100
AcDbLine
 62
7
  6
CONTINUOUS
 10
139.0337550265
 20
1135.4987254153
 11
138.1216229921
 21
1134.5865933809
  0
LINE
  5
476
100
AcDbEntity
  8
93794901000_BL10
100
AcDbLine
 62
7
  6
CONTINUOUS
 10
139.0337550265
 20
1120.4987254153
 11
138.1216229921
 21
1119.5865933809
  0
LINE
  5
477
100
AcDbEntity
  8
93794901000_BL10
100
AcDbLine
 62
7
  6
CONTINUOUS
 10
125.1216229921
 20
1117.7108574496
 11
125.1216229921
 21
1139.7108574496
  0
LINE
  5
478
100
AcDbEntity
  8
93794901000_BL10
100
AcDbLine
 62
7
  6
CONTINUOUS
 10
126.6216229921
 20
1117.7108574496
 11
126.6216229921
 21
1125.312941688
  0
LINE
  5
479
100
AcDbEntity
  8
93794901000_BL10
100
AcDbLine
 62
7
  6
CONTINUOUS
 10
126.6216229921
 20
1130.1087732113
 11
126.6216229921
 21
1136.2108574496
  0
LINE
  5
47A
100
AcDbEntity
  8
93794901000_BL10
100
AcDbLine
 62
7
  6
CONTINUOUS
 10
126.6216229921
 20
1138.6108574496
 11
126.6216229921
 21
1139.7108574496
  0
LINE
  5
47B
100
AcDbEntity
  8
93794901000_BL10
100
AcDbLine
 62
7
  6
CONTINUOUS
 10
137.6216229921
 20
1117.7108574496
 11
137.6216229921
 21
1125.312941688
  0
LINE
  5
47C
100
AcDbEntity
  8
93794901000_BL10
100
AcDbLine
 62
7
  6
CONTINUOUS
 10
137.6216229921
 20
1130.1087732113
 11
137.6216229921
 21
1136.2108574496
  0
LINE
  5
47D
100
AcDbEntity
  8
93794901000_BL10
100
AcDbLine
 62
7
  6
CONTINUOUS
 10
137.6216229921
 20
1138.6108574496
 11
137.6216229921
 21
1139.7108574496
  0
LINE
  5
47E
100
AcDbEntity
  8
93794901000_BL10
100
AcDbLine
 62
7
  6
CONTINUOUS
 10
138.1216229921
 20
1139.7108574496
 11
138.1216229921
 21
1136.8351215183
  0
LINE
  5
47F
100
AcDbEntity
  8
93794901000_BL10
100
AcDbLine
 62
7
  6
CONTINUOUS
 10
138.1216229921
 20
1134.5865933809
 11
138.1216229921
 21
1121.8351215183
  0
LINE
  5
480
100
AcDbEntity
  8
93794901000_BL10
100
AcDbLine
 62
7
  6
CONTINUOUS
 10
138.1216229921
 20
1117.7108574496
 11
138.1216229921
 21
1119.5865933809
  0
LINE
  5
481
100
AcDbEntity
  8
93794901000_BL10
100
AcDbLine
 62
7
  6
CONTINUOUS
 10
138.1216229921
 20
1117.7108574496
 11
126.6216229921
 21
1117.7108574496
  0
LINE
  5
482
100
AcDbEntity
  8
93794901000_BL10
100
AcDbLine
 62
7
  6
CONTINUOUS
 10
126.6216229921
 20
1117.7108574496
 11
125.1216229921
 21
1117.7108574496
  0
LINE
  5
483
100
AcDbEntity
  8
93794901000_BL10
100
AcDbLine
 62
7
  6
CONTINUOUS
 10
138.1216229921
 20
1121.8351215183
 11
139.0337550265
 21
1120.922989484
  0
LINE
  5
484
100
AcDbEntity
  8
93794901000_BL10
100
AcDbLine
 62
7
  6
CONTINUOUS
 10
138.1216229921
 20
1136.8351215183
 11
139.0337550265
 21
1135.922989484
  0
LINE
  5
485
100
AcDbEntity
  8
93794901000_BL10
100
AcDbLine
 62
7
  6
CONTINUOUS
 10
35.7919143823
 20
1135.4987254153
 11
34.8797823479
 21
1134.5865933809
  0
LINE
  5
486
100
AcDbEntity
  8
93794901000_BL10
100
AcDbLine
 62
7
  6
CONTINUOUS
 10
35.7919143823
 20
1120.4987254153
 11
34.8797823479
 21
1119.5865933809
  0
LINE
  5
487
100
AcDbEntity
  8
93794901000_BL10
100
AcDbLine
 62
7
  6
CONTINUOUS
 10
34.3797823479
 20
1117.7108574496
 11
34.3797823479
 21
1125.312941688
  0
LINE
  5
488
100
AcDbEntity
  8
93794901000_BL10
100
AcDbLine
 62
7
  6
CONTINUOUS
 10
34.3797823479
 20
1130.1087732113
 11
34.3797823479
 21
1139.7108574496
  0
LINE
  5
489
100
AcDbEntity
  8
93794901000_BL10
100
AcDbLine
 62
7
  6
CONTINUOUS
 10
34.8797823479
 20
1139.7108574496
 11
34.8797823479
 21
1136.8351215183
  0
LINE
  5
48A
100
AcDbEntity
  8
93794901000_BL10
100
AcDbLine
 62
7
  6
CONTINUOUS
 10
34.8797823479
 20
1134.5865933809
 11
34.8797823479
 21
1121.8351215183
  0
LINE
  5
48B
100
AcDbEntity
  8
93794901000_BL10
100
AcDbLine
 62
7
  6
CONTINUOUS
 10
34.8797823479
 20
1117.7108574496
 11
34.8797823479
 21
1119.5865933809
  0
LINE
  5
48C
100
AcDbEntity
  8
93794901000_BL10
100
AcDbLine
 62
7
  6
CONTINUOUS
 10
38.0797823479
 20
1117.7108574496
 11
38.0797823479
 21
1139.7108574496
  0
LINE
  5
48D
100
AcDbEntity
  8
93794901000_BL10
100
AcDbLine
 62
7
  6
CONTINUOUS
 10
34.8797823479
 20
1121.8351215183
 11
35.7919143823
 21
1120.922989484
  0
LINE
  5
48E
100
AcDbEntity
  8
93794901000_BL10
100
AcDbLine
 62
7
  6
CONTINUOUS
 10
38.0797823479
 20
1117.7108574496
 11
34.3797823479
 21
1117.7108574496
  0
LINE
  5
48F
100
AcDbEntity
  8
93794901000_BL10
100
AcDbLine
 62
7
  6
CONTINUOUS
 10
34.8797823479
 20
1119.5865933809
 11
38.0797823479
 21
1119.5865933809
  0
LINE
  5
490
100
AcDbEntity
  8
93794901000_BL10
100
AcDbLine
 62
9
  6
CONTINUOUS
 10
35.7919143823
 20
1120.4987254153
 11
38.0797823479
 21
1120.4987254153
  0
LINE
  5
491
100
AcDbEntity
  8
93794901000_BL10
100
AcDbLine
 62
9
  6
CONTINUOUS
 10
35.7919143823
 20
1120.922989484
 11
38.0797823479
 21
1120.922989484
  0
LINE
  5
492
100
AcDbEntity
  8
93794901000_BL10
100
AcDbLine
 62
7
  6
CONTINUOUS
 10
34.8797823479
 20
1121.8351215183
 11
38.0797823479
 21
1121.8351215183
  0
LINE
  5
493
100
AcDbEntity
  8
93794901000_BL10
100
AcDbLine
 62
7
  6
CONTINUOUS
 10
34.8797823479
 20
1134.5865933809
 11
38.0797823479
 21
1134.5865933809
  0
LINE
  5
494
100
AcDbEntity
  8
93794901000_BL10
100
AcDbLine
 62
9
  6
CONTINUOUS
 10
35.7919143823
 20
1135.4987254153
 11
38.0797823479
 21
1135.4987254153
  0
LINE
  5
495
100
AcDbEntity
  8
93794901000_BL10
100
AcDbLine
 62
9
  6
CONTINUOUS
 10
35.7919143823
 20
1135.922989484
 11
38.0797823479
 21
1135.922989484
  0
LINE
  5
496
100
AcDbEntity
  8
93794901000_BL10
100
AcDbLine
 62
7
  6
CONTINUOUS
 10
34.8797823479
 20
1136.8351215183
 11
38.0797823479
 21
1136.8351215183
  0
LINE
  5
497
100
AcDbEntity
  8
93794901000_BL10
100
AcDbLine
 62
7
  6
CENTER
 10
31.3797823479
 20
1151.7108574496
 11
41.0797823479
 21
1151.7108574496
  0
LINE
  5
498
100
AcDbEntity
  8
93794901000_BL10
100
AcDbLine
 62
7
  6
CONTINUOUS
 10
34.8797823479
 20
1136.8351215183
 11
35.7919143823
 21
1135.922989484
  0
LINE
  5
499
100
AcDbEntity
  8
93794901000_BL10
100
AcDbLine
 62
7
  6
CONTINUOUS
 10
35.8797823479
 20
108.0496748632
 11
35.7797823479
 21
107.9496748632
  0
LINE
  5
49A
100
AcDbEntity
  8
93794901000_BL10
100
AcDbLine
 62
7
  6
CONTINUOUS
 10
35.7919143823
 20
94.1375428288
 11
35.8797795497
 21
94.0496776614
  0
LINE
  5
49B
100
AcDbEntity
  8
93794901000_BL10
100
AcDbLine
 62
9
  6
CONTINUOUS
 10
35.7919143823
 20
94.1375428288
 11
38.0797823479
 21
94.1375428288
  0
LINE
  5
49C
100
AcDbEntity
  8
93794901000_BL10
100
AcDbLine
 62
7
  6
CONTINUOUS
 10
38.0797823479
 20
108.0496748632
 11
38.0797823479
 21
107.9496748632
  0
LINE
  5
49D
100
AcDbEntity
  8
93794901000_BL10
100
AcDbLine
 62
7
  6
CONTINUOUS
 10
38.0797823479
 20
94.0502037123
 11
38.0797823479
 21
94.1375428288
  0
ARC
  5
49E
100
AcDbEntity
  8
93794901000_BL10
100
AcDbCircle
 62
7
  6
CONTINUOUS
 10
126.0971013251
 20
1127.7028893392
 40
11.8745243405
100
AcDbArc
 50
0.0384469405
 51
9.11669152
  0
ARC
  5
49F
100
AcDbEntity
  8
93794901000_BL10
100
AcDbCircle
 62
7
  6
CONTINUOUS
 10
126.0971018962
 20
1127.7188255143
 40
11.8745237693
100
AcDbArc
 50
350.8833082612
 51
359.9615532783
  0
CIRCLE
  5
4A0
100
AcDbEntity
  8
93794901000_BL10
100
AcDbCircle
 62
7
  6
CONTINUOUS
 10
128.2216229921
 20
1137.4108574496
 40
2.0
  0
CIRCLE
  5
4A1
100
AcDbEntity
  8
93794901000_BL10
100
AcDbCircle
 62
7
  6
CONTINUOUS
 10
128.0216229921
 20
1134.2108574496
 40
0.75
  0
CIRCLE
  5
4A2
100
AcDbEntity
  8
93794901000_BL10
100
AcDbCircle
 62
7
  6
CONTINUOUS
 10
128.0216229921
 20
1120.7108574496
 40
0.75
  0
ARC
  5
4A3
100
AcDbEntity
  8
93794901000_BL10
100
AcDbCircle
 62
7
  6
CONTINUOUS
 10
132.1216229921
 20
1127.7108574496
 40
6.0
100
AcDbArc
 50
198.1948723388
 51
341.8051276612
  0
ARC
  5
4A4
100
AcDbEntity
  8
93794901000_BL10
100
AcDbCircle
 62
7
  6
CONTINUOUS
 10
132.1216229921
 20
1127.7108574496
 40
6.0
100
AcDbArc
 50
18.1948723388
 51
161.8051276612
  0
CIRCLE
  5
4A5
100
AcDbEntity
  8
93794901000_BL10
100
AcDbCircle
 62
7
  6
CONTINUOUS
 10
132.1216229921
 20
1127.7108574496
 40
3.5
  0
CIRCLE
  5
4A6
100
AcDbEntity
  8
93794901000_BL10
100
AcDbCircle
 62
7
  6
CONTINUOUS
 10
132.1216229921
 20
1127.7108574496
 40
3.3
  0
CIRCLE
  5
4A7
100
AcDbEntity
  8
93794901000_BL10
100
AcDbCircle
 62
7
  6
CONTINUOUS
 10
132.1216229921
 20
1119.7108574496
 40
2.0
  0
CIRCLE
  5
4A8
100
AcDbEntity
  8
93794901000_BL10
100
AcDbCircle
 62
7
  6
CONTINUOUS
 10
136.0216229921
 20
1137.4108574496
 40
2.0
  0
CIRCLE
  5
4A9
100
AcDbEntity
  8
93794901000_BL10
100
AcDbCircle
 62
7
  6
CONTINUOUS
 10
136.2216229921
 20
1134.2108574496
 40
0.75
  0
CIRCLE
  5
4AA
100
AcDbEntity
  8
93794901000_BL10
100
AcDbCircle
 62
7
  6
CONTINUOUS
 10
136.2216229921
 20
1120.7108574496
 40
0.75
  0
ARC
  5
4AB
100
AcDbEntity
  8
93794901000_BL10
100
AcDbCircle
 62
7
  6
CONTINUOUS
 10
138.1461446592
 20
1127.71882556
 40
11.8745243404
100
AcDbArc
 50
180.0384469405
 51
189.11669152
  0
ARC
  5
4AC
100
AcDbEntity
  8
93794901000_BL10
100
AcDbCircle
 62
7
  6
CONTINUOUS
 10
138.1461440881
 20
1127.7028893849
 40
11.8745237693
100
AcDbArc
 50
170.8833082612
 51
179.9615532783
  0
ARC
  5
4AD
100
AcDbEntity
  8
93794901000_BL10
100
AcDbCircle
 62
7
  6
CONTINUOUS
 10
138.8216229921
 20
1135.7108574496
 40
0.3
100
AcDbArc
 50
315.0
 51
45.0
  0
ARC
  5
4AE
100
AcDbEntity
  8
93794901000_BL10
100
AcDbCircle
 62
7
  6
CONTINUOUS
 10
138.8216229921
 20
1120.7108574496
 40
0.3
100
AcDbArc
 50
315.0
 51
45.0
  0
ARC
  5
4AF
100
AcDbEntity
  8
93794901000_BL10
100
AcDbCircle
 62
7
  6
CONTINUOUS
 10
22.8552606809
 20
1127.7028893392
 40
11.8745243404
100
AcDbArc
 50
0.0384469405
 51
9.11669152
  0
ARC
  5
4B0
100
AcDbEntity
  8
93794901000_BL10
100
AcDbCircle
 62
7
  6
CONTINUOUS
 10
22.8552612519
 20
1127.7188255143
 40
11.8745237693
100
AcDbArc
 50
350.8833082612
 51
359.9615532782
  0
ARC
  5
4B1
100
AcDbEntity
  8
93794901000_BL10
100
AcDbCircle
 62
7
  6
CONTINUOUS
 10
35.3797823479
 20
1120.7108574496
 40
1.25
100
AcDbArc
 50
143.1301023542
 51
216.8698976458
  0
ARC
  5
4B2
100
AcDbEntity
  8
93794901000_BL10
100
AcDbCircle
 62
7
  6
CONTINUOUS
 10
35.3797823479
 20
1134.2108574496
 40
1.25
100
AcDbArc
 50
143.1301023542
 51
216.8698976458
  0
ELLIPSE
  5
4B3
100
AcDbEntity
  8
93794901000_BL10
100
AcDbEllipse
 62
7
  6
CONTINUOUS
 10
28.8797823479
 20
1127.7108574496
 30
0.0
 11
6.0
 21
-0.0
 31
0.0
 40
1.0
 41
-0.4111378623
 42
-0.3175604293
  0
ELLIPSE
  5
4B4
100
AcDbEntity
  8
93794901000_BL10
100
AcDbEllipse
 62
7
  6
CONTINUOUS
 10
28.8797823479
 20
1127.7108574496
 30
0.0
 11
6.0
 21
-0.0
 31
0.0
 40
1.0
 41
0.3175604293
 42
0.4111378623
  0
ELLIPSE
  5
4B5
100
AcDbEntity
  8
93794901000_BL10
100
AcDbEllipse
 62
7
  6
CONTINUOUS
 10
32.7797823479
 20
1137.4108574496
 30
0.0
 11
2.0
 21
0.0
 31
0.0
 40
1.0
 41
-0.6435011088
 42
0.6435011088
  0
ELLIPSE
  5
4B6
100
AcDbEntity
  8
93794901000_BL10
100
AcDbEllipse
 62
7
  6
CONTINUOUS
 10
35.5797823479
 20
1135.7108574496
 30
0.0
 11
0.3
 21
0.0
 31
0.0
 40
1.0
 41
-0.7853981634
 42
0.7853981634
  0
ELLIPSE
  5
4B7
100
AcDbEntity
  8
93794901000_BL10
100
AcDbEllipse
 62
7
  6
CONTINUOUS
 10
35.5797823479
 20
1120.7108574496
 30
0.0
 11
0.3
 21
0.0
 31
0.0
 40
1.0
 41
-0.7853981634
 42
0.7853981634
  0
ENDBLK
  5
4B8
100
AcDbEntity
  8
0
  6
BYBLOCK
 62
0
100
AcDbBlockEnd
  0
BLOCK
  5
4B9
100
AcDbEntity
  8
93794901000_BL11
100
AcDbBlockBegin
  2
93794901000_BL11
 70
64
 10
85.25070267
 20
928.2108574496
  3
93794901000_BL11
  1

  0
LINE
  5
4BA
100
AcDbEntity
  8
93794901000_BL11
100
AcDbLine
 62
7
  6
CONTINUOUS
 10
126.1216229921
 20
945.2108574496
 11
137.6216229921
 21
945.2108574496
  0
LINE
  5
4BB
100
AcDbEntity
  8
93794901000_BL11
100
AcDbLine
 62
7
  6
CONTINUOUS
 10
137.6216229921
 20
945.2108574496
 11
139.1216229921
 21
945.2108574496
  0
LINE
  5
4BC
100
AcDbEntity
  8
93794901000_BL11
100
AcDbLine
 62
7
  6
CONTINUOUS
 10
126.1216229921
 20
926.0865933809
 11
125.2094909578
 21
926.9987254153
  0
LINE
  5
4BD
100
AcDbEntity
  8
93794901000_BL11
100
AcDbLine
 62
7
  6
CONTINUOUS
 10
126.1216229921
 20
941.0865933809
 11
125.2094909578
 21
941.9987254153
  0
LINE
  5
4BE
100
AcDbEntity
  8
93794901000_BL11
100
AcDbLine
 62
7
  6
CONTINUOUS
 10
126.1216229921
 20
945.2108574496
 11
126.1216229921
 21
943.3351215183
  0
LINE
  5
4BF
100
AcDbEntity
  8
93794901000_BL11
100
AcDbLine
 62
7
  6
CONTINUOUS
 10
126.1216229921
 20
923.2108574496
 11
126.1216229921
 21
926.0865933809
  0
LINE
  5
4C0
100
AcDbEntity
  8
93794901000_BL11
100
AcDbLine
 62
7
  6
CONTINUOUS
 10
126.1216229921
 20
928.3351215183
 11
126.1216229921
 21
941.0865933809
  0
LINE
  5
4C1
100
AcDbEntity
  8
93794901000_BL11
100
AcDbLine
 62
7
  6
CONTINUOUS
 10
126.6216229921
 20
945.2108574496
 11
126.6216229921
 21
937.6087732113
  0
LINE
  5
4C2
100
AcDbEntity
  8
93794901000_BL11
100
AcDbLine
 62
7
  6
CONTINUOUS
 10
126.6216229921
 20
932.812941688
 11
126.6216229921
 21
926.7108574496
  0
LINE
  5
4C3
100
AcDbEntity
  8
93794901000_BL11
100
AcDbLine
 62
7
  6
CONTINUOUS
 10
126.6216229921
 20
924.3108574496
 11
126.6216229921
 21
923.2108574496
  0
LINE
  5
4C4
100
AcDbEntity
  8
93794901000_BL11
100
AcDbLine
 62
7
  6
CONTINUOUS
 10
137.6216229921
 20
945.2108574496
 11
137.6216229921
 21
937.6087732113
  0
LINE
  5
4C5
100
AcDbEntity
  8
93794901000_BL11
100
AcDbLine
 62
7
  6
CONTINUOUS
 10
137.6216229921
 20
932.812941688
 11
137.6216229921
 21
926.7108574496
  0
LINE
  5
4C6
100
AcDbEntity
  8
93794901000_BL11
100
AcDbLine
 62
7
  6
CONTINUOUS
 10
137.6216229921
 20
924.3108574496
 11
137.6216229921
 21
923.2108574496
  0
LINE
  5
4C7
100
AcDbEntity
  8
93794901000_BL11
100
AcDbLine
 62
7
  6
CONTINUOUS
 10
139.1216229921
 20
945.2108574496
 11
139.1216229921
 21
923.2108574496
  0
LINE
  5
4C8
100
AcDbEntity
  8
93794901000_BL11
100
AcDbLine
 62
7
  6
CONTINUOUS
 10
125.2094909578
 20
942.422989484
 11
126.1216229921
 21
943.3351215183
  0
LINE
  5
4C9
100
AcDbEntity
  8
93794901000_BL11
100
AcDbLine
 62
7
  6
CONTINUOUS
 10
125.2094909578
 20
927.422989484
 11
126.1216229921
 21
928.3351215183
  0
LINE
  5
4CA
100
AcDbEntity
  8
93794901000_BL11
100
AcDbLine
 62
7
  6
CENTER
 10
31.3797823479
 20
911.2108574496
 11
41.0797823479
 21
911.2108574496
  0
LINE
  5
4CB
100
AcDbEntity
  8
93794901000_BL11
100
AcDbLine
 62
7
  6
CONTINUOUS
 10
34.3797823479
 20
945.2108574496
 11
38.0797823479
 21
945.2108574496
  0
LINE
  5
4CC
100
AcDbEntity
  8
93794901000_BL11
100
AcDbLine
 62
7
  6
CONTINUOUS
 10
34.3797823479
 20
945.2108574496
 11
34.3797823479
 21
937.6087732113
  0
LINE
  5
4CD
100
AcDbEntity
  8
93794901000_BL11
100
AcDbLine
 62
7
  6
CONTINUOUS
 10
34.3797823479
 20
932.812941688
 11
34.3797823479
 21
923.2108574496
  0
LINE
  5
4CE
100
AcDbEntity
  8
93794901000_BL11
100
AcDbLine
 62
7
  6
CONTINUOUS
 10
35.8797823479
 20
945.2108574496
 11
35.8797823479
 21
923.2108574496
  0
LINE
  5
4CF
100
AcDbEntity
  8
93794901000_BL11
100
AcDbLine
 62
7
  6
CONTINUOUS
 10
38.0797823479
 20
923.2108574496
 11
38.0797823479
 21
945.2108574496
  0
ARC
  5
4D0
100
AcDbEntity
  8
93794901000_BL11
100
AcDbCircle
 62
7
  6
CONTINUOUS
 10
126.0971013251
 20
935.2028893392
 40
11.8745243405
100
AcDbArc
 50
0.0384469405
 51
9.11669152
  0
ARC
  5
4D1
100
AcDbEntity
  8
93794901000_BL11
100
AcDbCircle
 62
7
  6
CONTINUOUS
 10
126.0971018961
 20
935.2188255143
 40
11.8745237694
100
AcDbArc
 50
350.8833082613
 51
359.9615532782
  0
CIRCLE
  5
4D2
100
AcDbEntity
  8
93794901000_BL11
100
AcDbCircle
 62
7
  6
CONTINUOUS
 10
128.2216229921
 20
925.5108574496
 40
2.0
  0
CIRCLE
  5
4D3
100
AcDbEntity
  8
93794901000_BL11
100
AcDbCircle
 62
7
  6
CONTINUOUS
 10
128.0216229921
 20
928.7108574496
 40
0.75
  0
CIRCLE
  5
4D4
100
AcDbEntity
  8
93794901000_BL11
100
AcDbCircle
 62
7
  6
CONTINUOUS
 10
128.0216229921
 20
942.2108574496
 40
0.75
  0
ARC
  5
4D5
100
AcDbEntity
  8
93794901000_BL11
100
AcDbCircle
 62
7
  6
CONTINUOUS
 10
125.4216229921
 20
927.2108574496
 40
0.3
100
AcDbArc
 50
135.0
 51
225.0
  0
ARC
  5
4D6
100
AcDbEntity
  8
93794901000_BL11
100
AcDbCircle
 62
7
  6
CONTINUOUS
 10
125.4216229921
 20
942.2108574496
 40
0.3
100
AcDbArc
 50
135.0
 51
225.0
  0
ARC
  5
4D7
100
AcDbEntity
  8
93794901000_BL11
100
AcDbCircle
 62
7
  6
CONTINUOUS
 10
132.1216229921
 20
935.2108574496
 40
6.0
100
AcDbArc
 50
18.1948723388
 51
161.8051276612
  0
ARC
  5
4D8
100
AcDbEntity
  8
93794901000_BL11
100
AcDbCircle
 62
7
  6
CONTINUOUS
 10
132.1216229921
 20
935.2108574496
 40
6.0
100
AcDbArc
 50
198.1948723388
 51
341.8051276612
  0
CIRCLE
  5
4D9
100
AcDbEntity
  8
93794901000_BL11
100
AcDbCircle
 62
7
  6
CONTINUOUS
 10
132.1216229921
 20
935.2108574496
 40
3.5
  0
CIRCLE
  5
4DA
100
AcDbEntity
  8
93794901000_BL11
100
AcDbCircle
 62
7
  6
CONTINUOUS
 10
132.1216229921
 20
935.2108574496
 40
3.3
  0
CIRCLE
  5
4DB
100
AcDbEntity
  8
93794901000_BL11
100
AcDbCircle
 62
7
  6
CONTINUOUS
 10
132.1216229921
 20
943.2108574496
 40
2.0
  0
CIRCLE
  5
4DC
100
AcDbEntity
  8
93794901000_BL11
100
AcDbCircle
 62
7
  6
CONTINUOUS
 10
136.0216229921
 20
925.5108574496
 40
2.0
  0
CIRCLE
  5
4DD
100
AcDbEntity
  8
93794901000_BL11
100
AcDbCircle
 62
7
  6
CONTINUOUS
 10
136.2216229921
 20
928.7108574496
 40
0.75
  0
CIRCLE
  5
4DE
100
AcDbEntity
  8
93794901000_BL11
100
AcDbCircle
 62
7
  6
CONTINUOUS
 10
136.2216229921
 20
942.2108574496
 40
0.75
  0
ARC
  5
4DF
100
AcDbEntity
  8
93794901000_BL11
100
AcDbCircle
 62
7
  6
CONTINUOUS
 10
138.1461446592
 20
935.21882556
 40
11.8745243405
100
AcDbArc
 50
180.0384469405
 51
189.11669152
  0
ARC
  5
4E0
100
AcDbEntity
  8
93794901000_BL11
100
AcDbCircle
 62
7
  6
CONTINUOUS
 10
138.1461440881
 20
935.2028893849
 40
11.8745237693
100
AcDbArc
 50
170.8833082612
 51
179.9615532782
  0
ARC
  5
4E1
100
AcDbEntity
  8
93794901000_BL11
100
AcDbCircle
 62
7
  6
CONTINUOUS
 10
22.8552606808
 20
935.2028893392
 40
11.8745243405
100
AcDbArc
 50
0.0384469405
 51
9.11669152
  0
ARC
  5
4E2
100
AcDbEntity
  8
93794901000_BL11
100
AcDbCircle
 62
7
  6
CONTINUOUS
 10
22.855261252
 20
935.2188255143
 40
11.8745237693
100
AcDbArc
 50
350.8833082612
 51
359.9615532783
  0
ARC
  5
4E3
100
AcDbEntity
  8
93794901000_BL11
100
AcDbCircle
 62
7
  6
CONTINUOUS
 10
35.3797823479
 20
942.2108574496
 40
1.25
100
AcDbArc
 50
143.1301023542
 51
216.8698976458
  0
ARC
  5
4E4
100
AcDbEntity
  8
93794901000_BL11
100
AcDbCircle
 62
7
  6
CONTINUOUS
 10
35.3797823479
 20
928.7108574496
 40
1.25
100
AcDbArc
 50
143.1301023542
 51
216.8698976458
  0
ELLIPSE
  5
4E5
100
AcDbEntity
  8
93794901000_BL11
100
AcDbEllipse
 62
7
  6
CONTINUOUS
 10
32.7797823479
 20
925.5108574496
 30
0.0
 11
2.0
 21
-0.0
 31
0.0
 40
1.0
 41
-0.6435011088
 42
0.0
  0
ELLIPSE
  5
4E6
100
AcDbEntity
  8
93794901000_BL11
100
AcDbEllipse
 62
7
  6
CONTINUOUS
 10
32.7797823479
 20
925.5108574496
 30
0.0
 11
0.0
 21
2.0
 31
0.0
 40
1.0
 41
-1.5707963268
 42
-0.927295218
  0
ELLIPSE
  5
4E7
100
AcDbEntity
  8
93794901000_BL11
100
AcDbEllipse
 62
7
  6
CONTINUOUS
 10
28.8797823479
 20
935.2108574496
 30
0.0
 11
0.0
 21
6.0
 31
0.0
 40
1.0
 41
-1.9819341891
 42
-1.8883567561
  0
ELLIPSE
  5
4E8
100
AcDbEntity
  8
93794901000_BL11
100
AcDbEllipse
 62
7
  6
CONTINUOUS
 10
28.8797823479
 20
935.2108574496
 30
0.0
 11
0.0
 21
6.0
 31
0.0
 40
1.0
 41
-1.2532358975
 42
-1.1596584645
  0
ENDBLK
  5
4E9
100
AcDbEntity
  8
0
  6
BYBLOCK
 62
0
100
AcDbBlockEnd
  0
BLOCK
  5
4EA
100
AcDbEntity
  8
94819605000_BL12
100
AcDbBlockBegin
  2
94819605000_BL12
 70
64
 10
86.25070267
 20
998.1302661564
  3
94819605000_BL12
  1

  0
LINE
  5
4EB
100
AcDbEntity
  8
94819605000_BL12
100
AcDbLine
 62
7
  6
CONTINUOUS
 10
123.1216229921
 20
1139.7108574496
 11
123.1216229921
 21
1904.2108574496
  0
LINE
  5
4EC
100
AcDbEntity
  8
94819605000_BL12
100
AcDbLine
 62
9
  6
CONTINUOUS
 10
126.1216229921
 20
1139.7108574496
 11
126.1216229921
 21
1737.6908170733
  0
LINE
  5
4ED
100
AcDbEntity
  8
94819605000_BL12
100
AcDbLine
 62
9
  6
CONTINUOUS
 10
126.1216229921
 20
1810.730897826
 11
126.1216229921
 21
1904.2108574496
  0
LINE
  5
4EE
100
AcDbEntity
  8
94819605000_BL12
100
AcDbLine
 62
7
  6
CENTER
 10
132.1216229921
 20
1892.2108574496
 11
132.1216229921
 21
1883.8108574496
  0
LINE
  5
4EF
100
AcDbEntity
  8
94819605000_BL12
100
AcDbLine
 62
7
  6
CENTER
 10
132.1216229921
 20
1822.2108574496
 11
132.1216229921
 21
1813.8108574496
  0
LINE
  5
4F0
100
AcDbEntity
  8
94819605000_BL12
100
AcDbLine
 62
7
  6
CENTER
 10
132.1216229921
 20
1696.2108574496
 11
132.1216229921
 21
1687.8108574496
  0
LINE
  5
4F1
100
AcDbEntity
  8
94819605000_BL12
100
AcDbLine
 62
7
  6
CENTER
 10
132.1216229921
 20
1434.7108574496
 11
132.1216229921
 21
1426.3108574496
  0
LINE
  5
4F2
100
AcDbEntity
  8
94819605000_BL12
100
AcDbLine
 62
7
  6
CENTER
 10
132.1216229921
 20
1151.7108574496
 11
132.1216229921
 21
1143.3108574496
  0
LINE
  5
4F3
100
AcDbEntity
  8
94819605000_BL12
100
AcDbLine
 62
7
  6
CENTER
 10
132.1216229921
 20
1151.7108574496
 11
132.1216229921
 21
1160.1108574496
  0
LINE
  5
4F4
100
AcDbEntity
  8
94819605000_BL12
100
AcDbLine
 62
7
  6
CENTER
 10
132.1216229921
 20
1434.7108574496
 11
132.1216229921
 21
1443.1108574496
  0
LINE
  5
4F5
100
AcDbEntity
  8
94819605000_BL12
100
AcDbLine
 62
7
  6
CENTER
 10
132.1216229921
 20
1696.2108574496
 11
132.1216229921
 21
1704.6108574496
  0
LINE
  5
4F6
100
AcDbEntity
  8
94819605000_BL12
100
AcDbLine
 62
7
  6
CENTER
 10
132.1216229921
 20
1822.2108574496
 11
132.1216229921
 21
1830.6108574496
  0
LINE
  5
4F7
100
AcDbEntity
  8
94819605000_BL12
100
AcDbLine
 62
7
  6
CENTER
 10
132.1216229921
 20
1892.2108574496
 11
132.1216229921
 21
1900.6108574496
  0
LINE
  5
4F8
100
AcDbEntity
  8
94819605000_BL12
100
AcDbLine
 62
9
  6
CONTINUOUS
 10
138.1216229921
 20
1139.7108574496
 11
138.1216229921
 21
1737.6908170733
  0
LINE
  5
4F9
100
AcDbEntity
  8
94819605000_BL12
100
AcDbLine
 62
9
  6
CONTINUOUS
 10
138.1216229921
 20
1810.730897826
 11
138.1216229921
 21
1904.2108574496
  0
LINE
  5
4FA
100
AcDbEntity
  8
94819605000_BL12
100
AcDbLine
 62
7
  6
CONTINUOUS
 10
141.1216229921
 20
1904.2108574496
 11
141.1216229921
 21
1139.7108574496
  0
LINE
  5
4FB
100
AcDbEntity
  8
94819605000_BL12
100
AcDbLine
 62
7
  6
CONTINUOUS
 10
141.1216229921
 20
1139.7108574496
 11
123.1216229921
 21
1139.7108574496
  0
LINE
  5
4FC
100
AcDbEntity
  8
94819605000_BL12
100
AcDbLine
 62
7
  6
CENTER
 10
132.1216229921
 20
1151.7108574496
 11
123.7216229921
 21
1151.7108574496
  0
LINE
  5
4FD
100
AcDbEntity
  8
94819605000_BL12
100
AcDbLine
 62
7
  6
CENTER
 10
132.1216229921
 20
1151.7108574496
 11
140.5216229921
 21
1151.7108574496
  0
LINE
  5
4FE
100
AcDbEntity
  8
94819605000_BL12
100
AcDbLine
 62
7
  6
CENTER
 10
132.1216229921
 20
1434.7108574496
 11
123.7216229921
 21
1434.7108574496
  0
LINE
  5
4FF
100
AcDbEntity
  8
94819605000_BL12
100
AcDbLine
 62
7
  6
CENTER
 10
132.1216229921
 20
1434.7108574496
 11
140.5216229921
 21
1434.7108574496
  0
LINE
  5
500
100
AcDbEntity
  8
94819605000_BL12
100
AcDbLine
 62
7
  6
CENTER
 10
132.1216229921
 20
1696.2108574496
 11
123.7216229921
 21
1696.2108574496
  0
LINE
  5
501
100
AcDbEntity
  8
94819605000_BL12
100
AcDbLine
 62
7
  6
CENTER
 10
132.1216229921
 20
1696.2108574496
 11
140.5216229921
 21
1696.2108574496
  0
LINE
  5
502
100
AcDbEntity
  8
94819605000_BL12
100
AcDbLine
 62
7
  6
CENTER
 10
132.1216229921
 20
1822.2108574496
 11
123.7216229921
 21
1822.2108574496
  0
LINE
  5
503
100
AcDbEntity
  8
94819605000_BL12
100
AcDbLine
 62
7
  6
CENTER
 10
132.1216229921
 20
1822.2108574496
 11
140.5216229921
 21
1822.2108574496
  0
LINE
  5
504
100
AcDbEntity
  8
94819605000_BL12
100
AcDbLine
 62
7
  6
CENTER
 10
132.1216229921
 20
1892.2108574496
 11
123.7216229921
 21
1892.2108574496
  0
LINE
  5
505
100
AcDbEntity
  8
94819605000_BL12
100
AcDbLine
 62
7
  6
CENTER
 10
132.1216229921
 20
1892.2108574496
 11
140.5216229921
 21
1892.2108574496
  0
LINE
  5
506
100
AcDbEntity
  8
94819605000_BL12
100
AcDbLine
 62
7
  6
CONTINUOUS
 10
141.1216229921
 20
1904.2108574496
 11
123.1216229921
 21
1904.2108574496
  0
LINE
  5
507
100
AcDbEntity
  8
94819605000_BL12
100
AcDbLine
 62
7
  6
CONTINUOUS
 10
32.3797823479
 20
1139.7108574496
 11
32.3797823479
 21
1737.7067842299
  0
LINE
  5
508
100
AcDbEntity
  8
94819605000_BL12
100
AcDbLine
 62
7
  6
CONTINUOUS
 10
32.3797823479
 20
1810.7149306693
 11
32.3797823479
 21
1904.2108574496
  0
LINE
  5
509
100
AcDbEntity
  8
94819605000_BL12
100
AcDbLine
 62
7
  6
CONTINUOUS
 10
32.5513552232
 20
1792.2108574496
 11
32.5513552232
 21
1756.2108574496
  0
LINE
  5
50A
100
AcDbEntity
  8
94819605000_BL12
100
AcDbLine
 62
9
  6
CONTINUOUS
 10
35.3797823479
 20
1139.7108574496
 11
35.3797823479
 21
1904.2108574496
  0
LINE
  5
50B
100
AcDbEntity
  8
94819605000_BL12
100
AcDbLine
 62
7
  6
CONTINUOUS
 10
38.3797823479
 20
1139.7108574496
 11
38.3797823479
 21
1904.2108574496
  0
LINE
  5
50C
100
AcDbEntity
  8
94819605000_BL12
100
AcDbLine
 62
7
  6
CONTINUOUS
 10
38.3797823479
 20
1139.7108574496
 11
32.3797823479
 21
1139.7108574496
  0
LINE
  5
50D
100
AcDbEntity
  8
94819605000_BL12
100
AcDbLine
 62
7
  6
CENTER
 10
39.3797823479
 20
1434.7108574496
 11
31.3797823479
 21
1434.7108574496
  0
LINE
  5
50E
100
AcDbEntity
  8
94819605000_BL12
100
AcDbLine
 62
7
  6
CENTER
 10
39.3797823479
 20
1696.2108574496
 11
31.3797823479
 21
1696.2108574496
  0
LINE
  5
50F
100
AcDbEntity
  8
94819605000_BL12
100
AcDbLine
 62
7
  6
CENTER
 10
39.3797823479
 20
1822.2108574496
 11
31.3797823479
 21
1822.2108574496
  0
LINE
  5
510
100
AcDbEntity
  8
94819605000_BL12
100
AcDbLine
 62
7
  6
CENTER
 10
39.3797823479
 20
1892.2108574496
 11
31.3797823479
 21
1892.2108574496
  0
LINE
  5
511
100
AcDbEntity
  8
94819605000_BL12
100
AcDbLine
 62
7
  6
CONTINUOUS
 10
38.3797823479
 20
1904.2108574496
 11
32.3797823479
 21
1904.2108574496
  0
LINE
  5
512
100
AcDbEntity
  8
94819605000_BL12
100
AcDbLine
 62
7
  6
CONTINUOUS
 10
38.3797823479
 20
92.0496748632
 11
35.3797823479
 21
92.0496748632
  0
LINE
  5
513
100
AcDbEntity
  8
94819605000_BL12
100
AcDbLine
 62
7
  6
CONTINUOUS
 10
32.3797823479
 20
95.0496748632
 11
32.3797823479
 21
107.0496748632
  0
LINE
  5
514
100
AcDbEntity
  8
94819605000_BL12
100
AcDbLine
 62
7
  6
CONTINUOUS
 10
34.8797823479
 20
94.0496748632
 11
38.3797823479
 21
94.0496748632
  0
LINE
  5
515
100
AcDbEntity
  8
94819605000_BL12
100
AcDbLine
 62
7
  6
CONTINUOUS
 10
34.3797823479
 20
107.5496748632
 11
34.3797823479
 21
94.5496748632
  0
LINE
  5
516
100
AcDbEntity
  8
94819605000_BL12
100
AcDbLine
 62
7
  6
CONTINUOUS
 10
38.3797823479
 20
110.0496748632
 11
38.3797823479
 21
108.0496748632
  0
LINE
  5
517
100
AcDbEntity
  8
94819605000_BL12
100
AcDbLine
 62
7
  6
CONTINUOUS
 10
38.3797823479
 20
94.0496748632
 11
38.3797823479
 21
92.0496748632
  0
LINE
  5
518
100
AcDbEntity
  8
94819605000_BL12
100
AcDbLine
 62
7
  6
CONTINUOUS
 10
38.3797823479
 20
108.0496748632
 11
34.8797823479
 21
108.0496748632
  0
LINE
  5
519
100
AcDbEntity
  8
94819605000_BL12
100
AcDbLine
 62
7
  6
CONTINUOUS
 10
35.3797823479
 20
110.0496748632
 11
38.3797823479
 21
110.0496748632
  0
CIRCLE
  5
51A
100
AcDbEntity
  8
94819605000_BL12
100
AcDbCircle
 62
7
  6
CONTINUOUS
 10
132.1216229921
 20
1434.7108574496
 40
4.15
  0
CIRCLE
  5
51B
100
AcDbEntity
  8
94819605000_BL12
100
AcDbCircle
 62
7
  6
CONTINUOUS
 10
132.1216229921
 20
1151.7108574496
 40
4.15
  0
CIRCLE
  5
51C
100
AcDbEntity
  8
94819605000_BL12
100
AcDbCircle
 62
7
  6
CONTINUOUS
 10
132.1216229921
 20
1434.7108574496
 40
2.6
  0
CIRCLE
  5
51D
100
AcDbEntity
  8
94819605000_BL12
100
AcDbCircle
 62
7
  6
CONTINUOUS
 10
132.1216229921
 20
1151.7108574496
 40
2.6
  0
CIRCLE
  5
51E
100
AcDbEntity
  8
94819605000_BL12
100
AcDbCircle
 62
7
  6
CONTINUOUS
 10
132.1216229921
 20
1696.2108574496
 40
4.15
  0
CIRCLE
  5
51F
100
AcDbEntity
  8
94819605000_BL12
100
AcDbCircle
 62
7
  6
CONTINUOUS
 10
132.1216229921
 20
1696.2108574496
 40
2.6
  0
CIRCLE
  5
520
100
AcDbEntity
  8
94819605000_BL12
100
AcDbCircle
 62
7
  6
CONTINUOUS
 10
132.1216229921
 20
1892.2108574496
 40
4.15
  0
CIRCLE
  5
521
100
AcDbEntity
  8
94819605000_BL12
100
AcDbCircle
 62
7
  6
CONTINUOUS
 10
132.1216229921
 20
1822.2108574496
 40
4.15
  0
CIRCLE
  5
522
100
AcDbEntity
  8
94819605000_BL12
100
AcDbCircle
 62
7
  6
CONTINUOUS
 10
132.1216229921
 20
1892.2108574496
 40
2.6
  0
CIRCLE
  5
523
100
AcDbEntity
  8
94819605000_BL12
100
AcDbCircle
 62
7
  6
CONTINUOUS
 10
132.1216229921
 20
1822.2108574496
 40
2.6
  0
ARC
  5
524
100
AcDbEntity
  8
94819605000_BL12
100
AcDbCircle
 62
7
  6
CONTINUOUS
 10
35.3797823479
 20
95.0496748632
 40
3.0
100
AcDbArc
 50
180.0
 51
270.0
  0
ARC
  5
525
100
AcDbEntity
  8
94819605000_BL12
100
AcDbCircle
 62
7
  6
CONTINUOUS
 10
34.8797823479
 20
94.5496748632
 40
0.5
100
AcDbArc
 50
180.0
 51
270.0
  0
ARC
  5
526
100
AcDbEntity
  8
94819605000_BL12
100
AcDbCircle
 62
7
  6
CONTINUOUS
 10
35.3797823479
 20
107.0496748632
 40
3.0
100
AcDbArc
 50
90.0
 51
180.0
  0
ARC
  5
527
100
AcDbEntity
  8
94819605000_BL12
100
AcDbCircle
 62
7
  6
CONTINUOUS
 10
34.8797823479
 20
107.5496748632
 40
0.5
100
AcDbArc
 50
90.0
 51
180.0
  0
SPLINE
  5
528
100
AcDbEntity
  8
94819605000_BL12
100
AcDbSpline
 62
7
  6
CONTINUOUS
 70
0
 71
3
 72
10
 73
6
 74
0
 42
0.0000001
 43
0.0000001
 44
0.0000000001
 40
0.0
 40
0.0
 40
0.0
 40
0.0
 40
0.5763936339
 40
0.8162512267
 40
1.0
 40
1.0
 40
1.0
 40
1.0
 10
32.5513552232
 20
1756.2108574496
 30
0.0
 10
32.5513552232
 20
1755.8763149884
 30
0.0
 10
32.5040605257
 20
1755.4023940727
 30
0.0
 10
32.4113658042
 20
1754.8303868458
 30
0.0
 10
32.3797823479
 20
1754.5854555765
 30
0.0
 10
32.3797823479
 20
1754.478806642
 30
0.0
  0
SPLINE
  5
529
100
AcDbEntity
  8
94819605000_BL12
100
AcDbSpline
 62
7
  6
CONTINUOUS
 70
0
 71
3
 72
10
 73
6
 74
0
 42
0.0000001
 43
0.0000001
 44
0.0000000001
 40
0.0
 40
0.0
 40
0.0
 40
0.0
 40
0.1837493613
 40
0.4236057305
 40
1.0
 40
1.0
 40
1.0
 40
1.0
 10
32.3797823479
 20
1793.9429082572
 30
0.0
 10
32.3797823479
 20
1793.8362589816
 30
0.0
 10
32.4113658107
 20
1793.5913280823
 30
0.0
 10
32.504060555
 20
1793.0193208583
 30
0.0
 10
32.5513552232
 20
1792.5454002795
 30
0.0
 10
32.5513552232
 20
1792.2108574496
 30
0.0
  0
ENDBLK
  5
52A
100
AcDbEntity
  8
0
  6
BYBLOCK
 62
0
100
AcDbBlockEnd
  0
BLOCK
  5
52B
100
AcDbEntity
  8
93773501000_O_BL13
100
AcDbBlockBegin
  2
93773501000_O_BL13
 70
64
 10
86.75070267
 20
1907.7108574496
  3
93773501000_O_BL13
  1

  0
LINE
  5
52C
100
AcDbEntity
  8
93773501000_O_BL13
100
AcDbLine
 62
7
  6
CONTINUOUS
 10
123.1216229921
 20
1904.6108574496
 11
123.1216229921
 21
1912.2108574496
  0
LINE
  5
52D
100
AcDbEntity
  8
93773501000_O_BL13
100
AcDbLine
 62
9
  6
CONTINUOUS
 10
125.6216229921
 20
1907.7108574496
 11
125.6216229921
 21
1904.2108574496
  0
LINE
  5
52E
100
AcDbEntity
  8
93773501000_O_BL13
100
AcDbLine
 62
9
  6
CONTINUOUS
 10
138.6216229921
 20
1907.7108574496
 11
138.6216229921
 21
1904.2108574496
  0
LINE
  5
52F
100
AcDbEntity
  8
93773501000_O_BL13
100
AcDbLine
 62
7
  6
CONTINUOUS
 10
141.1216229921
 20
1912.2108574496
 11
141.1216229921
 21
1904.6108574496
  0
LINE
  5
530
100
AcDbEntity
  8
93773501000_O_BL13
100
AcDbLine
 62
9
  6
CONTINUOUS
 10
123.1216229921
 20
1904.6108574496
 11
141.1216229921
 21
1904.6108574496
  0
LINE
  5
531
100
AcDbEntity
  8
93773501000_O_BL13
100
AcDbLine
 62
9
  6
CONTINUOUS
 10
125.6216229921
 20
1907.7108574496
 11
138.6216229921
 21
1907.7108574496
  0
LINE
  5
532
100
AcDbEntity
  8
93773501000_O_BL13
100
AcDbLine
 62
7
  6
CONTINUOUS
 10
123.1216229921
 20
1912.2108574496
 11
141.1216229921
 21
1912.2108574496
  0
LINE
  5
533
100
AcDbEntity
  8
93773501000_O_BL13
100
AcDbLine
 62
7
  6
CONTINUOUS
 10
32.3797823479
 20
1907.7108574496
 11
32.3797823479
 21
1904.6108574496
  0
LINE
  5
534
100
AcDbEntity
  8
93773501000_O_BL13
100
AcDbLine
 62
9
  6
CONTINUOUS
 10
34.8797823479
 20
1911.7419863238
 11
34.8797823479
 21
1904.2108574496
  0
LINE
  5
535
100
AcDbEntity
  8
93773501000_O_BL13
100
AcDbLine
 62
7
  6
CONTINUOUS
 10
38.3797823479
 20
1912.2108574496
 11
38.3797823479
 21
1904.2108574496
  0
LINE
  5
536
100
AcDbEntity
  8
93773501000_O_BL13
100
AcDbLine
 62
9
  6
CONTINUOUS
 10
32.3797823479
 20
1904.6108574496
 11
38.3797823479
 21
1904.6108574496
  0
LINE
  5
537
100
AcDbEntity
  8
93773501000_O_BL13
100
AcDbLine
 62
7
  6
CONTINUOUS
 10
38.3797823479
 20
1912.2108574496
 11
36.8797823479
 21
1912.2108574496
  0
ARC
  5
538
100
AcDbEntity
  8
93773501000_O_BL13
100
AcDbCircle
 62
7
  6
CONTINUOUS
 10
123.5216229921
 20
1904.6108574496
 40
0.4
100
AcDbArc
 50
180.0
 51
270.0000000001
  0
ARC
  5
539
100
AcDbEntity
  8
93773501000_O_BL13
100
AcDbCircle
 62
7
  6
CONTINUOUS
 10
140.7216229921
 20
1904.6108574496
 40
0.4
100
AcDbArc
 50
269.9999999999
 51
360.0
  0
ARC
  5
53A
100
AcDbEntity
  8
93773501000_O_BL13
100
AcDbCircle
 62
7
  6
CONTINUOUS
 10
32.7797823479
 20
1904.6108574496
 40
0.4
100
AcDbArc
 50
180.0
 51
270.0
  0
ARC
  5
53B
100
AcDbEntity
  8
93773501000_O_BL13
100
AcDbCircle
 62
7
  6
CONTINUOUS
 10
36.8797823479
 20
1907.7108574496
 40
4.5
100
AcDbArc
 50
90.0
 51
180.0
  0
SPLINE
  5
53C
100
AcDbEntity
  8
93773501000_O_BL13
100
AcDbSpline
 62
7
  6
CONTINUOUS
 70
0
 71
3
 72
12
 73
8
 74
0
 42
0.0000001
 43
0.0000001
 44
0.0000000001
 40
0.0
 40
0.0
 40
0.0
 40
0.0
 40
0.2950115656
 40
0.5762827964
 40
0.8230063738
 40
0.9228004485
 40
1.0
 40
1.0
 40
1.0
 40
1.0
 10
125.6216229921
 20
1907.7108574496
 30
0.0
 10
125.3408532589
 20
1908.0875495753
 30
0.0
 10
124.7918331617
 20
1908.8233617932
 30
0.0
 10
124.0303184951
 20
1909.8887958867
 30
0.0
 10
123.4855899095
 20
1910.7318445496
 30
0.0
 10
123.1966454324
 20
1911.3405050623
 30
0.0
 10
123.1216229921
 20
1911.6190429746
 30
0.0
 10
123.1216229921
 20
1911.7419863238
 30
0.0
  0
SPLINE
  5
53D
100
AcDbEntity
  8
93773501000_O_BL13
100
AcDbSpline
 62
7
  6
CONTINUOUS
 70
0
 71
3
 72
12
 73
8
 74
0
 42
0.0000001
 43
0.0000001
 44
0.0000000001
 40
0.0
 40
0.0
 40
0.0
 40
0.0
 40
0.0772206737
 40
0.1770425366
 40
0.4238065817
 40
0.7050583377
 40
1.0
 40
1.0
 40
1.0
 40
1.0
 10
141.1216229921
 20
1911.7419863238
 30
0.0
 10
141.1216229921
 20
1911.6190092563
 30
0.0
 10
141.0465827826
 20
1911.3403921458
 30
0.0
 10
140.7575259779
 20
1910.7316256974
 30
0.0
 10
140.2127518991
 20
1909.8885175841
 30
0.0
 10
139.4512620348
 20
1908.8231581931
 30
0.0
 10
138.90232638
 20
1908.0874605637
 30
0.0
 10
138.6216229921
 20
1907.7108574496
 30
0.0
  0
ENDBLK
  5
53E
100
AcDbEntity
  8
0
  6
BYBLOCK
 62
0
100
AcDbBlockEnd
  0
BLOCK
  5
53F
100
AcDbEntity
  8
91511100000_BL14
100
AcDbBlockBegin
  2
91511100000_BL14
 70
64
 10
37.0797823479
 20
101.0496748632
  3
91511100000_BL14
  1

  0
LINE
  5
540
100
AcDbEntity
  8
91511100000_BL14
100
AcDbLine
 62
7
  6
CONTINUOUS
 10
37.6797823479
 20
97.0496748632
 11
36.4797823479
 21
97.0496748632
  0
LINE
  5
541
100
AcDbEntity
  8
91511100000_BL14
100
AcDbLine
 62
7
  6
CONTINUOUS
 10
37.6797823479
 20
97.0496748632
 11
37.6797823479
 21
105.0496748632
  0
LINE
  5
542
100
AcDbEntity
  8
91511100000_BL14
100
AcDbLine
 62
7
  6
CONTINUOUS
 10
37.6797823479
 20
105.0496748632
 11
36.4797823479
 21
105.0496748632
  0
ENDBLK
  5
543
100
AcDbEntity
  8
0
  6
BYBLOCK
 62
0
100
AcDbBlockEnd
  0
BLOCK
  5
544
100
AcDbEntity
  8
0
100
AcDbBlockBegin
  2
_FILLED
 70
64
 10
0.0
 20
0.0
  3
_FILLED
  1

  0
SOLID
  5
545
100
AcDbEntity
  8
0
  6
BYBLOCK
 62
0
100
AcDbTrace
 10
0.0
 20
0.0
 11
-1.0
 21
0.1428571429
 12
-1.0
 22
-0.1428571429
 13
-1.0
 23
-0.1428571429
  0
ENDBLK
  5
546
100
AcDbEntity
  8
0
  6
BYBLOCK
 62
0
100
AcDbBlockEnd
  0
BLOCK
  5
547
100
AcDbEntity
  8
0
100
AcDbBlockBegin
  2
_NONE
 70
64
 10
0.0
 20
0.0
  3
_NONE
  1

  0
ENDBLK
  5
548
100
AcDbEntity
  8
0
  6
BYBLOCK
 62
0
100
AcDbBlockEnd
  0
BLOCK
  5
549
100
AcDbEntity
  8
0
100
AcDbBlockBegin
 62
2
  6
CONTINUOUS
  2
*D0
 70
65
 10
0.0
 20
0.0
  3
*D0
  1

  0
TEXT
  5
54A
100
AcDbEntity
  8
0
100
AcDbText
 62
5
  6
CONTINUOUS
 10
34.4085927568
 20
1922.8358574496
  7
STANDARD
 40
2.5
  1
6
 72
5
 11
36.350971939
 21
1922.8358574496
100
AcDbText
  0
LINE
  5
54B
100
AcDbEntity
  8
0
100
AcDbLine
 62
2
  6
CONTINUOUS
 10
32.3797823479
 20
1907.9270794129
 11
32.3797823479
 21
1923.2108574496
  0
LINE
  5
54C
100
AcDbEntity
  8
0
100
AcDbLine
 62
2
  6
CONTINUOUS
 10
38.3797823479
 20
1912.0540893808
 11
38.3797823479
 21
1923.2108574496
  0
LINE
  5
54D
100
AcDbEntity
  8
0
100
AcDbLine
 62
2
  6
CONTINUOUS
 10
32.3797823479
 20
1922.2108574496
 11
25.3797823479
 21
1922.2108574496
  0
LINE
  5
54E
100
AcDbEntity
  8
0
100
AcDbLine
 62
2
  6
CONTINUOUS
 10
25.3797823479
 20
1922.2108574496
 11
35.3797823479
 21
1922.2108574496
  0
LINE
  5
54F
100
AcDbEntity
  8
0
100
AcDbLine
 62
2
  6
CONTINUOUS
 10
38.3797823479
 20
1922.2108574496
 11
45.3797823479
 21
1922.2108574496
  0
LINE
  5
550
100
AcDbEntity
  8
0
100
AcDbLine
 62
2
  6
CONTINUOUS
 10
45.3797823479
 20
1922.2108574496
 11
35.3797823479
 21
1922.2108574496
  0
INSERT
  5
551
100
AcDbEntity
  8
0
100
AcDbBlockReference
 62
2
  6
CONTINUOUS
  2
_FILLED
 10
32.3797823479
 20
1922.2108574496
 41
3.5
 42
3.5
 43
3.5
  0
INSERT
  5
552
100
AcDbEntity
  8
0
100
AcDbBlockReference
 62
2
  6
CONTINUOUS
  2
_FILLED
 10
38.3797823479
 20
1922.2108574496
 41
3.5
 42
3.5
 43
3.5
 50
180.0
  0
ENDBLK
  5
553
100
AcDbEntity
  8
0
  6
BYBLOCK
 62
0
100
AcDbBlockEnd
  0
BLOCK
  5
554
100
AcDbEntity
  8
0
100
AcDbBlockBegin
 62
2
  6
CONTINUOUS
  2
*D1
 70
65
 10
0.0
 20
0.0
  3
*D1
  1

  0
TEXT
  5
555
100
AcDbEntity
  8
0
100
AcDbText
 62
5
  6
CONTINUOUS
 10
130.17924381
 20
1922.8358574496
  7
STANDARD
 40
2.5
  1
18
 72
5
 11
134.0640021743
 21
1922.8358574496
100
AcDbText
  0
LINE
  5
556
100
AcDbEntity
  8
0
100
AcDbLine
 62
2
  6
CONTINUOUS
 10
123.1216229921
 20
1911.7528005244
 11
123.1216229921
 21
1923.2108574496
  0
LINE
  5
557
100
AcDbEntity
  8
0
100
AcDbLine
 62
2
  6
CONTINUOUS
 10
141.1216229921
 20
1911.6238314629
 11
141.1216229921
 21
1923.2108574496
  0
LINE
  5
558
100
AcDbEntity
  8
0
100
AcDbLine
 62
2
  6
CONTINUOUS
 10
123.1216229921
 20
1922.2108574496
 11
132.1216229921
 21
1922.2108574496
  0
LINE
  5
559
100
AcDbEntity
  8
0
100
AcDbLine
 62
2
  6
CONTINUOUS
 10
141.1216229921
 20
1922.2108574496
 11
132.1216229921
 21
1922.2108574496
  0
INSERT
  5
55A
100
AcDbEntity
  8
0
100
AcDbBlockReference
 62
2
  6
CONTINUOUS
  2
_FILLED
 10
123.1216229921
 20
1922.2108574496
 41
3.5
 42
3.5
 43
3.5
 50
180.0
  0
INSERT
  5
55B
100
AcDbEntity
  8
0
100
AcDbBlockReference
 62
2
  6
CONTINUOUS
  2
_FILLED
 10
141.1216229921
 20
1922.2108574496
 41
3.5
 42
3.5
 43
3.5
  0
ENDBLK
  5
55C
100
AcDbEntity
  8
0
  6
BYBLOCK
 62
0
100
AcDbBlockEnd
  0
BLOCK
  5
55D
100
AcDbEntity
  8
0
100
AcDbBlockBegin
 62
2
  6
CONTINUOUS
  2
*D2
 70
65
 10
0.0
 20
0.0
  3
*D2
  1

  0
TEXT
  5
55E
100
AcDbEntity
  8
0
100
AcDbText
 62
5
  6
CONTINUOUS
 10
58.9547823479
 20
282.2684782675
  7
STANDARD
 40
2.5
  1
74
 50
90.0
 72
5
 11
58.9547823479
 21
286.1532366318
100
AcDbText
  0
LINE
  5
55F
100
AcDbEntity
  8
0
100
AcDbLine
 62
2
  6
CONTINUOUS
 10
38.3589228432
 20
321.2108574496
 11
60.5797823479
 21
321.2108574496
  0
LINE
  5
560
100
AcDbEntity
  8
0
100
AcDbLine
 62
2
  6
CONTINUOUS
 10
38.3915372667
 20
247.2108574496
 11
60.5797823479
 21
247.2108574496
  0
LINE
  5
561
100
AcDbEntity
  8
0
100
AcDbLine
 62
2
  6
CONTINUOUS
 10
59.5797823479
 20
321.2108574496
 11
59.5797823479
 21
284.2108574496
  0
LINE
  5
562
100
AcDbEntity
  8
0
100
AcDbLine
 62
2
  6
CONTINUOUS
 10
59.5797823479
 20
247.2108574496
 11
59.5797823479
 21
284.2108574496
  0
INSERT
  5
563
100
AcDbEntity
  8
0
100
AcDbBlockReference
 62
2
  6
CONTINUOUS
  2
_FILLED
 10
59.5797823479
 20
321.2108574496
 41
3.5
 42
3.5
 43
3.5
 50
90.0
  0
INSERT
  5
564
100
AcDbEntity
  8
0
100
AcDbBlockReference
 62
2
  6
CONTINUOUS
  2
_FILLED
 10
59.5797823479
 20
247.2108574496
 41
3.5
 42
3.5
 43
3.5
 50
270.0
  0
ENDBLK
  5
565
100
AcDbEntity
  8
0
  6
BYBLOCK
 62
0
100
AcDbBlockEnd
  0
BLOCK
  5
566
100
AcDbEntity
  8
0
100
AcDbBlockBegin
 62
2
  6
CONTINUOUS
  2
*D3
 70
65
 10
0.0
 20
0.0
  3
*D3
  1

  0
TEXT
  5
567
100
AcDbEntity
  8
0
100
AcDbText
 62
5
  6
CONTINUOUS
 10
58.9547823479
 20
1772.2684782675
  7
STANDARD
 40
2.5
  1
74
 50
90.0
 72
5
 11
58.9547823479
 21
1776.1532366318
100
AcDbText
  0
LINE
  5
568
100
AcDbEntity
  8
0
100
AcDbLine
 62
2
  6
CONTINUOUS
 10
38.3959765142
 20
1811.2108574496
 11
60.5797823479
 21
1811.2108574496
  0
LINE
  5
569
100
AcDbEntity
  8
0
100
AcDbLine
 62
2
  6
CONTINUOUS
 10
38.4409872964
 20
1737.2108574496
 11
60.5797823479
 21
1737.2108574496
  0
LINE
  5
56A
100
AcDbEntity
  8
0
100
AcDbLine
 62
2
  6
CONTINUOUS
 10
59.5797823479
 20
1811.2108574496
 11
59.5797823479
 21
1774.2108574496
  0
LINE
  5
56B
100
AcDbEntity
  8
0
100
AcDbLine
 62
2
  6
CONTINUOUS
 10
59.5797823479
 20
1737.2108574496
 11
59.5797823479
 21
1774.2108574496
  0
INSERT
  5
56C
100
AcDbEntity
  8
0
100
AcDbBlockReference
 62
2
  6
CONTINUOUS
  2
_FILLED
 10
59.5797823479
 20
1811.2108574496
 41
3.5
 42
3.5
 43
3.5
 50
90.0
  0
INSERT
  5
56D
100
AcDbEntity
  8
0
100
AcDbBlockReference
 62
2
  6
CONTINUOUS
  2
_FILLED
 10
59.5797823479
 20
1737.2108574496
 41
3.5
 42
3.5
 43
3.5
 50
270.0
  0
ENDBLK
  5
56E
100
AcDbEntity
  8
0
  6
BYBLOCK
 62
0
100
AcDbBlockEnd
  0
BLOCK
  5
56F
100
AcDbEntity
  8
0
100
AcDbBlockBegin
 62
2
  6
CONTINUOUS
  2
*D4
 70
65
 10
0.0
 20
0.0
  3
*D4
  1

  0
TEXT
  5
570
100
AcDbEntity
  8
0
100
AcDbText
 62
5
  6
CONTINUOUS
 10
58.9547823479
 20
1855.7684782675
  7
STANDARD
 40
2.5
  1
93
 50
90.0
 72
5
 11
58.9547823479
 21
1859.6532366318
100
AcDbText
  0
LINE
  5
571
100
AcDbEntity
  8
0
100
AcDbLine
 62
2
  6
CONTINUOUS
 10
38.3797823479
 20
1904.2108574496
 11
60.5797823479
 21
1904.2108574496
  0
LINE
  5
572
100
AcDbEntity
  8
0
100
AcDbLine
 62
2
  6
CONTINUOUS
 10
38.3183462291
 20
1811.2108574496
 11
60.5797823479
 21
1811.2108574496
  0
LINE
  5
573
100
AcDbEntity
  8
0
100
AcDbLine
 62
2
  6
CONTINUOUS
 10
59.5797823479
 20
1904.2108574496
 11
59.5797823479
 21
1857.7108574496
  0
LINE
  5
574
100
AcDbEntity
  8
0
100
AcDbLine
 62
2
  6
CONTINUOUS
 10
59.5797823479
 20
1811.2108574496
 11
59.5797823479
 21
1857.7108574496
  0
INSERT
  5
575
100
AcDbEntity
  8
0
100
AcDbBlockReference
 62
2
  6
CONTINUOUS
  2
_FILLED
 10
59.5797823479
 20
1904.2108574496
 41
3.5
 42
3.5
 43
3.5
 50
90.0
  0
INSERT
  5
576
100
AcDbEntity
  8
0
100
AcDbBlockReference
 62
2
  6
CONTINUOUS
  2
_FILLED
 10
59.5797823479
 20
1811.2108574496
 41
3.5
 42
3.5
 43
3.5
 50
270.0
  0
ENDBLK
  5
577
100
AcDbEntity
  8
0
  6
BYBLOCK
 62
0
100
AcDbBlockEnd
  0
BLOCK
  5
578
100
AcDbEntity
  8
0
100
AcDbBlockBegin
 62
2
  6
CONTINUOUS
  2
*D5
 70
65
 10
0.0
 20
0.0
  3
*D5
  1

  0
TEXT
  5
579
100
AcDbEntity
  8
0
100
AcDbText
 62
5
  6
CONTINUOUS
 10
58.9547823479
 20
198.7684782675
  7
STANDARD
 40
2.5
  1
93
 50
90.0
 72
5
 11
58.9547823479
 21
202.6532366318
100
AcDbText
  0
LINE
  5
57A
100
AcDbEntity
  8
0
100
AcDbLine
 62
2
  6
CONTINUOUS
 10
38.3797823479
 20
154.2108574496
 11
60.5797823479
 21
154.2108574496
  0
LINE
  5
57B
100
AcDbEntity
  8
0
100
AcDbLine
 62
2
  6
CONTINUOUS
 10
38.3915372667
 20
247.2108574496
 11
60.5797823479
 21
247.2108574496
  0
LINE
  5
57C
100
AcDbEntity
  8
0
100
AcDbLine
 62
2
  6
CONTINUOUS
 10
59.5797823479
 20
154.2108574496
 11
59.5797823479
 21
200.7108574496
  0
LINE
  5
57D
100
AcDbEntity
  8
0
100
AcDbLine
 62
2
  6
CONTINUOUS
 10
59.5797823479
 20
247.2108574496
 11
59.5797823479
 21
200.7108574496
  0
INSERT
  5
57E
100
AcDbEntity
  8
0
100
AcDbBlockReference
 62
2
  6
CONTINUOUS
  2
_FILLED
 10
59.5797823479
 20
154.2108574496
 41
3.5
 42
3.5
 43
3.5
 50
270.0
  0
INSERT
  5
57F
100
AcDbEntity
  8
0
100
AcDbBlockReference
 62
2
  6
CONTINUOUS
  2
_FILLED
 10
59.5797823479
 20
247.2108574496
 41
3.5
 42
3.5
 43
3.5
 50
90.0
  0
ENDBLK
  5
580
100
AcDbEntity
  8
0
  6
BYBLOCK
 62
0
100
AcDbBlockEnd
  0
BLOCK
  5
581
100
AcDbEntity
  8
0
100
AcDbBlockBegin
 62
2
  6
CONTINUOUS
  2
*D6
 70
65
 10
0.0
 20
0.0
  3
*D6
  1

  0
TEXT
  5
582
100
AcDbEntity
  8
0
100
AcDbText
 62
5
  6
CONTINUOUS
 10
40.3883051076
 20
230.0583497216
  7
STANDARD
 40
2.5
  1
17
 72
5
 11
44.2730634719
 21
230.0583497216
100
AcDbText
  0
LINE
  5
583
100
AcDbEntity
  8
0
100
AcDbLine
 62
2
  6
CONTINUOUS
 10
49.3797823479
 20
267.8580076999
 11
49.3797823479
 21
228.4333497216
  0
LINE
  5
584
100
AcDbEntity
  8
0
100
AcDbLine
 62
2
  6
CONTINUOUS
 10
49.3797823479
 20
229.4333497216
 11
40.8797823479
 21
229.4333497216
  0
LINE
  5
585
100
AcDbEntity
  8
0
100
AcDbLine
 62
2
  6
CONTINUOUS
 10
32.3797823479
 20
229.4333497216
 11
40.8797823479
 21
229.4333497216
  0
INSERT
  5
586
100
AcDbEntity
  8
0
100
AcDbBlockReference
 62
2
  6
CONTINUOUS
  2
_FILLED
 10
49.3797823479
 20
229.4333497216
 41
3.5
 42
3.5
 43
3.5
  0
INSERT
  5
587
100
AcDbEntity
  8
0
100
AcDbBlockReference
 62
2
  6
CONTINUOUS
  2
_FILLED
 10
32.3797823479
 20
229.4333497216
 41
3.5
 42
3.5
 43
3.5
 50
180.0
  0
ENDBLK
  5
588
100
AcDbEntity
  8
0
  6
BYBLOCK
 62
0
100
AcDbBlockEnd
  0
BLOCK
  5
589
100
AcDbEntity
  8
0
100
AcDbBlockBegin
 62
2
  6
CONTINUOUS
  2
*D7
 70
65
 10
0.0
 20
0.0
  3
*D7
  1

  0
TEXT
  5
58A
100
AcDbEntity
  8
0
100
AcDbText
 62
5
  6
CONTINUOUS
 10
98.4966229921
 20
1517.5928277098
  7
STANDARD
 40
2.5
  1
764.5
 50
90.0
 72
5
 11
98.4966229921
 21
1526.3288871894
100
AcDbText
  0
LINE
  5
58B
100
AcDbEntity
  8
0
100
AcDbLine
 62
2
  6
CONTINUOUS
 10
126.1216229921
 20
1904.2108574496
 11
98.1216229921
 21
1904.2108574496
  0
LINE
  5
58C
100
AcDbEntity
  8
0
100
AcDbLine
 62
2
  6
CONTINUOUS
 10
123.1216229921
 20
1139.7108574496
 11
108.0496550666
 21
1139.7108574496
  0
LINE
  5
58D
100
AcDbEntity
  8
0
100
AcDbLine
 62
2
  6
CONTINUOUS
 10
104.0877254975
 20
1139.7108574496
 11
98.1216229921
 21
1139.7108574496
  0
LINE
  5
58E
100
AcDbEntity
  8
0
100
AcDbLine
 62
2
  6
CONTINUOUS
 10
99.1216229921
 20
1904.2108574496
 11
99.1216229921
 21
1521.9608574496
  0
LINE
  5
58F
100
AcDbEntity
  8
0
100
AcDbLine
 62
2
  6
CONTINUOUS
 10
99.1216229921
 20
1139.7108574496
 11
99.1216229921
 21
1521.9608574496
  0
INSERT
  5
590
100
AcDbEntity
  8
0
100
AcDbBlockReference
 62
2
  6
CONTINUOUS
  2
_FILLED
 10
99.1216229921
 20
1904.2108574496
 41
3.5
 42
3.5
 43
3.5
 50
90.0
  0
INSERT
  5
591
100
AcDbEntity
  8
0
100
AcDbBlockReference
 62
2
  6
CONTINUOUS
  2
_FILLED
 10
99.1216229921
 20
1139.7108574496
 41
3.5
 42
3.5
 43
3.5
 50
270.0
  0
ENDBLK
  5
592
100
AcDbEntity
  8
0
  6
BYBLOCK
 62
0
100
AcDbBlockEnd
  0
BLOCK
  5
593
100
AcDbEntity
  8
0
100
AcDbBlockBegin
 62
2
  6
CONTINUOUS
  2
*D8
 70
65
 10
0.0
 20
0.0
  3
*D8
  1

  0
TEXT
  5
594
100
AcDbEntity
  8
0
100
AcDbText
 62
5
  6
CONTINUOUS
 10
98.4966229921
 20
535.7972886764
  7
STANDARD
 40
2.5
  1
769
 50
90.0
 72
5
 11
98.4966229921
 21
541.6244262228
100
AcDbText
  0
LINE
  5
595
100
AcDbEntity
  8
0
100
AcDbLine
 62
2
  6
CONTINUOUS
 10
126.1216229921
 20
154.2108574496
 11
98.1216229921
 21
154.2108574496
  0
LINE
  5
596
100
AcDbEntity
  8
0
100
AcDbLine
 62
2
  6
CONTINUOUS
 10
126.1216229921
 20
923.2108574496
 11
108.0257373276
 21
923.2108574496
  0
LINE
  5
597
100
AcDbEntity
  8
0
100
AcDbLine
 62
2
  6
CONTINUOUS
 10
103.8657112801
 20
923.2108574496
 11
98.1216229921
 21
923.2108574496
  0
LINE
  5
598
100
AcDbEntity
  8
0
100
AcDbLine
 62
2
  6
CONTINUOUS
 10
99.1216229921
 20
154.2108574496
 11
99.1216229921
 21
538.7108574496
  0
LINE
  5
599
100
AcDbEntity
  8
0
100
AcDbLine
 62
2
  6
CONTINUOUS
 10
99.1216229921
 20
923.2108574496
 11
99.1216229921
 21
538.7108574496
  0
INSERT
  5
59A
100
AcDbEntity
  8
0
100
AcDbBlockReference
 62
2
  6
CONTINUOUS
  2
_FILLED
 10
99.1216229921
 20
154.2108574496
 41
3.5
 42
3.5
 43
3.5
 50
270.0
  0
INSERT
  5
59B
100
AcDbEntity
  8
0
100
AcDbBlockReference
 62
2
  6
CONTINUOUS
  2
_FILLED
 10
99.1216229921
 20
923.2108574496
 41
3.5
 42
3.5
 43
3.5
 50
90.0
  0
ENDBLK
  5
59C
100
AcDbEntity
  8
0
  6
BYBLOCK
 62
0
100
AcDbBlockEnd
  0
BLOCK
  5
59D
100
AcDbEntity
  8
0
100
AcDbBlockBegin
 62
2
  6
CONTINUOUS
  2
*D9
 70
65
 10
0.0
 20
0.0
  3
*D9
  1

  0
TEXT
  5
59E
100
AcDbEntity
  8
0
100
AcDbText
 62
5
  6
CONTINUOUS
 10
91.4966229921
 20
1025.3260990853
  7
STANDARD
 40
2.5
  1
1750
 50
90.0
 72
5
 11
91.4966229921
 21
1033.0956158139
100
AcDbText
  0
LINE
  5
59F
100
AcDbEntity
  8
0
100
AcDbLine
 62
2
  6
CONTINUOUS
 10
126.1216229921
 20
1904.2108574496
 11
91.1216229921
 21
1904.2108574496
  0
LINE
  5
5A0
100
AcDbEntity
  8
0
100
AcDbLine
 62
2
  6
CONTINUOUS
 10
126.1216229921
 20
154.2108574496
 11
91.1216229921
 21
154.2108574496
  0
LINE
  5
5A1
100
AcDbEntity
  8
0
100
AcDbLine
 62
2
  6
CONTINUOUS
 10
92.1216229921
 20
1904.2108574496
 11
92.1216229921
 21
1029.2108574496
  0
LINE
  5
5A2
100
AcDbEntity
  8
0
100
AcDbLine
 62
2
  6
CONTINUOUS
 10
92.1216229921
 20
154.2108574496
 11
92.1216229921
 21
1029.2108574496
  0
INSERT
  5
5A3
100
AcDbEntity
  8
0
100
AcDbBlockReference
 62
2
  6
CONTINUOUS
  2
_FILLED
 10
92.1216229921
 20
1904.2108574496
 41
3.5
 42
3.5
 43
3.5
 50
90.0
  0
INSERT
  5
5A4
100
AcDbEntity
  8
0
100
AcDbBlockReference
 62
2
  6
CONTINUOUS
  2
_FILLED
 10
92.1216229921
 20
154.2108574496
 41
3.5
 42
3.5
 43
3.5
 50
270.0
  0
ENDBLK
  5
5A5
100
AcDbEntity
  8
0
  6
BYBLOCK
 62
0
100
AcDbBlockEnd
  0
BLOCK
  5
5A6
100
AcDbEntity
  8
0
100
AcDbBlockBegin
 62
2
  6
CONTINUOUS
  2
*D10
 70
65
 10
0.0
 20
0.0
  3
*D10
  1

  0
TEXT
  5
5A7
100
AcDbEntity
  8
0
100
AcDbText
 62
5
  6
CONTINUOUS
 10
84.4966229921
 20
1025.3260990853
  7
STANDARD
 40
2.5
  1
1766
 50
90.0
 72
5
 11
84.4966229921
 21
1033.0956158139
100
AcDbText
  0
LINE
  5
5A8
100
AcDbEntity
  8
0
100
AcDbLine
 62
2
  6
CONTINUOUS
 10
123.1216229921
 20
146.2108574496
 11
84.1216229921
 21
146.2108574496
  0
LINE
  5
5A9
100
AcDbEntity
  8
0
100
AcDbLine
 62
2
  6
CONTINUOUS
 10
123.1216229921
 20
1912.2108574496
 11
84.1216229921
 21
1912.2108574496
  0
LINE
  5
5AA
100
AcDbEntity
  8
0
100
AcDbLine
 62
2
  6
CONTINUOUS
 10
85.1216229921
 20
146.2108574496
 11
85.1216229921
 21
1029.2108574496
  0
LINE
  5
5AB
100
AcDbEntity
  8
0
100
AcDbLine
 62
2
  6
CONTINUOUS
 10
85.1216229921
 20
1912.2108574496
 11
85.1216229921
 21
1029.2108574496
  0
INSERT
  5
5AC
100
AcDbEntity
  8
0
100
AcDbBlockReference
 62
2
  6
CONTINUOUS
  2
_FILLED
 10
85.1216229921
 20
146.2108574496
 41
3.5
 42
3.5
 43
3.5
 50
270.0
  0
INSERT
  5
5AD
100
AcDbEntity
  8
0
100
AcDbBlockReference
 62
2
  6
CONTINUOUS
  2
_FILLED
 10
85.1216229921
 20
1912.2108574496
 41
3.5
 42
3.5
 43
3.5
 50
90.0
  0
ENDBLK
  5
5AE
100
AcDbEntity
  8
0
  6
BYBLOCK
 62
0
100
AcDbBlockEnd
  0
BLOCK
  5
5AF
100
AcDbEntity
  8
0
100
AcDbBlockBegin
 62
2
  6
CONTINUOUS
  2
*D11
 70
65
 10
0.0
 20
0.0
  3
*D11
  1

  0
TEXT
  5
5B0
100
AcDbEntity
  8
0
100
AcDbText
 62
5
  6
CONTINUOUS
 10
150.4966229921
 20
1143.7684782675
  7
STANDARD
 40
2.5
  1
12
 50
90.0
 72
5
 11
150.4966229921
 21
1147.6532366318
100
AcDbText
  0
LINE
  5
5B1
100
AcDbEntity
  8
0
100
AcDbLine
 62
2
  6
CONTINUOUS
 10
138.1216229921
 20
1139.7108574496
 11
152.1216229921
 21
1139.7108574496
  0
LINE
  5
5B2
100
AcDbEntity
  8
0
100
AcDbLine
 62
2
  6
CONTINUOUS
 10
140.5216229921
 20
1151.7108574496
 11
152.1216229921
 21
1151.7108574496
  0
LINE
  5
5B3
100
AcDbEntity
  8
0
100
AcDbLine
 62
2
  6
CONTINUOUS
 10
151.1216229921
 20
1139.7108574496
 11
151.1216229921
 21
1145.7108574496
  0
LINE
  5
5B4
100
AcDbEntity
  8
0
100
AcDbLine
 62
2
  6
CONTINUOUS
 10
151.1216229921
 20
1151.7108574496
 11
151.1216229921
 21
1145.7108574496
  0
INSERT
  5
5B5
100
AcDbEntity
  8
0
100
AcDbBlockReference
 62
2
  6
CONTINUOUS
  2
_FILLED
 10
151.1216229921
 20
1139.7108574496
 41
3.5
 42
3.5
 43
3.5
 50
270.0
  0
INSERT
  5
5B6
100
AcDbEntity
  8
0
100
AcDbBlockReference
 62
2
  6
CONTINUOUS
  2
_FILLED
 10
151.1216229921
 20
1151.7108574496
 41
3.5
 42
3.5
 43
3.5
 50
90.0
  0
ENDBLK
  5
5B7
100
AcDbEntity
  8
0
  6
BYBLOCK
 62
0
100
AcDbBlockEnd
  0
BLOCK
  5
5B8
100
AcDbEntity
  8
0
100
AcDbBlockBegin
 62
2
  6
CONTINUOUS
  2
*D12
 70
65
 10
0.0
 20
0.0
  3
*D12
  1

  0
TEXT
  5
5B9
100
AcDbEntity
  8
0
100
AcDbText
 62
5
  6
CONTINUOUS
 10
157.4966229921
 20
1284.2972886764
  7
STANDARD
 40
2.5
  1
295
 50
90.0
 72
5
 11
157.4966229921
 21
1290.1244262228
100
AcDbText
  0
LINE
  5
5BA
100
AcDbEntity
  8
0
100
AcDbLine
 62
2
  6
CONTINUOUS
 10
138.1216229921
 20
1139.7108574496
 11
159.1216229921
 21
1139.7108574496
  0
LINE
  5
5BB
100
AcDbEntity
  8
0
100
AcDbLine
 62
2
  6
CONTINUOUS
 10
140.5216229921
 20
1434.7108574496
 11
159.1216229921
 21
1434.7108574496
  0
LINE
  5
5BC
100
AcDbEntity
  8
0
100
AcDbLine
 62
2
  6
CONTINUOUS
 10
158.1216229921
 20
1139.7108574496
 11
158.1216229921
 21
1287.2108574496
  0
LINE
  5
5BD
100
AcDbEntity
  8
0
100
AcDbLine
 62
2
  6
CONTINUOUS
 10
158.1216229921
 20
1434.7108574496
 11
158.1216229921
 21
1287.2108574496
  0
INSERT
  5
5BE
100
AcDbEntity
  8
0
100
AcDbBlockReference
 62
2
  6
CONTINUOUS
  2
_FILLED
 10
158.1216229921
 20
1139.7108574496
 41
3.5
 42
3.5
 43
3.5
 50
270.0
  0
INSERT
  5
5BF
100
AcDbEntity
  8
0
100
AcDbBlockReference
 62
2
  6
CONTINUOUS
  2
_FILLED
 10
158.1216229921
 20
1434.7108574496
 41
3.5
 42
3.5
 43
3.5
 50
90.0
  0
ENDBLK
  5
5C0
100
AcDbEntity
  8
0
  6
BYBLOCK
 62
0
100
AcDbBlockEnd
  0
BLOCK
  5
5C1
100
AcDbEntity
  8
0
100
AcDbBlockBegin
 62
2
  6
CONTINUOUS
  2
*D13
 70
65
 10
0.0
 20
0.0
  3
*D13
  1

  0
TEXT
  5
5C2
100
AcDbEntity
  8
0
100
AcDbText
 62
5
  6
CONTINUOUS
 10
164.4966229921
 20
1413.5928277098
  7
STANDARD
 40
2.5
  1
556.5
 50
90.0
 72
5
 11
164.4966229921
 21
1422.3288871894
100
AcDbText
  0
LINE
  5
5C3
100
AcDbEntity
  8
0
100
AcDbLine
 62
2
  6
CONTINUOUS
 10
138.1216229921
 20
1139.7108574496
 11
166.1216229921
 21
1139.7108574496
  0
LINE
  5
5C4
100
AcDbEntity
  8
0
100
AcDbLine
 62
2
  6
CONTINUOUS
 10
140.5216229921
 20
1696.2108574496
 11
166.1216229921
 21
1696.2108574496
  0
LINE
  5
5C5
100
AcDbEntity
  8
0
100
AcDbLine
 62
2
  6
CONTINUOUS
 10
165.1216229921
 20
1139.7108574496
 11
165.1216229921
 21
1417.9608574496
  0
LINE
  5
5C6
100
AcDbEntity
  8
0
100
AcDbLine
 62
2
  6
CONTINUOUS
 10
165.1216229921
 20
1696.2108574496
 11
165.1216229921
 21
1417.9608574496
  0
INSERT
  5
5C7
100
AcDbEntity
  8
0
100
AcDbBlockReference
 62
2
  6
CONTINUOUS
  2
_FILLED
 10
165.1216229921
 20
1139.7108574496
 41
3.5
 42
3.5
 43
3.5
 50
270.0
  0
INSERT
  5
5C8
100
AcDbEntity
  8
0
100
AcDbBlockReference
 62
2
  6
CONTINUOUS
  2
_FILLED
 10
165.1216229921
 20
1696.2108574496
 41
3.5
 42
3.5
 43
3.5
 50
90.0
  0
ENDBLK
  5
5C9
100
AcDbEntity
  8
0
  6
BYBLOCK
 62
0
100
AcDbBlockEnd
  0
BLOCK
  5
5CA
100
AcDbEntity
  8
0
100
AcDbBlockBegin
 62
2
  6
CONTINUOUS
  2
*D14
 70
65
 10
0.0
 20
0.0
  3
*D14
  1

  0
TEXT
  5
5CB
100
AcDbEntity
  8
0
100
AcDbText
 62
5
  6
CONTINUOUS
 10
171.4966229921
 20
1476.5928277098
  7
STANDARD
 40
2.5
  1
682.5
 50
90.0
 72
5
 11
171.4966229921
 21
1485.3288871894
100
AcDbText
  0
LINE
  5
5CC
100
AcDbEntity
  8
0
100
AcDbLine
 62
2
  6
CONTINUOUS
 10
138.1216229921
 20
1139.7108574496
 11
173.1216229921
 21
1139.7108574496
  0
LINE
  5
5CD
100
AcDbEntity
  8
0
100
AcDbLine
 62
2
  6
CONTINUOUS
 10
140.5216229921
 20
1822.2108574496
 11
173.1216229921
 21
1822.2108574496
  0
LINE
  5
5CE
100
AcDbEntity
  8
0
100
AcDbLine
 62
2
  6
CONTINUOUS
 10
172.1216229921
 20
1139.7108574496
 11
172.1216229921
 21
1480.9608574496
  0
LINE
  5
5CF
100
AcDbEntity
  8
0
100
AcDbLine
 62
2
  6
CONTINUOUS
 10
172.1216229921
 20
1822.2108574496
 11
172.1216229921
 21
1480.9608574496
  0
INSERT
  5
5D0
100
AcDbEntity
  8
0
100
AcDbBlockReference
 62
2
  6
CONTINUOUS
  2
_FILLED
 10
172.1216229921
 20
1139.7108574496
 41
3.5
 42
3.5
 43
3.5
 50
270.0
  0
INSERT
  5
5D1
100
AcDbEntity
  8
0
100
AcDbBlockReference
 62
2
  6
CONTINUOUS
  2
_FILLED
 10
172.1216229921
 20
1822.2108574496
 41
3.5
 42
3.5
 43
3.5
 50
90.0
  0
ENDBLK
  5
5D2
100
AcDbEntity
  8
0
  6
BYBLOCK
 62
0
100
AcDbBlockEnd
  0
BLOCK
  5
5D3
100
AcDbEntity
  8
0
100
AcDbBlockBegin
 62
2
  6
CONTINUOUS
  2
*D15
 70
65
 10
0.0
 20
0.0
  3
*D15
  1

  0
TEXT
  5
5D4
100
AcDbEntity
  8
0
100
AcDbText
 62
5
  6
CONTINUOUS
 10
178.4966229921
 20
1511.5928277098
  7
STANDARD
 40
2.5
  1
752.5
 50
90.0
 72
5
 11
178.4966229921
 21
1520.3288871894
100
AcDbText
  0
LINE
  5
5D5
100
AcDbEntity
  8
0
100
AcDbLine
 62
2
  6
CONTINUOUS
 10
138.1216229921
 20
1139.7108574496
 11
180.1216229921
 21
1139.7108574496
  0
LINE
  5
5D6
100
AcDbEntity
  8
0
100
AcDbLine
 62
2
  6
CONTINUOUS
 10
140.5216229921
 20
1892.2108574496
 11
180.1216229921
 21
1892.2108574496
  0
LINE
  5
5D7
100
AcDbEntity
  8
0
100
AcDbLine
 62
2
  6
CONTINUOUS
 10
179.1216229921
 20
1139.7108574496
 11
179.1216229921
 21
1515.9608574496
  0
LINE
  5
5D8
100
AcDbEntity
  8
0
100
AcDbLine
 62
2
  6
CONTINUOUS
 10
179.1216229921
 20
1892.2108574496
 11
179.1216229921
 21
1515.9608574496
  0
INSERT
  5
5D9
100
AcDbEntity
  8
0
100
AcDbBlockReference
 62
2
  6
CONTINUOUS
  2
_FILLED
 10
179.1216229921
 20
1139.7108574496
 41
3.5
 42
3.5
 43
3.5
 50
270.0
  0
INSERT
  5
5DA
100
AcDbEntity
  8
0
100
AcDbBlockReference
 62
2
  6
CONTINUOUS
  2
_FILLED
 10
179.1216229921
 20
1892.2108574496
 41
3.5
 42
3.5
 43
3.5
 50
90.0
  0
ENDBLK
  5
5DB
100
AcDbEntity
  8
0
  6
BYBLOCK
 62
0
100
AcDbBlockEnd
  0
BLOCK
  5
5DC
100
AcDbEntity
  8
0
100
AcDbBlockBegin
 62
2
  6
CONTINUOUS
  2
*D16
 70
65
 10
0.0
 20
0.0
  3
*D16
  1

  0
TEXT
  5
5DD
100
AcDbEntity
  8
0
100
AcDbText
 62
5
  6
CONTINUOUS
 10
112.4966229921
 20
1452.5928277098
  7
STANDARD
 40
2.5
  1
634.5
 50
90.0
 72
5
 11
112.4966229921
 21
1461.3288871894
100
AcDbText
  0
LINE
  5
5DE
100
AcDbEntity
  8
0
100
AcDbLine
 62
2
  6
CONTINUOUS
 10
126.1216229921
 20
1139.7108574496
 11
112.1216229921
 21
1139.7108574496
  0
LINE
  5
5DF
100
AcDbEntity
  8
0
100
AcDbLine
 62
2
  6
CONTINUOUS
 10
120.6216229921
 20
1774.2108574496
 11
112.1216229921
 21
1774.2108574496
  0
LINE
  5
5E0
100
AcDbEntity
  8
0
100
AcDbLine
 62
2
  6
CONTINUOUS
 10
113.1216229921
 20
1139.7108574496
 11
113.1216229921
 21
1456.9608574496
  0
LINE
  5
5E1
100
AcDbEntity
  8
0
100
AcDbLine
 62
2
  6
CONTINUOUS
 10
113.1216229921
 20
1774.2108574496
 11
113.1216229921
 21
1456.9608574496
  0
INSERT
  5
5E2
100
AcDbEntity
  8
0
100
AcDbBlockReference
 62
2
  6
CONTINUOUS
  2
_FILLED
 10
113.1216229921
 20
1139.7108574496
 41
3.5
 42
3.5
 43
3.5
 50
270.0
  0
INSERT
  5
5E3
100
AcDbEntity
  8
0
100
AcDbBlockReference
 62
2
  6
CONTINUOUS
  2
_FILLED
 10
113.1216229921
 20
1774.2108574496
 41
3.5
 42
3.5
 43
3.5
 50
90.0
  0
ENDBLK
  5
5E4
100
AcDbEntity
  8
0
  6
BYBLOCK
 62
0
100
AcDbBlockEnd
  0
BLOCK
  5
5E5
100
AcDbEntity
  8
0
100
AcDbBlockBegin
 62
2
  6
CONTINUOUS
  2
*D17
 70
65
 10
0.0
 20
0.0
  3
*D17
  1

  0
TEXT
  5
5E6
100
AcDbEntity
  8
0
100
AcDbText
 62
5
  6
CONTINUOUS
 10
150.4966229921
 20
915.2684782675
  7
STANDARD
 40
2.5
  1
12
 50
90.0
 72
5
 11
150.4966229921
 21
919.1532366318
100
AcDbText
  0
LINE
  5
5E7
100
AcDbEntity
  8
0
100
AcDbLine
 62
2
  6
CONTINUOUS
 10
138.1216229921
 20
923.2108574496
 11
152.1216229921
 21
923.2108574496
  0
LINE
  5
5E8
100
AcDbEntity
  8
0
100
AcDbLine
 62
2
  6
CONTINUOUS
 10
140.5216229921
 20
911.2108574496
 11
152.1216229921
 21
911.2108574496
  0
LINE
  5
5E9
100
AcDbEntity
  8
0
100
AcDbLine
 62
2
  6
CONTINUOUS
 10
151.1216229921
 20
923.2108574496
 11
151.1216229921
 21
917.2108574496
  0
LINE
  5
5EA
100
AcDbEntity
  8
0
100
AcDbLine
 62
2
  6
CONTINUOUS
 10
151.1216229921
 20
911.2108574496
 11
151.1216229921
 21
917.2108574496
  0
INSERT
  5
5EB
100
AcDbEntity
  8
0
100
AcDbBlockReference
 62
2
  6
CONTINUOUS
  2
_FILLED
 10
151.1216229921
 20
923.2108574496
 41
3.5
 42
3.5
 43
3.5
 50
90.0
  0
INSERT
  5
5EC
100
AcDbEntity
  8
0
100
AcDbBlockReference
 62
2
  6
CONTINUOUS
  2
_FILLED
 10
151.1216229921
 20
911.2108574496
 41
3.5
 42
3.5
 43
3.5
 50
270.0
  0
ENDBLK
  5
5ED
100
AcDbEntity
  8
0
  6
BYBLOCK
 62
0
100
AcDbBlockEnd
  0
BLOCK
  5
5EE
100
AcDbEntity
  8
0
100
AcDbBlockBegin
 62
2
  6
CONTINUOUS
  2
*D18
 70
65
 10
0.0
 20
0.0
  3
*D18
  1

  0
TEXT
  5
5EF
100
AcDbEntity
  8
0
100
AcDbText
 62
5
  6
CONTINUOUS
 10
157.4966229921
 20
774.2972886764
  7
STANDARD
 40
2.5
  1
292
 50
90.0
 72
5
 11
157.4966229921
 21
780.1244262228
100
AcDbText
  0
LINE
  5
5F0
100
AcDbEntity
  8
0
100
AcDbLine
 62
2
  6
CONTINUOUS
 10
140.5216229921
 20
631.2108574496
 11
159.1216229921
 21
631.2108574496
  0
LINE
  5
5F1
100
AcDbEntity
  8
0
100
AcDbLine
 62
2
  6
CONTINUOUS
 10
138.1216229921
 20
923.2108574496
 11
159.1216229921
 21
923.2108574496
  0
LINE
  5
5F2
100
AcDbEntity
  8
0
100
AcDbLine
 62
2
  6
CONTINUOUS
 10
158.1216229921
 20
631.2108574496
 11
158.1216229921
 21
777.2108574496
  0
LINE
  5
5F3
100
AcDbEntity
  8
0
100
AcDbLine
 62
2
  6
CONTINUOUS
 10
158.1216229921
 20
923.2108574496
 11
158.1216229921
 21
777.2108574496
  0
INSERT
  5
5F4
100
AcDbEntity
  8
0
100
AcDbBlockReference
 62
2
  6
CONTINUOUS
  2
_FILLED
 10
158.1216229921
 20
631.2108574496
 41
3.5
 42
3.5
 43
3.5
 50
270.0
  0
INSERT
  5
5F5
100
AcDbEntity
  8
0
100
AcDbBlockReference
 62
2
  6
CONTINUOUS
  2
_FILLED
 10
158.1216229921
 20
923.2108574496
 41
3.5
 42
3.5
 43
3.5
 50
90.0
  0
ENDBLK
  5
5F6
100
AcDbEntity
  8
0
  6
BYBLOCK
 62
0
100
AcDbBlockEnd
  0
BLOCK
  5
5F7
100
AcDbEntity
  8
0
100
AcDbBlockBegin
 62
2
  6
CONTINUOUS
  2
*D19
 70
65
 10
0.0
 20
0.0
  3
*D19
  1

  0
TEXT
  5
5F8
100
AcDbEntity
  8
0
100
AcDbText
 62
5
  6
CONTINUOUS
 10
164.4966229921
 20
624.7972886764
  7
STANDARD
 40
2.5
  1
591
 50
90.0
 72
5
 11
164.4966229921
 21
630.6244262228
100
AcDbText
  0
LINE
  5
5F9
100
AcDbEntity
  8
0
100
AcDbLine
 62
2
  6
CONTINUOUS
 10
140.5216229921
 20
332.2108574496
 11
166.1216229921
 21
332.2108574496
  0
LINE
  5
5FA
100
AcDbEntity
  8
0
100
AcDbLine
 62
2
  6
CONTINUOUS
 10
138.1216229921
 20
923.2108574496
 11
166.1216229921
 21
923.2108574496
  0
LINE
  5
5FB
100
AcDbEntity
  8
0
100
AcDbLine
 62
2
  6
CONTINUOUS
 10
165.1216229921
 20
332.2108574496
 11
165.1216229921
 21
627.7108574496
  0
LINE
  5
5FC
100
AcDbEntity
  8
0
100
AcDbLine
 62
2
  6
CONTINUOUS
 10
165.1216229921
 20
923.2108574496
 11
165.1216229921
 21
627.7108574496
  0
INSERT
  5
5FD
100
AcDbEntity
  8
0
100
AcDbBlockReference
 62
2
  6
CONTINUOUS
  2
_FILLED
 10
165.1216229921
 20
332.2108574496
 41
3.5
 42
3.5
 43
3.5
 50
270.0
  0
INSERT
  5
5FE
100
AcDbEntity
  8
0
100
AcDbBlockReference
 62
2
  6
CONTINUOUS
  2
_FILLED
 10
165.1216229921
 20
923.2108574496
 41
3.5
 42
3.5
 43
3.5
 50
90.0
  0
ENDBLK
  5
5FF
100
AcDbEntity
  8
0
  6
BYBLOCK
 62
0
100
AcDbBlockEnd
  0
BLOCK
  5
600
100
AcDbEntity
  8
0
100
AcDbBlockBegin
 62
2
  6
CONTINUOUS
  2
*D20
 70
65
 10
0.0
 20
0.0
  3
*D20
  1

  0
TEXT
  5
601
100
AcDbEntity
  8
0
100
AcDbText
 62
5
  6
CONTINUOUS
 10
171.4966229921
 20
576.7972886764
  7
STANDARD
 40
2.5
  1
687
 50
90.0
 72
5
 11
171.4966229921
 21
582.6244262228
100
AcDbText
  0
LINE
  5
602
100
AcDbEntity
  8
0
100
AcDbLine
 62
2
  6
CONTINUOUS
 10
140.5216229921
 20
236.2108574496
 11
173.1216229921
 21
236.2108574496
  0
LINE
  5
603
100
AcDbEntity
  8
0
100
AcDbLine
 62
2
  6
CONTINUOUS
 10
138.1216229921
 20
923.2108574496
 11
173.1216229921
 21
923.2108574496
  0
LINE
  5
604
100
AcDbEntity
  8
0
100
AcDbLine
 62
2
  6
CONTINUOUS
 10
172.1216229921
 20
236.2108574496
 11
172.1216229921
 21
579.7108574496
  0
LINE
  5
605
100
AcDbEntity
  8
0
100
AcDbLine
 62
2
  6
CONTINUOUS
 10
172.1216229921
 20
923.2108574496
 11
172.1216229921
 21
579.7108574496
  0
INSERT
  5
606
100
AcDbEntity
  8
0
100
AcDbBlockReference
 62
2
  6
CONTINUOUS
  2
_FILLED
 10
172.1216229921
 20
236.2108574496
 41
3.5
 42
3.5
 43
3.5
 50
270.0
  0
INSERT
  5
607
100
AcDbEntity
  8
0
100
AcDbBlockReference
 62
2
  6
CONTINUOUS
  2
_FILLED
 10
172.1216229921
 20
923.2108574496
 41
3.5
 42
3.5
 43
3.5
 50
90.0
  0
ENDBLK
  5
608
100
AcDbEntity
  8
0
  6
BYBLOCK
 62
0
100
AcDbBlockEnd
  0
BLOCK
  5
609
100
AcDbEntity
  8
0
100
AcDbBlockBegin
 62
2
  6
CONTINUOUS
  2
*D21
 70
65
 10
0.0
 20
0.0
  3
*D21
  1

  0
TEXT
  5
60A
100
AcDbEntity
  8
0
100
AcDbText
 62
5
  6
CONTINUOUS
 10
178.4966229921
 20
541.7972886764
  7
STANDARD
 40
2.5
  1
757
 50
90.0
 72
5
 11
178.4966229921
 21
547.6244262228
100
AcDbText
  0
LINE
  5
60B
100
AcDbEntity
  8
0
100
AcDbLine
 62
2
  6
CONTINUOUS
 10
140.5216229921
 20
166.2108574496
 11
180.1216229921
 21
166.2108574496
  0
LINE
  5
60C
100
AcDbEntity
  8
0
100
AcDbLine
 62
2
  6
CONTINUOUS
 10
138.1216229921
 20
923.2108574496
 11
180.1216229921
 21
923.2108574496
  0
LINE
  5
60D
100
AcDbEntity
  8
0
100
AcDbLine
 62
2
  6
CONTINUOUS
 10
179.1216229921
 20
166.2108574496
 11
179.1216229921
 21
544.7108574496
  0
LINE
  5
60E
100
AcDbEntity
  8
0
100
AcDbLine
 62
2
  6
CONTINUOUS
 10
179.1216229921
 20
923.2108574496
 11
179.1216229921
 21
544.7108574496
  0
INSERT
  5
60F
100
AcDbEntity
  8
0
100
AcDbBlockReference
 62
2
  6
CONTINUOUS
  2
_FILLED
 10
179.1216229921
 20
166.2108574496
 41
3.5
 42
3.5
 43
3.5
 50
270.0
  0
INSERT
  5
610
100
AcDbEntity
  8
0
100
AcDbBlockReference
 62
2
  6
CONTINUOUS
  2
_FILLED
 10
179.1216229921
 20
923.2108574496
 41
3.5
 42
3.5
 43
3.5
 50
90.0
  0
ENDBLK
  5
611
100
AcDbEntity
  8
0
  6
BYBLOCK
 62
0
100
AcDbBlockEnd
  0
BLOCK
  5
612
100
AcDbEntity
  8
0
100
AcDbBlockBegin
 62
2
  6
CONTINUOUS
  2
*D22
 70
65
 10
0.0
 20
0.0
  3
*D22
  1

  0
TEXT
  5
613
100
AcDbEntity
  8
0
100
AcDbText
 62
5
  6
CONTINUOUS
 10
112.4966229921
 20
600.7972886764
  7
STANDARD
 40
2.5
  1
639
 50
90.0
 72
5
 11
112.4966229921
 21
606.6244262228
100
AcDbText
  0
LINE
  5
614
100
AcDbEntity
  8
0
100
AcDbLine
 62
2
  6
CONTINUOUS
 10
126.1216229921
 20
923.2108574496
 11
112.1216229921
 21
923.2108574496
  0
LINE
  5
615
100
AcDbEntity
  8
0
100
AcDbLine
 62
2
  6
CONTINUOUS
 10
120.6216229921
 20
284.2108574496
 11
112.1216229921
 21
284.2108574496
  0
LINE
  5
616
100
AcDbEntity
  8
0
100
AcDbLine
 62
2
  6
CONTINUOUS
 10
113.1216229921
 20
923.2108574496
 11
113.1216229921
 21
603.7108574496
  0
LINE
  5
617
100
AcDbEntity
  8
0
100
AcDbLine
 62
2
  6
CONTINUOUS
 10
113.1216229921
 20
284.2108574496
 11
113.1216229921
 21
603.7108574496
  0
INSERT
  5
618
100
AcDbEntity
  8
0
100
AcDbBlockReference
 62
2
  6
CONTINUOUS
  2
_FILLED
 10
113.1216229921
 20
923.2108574496
 41
3.5
 42
3.5
 43
3.5
 50
90.0
  0
INSERT
  5
619
100
AcDbEntity
  8
0
100
AcDbBlockReference
 62
2
  6
CONTINUOUS
  2
_FILLED
 10
113.1216229921
 20
284.2108574496
 41
3.5
 42
3.5
 43
3.5
 50
270.0
  0
ENDBLK
  5
61A
100
AcDbEntity
  8
0
  6
BYBLOCK
 62
0
100
AcDbBlockEnd
  0
BLOCK
  5
61B
100
AcDbEntity
  8
0
100
AcDbBlockBegin
 62
2
  6
CONTINUOUS
  2
*D23
 70
65
 10
0.0
 20
0.0
  3
*D23
  1

  0
TEXT
  5
61C
100
AcDbEntity
  8
0
100
AcDbText
 62
5
  6
CONTINUOUS
 10
105.4966229921
 20
589.1569541039
  7
STANDARD
 40
2.5
  1
760 bis Kennkerbe
 50
90.0
 72
5
 11
105.4966229921
 21
618.2647607953
100
AcDbText
  0
LINE
  5
61D
100
AcDbEntity
  8
0
100
AcDbLine
 62
2
  6
CONTINUOUS
 10
120.6216229921
 20
284.2108574496
 11
105.4966229921
 21
284.2108574496
  0
LINE
  5
61E
100
AcDbEntity
  8
0
100
AcDbLine
 62
2
  6
CONTINUOUS
 10
105.4966229921
 20
284.2108574496
 11
105.1216229921
 21
284.2108574496
  0
LINE
  5
61F
100
AcDbEntity
  8
0
100
AcDbLine
 62
2
  6
CONTINUOUS
 10
106.1216229921
 20
973.1763241628
 11
106.1216229921
 21
628.6935908062
  0
LINE
  5
620
100
AcDbEntity
  8
0
100
AcDbLine
 62
2
  6
CONTINUOUS
 10
106.1216229921
 20
284.2108574496
 11
106.1216229921
 21
628.6935908062
  0
INSERT
  5
621
100
AcDbEntity
  8
0
100
AcDbBlockReference
 62
2
  6
CONTINUOUS
  2
_NONE
 10
106.1216229921
 20
973.1763241628
 41
3.5
 42
3.5
 43
3.5
 50
90.0
  0
INSERT
  5
622
100
AcDbEntity
  8
0
100
AcDbBlockReference
 62
2
  6
CONTINUOUS
  2
_FILLED
 10
106.1216229921
 20
284.2108574496
 41
3.5
 42
3.5
 43
3.5
 50
270.0
  0
ENDBLK
  5
623
100
AcDbEntity
  8
0
  6
BYBLOCK
 62
0
100
AcDbBlockEnd
  0
BLOCK
  5
624
100
AcDbEntity
  8
0
100
AcDbBlockBegin
 62
2
  6
CONTINUOUS
  2
*D24
 70
65
 10
0.0
 20
0.0
  3
*D24
  1

  0
TEXT
  5
625
100
AcDbEntity
  8
0
100
AcDbText
 62
5
  6
CONTINUOUS
 10
105.4966229921
 20
1442.4069541039
  7
STANDARD
 40
2.5
  1
730 bis Kennkerbe
 50
90.0
 72
5
 11
105.4966229921
 21
1471.5147607953
100
AcDbText
  0
LINE
  5
626
100
AcDbEntity
  8
0
100
AcDbLine
 62
2
  6
CONTINUOUS
 10
120.6216229921
 20
1774.2108574496
 11
105.4966229921
 21
1774.2108574496
  0
LINE
  5
627
100
AcDbEntity
  8
0
100
AcDbLine
 62
2
  6
CONTINUOUS
 10
105.4966229921
 20
1774.2108574496
 11
105.1216229921
 21
1774.2108574496
  0
LINE
  5
628
100
AcDbEntity
  8
0
100
AcDbLine
 62
2
  6
CONTINUOUS
 10
106.1216229921
 20
1089.7060971264
 11
106.1216229921
 21
1431.958477288
  0
LINE
  5
629
100
AcDbEntity
  8
0
100
AcDbLine
 62
2
  6
CONTINUOUS
 10
106.1216229921
 20
1774.2108574496
 11
106.1216229921
 21
1431.958477288
  0
INSERT
  5
62A
100
AcDbEntity
  8
0
100
AcDbBlockReference
 62
2
  6
CONTINUOUS
  2
_NONE
 10
106.1216229921
 20
1089.7060971264
 41
3.5
 42
3.5
 43
3.5
 50
270.0
  0
INSERT
  5
62B
100
AcDbEntity
  8
0
100
AcDbBlockReference
 62
2
  6
CONTINUOUS
  2
_FILLED
 10
106.1216229921
 20
1774.2108574496
 41
3.5
 42
3.5
 43
3.5
 50
90.0
  0
ENDBLK
  5
62C
100
AcDbEntity
  8
0
  6
BYBLOCK
 62
0
100
AcDbBlockEnd
  0
BLOCK
  5
62D
100
AcDbEntity
  8
0
100
AcDbBlockBegin
 62
2
  6
CONTINUOUS
  2
*D25
 70
65
 10
0.0
 20
0.0
  3
*D25
  1

  0
TEXT
  5
62E
100
AcDbEntity
  8
0
100
AcDbText
 62
5
  6
CONTINUOUS
 10
37.0255319839
 20
120.6746748632
  7
STANDARD
 40
2.5
  1
2
 72
5
 11
38.967911166
 21
120.6746748632
100
AcDbText
  0
LINE
  5
62F
100
AcDbEntity
  8
0
100
AcDbLine
 62
2
  6
CONTINUOUS
 10
30.3797823479
 20
109.5496748632
 11
30.3797823479
 21
121.0496748632
  0
LINE
  5
630
100
AcDbEntity
  8
0
100
AcDbLine
 62
2
  6
CONTINUOUS
 10
32.3797823479
 20
109.5496748632
 11
32.3797823479
 21
121.0496748632
  0
LINE
  5
631
100
AcDbEntity
  8
0
100
AcDbLine
 62
2
  6
CONTINUOUS
 10
30.3797823479
 20
120.0496748632
 11
23.3797823479
 21
120.0496748632
  0
LINE
  5
632
100
AcDbEntity
  8
0
100
AcDbLine
 62
2
  6
CONTINUOUS
 10
23.3797823479
 20
120.0496748632
 11
31.3797823479
 21
120.0496748632
  0
LINE
  5
633
100
AcDbEntity
  8
0
100
AcDbLine
 62
2
  6
CONTINUOUS
 10
32.3797823479
 20
120.0496748632
 11
38.967911166
 21
120.0496748632
  0
LINE
  5
634
100
AcDbEntity
  8
0
100
AcDbLine
 62
2
  6
CONTINUOUS
 10
38.967911166
 20
120.0496748632
 11
31.3797823479
 21
120.0496748632
  0
INSERT
  5
635
100
AcDbEntity
  8
0
100
AcDbBlockReference
 62
2
  6
CONTINUOUS
  2
_FILLED
 10
30.3797823479
 20
120.0496748632
 41
3.5
 42
3.5
 43
3.5
  0
INSERT
  5
636
100
AcDbEntity
  8
0
100
AcDbBlockReference
 62
2
  6
CONTINUOUS
  2
_FILLED
 10
32.3797823479
 20
120.0496748632
 41
3.5
 42
3.5
 43
3.5
 50
180.0
  0
ENDBLK
  5
637
100
AcDbEntity
  8
0
  6
BYBLOCK
 62
0
100
AcDbBlockEnd
  0
BLOCK
  5
638
100
AcDbEntity
  8
0
100
AcDbBlockBegin
 62
2
  6
CONTINUOUS
  2
*D26
 70
65
 10
0.0
 20
0.0
  3
*D26
  1

  0
TEXT
  5
639
100
AcDbEntity
  8
0
100
AcDbText
 62
5
  6
CONTINUOUS
 10
58.9547823479
 20
114.2600249475
  7
STANDARD
 40
2.5
  1
2
 50
90.0
 72
5
 11
58.9547823479
 21
116.2024041297
100
AcDbText
  0
LINE
  5
63A
100
AcDbEntity
  8
0
100
AcDbLine
 62
2
  6
CONTINUOUS
 10
38.3797823479
 20
110.0496748632
 11
60.5797823479
 21
110.0496748632
  0
LINE
  5
63B
100
AcDbEntity
  8
0
100
AcDbLine
 62
2
  6
CONTINUOUS
 10
38.3797823479
 20
108.0496748632
 11
60.5797823479
 21
108.0496748632
  0
LINE
  5
63C
100
AcDbEntity
  8
0
100
AcDbLine
 62
2
  6
CONTINUOUS
 10
59.5797823479
 20
110.0496748632
 11
59.5797823479
 21
116.2024041297
  0
LINE
  5
63D
100
AcDbEntity
  8
0
100
AcDbLine
 62
2
  6
CONTINUOUS
 10
59.5797823479
 20
116.2024041297
 11
59.5797823479
 21
109.0496748632
  0
LINE
  5
63E
100
AcDbEntity
  8
0
100
AcDbLine
 62
2
  6
CONTINUOUS
 10
59.5797823479
 20
108.0496748632
 11
59.5797823479
 21
101.0496748632
  0
LINE
  5
63F
100
AcDbEntity
  8
0
100
AcDbLine
 62
2
  6
CONTINUOUS
 10
59.5797823479
 20
101.0496748632
 11
59.5797823479
 21
109.0496748632
  0
INSERT
  5
640
100
AcDbEntity
  8
0
100
AcDbBlockReference
 62
2
  6
CONTINUOUS
  2
_FILLED
 10
59.5797823479
 20
110.0496748632
 41
3.5
 42
3.5
 43
3.5
 50
270.0
  0
INSERT
  5
641
100
AcDbEntity
  8
0
100
AcDbBlockReference
 62
2
  6
CONTINUOUS
  2
_FILLED
 10
59.5797823479
 20
108.0496748632
 41
3.5
 42
3.5
 43
3.5
 50
90.0
  0
ENDBLK
  5
642
100
AcDbEntity
  8
0
  6
BYBLOCK
 62
0
100
AcDbBlockEnd
  0
BLOCK
  5
643
100
AcDbEntity
  8
0
100
AcDbBlockBegin
 62
2
  6
CONTINUOUS
  2
*D27
 70
65
 10
0.0
 20
0.0
  3
*D27
  1

  0
TEXT
  5
644
100
AcDbEntity
  8
0
100
AcDbText
 62
5
  6
CONTINUOUS
 10
65.9547823479
 20
97.6528347145
  7
STANDARD
 40
2.5
  1
13.8
 50
90.0
 72
5
 11
65.9547823479
 21
104.4465150119
100
AcDbText
  0
LINE
  5
645
100
AcDbEntity
  8
0
100
AcDbLine
 62
2
  6
CONTINUOUS
 10
40.3797823479
 20
94.1496748632
 11
67.5797823479
 21
94.1496748632
  0
LINE
  5
646
100
AcDbEntity
  8
0
100
AcDbLine
 62
2
  6
CONTINUOUS
 10
40.3797823479
 20
107.9496748632
 11
67.5797823479
 21
107.9496748632
  0
LINE
  5
647
100
AcDbEntity
  8
0
100
AcDbLine
 62
2
  6
CONTINUOUS
 10
66.5797823479
 20
94.1496748632
 11
66.5797823479
 21
101.0496748632
  0
LINE
  5
648
100
AcDbEntity
  8
0
100
AcDbLine
 62
2
  6
CONTINUOUS
 10
66.5797823479
 20
107.9496748632
 11
66.5797823479
 21
101.0496748632
  0
INSERT
  5
649
100
AcDbEntity
  8
0
100
AcDbBlockReference
 62
2
  6
CONTINUOUS
  2
_FILLED
 10
66.5797823479
 20
94.1496748632
 41
3.5
 42
3.5
 43
3.5
 50
270.0
  0
INSERT
  5
64A
100
AcDbEntity
  8
0
100
AcDbBlockReference
 62
2
  6
CONTINUOUS
  2
_FILLED
 10
66.5797823479
 20
107.9496748632
 41
3.5
 42
3.5
 43
3.5
 50
90.0
  0
ENDBLK
  5
64B
100
AcDbEntity
  8
0
  6
BYBLOCK
 62
0
100
AcDbBlockEnd
  0
ENDSEC
  0
SECTION
  2
ENTITIES
  0
DIMENSION
  5
64C
100
AcDbEntity
  8
0
100
AcDbDimension
 62
2
  6
CONTINUOUS
  2
*D0
 10
38.3797823479
 20
1922.2108574496
 11
35.3797823479
 21
1922.2108574496
 70
160
 71
2
 42
6.0
  3
DIMSTYLE_1
100
AcDbAlignedDimension
 13
32.3797823479
 23
1907.9270794129
 14
38.3797823479
 24
1912.0540893808
100
AcDbRotatedDimension
  0
DIMENSION
  5
64D
100
AcDbEntity
  8
0
100
AcDbDimension
 62
2
  6
CONTINUOUS
  2
*D1
 10
141.1216229921
 20
1922.2108574496
 11
132.1216229921
 21
1922.2108574496
 70
160
 71
2
 42
18.0
  3
DIMSTYLE_2
100
AcDbAlignedDimension
 13
123.1216229921
 23
1911.7528005244
 14
141.1216229921
 24
1911.6238314629
100
AcDbRotatedDimension
  0
DIMENSION
  5
64E
100
AcDbEntity
  8
0
100
AcDbDimension
 62
2
  6
CONTINUOUS
  2
*D2
 10
59.5797823479
 20
247.2108574496
 11
59.5797823479
 21
284.2108574496
 70
160
 71
2
 42
74.0
  3
DIMSTYLE_3
100
AcDbAlignedDimension
 13
38.3589228432
 23
321.2108574496
 14
38.3915372667
 24
247.2108574496
 50
270.0
100
AcDbRotatedDimension
  0
DIMENSION
  5
64F
100
AcDbEntity
  8
0
100
AcDbDimension
 62
2
  6
CONTINUOUS
  2
*D3
 10
59.5797823479
 20
1737.2108574496
 11
59.5797823479
 21
1774.2108574496
 70
160
 71
2
 42
74.0
  3
DIMSTYLE_3
100
AcDbAlignedDimension
 13
38.3959765142
 23
1811.2108574496
 14
38.4409872964
 24
1737.2108574496
 50
270.0
100
AcDbRotatedDimension
  0
DIMENSION
  5
650
100
AcDbEntity
  8
0
100
AcDbDimension
 62
2
  6
CONTINUOUS
  2
*D4
 10
59.5797823479
 20
1811.2108574496
 11
59.5797823479
 21
1857.7108574496
 70
160
 71
2
 42
93.0
  3
DIMSTYLE_3
100
AcDbAlignedDimension
 13
38.3797823479
 23
1904.2108574496
 14
38.3183462291
 24
1811.2108574496
 50
270.0
100
AcDbRotatedDimension
  0
DIMENSION
  5
651
100
AcDbEntity
  8
0
100
AcDbDimension
 62
2
  6
CONTINUOUS
  2
*D5
 10
59.5797823479
 20
247.2108574496
 11
59.5797823479
 21
200.7108574496
 70
160
 71
2
 42
93.0
  3
DIMSTYLE_3
100
AcDbAlignedDimension
 13
38.3797823479
 23
154.2108574496
 14
38.3915372667
 24
247.2108574496
 50
90.0
100
AcDbRotatedDimension
  0
DIMENSION
  5
652
100
AcDbEntity
  8
0
100
AcDbDimension
 62
2
  6
CONTINUOUS
  2
*D6
 10
32.3797823479
 20
229.4333497216
 11
42.3306842897
 21
229.4333497216
 70
160
 71
2
 42
17.0
  3
DIMSTYLE_2
100
AcDbAlignedDimension
 13
49.3797823479
 23
267.8580076999
 14
32.3797823479
 24
264.478806642
 50
180.0
100
AcDbRotatedDimension
  0
DIMENSION
  5
653
100
AcDbEntity
  8
0
100
AcDbDimension
 62
2
  6
CONTINUOUS
  2
*D7
 10
99.1216229921
 20
1139.7108574496
 11
99.1216229921
 21
1521.9608574496
 70
160
 71
2
 42
764.5
  3
DIMSTYLE_4
100
AcDbAlignedDimension
 13
126.1216229921
 23
1904.2108574496
 14
123.1216229921
 24
1139.7108574496
 50
270.0
100
AcDbRotatedDimension
  0
DIMENSION
  5
654
100
AcDbEntity
  8
0
100
AcDbDimension
 62
2
  6
CONTINUOUS
  2
*D8
 10
99.1216229921
 20
923.2108574496
 11
99.1216229921
 21
538.7108574496
 70
160
 71
2
 42
769.0
  3
DIMSTYLE_4
100
AcDbAlignedDimension
 13
126.1216229921
 23
154.2108574496
 14
126.1216229921
 24
923.2108574496
 50
90.0
100
AcDbRotatedDimension
  0
DIMENSION
  5
655
100
AcDbEntity
  8
0
100
AcDbDimension
 62
2
  6
CONTINUOUS
  2
*D9
 10
92.1216229921
 20
154.2108574496
 11
92.1216229921
 21
1029.2108574496
 70
160
 71
2
 42
1750.0
  3
DIMSTYLE_5
100
AcDbAlignedDimension
 13
126.1216229921
 23
1904.2108574496
 14
126.1216229921
 24
154.2108574496
 50
270.0
100
AcDbRotatedDimension
  0
DIMENSION
  5
656
100
AcDbEntity
  8
0
100
AcDbDimension
 62
2
  6
CONTINUOUS
  2
*D10
 10
85.1216229921
 20
1912.2108574496
 11
85.1216229921
 21
1029.2108574496
 70
160
 71
2
 42
1766.0
  3
DIMSTYLE_5
100
AcDbAlignedDimension
 13
123.1216229921
 23
146.2108574496
 14
123.1216229921
 24
1912.2108574496
 50
90.0
100
AcDbRotatedDimension
  0
DIMENSION
  5
657
100
AcDbEntity
  8
0
100
AcDbDimension
 62
2
  6
CONTINUOUS
  2
*D11
 10
151.1216229921
 20
1151.7108574496
 11
151.1216229921
 21
1145.7108574496
 70
160
 71
2
 42
12.0
  3
DIMSTYLE_2
100
AcDbAlignedDimension
 13
138.1216229921
 23
1139.7108574496
 14
140.5216229921
 24
1151.7108574496
 50
90.0
100
AcDbRotatedDimension
  0
DIMENSION
  5
658
100
AcDbEntity
  8
0
100
AcDbDimension
 62
2
  6
CONTINUOUS
  2
*D12
 10
158.1216229921
 20
1434.7108574496
 11
158.1216229921
 21
1287.2108574496
 70
160
 71
2
 42
295.0
  3
DIMSTYLE_6
100
AcDbAlignedDimension
 13
138.1216229921
 23
1139.7108574496
 14
140.5216229921
 24
1434.7108574496
 50
90.0
100
AcDbRotatedDimension
  0
DIMENSION
  5
659
100
AcDbEntity
  8
0
100
AcDbDimension
 62
2
  6
CONTINUOUS
  2
*D13
 10
165.1216229921
 20
1696.2108574496
 11
165.1216229921
 21
1417.9608574496
 70
160
 71
2
 42
556.5
  3
DIMSTYLE_4
100
AcDbAlignedDimension
 13
138.1216229921
 23
1139.7108574496
 14
140.5216229921
 24
1696.2108574496
 50
90.0
100
AcDbRotatedDimension
  0
DIMENSION
  5
65A
100
AcDbEntity
  8
0
100
AcDbDimension
 62
2
  6
CONTINUOUS
  2
*D14
 10
172.1216229921
 20
1822.2108574496
 11
172.1216229921
 21
1480.9608574496
 70
160
 71
2
 42
682.5
  3
DIMSTYLE_4
100
AcDbAlignedDimension
 13
138.1216229921
 23
1139.7108574496
 14
140.5216229921
 24
1822.2108574496
 50
90.0
100
AcDbRotatedDimension
  0
DIMENSION
  5
65B
100
AcDbEntity
  8
0
100
AcDbDimension
 62
2
  6
CONTINUOUS
  2
*D15
 10
179.1216229921
 20
1892.2108574496
 11
179.1216229921
 21
1515.9608574496
 70
160
 71
2
 42
752.5
  3
DIMSTYLE_4
100
AcDbAlignedDimension
 13
138.1216229921
 23
1139.7108574496
 14
140.5216229921
 24
1892.2108574496
 50
90.0
100
AcDbRotatedDimension
  0
DIMENSION
  5
65C
100
AcDbEntity
  8
0
100
AcDbDimension
 62
2
  6
CONTINUOUS
  2
*D16
 10
113.1216229921
 20
1774.2108574496
 11
113.1216229921
 21
1456.9608574496
 70
160
 71
2
 42
634.5
  3
DIMSTYLE_4
100
AcDbAlignedDimension
 13
126.1216229921
 23
1139.7108574496
 14
120.6216229921
 24
1774.2108574496
 50
90.0
100
AcDbRotatedDimension
  0
DIMENSION
  5
65D
100
AcDbEntity
  8
0
100
AcDbDimension
 62
2
  6
CONTINUOUS
  2
*D17
 10
151.1216229921
 20
911.2108574496
 11
151.1216229921
 21
917.2108574496
 70
160
 71
2
 42
12.0
  3
DIMSTYLE_2
100
AcDbAlignedDimension
 13
138.1216229921
 23
923.2108574496
 14
140.5216229921
 24
911.2108574496
 50
270.0
100
AcDbRotatedDimension
  0
DIMENSION
  5
65E
100
AcDbEntity
  8
0
100
AcDbDimension
 62
2
  6
CONTINUOUS
  2
*D18
 10
158.1216229921
 20
923.2108574496
 11
158.1216229921
 21
777.2108574496
 70
160
 71
2
 42
292.0
  3
DIMSTYLE_6
100
AcDbAlignedDimension
 13
140.5216229921
 23
631.2108574496
 14
138.1216229921
 24
923.2108574496
 50
90.0
100
AcDbRotatedDimension
  0
DIMENSION
  5
65F
100
AcDbEntity
  8
0
100
AcDbDimension
 62
2
  6
CONTINUOUS
  2
*D19
 10
165.1216229921
 20
923.2108574496
 11
165.1216229921
 21
627.7108574496
 70
160
 71
2
 42
591.0
  3
DIMSTYLE_4
100
AcDbAlignedDimension
 13
140.5216229921
 23
332.2108574496
 14
138.1216229921
 24
923.2108574496
 50
90.0
100
AcDbRotatedDimension
  0
DIMENSION
  5
660
100
AcDbEntity
  8
0
100
AcDbDimension
 62
2
  6
CONTINUOUS
  2
*D20
 10
172.1216229921
 20
923.2108574496
 11
172.1216229921
 21
579.7108574496
 70
160
 71
2
 42
687.0
  3
DIMSTYLE_4
100
AcDbAlignedDimension
 13
140.5216229921
 23
236.2108574496
 14
138.1216229921
 24
923.2108574496
 50
90.0
100
AcDbRotatedDimension
  0
DIMENSION
  5
661
100
AcDbEntity
  8
0
100
AcDbDimension
 62
2
  6
CONTINUOUS
  2
*D21
 10
179.1216229921
 20
923.2108574496
 11
179.1216229921
 21
544.7108574496
 70
160
 71
2
 42
757.0
  3
DIMSTYLE_4
100
AcDbAlignedDimension
 13
140.5216229921
 23
166.2108574496
 14
138.1216229921
 24
923.2108574496
 50
90.0
100
AcDbRotatedDimension
  0
DIMENSION
  5
662
100
AcDbEntity
  8
0
100
AcDbDimension
 62
2
  6
CONTINUOUS
  2
*D22
 10
113.1216229921
 20
284.2108574496
 11
113.1216229921
 21
603.7108574496
 70
160
 71
2
 42
639.0
  3
DIMSTYLE_4
100
AcDbAlignedDimension
 13
126.1216229921
 23
923.2108574496
 14
120.6216229921
 24
284.2108574496
 50
270.0
100
AcDbRotatedDimension
  0
DIMENSION
  5
663
100
AcDbEntity
  8
0
100
AcDbDimension
 62
2
  6
CONTINUOUS
  2
*D23
 10
106.1216229921
 20
284.2108574496
 11
106.1216229921
 21
603.7108574496
 70
160
 71
2
 42
639.0
  1
760 bis Kennkerbe
  3
DIMSTYLE_4
100
AcDbAlignedDimension
 13
107.1216229921
 23
973.1763241628
 14
120.6216229921
 24
284.2108574496
 50
270.0
100
AcDbRotatedDimension
1001
ACAD
1000
DSTYLE
1002
{
1070
173
1070
1
1070
6
1000
_NONE
1002
}
  0
DIMENSION
  5
664
100
AcDbEntity
  8
0
100
AcDbDimension
 62
2
  6
CONTINUOUS
  2
*D24
 10
106.1216229921
 20
1774.2108574496
 11
106.1216229921
 21
1456.9608574496
 70
160
 71
2
 42
634.5
  1
730 bis Kennkerbe
  3
DIMSTYLE_4
100
AcDbAlignedDimension
 13
107.1216229921
 23
1089.7060971264
 14
120.6216229921
 24
1774.2108574496
 50
90.0
100
AcDbRotatedDimension
1001
ACAD
1000
DSTYLE
1002
{
1070
173
1070
1
1070
6
1000
_NONE
1002
}
  0
DIMENSION
  5
665
100
AcDbEntity
  8
0
100
AcDbDimension
 62
2
  6
CONTINUOUS
  2
*D25
 10
32.3797823479
 20
120.0496748632
 11
37.9967215749
 21
120.0496748632
 70
160
 71
1
 42
2.0
  3
DIMSTYLE_1
100
AcDbAlignedDimension
 13
30.3797823479
 23
109.5496748632
 14
32.3797823479
 24
109.5496748632
100
AcDbRotatedDimension
  0
DIMENSION
  5
666
100
AcDbEntity
  8
0
100
AcDbDimension
 62
2
  6
CONTINUOUS
  2
*D26
 10
59.5797823479
 20
108.0496748632
 11
59.5797823479
 21
115.2312145386
 70
160
 71
1
 42
2.0
  3
DIMSTYLE_1
100
AcDbAlignedDimension
 13
38.3797823479
 23
110.0496748632
 14
38.3797823479
 24
108.0496748632
 50
270.0
100
AcDbRotatedDimension
  0
DIMENSION
  5
667
100
AcDbEntity
  8
0
100
AcDbDimension
 62
2
  6
CONTINUOUS
  2
*D27
 10
66.5797823479
 20
107.9496748632
 11
66.5797823479
 21
101.0496748632
 70
160
 71
2
 42
13.8
  3
DIMSTYLE_2
100
AcDbAlignedDimension
 13
40.3797823479
 23
94.1496748632
 14
40.3797823479
 24
107.9496748632
 50
90.0
100
AcDbRotatedDimension
  0
TEXT
  5
668
100
AcDbEntity
  8
0
100
AcDbText
 62
5
  6
CONTINUOUS
 10
34.2952588049
 20
75.1978230113
  7
STANDARD
 40
5.0
  1
A-A
 72
5
 11
45.9123591766
 21
75.1978230113
100
AcDbText
  0
INSERT
  5
669
100
AcDbEntity
  8
0
100
AcDbBlockReference
 62
2
  6
CONTINUOUS
  2
SYMBOL_0_BL15
 10
31.0000000239
 20
34.9999999785
  0
LINE
  5
66A
100
AcDbEntity
  8
S-AXIS
100
AcDbLine
 62
7
  6
CENTER
 10
52.5797823479
 20
101.0496748632
 11
27.3797823479
 21
101.0496748632
  0
INSERT
  5
66B
100
AcDbEntity
  8
HATCHING_BL0
100
AcDbBlockReference
  2
HATCHING_BL0
 10
37.1282603133
 20
1826.6314686261
  0
INSERT
  5
66C
100
AcDbEntity
  8
93773501000_O_BL1
100
AcDbBlockReference
  2
93773501000_O_BL1
 10
86.75070267
 20
123.1302661564
  0
INSERT
  5
66D
100
AcDbEntity
  8
94818203000_BL2
100
AcDbBlockReference
  2
94818203000_BL2
 10
86.25070267
 20
538.7108574496
  0
INSERT
  5
66E
100
AcDbEntity
  8
94528905000_M_BL3
100
AcDbBlockReference
  2
94528905000_M_BL3
 10
87.65070267
 20
953.9302661564
  0
INSERT
  5
66F
100
AcDbEntity
  8
94529001000_BL4
100
AcDbBlockReference
  2
94529001000_BL4
 10
87.00070267
 20
284.2108574496
  0
INSERT
  5
670
100
AcDbEntity
  8
94673901000_BL5
100
AcDbBlockReference
  2
94673901000_BL5
 10
83.7004573672
 20
284.2108574496
  0
INSERT
  5
671
100
AcDbEntity
  8
94528905000_M_BL6
100
AcDbBlockReference
  2
94528905000_M_BL6
 10
88.0020998446
 20
314.3108574496
  0
INSERT
  5
672
100
AcDbEntity
  8
94673901000_BL7
100
AcDbBlockReference
  2
94673901000_BL7
 10
84.60070267
 20
944.1802661564
  0
INSERT
  5
673
100
AcDbEntity
  8
94529001000_BL8
100
AcDbBlockReference
  2
94529001000_BL8
 10
87.00070267
 20
954.3870024891
  0
INSERT
  5
674
100
AcDbEntity
  8
94528905000_M_BL9
100
AcDbBlockReference
  2
94528905000_M_BL9
 10
88.0020998446
 20
1744.1108574496
  0
INSERT
  5
675
100
AcDbEntity
  8
93794901000_BL10
100
AcDbBlockReference
  2
93794901000_BL10
 10
85.2067686872
 20
622.8802675555
  0
INSERT
  5
676
100
AcDbEntity
  8
93794901000_BL11
100
AcDbBlockReference
  2
93794901000_BL11
 10
85.25070267
 20
928.2108574496
  0
INSERT
  5
677
100
AcDbEntity
  8
94819605000_BL12
100
AcDbBlockReference
  2
94819605000_BL12
 10
86.25070267
 20
998.1302661564
  0
INSERT
  5
678
100
AcDbEntity
  8
93773501000_O_BL13
100
AcDbBlockReference
  2
93773501000_O_BL13
 10
86.75070267
 20
1907.7108574496
  0
INSERT
  5
679
100
AcDbEntity
  8
91511100000_BL14
100
AcDbBlockReference
  2
91511100000_BL14
 10
37.0797823479
 20
101.0496748632
  0
ENDSEC
  0
SECTION
  2
OBJECTS
  0
DICTIONARY
  5
C
100
AcDbDictionary
280
0
281
1
  3
ACAD_GROUP
350
D
  3
ACAD_MLINESTYLE
350
17
  3
ACAD_LAYOUT
350
1A
  3
ACAD_PLOTSETTINGS
350
19
  3
ACAD_PLOTSTYLENAME
350
E
  0
DICTIONARY
  5
D
102
{ACAD_REACTORS
330
C
102
}
100
AcDbDictionary
280
0
281
1
  0
ACDBDICTIONARYWDFLT
  5
E
102
{ACAD_REACTORS
330
C
102
}
100
AcDbDictionary
281
1
  3
Normal
350
F
100
AcDbDictionaryWithDefault
340
F
  0
DICTIONARY
  5
17
102
{ACAD_REACTORS
330
C
102
}
100
AcDbDictionary
280
0
281
1
  3
Standard
350
18
  0
DICTIONARY
  5
19
102
{ACAD_REACTORS
330
C
102
}
100
AcDbDictionary
281
1
  0
DICTIONARY
  5
1A
102
{ACAD_REACTORS
330
C
102
}
100
AcDbDictionary
281
1
  3
Model
350
67A
  3
Layout1
350
67B
  0
ACDBPLACEHOLDER
  5
F
102
{ACAD_REACTORS
330
E
102
}
  0
MLINESTYLE
  5
18
102
{ACAD_REACTORS
330
17
102
}
100
AcDbMlineStyle
  2
STANDARD
 70
0
  3

 62
256
 51
90.0
 52
90.0
 71
2
 49
0.5
 62
256
  6
BYLAYER
 49
-0.5
 62
256
  6
BYLAYER
  0
LAYOUT
  5
67A
102
{ACAD_REACTORS
330
1A
102
}
100
AcDbPlotSettings
  1

  2
none_device
  4

  6

 40
0.0
 41
0.0
 42
0.0
 43
0.0
 44
200.0
 45
1935.0
 46
0.0
 47
0.0
 48
0.0
 49
0.0
140
0.0
141
0.0
142
1.0
143
1.0
 70
1024
 72
1
 73
0
 74
0
  7

 75
0
147
1.0
148
0.0
149
0.0
100
AcDbLayout
  1
Model
 70
0
 71
0
 10
0.0
 20
0.0
 11
200.0
 21
1935.0
 12
0.0
 22
0.0
 32
0.0
 14
0.0
 24
0.0
 34
0.0
 15
0.0
 25
0.0
 35
0.0
146
0.0
 13
0.0
 23
0.0
 33
0.0
 16
1.0
 26
0.0
 36
0.0
 17
0.0
 27
1.0
 37
0.0
 76
0
330
21B
345
0
346
0
  0
LAYOUT
  5
67B
102
{ACAD_REACTORS
330
1A
102
}
100
AcDbPlotSettings
  1

  2
none_device
  4

  6

 40
0.0
 41
0.0
 42
0.0
 43
0.0
 44
200.0
 45
1935.0
 46
0.0
 47
0.0
 48
0.0
 49
0.0
140
0.0
141
0.0
142
1.0
143
1.0
 70
0
 72
1
 73
0
 74
0
  7

 75
0
147
1.0
148
0.0
149
0.0
100
AcDbLayout
  1
Layout1
 70
0
 71
1
 10
0.0
 20
0.0
 11
200.0
 21
1935.0
 12
0.0
 22
0.0
 32
0.0
 14
0.0
 24
0.0
 34
0.0
 15
0.0
 25
0.0
 35
0.0
146
0.0
 13
0.0
 23
0.0
 33
0.0
 16
1.0
 26
0.0
 36
0.0
 17
0.0
 27
1.0
 37
0.0
 76
0
330
21C
345
0
346
0
  0
ENDSEC
  0
EOF
