  0
SECTION
  2
HEADER
  9
$ACADVER
  1
AC1021
  9
$DWGCODEPAGE
  3
ANSI_1252
  9
$EXTMAX
 10
200.0
 20
1935.0
 30
0.0
  9
$EXTMIN
 10
0.0
 20
0.0
 30
0.0
  9
$LIMMIN
 10
0.0
 20
0.0
  9
$LIMMAX
 10
200.0
 20
1935.0
  9
$VIEWCTR
 10
100.0
 20
967.5
  9
$VIEWSIZE
 40
1935.0
  9
$CLAYER
  8
0
  9
$LTSCALE
 40
126.1333333333
  9
$CELTYPE
  6
BYLAYER
  9
$DIMSCALE
 40
1.0
  9
$DIMASZ
 40
3.5
  9
$DIMEXO
 40
0.0
  9
$DIMDLI
 40
87.1466666667
  9
$DIMEXE
 40
1.0
  9
$DIMCEN
 40
20.64
  9
$DIMLFAC
 40
1.0
  9
$DIMBLK
  1
_FILLED
  9
$DIMTXT
 40
2.5
  9
$DIMTOL
 70
1
  9
$DIMLIM
 70
0
  9
$DIMTFAC
 40
1.0
  9
$DIMTP
 40
0.001
  9
$DIMTM
 40
0.001
  9
$DIMGAP
 40
0.625
  9
$DIMDSEP
 70
46
  9
$PDMODE
 70
3
  9
$PDSIZE
 40
2.0
  9
$HANDSEED
  5
67A
  9
$TILEMODE
 70
1
  9
$MEASUREMENT
 70
1
  9
$INSUNITS
 70
4
  0
ENDSEC
  0
SECTION
  2
CLASSES
  0
CLASS
  1
ACDBDICTIONARYWDFLT
  2
AcDbDictionaryWithDefault
  3
AutoCAD 2000
 90
0
 91
1
280
0
281
0
  0
CLASS
  1
ACDBPLACEHOLDER
  2
AcDbPlaceHolder
  3
AutoCAD 2000
 90
0
 91
1
280
0
281
0
  0
CLASS
  1
LAYOUT
  2
AcDbLayout
  3
AutoCAD 2000
 90
0
 91
0
280
0
281
0
  0
ENDSEC
  0
SECTION
  2
TABLES
  0
TABLE
  2
VPORT
  5
8
100
AcDbSymbolTable
 70
2
  0
VPORT
  5
1F4
100
AcDbSymbolTableRecord
100
AcDbViewportTableRecord
  2
*ACTIVE
 70
0
 10
0.0
 20
0.0
 11
1.0
 21
1.0
 12
100.0
 22
967.5
 13
0.0
 23
0.0
 14
1.0
 24
1.0
 15
0.0
 25
0.0
 16
0.0
 26
0.0
 36
1.0
 17
0.0
 27
0.0
 37
0.0
 40
1935.0
 41
0.1033591731
 42
50.0
 43
0.0
 44
0.0
 50
0.0
 51
0.0
 71
0
 72
100
 73
1
 74
1
 75
0
 76
0
 77
0
 78
0
  0
ENDTAB
  0
TABLE
  2
LTYPE
  5
5
100
AcDbSymbolTable
 70
6
  0
LTYPE
  5
14
100
AcDbSymbolTableRecord
100
AcDbLinetypeTableRecord
  2
BYBLOCK
 70
0
  3

 72
65
 73
0
 40
0.0
  0
LTYPE
  5
15
100
AcDbSymbolTableRecord
100
AcDbLinetypeTableRecord
  2
BYLAYER
 70
0
  3

 72
65
 73
0
 40
0.0
  0
LTYPE
  5
16
100
AcDbSymbolTableRecord
100
AcDbLinetypeTableRecord
  2
CONTINUOUS
 70
64
  3
Solid line
 72
65
 73
0
 40
0.0
  0
LTYPE
  5
1F5
100
AcDbSymbolTableRecord
100
AcDbLinetypeTableRecord
  2
CENTER
 70
64
  3
____ _ ____ _ ____ _ ____ _ ____ _ ____ _ ____
 72
65
 73
4
 40
0.6
 49
0.375
 74
0
 49
-0.075
 74
0
 49
0.075
 74
0
 49
-0.075
 74
0
  0
LTYPE
  5
1F6
100
AcDbSymbolTableRecord
100
AcDbLinetypeTableRecord
  2
HIDDEN
 70
64
  3
- - - - - - - - - - - - - - - - - - - -
 72
65
 73
2
 40
0.2
 49
0.1
 74
0
 49
-0.1
 74
0
  0
LTYPE
  5
1F7
100
AcDbSymbolTableRecord
100
AcDbLinetypeTableRecord
  2
PHANTOM
 70
64
  3
_____ _ _ _____ _ _ _____ _ _ _____
 72
65
 73
6
 40
0.8
 49
0.45
 74
0
 49
-0.05
 74
0
 49
0.1
 74
0
 49
-0.05
 74
0
 49
0.1
 74
0
 49
-0.05
 74
0
  0
LTYPE
  5
1F8
100
AcDbSymbolTableRecord
100
AcDbLinetypeTableRecord
  2
DOT
 70
64
  3
. . . . . . . . . . . . . . . . . . . .
 72
65
 73
2
 40
0.2
 49
0.1
 74
0
 49
-0.1
 74
0
  0
LTYPE
  5
1F9
100
AcDbSymbolTableRecord
100
AcDbLinetypeTableRecord
  2
DASHED
 70
64
  3
- - - - - - - - - - - - - - - - - - - -
 72
65
 73
2
 40
0.2
 49
0.1
 74
0
 49
-0.1
 74
0
  0
ENDTAB
  0
TABLE
  2
LAYER
  5
2
100
AcDbSymbolTable
 70
36
  0
LAYER
  5
10
100
AcDbSymbolTableRecord
100
AcDbLayerTableRecord
  2
0
 70
0
 62
7
  6
CONTINUOUS
370
-3
390
F
  0
LAYER
  5
1FA
100
AcDbSymbolTableRecord
100
AcDbLayerTableRecord
  2
DEFAULT_1
 70
0
 62
7
  6
CENTER
370
-3
390
F
  0
LAYER
  5
1FB
100
AcDbSymbolTableRecord
100
AcDbLayerTableRecord
  2
DEFAULT_2
 70
0
 62
8
  6
HIDDEN
370
-3
390
F
  0
LAYER
  5
1FC
100
AcDbSymbolTableRecord
100
AcDbLayerTableRecord
  2
DEFAULT_3
 70
0
 62
7
  6
PHANTOM
370
-3
390
F
  0
LAYER
  5
1FD
100
AcDbSymbolTableRecord
100
AcDbLayerTableRecord
  2
AXIS
 70
0
 62
7
  6
CONTINUOUS
370
-3
390
F
  0
LAYER
  5
1FE
100
AcDbSymbolTableRecord
100
AcDbLayerTableRecord
  2
COORDSYS
 70
0
 62
7
  6
CONTINUOUS
370
-3
390
F
  0
LAYER
  5
1FF
100
AcDbSymbolTableRecord
100
AcDbLayerTableRecord
  2
CURVES
 70
0
 62
7
  6
CONTINUOUS
370
-3
390
F
  0
LAYER
  5
200
100
AcDbSymbolTableRecord
100
AcDbLayerTableRecord
  2
EINBAUREFERENZ
 70
0
 62
7
  6
CONTINUOUS
370
-3
390
F
  0
LAYER
  5
201
100
AcDbSymbolTableRecord
100
AcDbLayerTableRecord
  2
PLANES
 70
0
 62
7
  6
CONTINUOUS
370
-3
390
F
  0
LAYER
  5
202
100
AcDbSymbolTableRecord
100
AcDbLayerTableRecord
  2
POINTS
 70
0
 62
7
  6
CONTINUOUS
370
-3
390
F
  0
LAYER
  5
203
100
AcDbSymbolTableRecord
100
AcDbLayerTableRecord
  2
PROFIL-EINBAULAGE
 70
0
 62
7
  6
CONTINUOUS
370
-3
390
F
  0
LAYER
  5
204
100
AcDbSymbolTableRecord
100
AcDbLayerTableRecord
  2
S-AXIS
 70
0
 62
7
  6
CONTINUOUS
370
-3
390
F
  0
LAYER
  5
205
100
AcDbSymbolTableRecord
100
AcDbLayerTableRecord
  2
S-COORDSYS
 70
0
 62
7
  6
CONTINUOUS
370
-3
390
F
  0
LAYER
  5
206
100
AcDbSymbolTableRecord
100
AcDbLayerTableRecord
  2
S-PLANES
 70
0
 62
7
  6
CONTINUOUS
370
-3
390
F
  0
LAYER
  5
207
100
AcDbSymbolTableRecord
100
AcDbLayerTableRecord
  2
THREADS
 70
0
 62
7
  6
CONTINUOUS
370
-3
390
F
  0
LAYER
  5
208
100
AcDbSymbolTableRecord
100
AcDbLayerTableRecord
  2
HATCHING_BL0
 70
0
 62
7
  6
CONTINUOUS
370
-3
390
F
  0
LAYER
  5
209
100
AcDbSymbolTableRecord
100
AcDbLayerTableRecord
  2
94820009R00_BL1
 70
0
 62
7
  6
CONTINUOUS
370
-3
390
F
  0
LAYER
  5
20A
100
AcDbSymbolTableRecord
100
AcDbLayerTableRecord
  2
93773508000_O_BL2
 70
0
 62
7
  6
CONTINUOUS
370
-3
390
F
  0
LAYER
  5
20B
100
AcDbSymbolTableRecord
100
AcDbLayerTableRecord
  2
94818605R00_BL3
 70
0
 62
7
  6
CONTINUOUS
370
-3
390
F
  0
LAYER
  5
20C
100
AcDbSymbolTableRecord
100
AcDbLayerTableRecord
  2
94528905000_M_BL4
 70
0
 62
7
  6
CONTINUOUS
370
-3
390
F
  0
LAYER
  5
20D
100
AcDbSymbolTableRecord
100
AcDbLayerTableRecord
  2
94529001000_BL5
 70
0
 62
7
  6
CONTINUOUS
370
-3
390
F
  0
LAYER
  5
20E
100
AcDbSymbolTableRecord
100
AcDbLayerTableRecord
  2
94673901000_BL6
 70
0
 62
7
  6
CONTINUOUS
370
-3
390
F
  0
LAYER
  5
20F
100
AcDbSymbolTableRecord
100
AcDbLayerTableRecord
  2
94528905000_M_BL7
 70
0
 62
7
  6
CONTINUOUS
370
-3
390
F
  0
LAYER
  5
210
100
AcDbSymbolTableRecord
100
AcDbLayerTableRecord
  2
94673901000_BL8
 70
0
 62
7
  6
CONTINUOUS
370
-3
390
F
  0
LAYER
  5
211
100
AcDbSymbolTableRecord
100
AcDbLayerTableRecord
  2
94529001000_BL9
 70
0
 62
7
  6
CONTINUOUS
370
-3
390
F
  0
LAYER
  5
212
100
AcDbSymbolTableRecord
100
AcDbLayerTableRecord
  2
94528905000_M_BL10
 70
0
 62
7
  6
CONTINUOUS
370
-3
390
F
  0
LAYER
  5
213
100
AcDbSymbolTableRecord
100
AcDbLayerTableRecord
  2
94528905000_M_BL11
 70
0
 62
7
  6
CONTINUOUS
370
-3
390
F
  0
LAYER
  5
214
100
AcDbSymbolTableRecord
100
AcDbLayerTableRecord
  2
93794908000_BL12
 70
0
 62
7
  6
CONTINUOUS
370
-3
390
F
  0
LAYER
  5
215
100
AcDbSymbolTableRecord
100
AcDbLayerTableRecord
  2
93794908000_BL13
 70
0
 62
7
  6
CONTINUOUS
370
-3
390
F
  0
LAYER
  5
216
100
AcDbSymbolTableRecord
100
AcDbLayerTableRecord
  2
93773508000_O_BL14
 70
0
 62
7
  6
CONTINUOUS
370
-3
390
F
  0
LAYER
  5
217
100
AcDbSymbolTableRecord
100
AcDbLayerTableRecord
  2
93782708000_BL15
 70
0
 62
7
  6
CONTINUOUS
370
-3
390
F
  0
LAYER
  5
218
100
AcDbSymbolTableRecord
100
AcDbLayerTableRecord
  2
91511100000_BL16
 70
0
 62
7
  6
CONTINUOUS
370
-3
390
F
  0
ENDTAB
  0
TABLE
  2
STYLE
  5
3
100
AcDbSymbolTable
 70
1
  0
STYLE
  5
11
100
AcDbSymbolTableRecord
100
AcDbTextStyleTableRecord
  2
STANDARD
 70
0
 40
0.0
 41
1.0
 50
0.0
 71
0
 42
0.2
  3
arial.ttf
  4

  0
STYLE
  5
219
100
AcDbSymbolTableRecord
100
AcDbTextStyleTableRecord
  2
TEXTSTYLE_1
 70
0
 40
0.0
 41
0.8
 50
0.0
 71
0
 42
0.2
  3
gdt
  4

  0
STYLE
  5
21A
100
AcDbSymbolTableRecord
100
AcDbTextStyleTableRecord
  2
TEXTSTYLE_2
 70
0
 40
0.0
 41
1.0
 50
0.0
 71
0
 42
0.2
  3
arialbd.ttf
  4

  0
ENDTAB
  0
TABLE
  2
VIEW
  5
6
100
AcDbSymbolTable
 70
0
  0
ENDTAB
  0
TABLE
  2
UCS
  5
7
100
AcDbSymbolTable
 70
0
  0
ENDTAB
  0
TABLE
  2
APPID
  5
9
100
AcDbSymbolTable
 70
1
  0
APPID
  5
21B
100
AcDbSymbolTableRecord
100
AcDbRegAppTableRecord
  2
ACAD
 70
0
  0
ENDTAB
  0
TABLE
  2
BLOCK_RECORD
  5
1
100
AcDbSymbolTable
 70
0
  0
BLOCK_RECORD
  5
21C
100
AcDbSymbolTableRecord
100
AcDbBlockTableRecord
  2
*Model_Space
  0
BLOCK_RECORD
  5
21D
100
AcDbSymbolTableRecord
100
AcDbBlockTableRecord
  2
*Paper_Space
  0
BLOCK_RECORD
  5
21E
100
AcDbSymbolTableRecord
100
AcDbBlockTableRecord
  2
_FILLED
  0
BLOCK_RECORD
  5
21F
100
AcDbSymbolTableRecord
100
AcDbBlockTableRecord
  2
_NONE
  0
BLOCK_RECORD
  5
220
100
AcDbSymbolTableRecord
100
AcDbBlockTableRecord
  2
*D0
  0
BLOCK_RECORD
  5
221
100
AcDbSymbolTableRecord
100
AcDbBlockTableRecord
  2
*D1
  0
BLOCK_RECORD
  5
222
100
AcDbSymbolTableRecord
100
AcDbBlockTableRecord
  2
*D2
  0
BLOCK_RECORD
  5
223
100
AcDbSymbolTableRecord
100
AcDbBlockTableRecord
  2
*D3
  0
BLOCK_RECORD
  5
224
100
AcDbSymbolTableRecord
100
AcDbBlockTableRecord
  2
*D4
  0
BLOCK_RECORD
  5
225
100
AcDbSymbolTableRecord
100
AcDbBlockTableRecord
  2
*D5
  0
BLOCK_RECORD
  5
226
100
AcDbSymbolTableRecord
100
AcDbBlockTableRecord
  2
*D6
  0
BLOCK_RECORD
  5
227
100
AcDbSymbolTableRecord
100
AcDbBlockTableRecord
  2
*D7
  0
BLOCK_RECORD
  5
228
100
AcDbSymbolTableRecord
100
AcDbBlockTableRecord
  2
*D8
  0
BLOCK_RECORD
  5
229
100
AcDbSymbolTableRecord
100
AcDbBlockTableRecord
  2
*D9
  0
BLOCK_RECORD
  5
22A
100
AcDbSymbolTableRecord
100
AcDbBlockTableRecord
  2
*D10
  0
BLOCK_RECORD
  5
22B
100
AcDbSymbolTableRecord
100
AcDbBlockTableRecord
  2
*D11
  0
BLOCK_RECORD
  5
22C
100
AcDbSymbolTableRecord
100
AcDbBlockTableRecord
  2
*D12
  0
BLOCK_RECORD
  5
22D
100
AcDbSymbolTableRecord
100
AcDbBlockTableRecord
  2
*D13
  0
BLOCK_RECORD
  5
22E
100
AcDbSymbolTableRecord
100
AcDbBlockTableRecord
  2
*D14
  0
BLOCK_RECORD
  5
22F
100
AcDbSymbolTableRecord
100
AcDbBlockTableRecord
  2
*D15
  0
BLOCK_RECORD
  5
230
100
AcDbSymbolTableRecord
100
AcDbBlockTableRecord
  2
*D16
  0
BLOCK_RECORD
  5
231
100
AcDbSymbolTableRecord
100
AcDbBlockTableRecord
  2
*D17
  0
BLOCK_RECORD
  5
232
100
AcDbSymbolTableRecord
100
AcDbBlockTableRecord
  2
*D18
  0
BLOCK_RECORD
  5
233
100
AcDbSymbolTableRecord
100
AcDbBlockTableRecord
  2
*D19
  0
BLOCK_RECORD
  5
234
100
AcDbSymbolTableRecord
100
AcDbBlockTableRecord
  2
*D20
  0
BLOCK_RECORD
  5
235
100
AcDbSymbolTableRecord
100
AcDbBlockTableRecord
  2
*D21
  0
BLOCK_RECORD
  5
236
100
AcDbSymbolTableRecord
100
AcDbBlockTableRecord
  2
*D22
  0
BLOCK_RECORD
  5
237
100
AcDbSymbolTableRecord
100
AcDbBlockTableRecord
  2
*D23
  0
BLOCK_RECORD
  5
238
100
AcDbSymbolTableRecord
100
AcDbBlockTableRecord
  2
*D24
  0
BLOCK_RECORD
  5
239
100
AcDbSymbolTableRecord
100
AcDbBlockTableRecord
  2
*D25
  0
BLOCK_RECORD
  5
23A
100
AcDbSymbolTableRecord
100
AcDbBlockTableRecord
  2
*D26
  0
BLOCK_RECORD
  5
23B
100
AcDbSymbolTableRecord
100
AcDbBlockTableRecord
  2
*D27
  0
BLOCK_RECORD
  5
23C
100
AcDbSymbolTableRecord
100
AcDbBlockTableRecord
  2
SYMBOL_0_BL17
  0
BLOCK_RECORD
  5
23D
100
AcDbSymbolTableRecord
100
AcDbBlockTableRecord
  2
HATCHING_BL0
  0
BLOCK_RECORD
  5
23E
100
AcDbSymbolTableRecord
100
AcDbBlockTableRecord
  2
94820009R00_BL1
  0
BLOCK_RECORD
  5
23F
100
AcDbSymbolTableRecord
100
AcDbBlockTableRecord
  2
93773508000_O_BL2
  0
BLOCK_RECORD
  5
240
100
AcDbSymbolTableRecord
100
AcDbBlockTableRecord
  2
94818605R00_BL3
  0
BLOCK_RECORD
  5
241
100
AcDbSymbolTableRecord
100
AcDbBlockTableRecord
  2
94528905000_M_BL4
  0
BLOCK_RECORD
  5
242
100
AcDbSymbolTableRecord
100
AcDbBlockTableRecord
  2
94529001000_BL5
  0
BLOCK_RECORD
  5
243
100
AcDbSymbolTableRecord
100
AcDbBlockTableRecord
  2
94673901000_BL6
  0
BLOCK_RECORD
  5
244
100
AcDbSymbolTableRecord
100
AcDbBlockTableRecord
  2
94528905000_M_BL7
  0
BLOCK_RECORD
  5
245
100
AcDbSymbolTableRecord
100
AcDbBlockTableRecord
  2
94673901000_BL8
  0
BLOCK_RECORD
  5
246
100
AcDbSymbolTableRecord
100
AcDbBlockTableRecord
  2
94529001000_BL9
  0
BLOCK_RECORD
  5
247
100
AcDbSymbolTableRecord
100
AcDbBlockTableRecord
  2
94528905000_M_BL10
  0
BLOCK_RECORD
  5
248
100
AcDbSymbolTableRecord
100
AcDbBlockTableRecord
  2
94528905000_M_BL11
  0
BLOCK_RECORD
  5
249
100
AcDbSymbolTableRecord
100
AcDbBlockTableRecord
  2
93794908000_BL12
  0
BLOCK_RECORD
  5
24A
100
AcDbSymbolTableRecord
100
AcDbBlockTableRecord
  2
93794908000_BL13
  0
BLOCK_RECORD
  5
24B
100
AcDbSymbolTableRecord
100
AcDbBlockTableRecord
  2
93773508000_O_BL14
  0
BLOCK_RECORD
  5
24C
100
AcDbSymbolTableRecord
100
AcDbBlockTableRecord
  2
93782708000_BL15
  0
BLOCK_RECORD
  5
24D
100
AcDbSymbolTableRecord
100
AcDbBlockTableRecord
  2
91511100000_BL16
  0
ENDTAB
  0
TABLE
  2
DIMSTYLE
  5
A
100
AcDbSymbolTable
 70
1
100
AcDbDimStyleTable
 71
0
  0
DIMSTYLE
105
24E
100
AcDbSymbolTableRecord
100
AcDbDimStyleTableRecord
  2
STANDARD
 70
0
  3

  4

 40
1.0
 41
3.5
 42
0.0
 43
0.38
 44
1.0
 45
0.0
 46
0.0
 47
0.001
 48
0.001
140
2.5
141
0.09
142
0.0
143
25.4
144
1.0
145
0.0
146
1.0
147
0.625
 71
1.0
 72
0.0
 73
0
 74
0
 75
0
 76
0
 77
1
 78
8
170
0
171
2
172
0
173
0
174
0
175
0
176
0
177
0
178
5
270
2
271
3
272
3
273
2
274
2
275
0
280
0
281
0
282
0
283
1
284
8
285
0
286
0
287
3
288
0
340
11
278
46
341
21E
342
21E
343
21E
344
21E
  0
DIMSTYLE
105
24F
100
AcDbSymbolTableRecord
100
AcDbDimStyleTableRecord
  2
DIMSTYLE_1
 70
0
  3

  4

 40
1.0
 41
3.5
 42
0.0
 43
0.38
 44
1.0
 45
0.0
 46
0.0
 47
0.2
 48
0.2
140
2.5
141
0.09
142
0.0
143
25.4
144
1.0
145
0.0
146
1.0
147
0.625
 71
0.0
 72
0.0
 73
0
 74
0
 75
0
 76
0
 77
1
 78
8
170
0
171
2
172
0
173
0
174
0
175
0
176
0
177
0
178
5
270
2
271
3
272
3
273
2
274
2
275
0
280
0
281
0
282
0
283
1
284
8
285
0
286
0
287
3
288
0
340
11
278
46
341
21E
342
21E
343
21E
344
21E
  0
DIMSTYLE
105
250
100
AcDbSymbolTableRecord
100
AcDbDimStyleTableRecord
  2
DIMSTYLE_2
 70
0
  3

  4

 40
1.0
 41
3.5
 42
0.0
 43
0.38
 44
1.0
 45
0.0
 46
0.0
 47
0.1
 48
0.1
140
2.5
141
0.09
142
0.0
143
25.4
144
1.0
145
0.0
146
1.0
147
0.625
 71
0.0
 72
0.0
 73
0
 74
0
 75
0
 76
0
 77
1
 78
8
170
0
171
2
172
0
173
0
174
0
175
0
176
0
177
0
178
5
270
2
271
3
272
3
273
2
274
2
275
0
280
0
281
0
282
0
283
1
284
8
285
0
286
0
287
3
288
0
340
11
278
46
341
21E
342
21E
343
21E
344
21E
  0
DIMSTYLE
105
251
100
AcDbSymbolTableRecord
100
AcDbDimStyleTableRecord
  2
DIMSTYLE_3
 70
0
  3

  4

 40
1.0
 41
3.5
 42
0.0
 43
0.38
 44
1.0
 45
0.0
 46
0.0
 47
0.3
 48
0.3
140
2.5
141
0.09
142
0.0
143
25.4
144
1.0
145
0.0
146
1.0
147
0.625
 71
0.0
 72
0.0
 73
0
 74
0
 75
0
 76
0
 77
1
 78
8
170
0
171
2
172
0
173
0
174
0
175
0
176
0
177
0
178
5
270
2
271
3
272
3
273
2
274
2
275
0
280
0
281
0
282
0
283
1
284
8
285
0
286
0
287
3
288
0
340
11
278
46
341
21E
342
21E
343
21E
344
21E
  0
DIMSTYLE
105
252
100
AcDbSymbolTableRecord
100
AcDbDimStyleTableRecord
  2
DIMSTYLE_4
 70
0
  3

  4

 40
1.0
 41
3.5
 42
0.0
 43
0.38
 44
1.0
 45
0.0
 46
0.0
 47
1.2
 48
1.2
140
2.5
141
0.09
142
0.0
143
25.4
144
1.0
145
0.0
146
1.0
147
0.625
 71
0.0
 72
0.0
 73
0
 74
0
 75
0
 76
0
 77
1
 78
8
170
0
171
2
172
0
173
0
174
0
175
0
176
0
177
0
178
5
270
2
271
3
272
3
273
2
274
2
275
0
280
0
281
0
282
0
283
1
284
8
285
0
286
0
287
3
288
0
340
11
278
46
341
21E
342
21E
343
21E
344
21E
  0
DIMSTYLE
105
253
100
AcDbSymbolTableRecord
100
AcDbDimStyleTableRecord
  2
DIMSTYLE_5
 70
0
  3

  4

 40
1.0
 41
3.5
 42
0.0
 43
0.38
 44
1.0
 45
0.0
 46
0.0
 47
0.8
 48
0.8
140
2.5
141
0.09
142
0.0
143
25.4
144
1.0
145
0.0
146
1.0
147
0.625
 71
0.0
 72
0.0
 73
0
 74
0
 75
0
 76
0
 77
1
 78
8
170
0
171
2
172
0
173
0
174
0
175
0
176
0
177
0
178
5
270
2
271
3
272
3
273
2
274
2
275
0
280
0
281
0
282
0
283
1
284
8
285
0
286
0
287
3
288
0
340
11
278
46
341
21E
342
21E
343
21E
344
21E
  0
DIMSTYLE
105
254
100
AcDbSymbolTableRecord
100
AcDbDimStyleTableRecord
  2
DIMSTYLE_6
 70
0
  3

  4

 40
1.0
 41
3.5
 42
0.0
 43
0.38
 44
1.0
 45
0.0
 46
0.0
 47
0.5
 48
0.5
140
2.5
141
0.09
142
0.0
143
25.4
144
1.0
145
0.0
146
1.0
147
0.625
 71
0.0
 72
0.0
 73
0
 74
0
 75
0
 76
0
 77
1
 78
8
170
0
171
2
172
0
173
0
174
0
175
0
176
0
177
0
178
5
270
2
271
3
272
3
273
2
274
2
275
0
280
0
281
0
282
0
283
1
284
8
285
0
286
0
287
3
288
0
340
11
278
46
341
21E
342
21E
343
21E
344
21E
  0
ENDTAB
  0
ENDSEC
  0
SECTION
  2
BLOCKS
  0
BLOCK
  5
20
100
AcDbEntity
  8
0
100
AcDbBlockBegin
  2
*Model_Space
 70
0
 10
0.0
 20
0.0
 30
0.0
  3
*Model_Space
  1

  0
ENDBLK
  5
21
100
AcDbEntity
  8
0
100
AcDbBlockEnd
  0
BLOCK
  5
1C
100
AcDbEntity
  8
0
100
AcDbBlockBegin
  2
*Paper_Space
 70
0
 10
0.0
 20
0.0
 30
0.0
  3
*Paper_Space
  1

  0
ENDBLK
  5
1D
100
AcDbEntity
  8
0
100
AcDbBlockEnd
  0
BLOCK
  5
255
100
AcDbEntity
  8
0
100
AcDbBlockBegin
 62
2
  6
CONTINUOUS
  2
SYMBOL_0_BL17
 70
64
 10
31.0000000239
 20
34.9999999785
  3
SYMBOL_0_BL17
  1

  0
TEXT
  5
256
100
AcDbEntity
  8
0
100
AcDbText
 62
5
  6
CONTINUOUS
 10
11.6434778505
 20
32.1908716548
  7
TEXTSTYLE_2
 40
4.0
  1
K-19731-04-R
 72
5
 11
47.033812423
 21
32.1908716548
100
AcDbText
  0
TEXT
  5
257
100
AcDbEntity
  8
0
100
AcDbText
 62
5
  6
CONTINUOUS
 10
10.9089559916
 20
24.1776342906
  7
STANDARD
 40
2.5
  1
Scale
 72
5
 11
19.6357217908
 21
24.1776342906
100
AcDbText
  0
TEXT
  5
258
100
AcDbEntity
  8
0
100
AcDbText
 62
5
  6
CONTINUOUS
 10
10.9089559916
 20
20.4276342906
  7
STANDARD
 40
2.5
  1
1:1
 72
5
 11
15.7602571068
 21
20.4276342906
100
AcDbText
  0
TEXT
  5
259
100
AcDbEntity
  8
0
100
AcDbText
 62
5
  6
CONTINUOUS
 10
10.9089559916
 20
13.0518233866
  7
STANDARD
 40
2.5
  1
Draft
 72
5
 11
18.4647180733
 21
13.0518233866
100
AcDbText
  0
TEXT
  5
25A
100
AcDbEntity
  8
0
100
AcDbText
 62
5
  6
CONTINUOUS
 10
23.3811982505
 20
13.113338109
  7
STANDARD
 40
2.5
  1
13.04.2017
 72
5
 11
40.8533172096
 21
13.113338109
100
AcDbText
  0
TEXT
  5
25B
100
AcDbEntity
  8
0
100
AcDbText
 62
5
  6
CONTINUOUS
 10
45.71759366
 20
13.1067461609
  7
STANDARD
 40
2.5
  1
Dr
 72
5
 11
49.435065779
 21
13.1067461609
100
AcDbText
  0
LINE
  5
25C
100
AcDbEntity
  8
0
100
AcDbLine
 62
2
  6
CONTINUOUS
 10
10.0000000239
 20
59.9999999785
 11
52.0000000239
 21
59.9999999785
  0
LINE
  5
25D
100
AcDbEntity
  8
0
100
AcDbLine
 62
2
  6
CONTINUOUS
 10
52.0000000239
 20
59.9999999785
 11
52.0000000239
 21
9.9999999785
  0
LINE
  5
25E
100
AcDbEntity
  8
0
100
AcDbLine
 62
2
  6
CONTINUOUS
 10
10.0000000239
 20
9.9999999785
 11
52.0000000239
 21
9.9999999785
  0
LINE
  5
25F
100
AcDbEntity
  8
0
100
AcDbLine
 62
2
  6
CONTINUOUS
 10
10.0000000239
 20
39.9999999785
 11
21.0000000239
 21
39.9999999785
  0
LINE
  5
260
100
AcDbEntity
  8
0
100
AcDbLine
 62
2
  6
CONTINUOUS
 10
10.0000000239
 20
27.9999999785
 11
21.0000000239
 21
27.9999999785
  0
LINE
  5
261
100
AcDbEntity
  8
0
100
AcDbLine
 62
2
  6
CONTINUOUS
 10
10.0000000239
 20
18.9999999785
 11
21.0000000239
 21
18.9999999785
  0
LINE
  5
262
100
AcDbEntity
  8
0
100
AcDbLine
 62
2
  6
CONTINUOUS
 10
21.0000000239
 20
39.9999999785
 11
43.0000000239
 21
39.9999999785
  0
LINE
  5
263
100
AcDbEntity
  8
0
100
AcDbLine
 62
2
  6
CONTINUOUS
 10
43.0000000239
 20
39.9999999785
 11
52.0000000239
 21
39.9999999785
  0
LINE
  5
264
100
AcDbEntity
  8
0
100
AcDbLine
 62
2
  6
CONTINUOUS
 10
21.0000000239
 20
27.9999999785
 11
43.0000000239
 21
27.9999999785
  0
LINE
  5
265
100
AcDbEntity
  8
0
100
AcDbLine
 62
2
  6
CONTINUOUS
 10
43.0000000239
 20
27.9999999785
 11
52.0000000239
 21
27.9999999785
  0
LINE
  5
266
100
AcDbEntity
  8
0
100
AcDbLine
 62
2
  6
CONTINUOUS
 10
21.0000000239
 20
18.9999999785
 11
21.0000000239
 21
9.9999999785
  0
LINE
  5
267
100
AcDbEntity
  8
0
100
AcDbLine
 62
2
  6
CONTINUOUS
 10
21.0000000239
 20
18.9999999785
 11
43.0000000239
 21
18.9999999785
  0
LINE
  5
268
100
AcDbEntity
  8
0
100
AcDbLine
 62
2
  6
CONTINUOUS
 10
43.0000000239
 20
18.9999999785
 11
43.0000000239
 21
9.9999999785
  0
LINE
  5
269
100
AcDbEntity
  8
0
100
AcDbLine
 62
2
  6
CONTINUOUS
 10
43.0000000239
 20
18.9999999785
 11
52.0000000239
 21
18.9999999785
  0
LINE
  5
26A
100
AcDbEntity
  8
0
100
AcDbLine
 62
2
  6
CONTINUOUS
 10
10.0000000239
 20
9.9999999785
 11
10.0000000239
 21
59.9999999785
  0
ARC
  5
26B
100
AcDbEntity
  8
0
100
AcDbCircle
 62
2
  6
CONTINUOUS
 10
17.6290122978
 20
56.1308274644
 40
1.2679261569
100
AcDbArc
 50
90.0
 51
180.0
  0
LINE
  5
26C
100
AcDbEntity
  8
0
100
AcDbLine
 62
2
  6
CONTINUOUS
 10
17.6290122978
 20
57.3987536213
 11
44.0849627663
 21
57.3987536213
  0
ARC
  5
26D
100
AcDbEntity
  8
0
100
AcDbCircle
 62
2
  6
CONTINUOUS
 10
44.0849627663
 20
56.1308274644
 40
1.2679261569
100
AcDbArc
 50
0.0
 51
90.0
  0
LINE
  5
26E
100
AcDbEntity
  8
0
100
AcDbLine
 62
2
  6
CONTINUOUS
 10
45.3528889231
 20
56.1308274644
 11
45.3528889231
 21
43.6666783678
  0
ARC
  5
26F
100
AcDbEntity
  8
0
100
AcDbCircle
 62
2
  6
CONTINUOUS
 10
44.0849627663
 20
43.6666783678
 40
1.2679261569
100
AcDbArc
 50
270.0
 51
360.0
  0
LINE
  5
270
100
AcDbEntity
  8
0
100
AcDbLine
 62
2
  6
CONTINUOUS
 10
44.0849627663
 20
42.3987522109
 11
17.6290122978
 21
42.3987522109
  0
ARC
  5
271
100
AcDbEntity
  8
0
100
AcDbCircle
 62
2
  6
CONTINUOUS
 10
17.6290122978
 20
43.6666783678
 40
1.2679261569
100
AcDbArc
 50
180.0
 51
270.0
  0
LINE
  5
272
100
AcDbEntity
  8
0
100
AcDbLine
 62
2
  6
CONTINUOUS
 10
16.3610861409
 20
43.6666783678
 11
16.3610861409
 21
56.1308274644
  0
ARC
  5
273
100
AcDbEntity
  8
0
100
AcDbCircle
 62
2
  6
CONTINUOUS
 10
25.0981141224
 20
49.7181091975
 40
2.8108394023
100
AcDbArc
 50
35.2282226131
 51
336.934010569
  0
LINE
  5
274
100
AcDbEntity
  8
0
100
AcDbLine
 62
2
  6
CONTINUOUS
 10
27.3941788183
 20
51.3394990511
 11
29.5865173301
 21
52.961744213
  0
ARC
  5
275
100
AcDbEntity
  8
0
100
AcDbCircle
 62
2
  6
CONTINUOUS
 10
25.0981141224
 20
49.7181091975
 40
5.5377731507
100
AcDbArc
 50
35.8545159817
 51
11.4705154501
  0
LINE
  5
276
100
AcDbEntity
  8
0
100
AcDbLine
 62
2
  6
CONTINUOUS
 10
30.5252822719
 20
50.8193709036
 11
25.2029961896
 21
50.8193709036
  0
ARC
  5
277
100
AcDbEntity
  8
0
100
AcDbCircle
 62
2
  6
CONTINUOUS
 10
25.2029961896
 20
49.7181091975
 40
1.1012617061
100
AcDbArc
 50
90.0
 51
270.0
  0
LINE
  5
278
100
AcDbEntity
  8
0
100
AcDbLine
 62
2
  6
CONTINUOUS
 10
25.2029961896
 20
48.6168474914
 11
27.6842387906
 21
48.6168474914
  0
ARC
  5
279
100
AcDbEntity
  8
0
100
AcDbCircle
 62
2
  6
CONTINUOUS
 10
25.2029961896
 20
49.7181091975
 40
5.9153485927
100
AcDbArc
 50
349.2706340045
 51
10.7293659955
  0
LINE
  5
27A
100
AcDbEntity
  8
0
100
AcDbLine
 62
2
  6
CONTINUOUS
 10
31.014929743
 20
48.6168474914
 11
32.8593870987
 21
48.6168474914
  0
LINE
  5
27B
100
AcDbEntity
  8
0
100
AcDbLine
 62
2
  6
CONTINUOUS
 10
32.8593870987
 20
48.6168474914
 11
32.8593870987
 21
48.0399961216
  0
ARC
  5
27C
100
AcDbEntity
  8
0
100
AcDbCircle
 62
2
  6
CONTINUOUS
 10
36.7610000003
 20
48.0399961216
 40
3.9016129016
100
AcDbArc
 50
180.0
 51
360.0
  0
LINE
  5
27D
100
AcDbEntity
  8
0
100
AcDbLine
 62
2
  6
CONTINUOUS
 10
40.6626129019
 20
48.0399961216
 11
40.6626129019
 21
54.9622125599
  0
LINE
  5
27E
100
AcDbEntity
  8
0
100
AcDbLine
 62
2
  6
CONTINUOUS
 10
40.6626129019
 20
54.9622125599
 11
37.9356791535
 21
54.9622125599
  0
LINE
  5
27F
100
AcDbEntity
  8
0
100
AcDbLine
 62
2
  6
CONTINUOUS
 10
37.9356791535
 20
54.9622125599
 11
37.9356791535
 21
48.0399961216
  0
ARC
  5
280
100
AcDbEntity
  8
0
100
AcDbCircle
 62
2
  6
CONTINUOUS
 10
36.7610000003
 20
48.0399961216
 40
1.1746791532
100
AcDbArc
 50
180.0
 51
360.0
  0
LINE
  5
281
100
AcDbEntity
  8
0
100
AcDbLine
 62
2
  6
CONTINUOUS
 10
35.5863208471
 20
48.0399961216
 11
35.5863208471
 21
54.9622125599
  0
LINE
  5
282
100
AcDbEntity
  8
0
100
AcDbLine
 62
2
  6
CONTINUOUS
 10
35.5863208471
 20
54.9622125599
 11
32.8593870987
 21
54.9622125599
  0
LINE
  5
283
100
AcDbEntity
  8
0
100
AcDbLine
 62
2
  6
CONTINUOUS
 10
32.8593870987
 20
54.9622125599
 11
32.8593870987
 21
50.8193709036
  0
LINE
  5
284
100
AcDbEntity
  8
0
100
AcDbLine
 62
2
  6
CONTINUOUS
 10
32.8593870987
 20
50.8193709036
 11
31.014929743
 21
50.8193709036
  0
LINE
  5
285
100
AcDbEntity
  8
0
100
AcDbLine
 62
2
  6
CONTINUOUS
 10
45.1996126437
 20
56.7334185992
 11
45.2185459944
 21
56.6972621935
  0
LWPOLYLINE
  5
286
100
AcDbEntity
  8
0
100
AcDbPolyline
 62
2
  6
CONTINUOUS
 90
42
 70
0
 10
17.4964779251
 20
57.3918123624
 10
17.6290122978
 20
57.398757363
 10
44.0849627663
 20
57.398757363
 10
44.217497139
 20
57.3918123624
 10
44.3485794374
 20
57.3710523604
 10
44.4767734964
 20
57.3367023572
 10
44.600674795
 20
57.2891373527
 10
44.7189258447
 20
57.2288823471
 10
44.8302310623
 20
57.1565973403
 10
44.9333709645
 20
57.0730773324
 10
45.0272155289
 20
56.9792373236
 10
45.1107365748
 20
56.8760973139
 10
45.1830190283
 20
56.7647973034
 10
45.2432709475
 20
56.6465372923
 10
45.2908322
 20
56.5226372807
 10
45.3251816945
 20
56.3944472686
 10
45.345943091
 20
56.2633622563
 10
45.3528889232
 20
56.1308222438
 10
24.5102931399
 20
55.2245960958
 10
23.6929701738
 20
55.0746474408
 10
22.9072856488
 20
54.8040901322
 10
22.1709301607
 20
54.4190160805
 10
21.5004836049
 20
53.9280956735
 10
20.9110418611
 20
53.3423825519
 10
20.4158768919
 20
52.6750647241
 10
20.0261379092
 20
51.9411676226
 10
16.3610861409
 20
43.6666760719
 10
16.3610861409
 20
56.1308222438
 10
16.368031973
 20
56.2633622563
 10
16.3887933695
 20
56.3944472686
 10
16.4231428641
 20
56.5226372807
 10
16.4707041165
 20
56.6465372923
 10
16.5309560358
 20
56.7647973034
 10
16.6032384892
 20
56.8760973139
 10
16.6867595352
 20
56.9792373236
 10
16.7806040996
 20
57.0730773324
 10
16.8837440018
 20
57.1565973403
 10
16.9950492193
 20
57.2288823471
 10
17.113300269
 20
57.2891373527
 10
17.2372015677
 20
57.3367023572
 10
17.3653956267
 20
57.3710523604
 10
17.4964779251
 20
57.3918123624
  0
HATCH
  5
287
100
AcDbEntity
  8
0
100
AcDbHatch
 62
2
  6
CONTINUOUS
 10
0.0
 20
0.0
 30
0.0
210
0.0
220
0.0
230
1.0
  2
SOLID
 70
1
 71
1
 91
1
 92
1
 93
41
 72
1
 10
17.4964779251
 20
57.3918123624
 11
17.6290122978
 21
57.398757363
 72
1
 10
17.6290122978
 20
57.398757363
 11
44.0849627663
 21
57.398757363
 72
1
 10
44.0849627663
 20
57.398757363
 11
44.217497139
 21
57.3918123624
 72
1
 10
44.217497139
 20
57.3918123624
 11
44.3485794374
 21
57.3710523604
 72
1
 10
44.3485794374
 20
57.3710523604
 11
44.4767734964
 21
57.3367023572
 72
1
 10
44.4767734964
 20
57.3367023572
 11
44.600674795
 21
57.2891373527
 72
1
 10
44.600674795
 20
57.2891373527
 11
44.7189258447
 21
57.2288823471
 72
1
 10
44.7189258447
 20
57.2288823471
 11
44.8302310623
 21
57.1565973403
 72
1
 10
44.8302310623
 20
57.1565973403
 11
44.9333709645
 21
57.0730773324
 72
1
 10
44.9333709645
 20
57.0730773324
 11
45.0272155289
 21
56.9792373236
 72
1
 10
45.0272155289
 20
56.9792373236
 11
45.1107365748
 21
56.8760973139
 72
1
 10
45.1107365748
 20
56.8760973139
 11
45.1830190283
 21
56.7647973034
 72
1
 10
45.1830190283
 20
56.7647973034
 11
45.2432709475
 21
56.6465372923
 72
1
 10
45.2432709475
 20
56.6465372923
 11
45.2908322
 21
56.5226372807
 72
1
 10
45.2908322
 20
56.5226372807
 11
45.3251816945
 21
56.3944472686
 72
1
 10
45.3251816945
 20
56.3944472686
 11
45.345943091
 21
56.2633622563
 72
1
 10
45.345943091
 20
56.2633622563
 11
45.3528889232
 21
56.1308222438
 72
1
 10
45.3528889232
 20
56.1308222438
 11
24.5102931399
 21
55.2245960958
 72
1
 10
24.5102931399
 20
55.2245960958
 11
23.6929701738
 21
55.0746474408
 72
1
 10
23.6929701738
 20
55.0746474408
 11
22.9072856488
 21
54.8040901322
 72
1
 10
22.9072856488
 20
54.8040901322
 11
22.1709301607
 21
54.4190160805
 72
1
 10
22.1709301607
 20
54.4190160805
 11
21.5004836049
 21
53.9280956735
 72
1
 10
21.5004836049
 20
53.9280956735
 11
20.9110418611
 21
53.3423825519
 72
1
 10
20.9110418611
 20
53.3423825519
 11
20.4158768919
 21
52.6750647241
 72
1
 10
20.4158768919
 20
52.6750647241
 11
20.0261379092
 21
51.9411676226
 72
1
 10
20.0261379092
 20
51.9411676226
 11
16.3610861409
 21
43.6666760719
 72
1
 10
16.3610861409
 20
43.6666760719
 11
16.3610861409
 21
56.1308222438
 72
1
 10
16.3610861409
 20
56.1308222438
 11
16.368031973
 21
56.2633622563
 72
1
 10
16.368031973
 20
56.2633622563
 11
16.3887933695
 21
56.3944472686
 72
1
 10
16.3887933695
 20
56.3944472686
 11
16.4231428641
 21
56.5226372807
 72
1
 10
16.4231428641
 20
56.5226372807
 11
16.4707041165
 21
56.6465372923
 72
1
 10
16.4707041165
 20
56.6465372923
 11
16.5309560358
 21
56.7647973034
 72
1
 10
16.5309560358
 20
56.7647973034
 11
16.6032384892
 21
56.8760973139
 72
1
 10
16.6032384892
 20
56.8760973139
 11
16.6867595352
 21
56.9792373236
 72
1
 10
16.6867595352
 20
56.9792373236
 11
16.7806040996
 21
57.0730773324
 72
1
 10
16.7806040996
 20
57.0730773324
 11
16.8837440018
 21
57.1565973403
 72
1
 10
16.8837440018
 20
57.1565973403
 11
16.9950492193
 21
57.2288823471
 72
1
 10
16.9950492193
 20
57.2288823471
 11
17.113300269
 21
57.2891373527
 72
1
 10
17.113300269
 20
57.2891373527
 11
17.2372015677
 21
57.3367023572
 72
1
 10
17.2372015677
 20
57.3367023572
 11
17.3653956267
 21
57.3710523604
 72
1
 10
17.3653956267
 20
57.3710523604
 11
17.4964779251
 21
57.3918123624
 97
1
330
286
 75
0
 76
1
 98
1
 10
0.0
 20
0.0
  0
LWPOLYLINE
  5
288
100
AcDbEntity
  8
0
100
AcDbPolyline
 62
2
  6
CONTINUOUS
 90
23
 70
0
 10
26.9669939813
 20
54.9309989471
 10
26.1659444963
 20
55.151954039
 10
45.3528889232
 20
56.1308222438
 10
45.3528889231
 20
43.6666760719
 10
40.1398958888
 20
46.0891912997
 10
40.3656203039
 20
46.5469163427
 10
40.5296686661
 20
47.0301863881
 10
40.6292340626
 20
47.5307364352
 10
40.6626129019
 20
48.0400014831
 10
40.6626129019
 20
54.9622171339
 10
37.9356791535
 20
54.9622171339
 10
35.5863208471
 20
54.9622171339
 10
32.8593870987
 20
54.9622171339
 10
32.8593870987
 20
50.8193667444
 10
31.0149297429
 20
50.8193667444
 10
30.6289655903
 20
49.9949006497
 10
30.5252822719
 20
50.8193667444
 10
27.3941788183
 20
51.3394990511
 10
29.5865173301
 20
52.961744213
 10
29.0506384437
 20
53.5968310176
 10
28.425763901
 20
54.1445839144
 10
27.7259634749
 20
54.5926696135
 10
26.9669939813
 20
54.9309989471
  0
HATCH
  5
289
100
AcDbEntity
  8
0
100
AcDbHatch
 62
2
  6
CONTINUOUS
 10
0.0
 20
0.0
 30
0.0
210
0.0
220
0.0
230
1.0
  2
SOLID
 70
1
 71
1
 91
1
 92
1
 93
22
 72
1
 10
26.9669939813
 20
54.9309989471
 11
26.1659444963
 21
55.151954039
 72
1
 10
26.1659444963
 20
55.151954039
 11
45.3528889232
 21
56.1308222438
 72
1
 10
45.3528889232
 20
56.1308222438
 11
45.3528889231
 21
43.6666760719
 72
1
 10
45.3528889231
 20
43.6666760719
 11
40.1398958888
 21
46.0891912997
 72
1
 10
40.1398958888
 20
46.0891912997
 11
40.3656203039
 21
46.5469163427
 72
1
 10
40.3656203039
 20
46.5469163427
 11
40.5296686661
 21
47.0301863881
 72
1
 10
40.5296686661
 20
47.0301863881
 11
40.6292340626
 21
47.5307364352
 72
1
 10
40.6292340626
 20
47.5307364352
 11
40.6626129019
 21
48.0400014831
 72
1
 10
40.6626129019
 20
48.0400014831
 11
40.6626129019
 21
54.9622171339
 72
1
 10
40.6626129019
 20
54.9622171339
 11
37.9356791535
 21
54.9622171339
 72
1
 10
37.9356791535
 20
54.9622171339
 11
35.5863208471
 21
54.9622171339
 72
1
 10
35.5863208471
 20
54.9622171339
 11
32.8593870987
 21
54.9622171339
 72
1
 10
32.8593870987
 20
54.9622171339
 11
32.8593870987
 21
50.8193667444
 72
1
 10
32.8593870987
 20
50.8193667444
 11
31.0149297429
 21
50.8193667444
 72
1
 10
31.0149297429
 20
50.8193667444
 11
30.6289655903
 21
49.9949006497
 72
1
 10
30.6289655903
 20
49.9949006497
 11
30.5252822719
 21
50.8193667444
 72
1
 10
30.5252822719
 20
50.8193667444
 11
27.3941788183
 21
51.3394990511
 72
1
 10
27.3941788183
 20
51.3394990511
 11
29.5865173301
 21
52.961744213
 72
1
 10
29.5865173301
 20
52.961744213
 11
29.0506384437
 21
53.5968310176
 72
1
 10
29.0506384437
 20
53.5968310176
 11
28.425763901
 21
54.1445839144
 72
1
 10
28.425763901
 20
54.1445839144
 11
27.7259634749
 21
54.5926696135
 72
1
 10
27.7259634749
 20
54.5926696135
 11
26.9669939813
 21
54.9309989471
 97
1
330
288
 75
0
 76
1
 98
1
 10
0.0
 20
0.0
  0
LWPOLYLINE
  5
28A
100
AcDbEntity
  8
0
100
AcDbPolyline
 62
2
  6
CONTINUOUS
 90
20
 70
0
 10
24.5005684601
 20
52.4646993247
 10
24.9072650814
 20
52.5224620264
 10
25.3180376874
 20
52.5203318459
 10
25.7241133608
 20
52.4583542776
 10
26.1168194973
 20
52.3378529835
 10
26.4877690273
 20
52.1614015236
 10
26.8290395394
 20
51.9327683916
 10
27.1333424806
 20
51.6568365314
 10
27.3941788183
 20
51.3394990511
 10
30.5252822719
 20
50.8193667444
 10
25.2029961896
 20
50.8193667444
 10
25.0592526925
 20
50.8099494571
 10
22.4413895628
 20
50.6360595011
 10
22.6035508656
 20
51.0134749
 10
22.8189888395
 20
51.3632250264
 10
23.0831023513
 20
51.6778402269
 10
23.3902506985
 20
51.9506012291
 10
23.7338740791
 20
52.175682645
 10
24.1066336894
 20
52.3482773854
 10
24.5005684601
 20
52.4646993247
  0
HATCH
  5
28B
100
AcDbEntity
  8
0
100
AcDbHatch
 62
2
  6
CONTINUOUS
 10
0.0
 20
0.0
 30
0.0
210
0.0
220
0.0
230
1.0
  2
SOLID
 70
1
 71
1
 91
1
 92
1
 93
19
 72
1
 10
24.5005684601
 20
52.4646993247
 11
24.9072650814
 21
52.5224620264
 72
1
 10
24.9072650814
 20
52.5224620264
 11
25.3180376874
 21
52.5203318459
 72
1
 10
25.3180376874
 20
52.5203318459
 11
25.7241133608
 21
52.4583542776
 72
1
 10
25.7241133608
 20
52.4583542776
 11
26.1168194973
 21
52.3378529835
 72
1
 10
26.1168194973
 20
52.3378529835
 11
26.4877690273
 21
52.1614015236
 72
1
 10
26.4877690273
 20
52.1614015236
 11
26.8290395394
 21
51.9327683916
 72
1
 10
26.8290395394
 20
51.9327683916
 11
27.1333424806
 21
51.6568365314
 72
1
 10
27.1333424806
 20
51.6568365314
 11
27.3941788183
 21
51.3394990511
 72
1
 10
27.3941788183
 20
51.3394990511
 11
30.5252822719
 21
50.8193667444
 72
1
 10
30.5252822719
 20
50.8193667444
 11
25.2029961896
 21
50.8193667444
 72
1
 10
25.2029961896
 20
50.8193667444
 11
25.0592526925
 21
50.8099494571
 72
1
 10
25.0592526925
 20
50.8099494571
 11
22.4413895628
 21
50.6360595011
 72
1
 10
22.4413895628
 20
50.6360595011
 11
22.6035508656
 21
51.0134749
 72
1
 10
22.6035508656
 20
51.0134749
 11
22.8189888395
 21
51.3632250264
 72
1
 10
22.8189888395
 20
51.3632250264
 11
23.0831023513
 21
51.6778402269
 72
1
 10
23.0831023513
 20
51.6778402269
 11
23.3902506985
 21
51.9506012291
 72
1
 10
23.3902506985
 20
51.9506012291
 11
23.7338740791
 21
52.175682645
 72
1
 10
23.7338740791
 20
52.175682645
 11
24.1066336894
 21
52.3482773854
 72
1
 10
24.1066336894
 20
52.3482773854
 11
24.5005684601
 21
52.4646993247
 97
1
330
28A
 75
0
 76
1
 98
1
 10
0.0
 20
0.0
  0
LWPOLYLINE
  5
28C
100
AcDbEntity
  8
0
100
AcDbPolyline
 62
2
  6
CONTINUOUS
 90
8
 70
0
 10
24.6523653366
 20
50.6718298112
 10
24.5325905397
 20
50.5917988506
 10
22.3359682285
 20
50.2390393331
 10
22.4413895628
 20
50.6360595011
 10
25.0592526925
 20
50.8099494571
 10
24.9179686864
 20
50.7818463209
 10
24.78156158
 20
50.7355423477
 10
24.6523653366
 20
50.6718298112
  0
HATCH
  5
28D
100
AcDbEntity
  8
0
100
AcDbHatch
 62
2
  6
CONTINUOUS
 10
0.0
 20
0.0
 30
0.0
210
0.0
220
0.0
230
1.0
  2
SOLID
 70
1
 71
1
 91
1
 92
1
 93
7
 72
1
 10
24.6523653366
 20
50.6718298112
 11
24.5325905397
 21
50.5917988506
 72
1
 10
24.5325905397
 20
50.5917988506
 11
22.3359682285
 21
50.2390393331
 72
1
 10
22.3359682285
 20
50.2390393331
 11
22.4413895628
 21
50.6360595011
 72
1
 10
22.4413895628
 20
50.6360595011
 11
25.0592526925
 21
50.8099494571
 72
1
 10
25.0592526925
 20
50.8099494571
 11
24.9179686864
 21
50.7818463209
 72
1
 10
24.9179686864
 20
50.7818463209
 11
24.78156158
 21
50.7355423477
 72
1
 10
24.78156158
 20
50.7355423477
 11
24.6523653366
 21
50.6718298112
 97
1
330
28C
 75
0
 76
1
 98
1
 10
0.0
 20
0.0
  0
LWPOLYLINE
  5
28E
100
AcDbEntity
  8
0
100
AcDbPolyline
 62
2
  6
CONTINUOUS
 90
8
 70
0
 10
24.2492755759
 20
50.2687400506
 10
24.1855630394
 20
50.1395438071
 10
22.2895383581
 20
49.830893601
 10
22.3359682285
 20
50.2390393331
 10
24.5325905397
 20
50.5917988506
 10
24.4242865694
 20
50.4968188178
 10
24.3293065366
 20
50.3885148474
 10
24.2492755759
 20
50.2687400506
  0
HATCH
  5
28F
100
AcDbEntity
  8
0
100
AcDbHatch
 62
2
  6
CONTINUOUS
 10
0.0
 20
0.0
 30
0.0
210
0.0
220
0.0
230
1.0
  2
SOLID
 70
1
 71
1
 91
1
 92
1
 93
7
 72
1
 10
24.2492755759
 20
50.2687400506
 11
24.1855630394
 21
50.1395438071
 72
1
 10
24.1855630394
 20
50.1395438071
 11
22.2895383581
 21
49.830893601
 72
1
 10
22.2895383581
 20
49.830893601
 11
22.3359682285
 21
50.2390393331
 72
1
 10
22.3359682285
 20
50.2390393331
 11
24.5325905397
 21
50.5917988506
 72
1
 10
24.5325905397
 20
50.5917988506
 11
24.4242865694
 21
50.4968188178
 72
1
 10
24.4242865694
 20
50.4968188178
 11
24.3293065366
 21
50.3885148474
 72
1
 10
24.3293065366
 20
50.3885148474
 11
24.2492755759
 21
50.2687400506
 97
1
330
28E
 75
0
 76
1
 98
1
 10
0.0
 20
0.0
  0
LWPOLYLINE
  5
290
100
AcDbEntity
  8
0
100
AcDbPolyline
 62
2
  6
CONTINUOUS
 90
7
 70
0
 10
31.0993048012
 20
50.1923388153
 10
31.1162282192
 20
49.8763366836
 10
30.6081153911
 20
49.1641981161
 10
30.6289655903
 20
49.9949006497
 10
31.0149297429
 20
50.8193667444
 10
31.0655063992
 20
50.5069837221
 10
31.0993048012
 20
50.1923388153
  0
HATCH
  5
291
100
AcDbEntity
  8
0
100
AcDbHatch
 62
2
  6
CONTINUOUS
 10
0.0
 20
0.0
 30
0.0
210
0.0
220
0.0
230
1.0
  2
SOLID
 70
1
 71
1
 91
1
 92
1
 93
6
 72
1
 10
31.0993048012
 20
50.1923388153
 11
31.1162282192
 21
49.8763366836
 72
1
 10
31.1162282192
 20
49.8763366836
 11
30.6081153911
 21
49.1641981161
 72
1
 10
30.6081153911
 20
49.1641981161
 11
30.6289655903
 21
49.9949006497
 72
1
 10
30.6289655903
 20
49.9949006497
 11
31.0149297429
 21
50.8193667444
 72
1
 10
31.0149297429
 20
50.8193667444
 11
31.0655063992
 21
50.5069837221
 72
1
 10
31.0655063992
 20
50.5069837221
 11
31.0993048012
 21
50.1923388153
 97
1
330
290
 75
0
 76
1
 98
1
 10
0.0
 20
0.0
  0
LWPOLYLINE
  5
292
100
AcDbEntity
  8
0
100
AcDbPolyline
 62
2
  6
CONTINUOUS
 90
7
 70
0
 10
24.1111559301
 20
49.8618526947
 10
24.1017344835
 20
49.7181091975
 10
22.3030915597
 20
49.4203391196
 10
22.2895383581
 20
49.830893601
 10
24.1855630394
 20
50.1395438071
 10
24.1392590662
 20
50.0031367007
 10
24.1111559301
 20
49.8618526947
  0
HATCH
  5
293
100
AcDbEntity
  8
0
100
AcDbHatch
 62
2
  6
CONTINUOUS
 10
0.0
 20
0.0
 30
0.0
210
0.0
220
0.0
230
1.0
  2
SOLID
 70
1
 71
1
 91
1
 92
1
 93
6
 72
1
 10
24.1111559301
 20
49.8618526947
 11
24.1017344835
 21
49.7181091975
 72
1
 10
24.1017344835
 20
49.7181091975
 11
22.3030915597
 21
49.4203391196
 72
1
 10
22.3030915597
 20
49.4203391196
 11
22.2895383581
 21
49.830893601
 72
1
 10
22.2895383581
 20
49.830893601
 11
24.1855630394
 21
50.1395438071
 72
1
 10
24.1855630394
 20
50.1395438071
 11
24.1392590662
 21
50.0031367007
 72
1
 10
24.1392590662
 20
50.0031367007
 11
24.1111559301
 21
49.8618526947
 97
1
330
292
 75
0
 76
1
 98
1
 10
0.0
 20
0.0
  0
LWPOLYLINE
  5
294
100
AcDbEntity
  8
0
100
AcDbPolyline
 62
2
  6
CONTINUOUS
 90
7
 70
0
 10
24.1392590662
 20
49.4330816944
 10
24.1855630394
 20
49.2966745879
 10
22.3763383759
 20
49.0161441476
 10
22.3030915597
 20
49.4203391196
 10
24.1017344835
 20
49.7181091975
 10
24.1111559301
 20
49.5743657004
 10
24.1392590662
 20
49.4330816944
  0
HATCH
  5
295
100
AcDbEntity
  8
0
100
AcDbHatch
 62
2
  6
CONTINUOUS
 10
0.0
 20
0.0
 30
0.0
210
0.0
220
0.0
230
1.0
  2
SOLID
 70
1
 71
1
 91
1
 92
1
 93
6
 72
1
 10
24.1392590662
 20
49.4330816944
 11
24.1855630394
 21
49.2966745879
 72
1
 10
24.1855630394
 20
49.2966745879
 11
22.3763383759
 21
49.0161441476
 72
1
 10
22.3763383759
 20
49.0161441476
 11
22.3030915597
 21
49.4203391196
 72
1
 10
22.3030915597
 20
49.4203391196
 11
24.1017344835
 21
49.7181091975
 72
1
 10
24.1017344835
 20
49.7181091975
 11
24.1111559301
 21
49.5743657004
 72
1
 10
24.1111559301
 20
49.5743657004
 11
24.1392590662
 21
49.4330816944
 97
1
330
294
 75
0
 76
1
 98
1
 10
0.0
 20
0.0
  0
LWPOLYLINE
  5
296
100
AcDbEntity
  8
0
100
AcDbPolyline
 62
2
  6
CONTINUOUS
 90
7
 70
0
 10
31.0993048012
 20
49.2438795798
 10
31.0655063992
 20
48.929234673
 10
30.4632011408
 20
48.3459675312
 10
30.6081153911
 20
49.1641981161
 10
31.1162282192
 20
49.8763366836
 10
31.1162282192
 20
49.5598817115
 10
31.0993048012
 20
49.2438795798
  0
HATCH
  5
297
100
AcDbEntity
  8
0
100
AcDbHatch
 62
2
  6
CONTINUOUS
 10
0.0
 20
0.0
 30
0.0
210
0.0
220
0.0
230
1.0
  2
SOLID
 70
1
 71
1
 91
1
 92
1
 93
6
 72
1
 10
31.0993048012
 20
49.2438795798
 11
31.0655063992
 21
48.929234673
 72
1
 10
31.0655063992
 20
48.929234673
 11
30.4632011408
 21
48.3459675312
 72
1
 10
30.4632011408
 20
48.3459675312
 11
30.6081153911
 21
49.1641981161
 72
1
 10
30.6081153911
 20
49.1641981161
 11
31.1162282192
 21
49.8763366836
 72
1
 10
31.1162282192
 20
49.8763366836
 11
31.1162282192
 21
49.5598817115
 72
1
 10
31.1162282192
 20
49.5598817115
 11
31.0993048012
 21
49.2438795798
 97
1
330
296
 75
0
 76
1
 98
1
 10
0.0
 20
0.0
  0
LWPOLYLINE
  5
298
100
AcDbEntity
  8
0
100
AcDbPolyline
 62
2
  6
CONTINUOUS
 90
7
 70
0
 10
24.3293065366
 20
49.0477035476
 10
24.4242865694
 20
48.9393995773
 10
22.5077144663
 20
48.6269411229
 10
22.3763383759
 20
49.0161441476
 10
24.1855630394
 20
49.2966745879
 10
24.2492755759
 20
49.1674783445
 10
24.3293065366
 20
49.0477035476
  0
HATCH
  5
299
100
AcDbEntity
  8
0
100
AcDbHatch
 62
2
  6
CONTINUOUS
 10
0.0
 20
0.0
 30
0.0
210
0.0
220
0.0
230
1.0
  2
SOLID
 70
1
 71
1
 91
1
 92
1
 93
6
 72
1
 10
24.3293065366
 20
49.0477035476
 11
24.4242865694
 21
48.9393995773
 72
1
 10
24.4242865694
 20
48.9393995773
 11
22.5077144663
 21
48.6269411229
 72
1
 10
22.5077144663
 20
48.6269411229
 11
22.3763383759
 21
49.0161441476
 72
1
 10
22.3763383759
 20
49.0161441476
 11
24.1855630394
 21
49.2966745879
 72
1
 10
24.1855630394
 20
49.2966745879
 11
24.2492755759
 21
49.1674783445
 72
1
 10
24.2492755759
 20
49.1674783445
 11
24.3293065366
 21
49.0477035476
 97
1
330
298
 75
0
 76
1
 98
1
 10
0.0
 20
0.0
  0
LWPOLYLINE
  5
29A
100
AcDbEntity
  8
0
100
AcDbPolyline
 62
2
  6
CONTINUOUS
 90
9
 70
0
 10
24.9179686864
 20
48.6543720741
 10
25.0592526925
 20
48.626268938
 10
22.6944140166
 20
48.2610422989
 10
22.5077144663
 20
48.6269411229
 10
24.4242865694
 20
48.9393995773
 10
24.5325905397
 20
48.8444195445
 10
24.6523653366
 20
48.7643885839
 10
24.78156158
 20
48.7006760474
 10
24.9179686864
 20
48.6543720741
  0
HATCH
  5
29B
100
AcDbEntity
  8
0
100
AcDbHatch
 62
2
  6
CONTINUOUS
 10
0.0
 20
0.0
 30
0.0
210
0.0
220
0.0
230
1.0
  2
SOLID
 70
1
 71
1
 91
1
 92
1
 93
8
 72
1
 10
24.9179686864
 20
48.6543720741
 11
25.0592526925
 21
48.626268938
 72
1
 10
25.0592526925
 20
48.626268938
 11
22.6944140166
 21
48.2610422989
 72
1
 10
22.6944140166
 20
48.2610422989
 11
22.5077144663
 21
48.6269411229
 72
1
 10
22.5077144663
 20
48.6269411229
 11
24.4242865694
 21
48.9393995773
 72
1
 10
24.4242865694
 20
48.9393995773
 11
24.5325905397
 21
48.8444195445
 72
1
 10
24.5325905397
 20
48.8444195445
 11
24.6523653366
 21
48.7643885839
 72
1
 10
24.6523653366
 20
48.7643885839
 11
24.78156158
 21
48.7006760474
 72
1
 10
24.78156158
 20
48.7006760474
 11
24.9179686864
 21
48.6543720741
 97
1
330
29A
 75
0
 76
1
 98
1
 10
0.0
 20
0.0
  0
LWPOLYLINE
  5
29C
100
AcDbEntity
  8
0
100
AcDbPolyline
 62
2
  6
CONTINUOUS
 90
9
 70
0
 10
32.8593870987
 20
48.6168415373
 10
32.8593870987
 20
48.0400014831
 10
32.8927659379
 20
47.5307364352
 10
29.8169521117
 20
46.8199201942
 10
30.1974857512
 20
47.5586323028
 10
30.4632011408
 20
48.3459675312
 10
31.0655063992
 20
48.929234673
 10
31.0149297429
 20
48.6168415373
 10
32.8593870987
 20
48.6168415373
  0
HATCH
  5
29D
100
AcDbEntity
  8
0
100
AcDbHatch
 62
2
  6
CONTINUOUS
 10
0.0
 20
0.0
 30
0.0
210
0.0
220
0.0
230
1.0
  2
SOLID
 70
1
 71
1
 91
1
 92
1
 93
8
 72
1
 10
32.8593870987
 20
48.6168415373
 11
32.8593870987
 21
48.0400014831
 72
1
 10
32.8593870987
 20
48.0400014831
 11
32.8927659379
 21
47.5307364352
 72
1
 10
32.8927659379
 20
47.5307364352
 11
29.8169521117
 21
46.8199201942
 72
1
 10
29.8169521117
 20
46.8199201942
 11
30.1974857512
 21
47.5586323028
 72
1
 10
30.1974857512
 20
47.5586323028
 11
30.4632011408
 21
48.3459675312
 72
1
 10
30.4632011408
 20
48.3459675312
 11
31.0655063992
 21
48.929234673
 72
1
 10
31.0655063992
 20
48.929234673
 11
31.0149297429
 21
48.6168415373
 72
1
 10
31.0149297429
 20
48.6168415373
 11
32.8593870987
 21
48.6168415373
 97
1
330
29C
 75
0
 76
1
 98
1
 10
0.0
 20
0.0
  0
LWPOLYLINE
  5
29E
100
AcDbEntity
  8
0
100
AcDbPolyline
 62
2
  6
CONTINUOUS
 90
19
 70
0
 10
27.6842387906
 20
48.6168415373
 10
27.4961137435
 20
48.2516795326
 10
27.2567743458
 20
47.9178302789
 10
26.9713321963
 20
47.6224297867
 10
26.6458835153
 20
47.3717869581
 10
26.2873789475
 20
47.1712548002
 10
25.9034751155
 20
47.0251161014
 10
25.5023710973
 20
46.9364919623
 10
25.0926333168
 20
46.9072751387
 10
24.6830125906
 20
46.9380896178
 10
24.2822572349
 20
47.0282772912
 10
23.8989262276
 20
47.1759120104
 10
23.5412064125
 20
47.377840724
 10
23.2167376524
 20
47.6297508175
 10
22.9324496635
 20
47.9262622184
 10
22.6944140166
 20
48.2610422989
 10
25.0592526925
 20
48.626268938
 10
25.2029961896
 20
48.6168415373
 10
27.6842387906
 20
48.6168415373
  0
HATCH
  5
29F
100
AcDbEntity
  8
0
100
AcDbHatch
 62
2
  6
CONTINUOUS
 10
0.0
 20
0.0
 30
0.0
210
0.0
220
0.0
230
1.0
  2
SOLID
 70
1
 71
1
 91
1
 92
1
 93
18
 72
1
 10
27.6842387906
 20
48.6168415373
 11
27.4961137435
 21
48.2516795326
 72
1
 10
27.4961137435
 20
48.2516795326
 11
27.2567743458
 21
47.9178302789
 72
1
 10
27.2567743458
 20
47.9178302789
 11
26.9713321963
 21
47.6224297867
 72
1
 10
26.9713321963
 20
47.6224297867
 11
26.6458835153
 21
47.3717869581
 72
1
 10
26.6458835153
 20
47.3717869581
 11
26.2873789475
 21
47.1712548002
 72
1
 10
26.2873789475
 20
47.1712548002
 11
25.9034751155
 21
47.0251161014
 72
1
 10
25.9034751155
 20
47.0251161014
 11
25.5023710973
 21
46.9364919623
 72
1
 10
25.5023710973
 20
46.9364919623
 11
25.0926333168
 21
46.9072751387
 72
1
 10
25.0926333168
 20
46.9072751387
 11
24.6830125906
 21
46.9380896178
 72
1
 10
24.6830125906
 20
46.9380896178
 11
24.2822572349
 21
47.0282772912
 72
1
 10
24.2822572349
 20
47.0282772912
 11
23.8989262276
 21
47.1759120104
 72
1
 10
23.8989262276
 20
47.1759120104
 11
23.5412064125
 21
47.377840724
 72
1
 10
23.5412064125
 20
47.377840724
 11
23.2167376524
 21
47.6297508175
 72
1
 10
23.2167376524
 20
47.6297508175
 11
22.9324496635
 21
47.9262622184
 72
1
 10
22.9324496635
 20
47.9262622184
 11
22.6944140166
 21
48.2610422989
 72
1
 10
22.6944140166
 20
48.2610422989
 11
25.0592526925
 21
48.626268938
 72
1
 10
25.0592526925
 20
48.626268938
 11
25.2029961896
 21
48.6168415373
 72
1
 10
25.2029961896
 20
48.6168415373
 11
27.6842387906
 21
48.6168415373
 97
1
330
29E
 75
0
 76
1
 98
1
 10
0.0
 20
0.0
  0
LWPOLYLINE
  5
2A0
100
AcDbEntity
  8
0
100
AcDbPolyline
 62
2
  6
CONTINUOUS
 90
28
 70
0
 10
35.5863208471
 20
48.0400014831
 10
35.5863208471
 20
54.9622171339
 10
37.9356791535
 20
54.9622171339
 10
37.9356791535
 20
48.0400014831
 10
37.9256296104
 20
47.8866714687
 10
37.8956529319
 20
47.7359664545
 10
37.8462620271
 20
47.5904664408
 10
37.7783019882
 20
47.4526614279
 10
37.6929356302
 20
47.3248914159
 10
37.5916235952
 20
47.209376405
 10
37.4760993602
 20
47.1080663955
 10
37.3483395768
 20
47.0227013874
 10
37.2105302505
 20
46.9547363811
 10
37.065029337
 20
46.9053413764
 10
36.9143263972
 20
46.8753713736
 10
36.7610000003
 20
46.8653169684
 10
36.6076736033
 20
46.8753713736
 10
36.4569706635
 20
46.9053413764
 10
36.31146975
 20
46.9547363811
 10
36.1736604237
 20
47.0227013874
 10
36.0459006404
 20
47.1080663955
 10
35.9303764053
 20
47.209376405
 10
35.8290643703
 20
47.3248914159
 10
35.7436980123
 20
47.4526614279
 10
35.6757379734
 20
47.5904664408
 10
35.6263470686
 20
47.7359664545
 10
35.5963703901
 20
47.8866714687
 10
35.5863208471
 20
48.0400014831
  0
HATCH
  5
2A1
100
AcDbEntity
  8
0
100
AcDbHatch
 62
2
  6
CONTINUOUS
 10
0.0
 20
0.0
 30
0.0
210
0.0
220
0.0
230
1.0
  2
SOLID
 70
1
 71
1
 91
1
 92
1
 93
27
 72
1
 10
35.5863208471
 20
48.0400014831
 11
35.5863208471
 21
54.9622171339
 72
1
 10
35.5863208471
 20
54.9622171339
 11
37.9356791535
 21
54.9622171339
 72
1
 10
37.9356791535
 20
54.9622171339
 11
37.9356791535
 21
48.0400014831
 72
1
 10
37.9356791535
 20
48.0400014831
 11
37.9256296104
 21
47.8866714687
 72
1
 10
37.9256296104
 20
47.8866714687
 11
37.8956529319
 21
47.7359664545
 72
1
 10
37.8956529319
 20
47.7359664545
 11
37.8462620271
 21
47.5904664408
 72
1
 10
37.8462620271
 20
47.5904664408
 11
37.7783019882
 21
47.4526614279
 72
1
 10
37.7783019882
 20
47.4526614279
 11
37.6929356302
 21
47.3248914159
 72
1
 10
37.6929356302
 20
47.3248914159
 11
37.5916235952
 21
47.209376405
 72
1
 10
37.5916235952
 20
47.209376405
 11
37.4760993602
 21
47.1080663955
 72
1
 10
37.4760993602
 20
47.1080663955
 11
37.3483395768
 21
47.0227013874
 72
1
 10
37.3483395768
 20
47.0227013874
 11
37.2105302505
 21
46.9547363811
 72
1
 10
37.2105302505
 20
46.9547363811
 11
37.065029337
 21
46.9053413764
 72
1
 10
37.065029337
 20
46.9053413764
 11
36.9143263972
 21
46.8753713736
 72
1
 10
36.9143263972
 20
46.8753713736
 11
36.7610000003
 21
46.8653169684
 72
1
 10
36.7610000003
 20
46.8653169684
 11
36.6076736033
 21
46.8753713736
 72
1
 10
36.6076736033
 20
46.8753713736
 11
36.4569706635
 21
46.9053413764
 72
1
 10
36.4569706635
 20
46.9053413764
 11
36.31146975
 21
46.9547363811
 72
1
 10
36.31146975
 20
46.9547363811
 11
36.1736604237
 21
47.0227013874
 72
1
 10
36.1736604237
 20
47.0227013874
 11
36.0459006404
 21
47.1080663955
 72
1
 10
36.0459006404
 20
47.1080663955
 11
35.9303764053
 21
47.209376405
 72
1
 10
35.9303764053
 20
47.209376405
 11
35.8290643703
 21
47.3248914159
 72
1
 10
35.8290643703
 20
47.3248914159
 11
35.7436980123
 21
47.4526614279
 72
1
 10
35.7436980123
 20
47.4526614279
 11
35.6757379734
 21
47.5904664408
 72
1
 10
35.6757379734
 20
47.5904664408
 11
35.6263470686
 21
47.7359664545
 72
1
 10
35.6263470686
 20
47.7359664545
 11
35.5963703901
 21
47.8866714687
 72
1
 10
35.5963703901
 20
47.8866714687
 11
35.5863208471
 21
48.0400014831
 97
1
330
2A0
 75
0
 76
1
 98
1
 10
0.0
 20
0.0
  0
LWPOLYLINE
  5
2A2
100
AcDbEntity
  8
0
100
AcDbPolyline
 62
2
  6
CONTINUOUS
 90
8
 70
0
 10
32.9923313344
 20
47.0301863881
 10
33.1563796967
 20
46.5469163427
 10
33.3821041117
 20
46.0891912997
 10
28.7480950465
 20
45.5534278506
 10
29.3301683772
 20
46.146464163
 10
29.8169521117
 20
46.8199201942
 10
32.8927659379
 20
47.5307364352
 10
32.9923313344
 20
47.0301863881
  0
HATCH
  5
2A3
100
AcDbEntity
  8
0
100
AcDbHatch
 62
2
  6
CONTINUOUS
 10
0.0
 20
0.0
 30
0.0
210
0.0
220
0.0
230
1.0
  2
SOLID
 70
1
 71
1
 91
1
 92
1
 93
7
 72
1
 10
32.9923313344
 20
47.0301863881
 11
33.1563796967
 21
46.5469163427
 72
1
 10
33.1563796967
 20
46.5469163427
 11
33.3821041117
 21
46.0891912997
 72
1
 10
33.3821041117
 20
46.0891912997
 11
28.7480950465
 21
45.5534278506
 72
1
 10
28.7480950465
 20
45.5534278506
 11
29.3301683772
 21
46.146464163
 72
1
 10
29.3301683772
 20
46.146464163
 11
29.8169521117
 21
46.8199201942
 72
1
 10
29.8169521117
 20
46.8199201942
 11
32.8927659379
 21
47.5307364352
 72
1
 10
32.8927659379
 20
47.5307364352
 11
32.9923313344
 21
47.0301863881
 97
1
330
2A2
 75
0
 76
1
 98
1
 10
0.0
 20
0.0
  0
LWPOLYLINE
  5
2A4
100
AcDbEntity
  8
0
100
AcDbPolyline
 62
2
  6
CONTINUOUS
 90
8
 70
0
 10
33.6656423722
 20
45.6648412598
 10
34.00214306
 20
45.2811412237
 10
34.3858485548
 20
44.9446311921
 10
27.3523542712
 20
44.659914577
 10
28.0838381739
 20
45.0541641554
 10
28.7480950465
 20
45.5534278506
 10
33.3821041117
 20
46.0891912997
 10
33.6656423722
 20
45.6648412598
  0
HATCH
  5
2A5
100
AcDbEntity
  8
0
100
AcDbHatch
 62
2
  6
CONTINUOUS
 10
0.0
 20
0.0
 30
0.0
210
0.0
220
0.0
230
1.0
  2
SOLID
 70
1
 71
1
 91
1
 92
1
 93
7
 72
1
 10
33.6656423722
 20
45.6648412598
 11
34.00214306
 21
45.2811412237
 72
1
 10
34.00214306
 20
45.2811412237
 11
34.3858485548
 21
44.9446311921
 72
1
 10
34.3858485548
 20
44.9446311921
 11
27.3523542712
 21
44.659914577
 72
1
 10
27.3523542712
 20
44.659914577
 11
28.0838381739
 21
45.0541641554
 72
1
 10
28.0838381739
 20
45.0541641554
 11
28.7480950465
 21
45.5534278506
 72
1
 10
28.7480950465
 20
45.5534278506
 11
33.3821041117
 21
46.0891912997
 72
1
 10
33.3821041117
 20
46.0891912997
 11
33.6656423722
 21
45.6648412598
 97
1
330
2A4
 75
0
 76
1
 98
1
 10
0.0
 20
0.0
  0
LWPOLYLINE
  5
2A6
100
AcDbEntity
  8
0
100
AcDbPolyline
 62
2
  6
CONTINUOUS
 90
24
 70
0
 10
34.8101935494
 20
44.6611011654
 10
35.2679173833
 20
44.4353811442
 10
35.7511882747
 20
44.2713261287
 10
36.2517373247
 20
44.1717561194
 10
16.3610861409
 20
43.6666760719
 10
20.0261379092
 20
51.9411676226
 10
19.750600337
 20
51.1572157897
 10
19.5954682224
 20
50.3408608074
 10
19.5642345443
 20
49.5104838523
 10
19.6576025652
 20
48.684781822
 10
19.8734699961
 20
47.8823463527
 10
20.2069763321
 20
47.121245207
 10
20.6506122924
 20
46.4186154575
 10
21.1943889001
 20
45.7902776256
 10
21.8260623961
 20
45.2503794643
 10
22.5314099211
 20
44.8110774052
 10
23.2945497596
 20
44.4822628421
 10
24.0982989358
 20
44.2713261287
 10
24.9245601072
 20
44.1830563096
 10
25.754729048
 20
44.2194013213
 10
26.5701135443
 20
44.3795561005
 10
27.3523542712
 20
44.659914577
 10
34.3858485548
 20
44.9446311921
 10
34.8101935494
 20
44.6611011654
  0
HATCH
  5
2A7
100
AcDbEntity
  8
0
100
AcDbHatch
 62
2
  6
CONTINUOUS
 10
0.0
 20
0.0
 30
0.0
210
0.0
220
0.0
230
1.0
  2
SOLID
 70
1
 71
1
 91
1
 92
1
 93
23
 72
1
 10
34.8101935494
 20
44.6611011654
 11
35.2679173833
 21
44.4353811442
 72
1
 10
35.2679173833
 20
44.4353811442
 11
35.7511882747
 21
44.2713261287
 72
1
 10
35.7511882747
 20
44.2713261287
 11
36.2517373247
 21
44.1717561194
 72
1
 10
36.2517373247
 20
44.1717561194
 11
16.3610861409
 21
43.6666760719
 72
1
 10
16.3610861409
 20
43.6666760719
 11
20.0261379092
 21
51.9411676226
 72
1
 10
20.0261379092
 20
51.9411676226
 11
19.750600337
 21
51.1572157897
 72
1
 10
19.750600337
 20
51.1572157897
 11
19.5954682224
 21
50.3408608074
 72
1
 10
19.5954682224
 20
50.3408608074
 11
19.5642345443
 21
49.5104838523
 72
1
 10
19.5642345443
 20
49.5104838523
 11
19.6576025652
 21
48.684781822
 72
1
 10
19.6576025652
 20
48.684781822
 11
19.8734699961
 21
47.8823463527
 72
1
 10
19.8734699961
 20
47.8823463527
 11
20.2069763321
 21
47.121245207
 72
1
 10
20.2069763321
 20
47.121245207
 11
20.6506122924
 21
46.4186154575
 72
1
 10
20.6506122924
 20
46.4186154575
 11
21.1943889001
 21
45.7902776256
 72
1
 10
21.1943889001
 20
45.7902776256
 11
21.8260623961
 21
45.2503794643
 72
1
 10
21.8260623961
 20
45.2503794643
 11
22.5314099211
 21
44.8110774052
 72
1
 10
22.5314099211
 20
44.8110774052
 11
23.2945497596
 21
44.4822628421
 72
1
 10
23.2945497596
 20
44.4822628421
 11
24.0982989358
 21
44.2713261287
 72
1
 10
24.0982989358
 20
44.2713261287
 11
24.9245601072
 21
44.1830563096
 72
1
 10
24.9245601072
 20
44.1830563096
 11
25.754729048
 21
44.2194013213
 72
1
 10
25.754729048
 20
44.2194013213
 11
26.5701135443
 21
44.3795561005
 72
1
 10
26.5701135443
 20
44.3795561005
 11
27.3523542712
 21
44.659914577
 72
1
 10
27.3523542712
 20
44.659914577
 11
34.3858485548
 21
44.9446311921
 72
1
 10
34.3858485548
 20
44.9446311921
 11
34.8101935494
 21
44.6611011654
 97
1
330
2A6
 75
0
 76
1
 98
1
 10
0.0
 20
0.0
  0
LWPOLYLINE
  5
2A8
100
AcDbEntity
  8
0
100
AcDbPolyline
 62
2
  6
CONTINUOUS
 90
43
 70
0
 10
36.7610000003
 20
44.13838322
 10
37.2702626758
 20
44.1717561194
 10
37.7708117258
 20
44.2713261287
 10
38.2540826172
 20
44.4353811442
 10
38.7118064511
 20
44.6611011654
 10
39.1361514457
 20
44.9446311921
 10
39.5198569406
 20
45.2811412237
 10
39.8563576283
 20
45.6648412598
 10
40.1398958888
 20
46.0891912997
 10
45.3528889231
 20
43.6666760719
 10
45.345943091
 20
43.5341510594
 10
45.3251816945
 20
43.4030660471
 10
45.2908322
 20
43.2748610351
 10
45.2432709475
 20
43.1509610234
 10
45.1830190283
 20
43.0327160123
 10
45.1107365748
 20
42.9214160018
 10
45.0272155289
 20
42.8182759921
 10
44.9333709645
 20
42.7244209833
 10
44.8302310623
 20
42.6409009754
 10
44.7189258447
 20
42.5686159687
 10
44.600674795
 20
42.508375963
 10
44.4767734964
 20
42.4608109585
 10
44.3485794374
 20
42.4264609553
 10
44.217497139
 20
42.4057009533
 10
44.0849627663
 20
42.3987559527
 10
17.6290122978
 20
42.3987559527
 10
17.4964779251
 20
42.4057009533
 10
17.3653956267
 20
42.4264609553
 10
17.2372015677
 20
42.4608109585
 10
17.113300269
 20
42.508375963
 10
16.9950492193
 20
42.5686159687
 10
16.8837440018
 20
42.6409009754
 10
16.7806040996
 20
42.7244209833
 10
16.6867595352
 20
42.8182759921
 10
16.6032384892
 20
42.9214160018
 10
16.5309560358
 20
43.0327160123
 10
16.4707041165
 20
43.1509610234
 10
16.4231428641
 20
43.2748610351
 10
16.3887933695
 20
43.4030660471
 10
16.368031973
 20
43.5341510594
 10
16.3610861409
 20
43.6666760719
 10
36.2517373247
 20
44.1717561194
 10
36.7610000003
 20
44.13838322
  0
HATCH
  5
2A9
100
AcDbEntity
  8
0
100
AcDbHatch
 62
2
  6
CONTINUOUS
 10
0.0
 20
0.0
 30
0.0
210
0.0
220
0.0
230
1.0
  2
SOLID
 70
1
 71
1
 91
1
 92
1
 93
42
 72
1
 10
36.7610000003
 20
44.13838322
 11
37.2702626758
 21
44.1717561194
 72
1
 10
37.2702626758
 20
44.1717561194
 11
37.7708117258
 21
44.2713261287
 72
1
 10
37.7708117258
 20
44.2713261287
 11
38.2540826172
 21
44.4353811442
 72
1
 10
38.2540826172
 20
44.4353811442
 11
38.7118064511
 21
44.6611011654
 72
1
 10
38.7118064511
 20
44.6611011654
 11
39.1361514457
 21
44.9446311921
 72
1
 10
39.1361514457
 20
44.9446311921
 11
39.5198569406
 21
45.2811412237
 72
1
 10
39.5198569406
 20
45.2811412237
 11
39.8563576283
 21
45.6648412598
 72
1
 10
39.8563576283
 20
45.6648412598
 11
40.1398958888
 21
46.0891912997
 72
1
 10
40.1398958888
 20
46.0891912997
 11
45.3528889231
 21
43.6666760719
 72
1
 10
45.3528889231
 20
43.6666760719
 11
45.345943091
 21
43.5341510594
 72
1
 10
45.345943091
 20
43.5341510594
 11
45.3251816945
 21
43.4030660471
 72
1
 10
45.3251816945
 20
43.4030660471
 11
45.2908322
 21
43.2748610351
 72
1
 10
45.2908322
 20
43.2748610351
 11
45.2432709475
 21
43.1509610234
 72
1
 10
45.2432709475
 20
43.1509610234
 11
45.1830190283
 21
43.0327160123
 72
1
 10
45.1830190283
 20
43.0327160123
 11
45.1107365748
 21
42.9214160018
 72
1
 10
45.1107365748
 20
42.9214160018
 11
45.0272155289
 21
42.8182759921
 72
1
 10
45.0272155289
 20
42.8182759921
 11
44.9333709645
 21
42.7244209833
 72
1
 10
44.9333709645
 20
42.7244209833
 11
44.8302310623
 21
42.6409009754
 72
1
 10
44.8302310623
 20
42.6409009754
 11
44.7189258447
 21
42.5686159687
 72
1
 10
44.7189258447
 20
42.5686159687
 11
44.600674795
 21
42.508375963
 72
1
 10
44.600674795
 20
42.508375963
 11
44.4767734964
 21
42.4608109585
 72
1
 10
44.4767734964
 20
42.4608109585
 11
44.3485794374
 21
42.4264609553
 72
1
 10
44.3485794374
 20
42.4264609553
 11
44.217497139
 21
42.4057009533
 72
1
 10
44.217497139
 20
42.4057009533
 11
44.0849627663
 21
42.3987559527
 72
1
 10
44.0849627663
 20
42.3987559527
 11
17.6290122978
 21
42.3987559527
 72
1
 10
17.6290122978
 20
42.3987559527
 11
17.4964779251
 21
42.4057009533
 72
1
 10
17.4964779251
 20
42.4057009533
 11
17.3653956267
 21
42.4264609553
 72
1
 10
17.3653956267
 20
42.4264609553
 11
17.2372015677
 21
42.4608109585
 72
1
 10
17.2372015677
 20
42.4608109585
 11
17.113300269
 21
42.508375963
 72
1
 10
17.113300269
 20
42.508375963
 11
16.9950492193
 21
42.5686159687
 72
1
 10
16.9950492193
 20
42.5686159687
 11
16.8837440018
 21
42.6409009754
 72
1
 10
16.8837440018
 20
42.6409009754
 11
16.7806040996
 21
42.7244209833
 72
1
 10
16.7806040996
 20
42.7244209833
 11
16.6867595352
 21
42.8182759921
 72
1
 10
16.6867595352
 20
42.8182759921
 11
16.6032384892
 21
42.9214160018
 72
1
 10
16.6032384892
 20
42.9214160018
 11
16.5309560358
 21
43.0327160123
 72
1
 10
16.5309560358
 20
43.0327160123
 11
16.4707041165
 21
43.1509610234
 72
1
 10
16.4707041165
 20
43.1509610234
 11
16.4231428641
 21
43.2748610351
 72
1
 10
16.4231428641
 20
43.2748610351
 11
16.3887933695
 21
43.4030660471
 72
1
 10
16.3887933695
 20
43.4030660471
 11
16.368031973
 21
43.5341510594
 72
1
 10
16.368031973
 20
43.5341510594
 11
16.3610861409
 21
43.6666760719
 72
1
 10
16.3610861409
 20
43.6666760719
 11
36.2517373247
 21
44.1717561194
 72
1
 10
36.2517373247
 20
44.1717561194
 11
36.7610000003
 21
44.13838322
 97
1
330
2A8
 75
0
 76
1
 98
1
 10
0.0
 20
0.0
  0
SOLID
  5
2AA
100
AcDbEntity
  8
0
100
AcDbTrace
 62
2
  6
CONTINUOUS
 10
25.3408515753
 20
55.2505598297
 11
24.5102931399
 21
55.2245960958
 12
26.1659444963
 22
55.151954039
 13
45.3528889232
 23
56.1308222438
  0
ENDBLK
  5
2AB
100
AcDbEntity
  8
0
  6
BYBLOCK
 62
0
100
AcDbBlockEnd
  0
BLOCK
  5
2AC
100
AcDbEntity
  8
HATCHING_BL0
100
AcDbBlockBegin
  2
HATCHING_BL0
 70
64
 10
27.9292878627
 20
1823.2811479875
  3
HATCHING_BL0
  1

  0
TEXT
  5
2AD
100
AcDbEntity
  8
HATCHING_BL0
100
AcDbText
 62
7
  6
CONTINUOUS
 10
9.9102776416
 20
1828.0953586077
  7
STANDARD
 40
5.0
  1
A
 72
5
 11
14.5571177903
 21
1828.0953586077
100
AcDbText
  0
LEADER
  5
2AE
100
AcDbEntity
  8
HATCHING_BL0
100
AcDbLeader
 62
7
  6
CONTINUOUS
  3
STANDARD
 71
1
 72
0
 73
3
 75
0
 76
2
 10
15.5236605412
 20
1810.9669373674
 30
0.0
 10
15.5236605412
 20
1835.5953586077
 30
0.0
1001
ACAD
1000
DSTYLE
1002
{
1070
77
1070
0
1002
}
  0
TEXT
  5
2AF
100
AcDbEntity
  8
HATCHING_BL0
100
AcDbText
 62
7
  6
CONTINUOUS
 10
41.301457935
 20
1828.0953586077
  7
STANDARD
 40
5.0
  1
A
 72
5
 11
45.9482980837
 21
1828.0953586077
100
AcDbText
  0
LEADER
  5
2B0
100
AcDbEntity
  8
HATCHING_BL0
100
AcDbLeader
 62
7
  6
CONTINUOUS
  3
STANDARD
 71
1
 72
0
 73
3
 75
0
 76
2
 10
40.3349151841
 20
1810.9669373674
 30
0.0
 10
40.3349151841
 20
1835.5953586077
 30
0.0
1001
ACAD
1000
DSTYLE
1002
{
1070
77
1070
0
1002
}
  0
LINE
  5
2B1
100
AcDbEntity
  8
HATCHING_BL0
100
AcDbLine
 62
7
  6
CENTER
 10
15.5236605412
 20
1810.9669373674
 11
40.3349151841
 21
1810.9669373674
  0
ENDBLK
  5
2B2
100
AcDbEntity
  8
0
  6
BYBLOCK
 62
0
100
AcDbBlockEnd
  0
BLOCK
  5
2B3
100
AcDbEntity
  8
94820009R00_BL1
100
AcDbBlockBegin
  2
94820009R00_BL1
 70
64
 10
79.9828877732
 20
992.7522187276
  3
94820009R00_BL1
  1

  0
HATCH
  5
2B4
100
AcDbEntity
  8
94820009R00_BL1
100
AcDbHatch
 62
2
  6
CONTINUOUS
 10
0.0
 20
0.0
 30
0.0
210
0.0
220
0.0
230
1.0
  2
default__1
 70
0
 71
0
 91
1
 92
1
 93
12
 72
2
 10
26.4895947321
 20
106.5375000877
 40
3.0
 50
90.0
 51
180.0
 73
1
 72
1
 10
26.4895947321
 20
109.5375000877
 11
29.4895947321
 21
109.5375000877
 72
1
 10
29.4895947321
 20
109.5375000877
 11
29.4895947321
 21
107.5375000877
 72
1
 10
25.9895947321
 20
107.5375000877
 11
29.4895947321
 21
107.5375000877
 72
2
 10
25.9895947321
 20
107.0375000877
 40
0.5
 50
90.0
 51
180.0
 73
1
 72
1
 10
25.4895947321
 20
107.0375000877
 11
25.4895947321
 21
88.0375000877
 72
2
 10
25.9895947321
 20
88.0375000877
 40
0.5
 50
180.0
 51
270.0
 73
1
 72
1
 10
25.9895947321
 20
87.5375000877
 11
29.4895947321
 21
87.5375000877
 72
1
 10
29.4895947321
 20
87.5375000877
 11
29.4895947321
 21
85.5375000877
 72
1
 10
29.4895947321
 20
85.5375000877
 11
26.4895947321
 21
85.5375000877
 72
2
 10
26.4895947321
 20
88.5375000877
 40
3.0
 50
180.0
 51
270.0
 73
1
 72
1
 10
23.4895947321
 20
88.5375000877
 11
23.4895947321
 21
106.5375000877
 97
0
 75
0
 76
0
 52
45.0
 41
45.8666666667
 77
0
 78
1
 53
45.0
 43
0.0
 44
0.0
 45
-32.4326310304
 46
32.4326310304
 79
0
 98
1
 10
0.0
 20
0.0
  0
LINE
  5
2B5
100
AcDbEntity
  8
94820009R00_BL1
100
AcDbLine
 62
7
  6
CONTINUOUS
 10
113.4761808143
 20
1135.4669373674
 11
113.4761808143
 21
1899.9669373674
  0
LINE
  5
2B6
100
AcDbEntity
  8
94820009R00_BL1
100
AcDbLine
 62
9
  6
CONTINUOUS
 10
116.4761808143
 20
1135.4669373674
 11
116.4761808143
 21
1899.9669373674
  0
LINE
  5
2B7
100
AcDbEntity
  8
94820009R00_BL1
100
AcDbLine
 62
7
  6
CENTER
 10
125.4761808143
 20
1817.9669373674
 11
125.4761808143
 21
1809.5669373674
  0
LINE
  5
2B8
100
AcDbEntity
  8
94820009R00_BL1
100
AcDbLine
 62
7
  6
CENTER
 10
125.4761808143
 20
1691.9669373674
 11
125.4761808143
 21
1683.5669373674
  0
LINE
  5
2B9
100
AcDbEntity
  8
94820009R00_BL1
100
AcDbLine
 62
7
  6
CENTER
 10
125.4761808143
 20
1430.4669373674
 11
125.4761808143
 21
1422.0669373674
  0
LINE
  5
2BA
100
AcDbEntity
  8
94820009R00_BL1
100
AcDbLine
 62
7
  6
CENTER
 10
125.4761808143
 20
1147.4669373674
 11
125.4761808143
 21
1139.0669373674
  0
LINE
  5
2BB
100
AcDbEntity
  8
94820009R00_BL1
100
AcDbLine
 62
7
  6
CENTER
 10
125.4761808143
 20
1147.4669373674
 11
125.4761808143
 21
1155.8669373674
  0
LINE
  5
2BC
100
AcDbEntity
  8
94820009R00_BL1
100
AcDbLine
 62
7
  6
CENTER
 10
125.4761808143
 20
1430.4669373674
 11
125.4761808143
 21
1438.8669373674
  0
LINE
  5
2BD
100
AcDbEntity
  8
94820009R00_BL1
100
AcDbLine
 62
7
  6
CENTER
 10
125.4761808143
 20
1691.9669373674
 11
125.4761808143
 21
1700.3669373674
  0
LINE
  5
2BE
100
AcDbEntity
  8
94820009R00_BL1
100
AcDbLine
 62
7
  6
CENTER
 10
125.4761808143
 20
1817.9669373674
 11
125.4761808143
 21
1826.3669373674
  0
LINE
  5
2BF
100
AcDbEntity
  8
94820009R00_BL1
100
AcDbLine
 62
9
  6
CONTINUOUS
 10
134.4761808143
 20
1135.4669373674
 11
134.4761808143
 21
1736.6259818331
  0
LINE
  5
2C0
100
AcDbEntity
  8
94820009R00_BL1
100
AcDbLine
 62
9
  6
CONTINUOUS
 10
134.4761808143
 20
1803.3078929016
 11
134.4761808143
 21
1899.9669373674
  0
LINE
  5
2C1
100
AcDbEntity
  8
94820009R00_BL1
100
AcDbLine
 62
7
  6
CONTINUOUS
 10
137.4761808143
 20
1899.9669373674
 11
137.4761808143
 21
1135.4669373674
  0
LINE
  5
2C2
100
AcDbEntity
  8
94820009R00_BL1
100
AcDbLine
 62
7
  6
CONTINUOUS
 10
137.4761808143
 20
1135.4669373674
 11
113.4761808143
 21
1135.4669373674
  0
LINE
  5
2C3
100
AcDbEntity
  8
94820009R00_BL1
100
AcDbLine
 62
7
  6
CENTER
 10
125.4761808143
 20
1147.4669373674
 11
117.0761808143
 21
1147.4669373674
  0
LINE
  5
2C4
100
AcDbEntity
  8
94820009R00_BL1
100
AcDbLine
 62
7
  6
CENTER
 10
125.4761808143
 20
1147.4669373674
 11
133.8761808143
 21
1147.4669373674
  0
LINE
  5
2C5
100
AcDbEntity
  8
94820009R00_BL1
100
AcDbLine
 62
7
  6
CENTER
 10
125.4761808143
 20
1430.4669373674
 11
117.0761808143
 21
1430.4669373674
  0
LINE
  5
2C6
100
AcDbEntity
  8
94820009R00_BL1
100
AcDbLine
 62
7
  6
CENTER
 10
125.4761808143
 20
1430.4669373674
 11
133.8761808143
 21
1430.4669373674
  0
LINE
  5
2C7
100
AcDbEntity
  8
94820009R00_BL1
100
AcDbLine
 62
7
  6
CENTER
 10
125.4761808143
 20
1691.9669373674
 11
117.0761808143
 21
1691.9669373674
  0
LINE
  5
2C8
100
AcDbEntity
  8
94820009R00_BL1
100
AcDbLine
 62
7
  6
CENTER
 10
125.4761808143
 20
1691.9669373674
 11
133.8761808143
 21
1691.9669373674
  0
LINE
  5
2C9
100
AcDbEntity
  8
94820009R00_BL1
100
AcDbLine
 62
7
  6
CENTER
 10
125.4761808143
 20
1817.9669373674
 11
117.0761808143
 21
1817.9669373674
  0
LINE
  5
2CA
100
AcDbEntity
  8
94820009R00_BL1
100
AcDbLine
 62
7
  6
CENTER
 10
125.4761808143
 20
1817.9669373674
 11
133.8761808143
 21
1817.9669373674
  0
LINE
  5
2CB
100
AcDbEntity
  8
94820009R00_BL1
100
AcDbLine
 62
7
  6
CONTINUOUS
 10
137.4761808143
 20
1899.9669373674
 11
113.4761808143
 21
1899.9669373674
  0
LINE
  5
2CC
100
AcDbEntity
  8
94820009R00_BL1
100
AcDbLine
 62
7
  6
CONTINUOUS
 10
23.4895947321
 20
1135.4669373674
 11
23.4895947321
 21
1736.6223013701
  0
LINE
  5
2CD
100
AcDbEntity
  8
94820009R00_BL1
100
AcDbLine
 62
7
  6
CONTINUOUS
 10
23.4895947321
 20
1803.3115733646
 11
23.4895947321
 21
1899.9669373674
  0
LINE
  5
2CE
100
AcDbEntity
  8
94820009R00_BL1
100
AcDbLine
 62
9
  6
CONTINUOUS
 10
26.4895947321
 20
1135.4669373674
 11
26.4895947321
 21
1899.9669373674
  0
LINE
  5
2CF
100
AcDbEntity
  8
94820009R00_BL1
100
AcDbLine
 62
7
  6
CONTINUOUS
 10
29.4895947321
 20
1135.4669373674
 11
29.4895947321
 21
1899.9669373674
  0
LINE
  5
2D0
100
AcDbEntity
  8
94820009R00_BL1
100
AcDbLine
 62
7
  6
CONTINUOUS
 10
29.4895947321
 20
1135.4669373674
 11
23.4895947321
 21
1135.4669373674
  0
LINE
  5
2D1
100
AcDbEntity
  8
94820009R00_BL1
100
AcDbLine
 62
7
  6
CENTER
 10
30.4895947321
 20
1430.4669373674
 11
22.4895947321
 21
1430.4669373674
  0
LINE
  5
2D2
100
AcDbEntity
  8
94820009R00_BL1
100
AcDbLine
 62
7
  6
CENTER
 10
30.4895947321
 20
1691.9669373674
 11
22.4895947321
 21
1691.9669373674
  0
LINE
  5
2D3
100
AcDbEntity
  8
94820009R00_BL1
100
AcDbLine
 62
7
  6
CENTER
 10
30.4895947321
 20
1817.9669373674
 11
22.4895947321
 21
1817.9669373674
  0
LINE
  5
2D4
100
AcDbEntity
  8
94820009R00_BL1
100
AcDbLine
 62
7
  6
CONTINUOUS
 10
29.4895947321
 20
1899.9669373674
 11
23.4895947321
 21
1899.9669373674
  0
LINE
  5
2D5
100
AcDbEntity
  8
94820009R00_BL1
100
AcDbLine
 62
7
  6
CONTINUOUS
 10
29.4895947321
 20
85.5375000877
 11
26.4895947321
 21
85.5375000877
  0
LINE
  5
2D6
100
AcDbEntity
  8
94820009R00_BL1
100
AcDbLine
 62
7
  6
CONTINUOUS
 10
25.9895947321
 20
87.5375000877
 11
29.4895947321
 21
87.5375000877
  0
LINE
  5
2D7
100
AcDbEntity
  8
94820009R00_BL1
100
AcDbLine
 62
7
  6
CONTINUOUS
 10
23.4895947321
 20
88.5375000877
 11
23.4895947321
 21
106.5375000877
  0
LINE
  5
2D8
100
AcDbEntity
  8
94820009R00_BL1
100
AcDbLine
 62
7
  6
CONTINUOUS
 10
25.4895947321
 20
107.0375000877
 11
25.4895947321
 21
88.0375000877
  0
LINE
  5
2D9
100
AcDbEntity
  8
94820009R00_BL1
100
AcDbLine
 62
7
  6
CONTINUOUS
 10
29.4895947321
 20
109.5375000877
 11
29.4895947321
 21
107.5375000877
  0
LINE
  5
2DA
100
AcDbEntity
  8
94820009R00_BL1
100
AcDbLine
 62
7
  6
CONTINUOUS
 10
29.4895947321
 20
87.5375000877
 11
29.4895947321
 21
85.5375000877
  0
LINE
  5
2DB
100
AcDbEntity
  8
94820009R00_BL1
100
AcDbLine
 62
7
  6
CONTINUOUS
 10
25.9895947321
 20
107.5375000877
 11
29.4895947321
 21
107.5375000877
  0
LINE
  5
2DC
100
AcDbEntity
  8
94820009R00_BL1
100
AcDbLine
 62
7
  6
CONTINUOUS
 10
26.4895947321
 20
109.5375000877
 11
29.4895947321
 21
109.5375000877
  0
CIRCLE
  5
2DD
100
AcDbEntity
  8
94820009R00_BL1
100
AcDbCircle
 62
7
  6
CONTINUOUS
 10
125.4761808143
 20
1430.4669373674
 40
4.15
  0
CIRCLE
  5
2DE
100
AcDbEntity
  8
94820009R00_BL1
100
AcDbCircle
 62
7
  6
CONTINUOUS
 10
125.4761808143
 20
1147.4669373674
 40
4.15
  0
CIRCLE
  5
2DF
100
AcDbEntity
  8
94820009R00_BL1
100
AcDbCircle
 62
7
  6
CONTINUOUS
 10
125.4761808143
 20
1430.4669373674
 40
2.6
  0
CIRCLE
  5
2E0
100
AcDbEntity
  8
94820009R00_BL1
100
AcDbCircle
 62
7
  6
CONTINUOUS
 10
125.4761808143
 20
1147.4669373674
 40
2.6
  0
CIRCLE
  5
2E1
100
AcDbEntity
  8
94820009R00_BL1
100
AcDbCircle
 62
7
  6
CONTINUOUS
 10
125.4761808143
 20
1691.9669373674
 40
4.15
  0
CIRCLE
  5
2E2
100
AcDbEntity
  8
94820009R00_BL1
100
AcDbCircle
 62
7
  6
CONTINUOUS
 10
125.4761808143
 20
1691.9669373674
 40
2.6
  0
CIRCLE
  5
2E3
100
AcDbEntity
  8
94820009R00_BL1
100
AcDbCircle
 62
7
  6
CONTINUOUS
 10
125.4761808143
 20
1887.9669373674
 40
4.15
  0
CIRCLE
  5
2E4
100
AcDbEntity
  8
94820009R00_BL1
100
AcDbCircle
 62
7
  6
CONTINUOUS
 10
125.4761808143
 20
1817.9669373674
 40
4.15
  0
CIRCLE
  5
2E5
100
AcDbEntity
  8
94820009R00_BL1
100
AcDbCircle
 62
7
  6
CONTINUOUS
 10
125.4761808143
 20
1887.9669373674
 40
2.6
  0
CIRCLE
  5
2E6
100
AcDbEntity
  8
94820009R00_BL1
100
AcDbCircle
 62
7
  6
CONTINUOUS
 10
125.4761808143
 20
1817.9669373674
 40
2.6
  0
ARC
  5
2E7
100
AcDbEntity
  8
94820009R00_BL1
100
AcDbCircle
 62
7
  6
CONTINUOUS
 10
26.4895947321
 20
106.5375000877
 40
3.0
100
AcDbArc
 50
90.0
 51
180.0
  0
ARC
  5
2E8
100
AcDbEntity
  8
94820009R00_BL1
100
AcDbCircle
 62
7
  6
CONTINUOUS
 10
26.4895947321
 20
88.5375000877
 40
3.0
100
AcDbArc
 50
180.0
 51
270.0
  0
ARC
  5
2E9
100
AcDbEntity
  8
94820009R00_BL1
100
AcDbCircle
 62
7
  6
CONTINUOUS
 10
25.9895947321
 20
107.0375000877
 40
0.5
100
AcDbArc
 50
90.0
 51
180.0
  0
ARC
  5
2EA
100
AcDbEntity
  8
94820009R00_BL1
100
AcDbCircle
 62
7
  6
CONTINUOUS
 10
25.9895947321
 20
88.0375000877
 40
0.5
100
AcDbArc
 50
180.0
 51
270.0
  0
ENDBLK
  5
2EB
100
AcDbEntity
  8
0
  6
BYBLOCK
 62
0
100
AcDbBlockEnd
  0
BLOCK
  5
2EC
100
AcDbEntity
  8
93773508000_O_BL2
100
AcDbBlockBegin
  2
93773508000_O_BL2
 70
64
 10
80.4828877732
 20
128.2522187276
  3
93773508000_O_BL2
  1

  0
LINE
  5
2ED
100
AcDbEntity
  8
93773508000_O_BL2
100
AcDbLine
 62
7
  6
CONTINUOUS
 10
113.4761808143
 20
141.9669373674
 11
137.4761808143
 21
141.9669373674
  0
LINE
  5
2EE
100
AcDbEntity
  8
93773508000_O_BL2
100
AcDbLine
 62
9
  6
CONTINUOUS
 10
115.9761808143
 20
146.4669373674
 11
134.9761808143
 21
146.4669373674
  0
LINE
  5
2EF
100
AcDbEntity
  8
93773508000_O_BL2
100
AcDbLine
 62
9
  6
CONTINUOUS
 10
137.4761808143
 20
149.5669373674
 11
113.4761808143
 21
149.5669373674
  0
LINE
  5
2F0
100
AcDbEntity
  8
93773508000_O_BL2
100
AcDbLine
 62
7
  6
CENTER
 10
125.4761808143
 20
161.9669373674
 11
116.4761808143
 21
161.9669373674
  0
LINE
  5
2F1
100
AcDbEntity
  8
93773508000_O_BL2
100
AcDbLine
 62
7
  6
CENTER
 10
125.4761808143
 20
161.9669373674
 11
134.4761808143
 21
161.9669373674
  0
LINE
  5
2F2
100
AcDbEntity
  8
93773508000_O_BL2
100
AcDbLine
 62
7
  6
CONTINUOUS
 10
113.4761808143
 20
141.9669373674
 11
113.4761808143
 21
149.5669373674
  0
LINE
  5
2F3
100
AcDbEntity
  8
93773508000_O_BL2
100
AcDbLine
 62
9
  6
CONTINUOUS
 10
115.9761808143
 20
146.4669373674
 11
115.9761808143
 21
149.9669373674
  0
LINE
  5
2F4
100
AcDbEntity
  8
93773508000_O_BL2
100
AcDbLine
 62
7
  6
CENTER
 10
125.4761808143
 20
161.9669373674
 11
125.4761808143
 21
152.9669373674
  0
LINE
  5
2F5
100
AcDbEntity
  8
93773508000_O_BL2
100
AcDbLine
 62
7
  6
CENTER
 10
125.4761808143
 20
161.9669373674
 11
125.4761808143
 21
170.9669373674
  0
LINE
  5
2F6
100
AcDbEntity
  8
93773508000_O_BL2
100
AcDbLine
 62
9
  6
CONTINUOUS
 10
134.9761808143
 20
146.4669373674
 11
134.9761808143
 21
149.9669373674
  0
LINE
  5
2F7
100
AcDbEntity
  8
93773508000_O_BL2
100
AcDbLine
 62
7
  6
CONTINUOUS
 10
137.4761808143
 20
141.9669373674
 11
137.4761808143
 21
149.5669373674
  0
LINE
  5
2F8
100
AcDbEntity
  8
93773508000_O_BL2
100
AcDbLine
 62
7
  6
CONTINUOUS
 10
27.9895947321
 20
141.9669373674
 11
29.4895947321
 21
141.9669373674
  0
LINE
  5
2F9
100
AcDbEntity
  8
93773508000_O_BL2
100
AcDbLine
 62
9
  6
CONTINUOUS
 10
29.4895947321
 20
149.5669373674
 11
23.4895947321
 21
149.5669373674
  0
LINE
  5
2FA
100
AcDbEntity
  8
93773508000_O_BL2
100
AcDbLine
 62
7
  6
CONTINUOUS
 10
23.4895947321
 20
146.4669373674
 11
23.4895947321
 21
149.5669373674
  0
LINE
  5
2FB
100
AcDbEntity
  8
93773508000_O_BL2
100
AcDbLine
 62
7
  6
CONTINUOUS
 10
23.4895947321
 20
146.4669373674
 11
23.4895947321
 21
149.5669373674
  0
LINE
  5
2FC
100
AcDbEntity
  8
93773508000_O_BL2
100
AcDbLine
 62
9
  6
CONTINUOUS
 10
25.9895947321
 20
142.4358084932
 11
25.9895947321
 21
149.9669373674
  0
LINE
  5
2FD
100
AcDbEntity
  8
93773508000_O_BL2
100
AcDbLine
 62
7
  6
CONTINUOUS
 10
29.4895947321
 20
141.9669373674
 11
29.4895947321
 21
149.9669373674
  0
LINE
  5
2FE
100
AcDbEntity
  8
93773508000_O_BL2
100
AcDbLine
 62
7
  6
CONTINUOUS
 10
26.4895947321
 20
85.5375000877
 11
25.9895947321
 21
85.5375000877
  0
LINE
  5
2FF
100
AcDbEntity
  8
93773508000_O_BL2
100
AcDbLine
 62
7
  6
CONTINUOUS
 10
29.4895947321
 20
87.6375000877
 11
29.3895947321
 21
87.6375000877
  0
LINE
  5
300
100
AcDbEntity
  8
93773508000_O_BL2
100
AcDbLine
 62
9
  6
CONTINUOUS
 10
23.4895947321
 20
88.0375000877
 11
23.5333213411
 21
88.0375000877
  0
LINE
  5
301
100
AcDbEntity
  8
93773508000_O_BL2
100
AcDbLine
 62
7
  6
CONTINUOUS
 10
29.4895947321
 20
89.1375000877
 11
29.3895947321
 21
89.1375000877
  0
LINE
  5
302
100
AcDbEntity
  8
93773508000_O_BL2
100
AcDbLine
 62
7
  6
CONTINUOUS
 10
23.4895947321
 20
106.5375000877
 11
23.4895947321
 21
107.0375000877
  0
LINE
  5
303
100
AcDbEntity
  8
93773508000_O_BL2
100
AcDbLine
 62
9
  6
CONTINUOUS
 10
25.9895947321
 20
109.5375000877
 11
25.9895947321
 21
109.4937734788
  0
LINE
  5
304
100
AcDbEntity
  8
93773508000_O_BL2
100
AcDbLine
 62
9
  6
CONTINUOUS
 10
25.9895947321
 20
85.5375000877
 11
25.9895947321
 21
85.5812266967
  0
LINE
  5
305
100
AcDbEntity
  8
93773508000_O_BL2
100
AcDbLine
 62
7
  6
CONTINUOUS
 10
29.4895947321
 20
87.5375000877
 11
29.4895947321
 21
87.6375000877
  0
LINE
  5
306
100
AcDbEntity
  8
93773508000_O_BL2
100
AcDbLine
 62
7
  6
CONTINUOUS
 10
29.4895947321
 20
87.6375000877
 11
29.4895947321
 21
89.1375000877
  0
LINE
  5
307
100
AcDbEntity
  8
93773508000_O_BL2
100
AcDbLine
 62
7
  6
CONTINUOUS
 10
29.4895947321
 20
103.4375000877
 11
29.4895947321
 21
107.5375000877
  0
LINE
  5
308
100
AcDbEntity
  8
93773508000_O_BL2
100
AcDbLine
 62
7
  6
CONTINUOUS
 10
29.3895947321
 20
106.6375000877
 11
29.4895947321
 21
106.6375000877
  0
LINE
  5
309
100
AcDbEntity
  8
93773508000_O_BL2
100
AcDbLine
 62
9
  6
CONTINUOUS
 10
23.4895947321
 20
107.0375000877
 11
23.5333213411
 21
107.0375000877
  0
LINE
  5
30A
100
AcDbEntity
  8
93773508000_O_BL2
100
AcDbLine
 62
7
  6
CONTINUOUS
 10
25.9895947321
 20
109.5375000877
 11
26.4895947321
 21
109.5375000877
  0
ARC
  5
30B
100
AcDbEntity
  8
93773508000_O_BL2
100
AcDbCircle
 62
7
  6
CONTINUOUS
 10
113.8761808143
 20
149.5669373674
 40
0.4
100
AcDbArc
 50
90.0
 51
180.0
  0
ARC
  5
30C
100
AcDbEntity
  8
93773508000_O_BL2
100
AcDbCircle
 62
7
  6
CONTINUOUS
 10
137.0761808143
 20
149.5669373674
 40
0.4
100
AcDbArc
 50
0.0
 51
90.0
  0
ARC
  5
30D
100
AcDbEntity
  8
93773508000_O_BL2
100
AcDbCircle
 62
7
  6
CONTINUOUS
 10
27.9895947321
 20
146.4669373674
 40
4.5
100
AcDbArc
 50
180.0
 51
270.0
  0
ARC
  5
30E
100
AcDbEntity
  8
93773508000_O_BL2
100
AcDbCircle
 62
7
  6
CONTINUOUS
 10
23.8895947321
 20
149.5669373674
 40
0.4
100
AcDbArc
 50
90.0
 51
180.0
  0
ARC
  5
30F
100
AcDbEntity
  8
93773508000_O_BL2
100
AcDbCircle
 62
7
  6
CONTINUOUS
 10
25.9895947321
 20
88.0375000877
 40
2.5
100
AcDbArc
 50
180.0
 51
270.0
  0
ARC
  5
310
100
AcDbEntity
  8
93773508000_O_BL2
100
AcDbCircle
 62
7
  6
CONTINUOUS
 10
25.9895947321
 20
107.0375000877
 40
2.5
100
AcDbArc
 50
90.0
 51
180.0
  0
SPLINE
  5
311
100
AcDbEntity
  8
93773508000_O_BL2
100
AcDbSpline
 62
7
  6
CONTINUOUS
 70
0
 71
3
 72
12
 73
8
 74
0
 42
0.0000001
 43
0.0000001
 44
0.0000000001
 40
0.0
 40
0.0
 40
0.0
 40
0.0
 40
0.0772200496
 40
0.1770414267
 40
0.4238050361
 40
0.7050572243
 40
1.0
 40
1.0
 40
1.0
 40
1.0
 10
113.4761808143
 20
142.4358084932
 30
0.0
 10
113.4761808143
 20
142.558784566
 30
0.0
 10
113.551220283
 20
142.8373999487
 30
0.0
 10
113.8402752718
 20
143.4461645633
 30
0.0
 10
114.3850485571
 20
144.2892722779
 30
0.0
 10
115.1465391089
 20
145.3546333321
 30
0.0
 10
115.6954763685
 20
146.0903328339
 30
0.0
 10
115.9761808143
 20
146.4669373674
 30
0.0
  0
SPLINE
  5
312
100
AcDbEntity
  8
93773508000_O_BL2
100
AcDbSpline
 62
7
  6
CONTINUOUS
 70
0
 71
3
 72
12
 73
8
 74
0
 42
0.0000001
 43
0.0000001
 44
0.0000000001
 40
0.0
 40
0.0
 40
0.0
 40
0.0
 40
0.2950120828
 40
0.5762835698
 40
0.8230069521
 40
0.9228007747
 40
1.0
 40
1.0
 40
1.0
 40
1.0
 10
134.9761808143
 20
146.4669373674
 30
0.0
 10
135.2569510396
 20
146.0902445815
 30
0.0
 10
135.8059718974
 20
145.3544313948
 30
0.0
 10
136.5674869701
 20
144.2889964564
 30
0.0
 10
137.1122151816
 20
143.4459479225
 30
0.0
 10
137.4011588526
 20
142.837288356
 30
0.0
 10
137.4761808143
 20
142.5587513228
 30
0.0
 10
137.4761808143
 20
142.4358084932
 30
0.0
  0
ENDBLK
  5
313
100
AcDbEntity
  8
0
  6
BYBLOCK
 62
0
100
AcDbBlockEnd
  0
BLOCK
  5
314
100
AcDbEntity
  8
94818605R00_BL3
100
AcDbBlockBegin
  2
94818605R00_BL3
 70
64
 10
79.9828877732
 20
534.4669373674
  3
94818605R00_BL3
  1

  0
LINE
  5
315
100
AcDbEntity
  8
94818605R00_BL3
100
AcDbLine
 62
7
  6
CONTINUOUS
 10
137.4761808143
 20
149.9669373674
 11
113.4761808143
 21
149.9669373674
  0
LINE
  5
316
100
AcDbEntity
  8
94818605R00_BL3
100
AcDbLine
 62
7
  6
CENTER
 10
125.4761808143
 20
231.9669373674
 11
117.0761808143
 21
231.9669373674
  0
LINE
  5
317
100
AcDbEntity
  8
94818605R00_BL3
100
AcDbLine
 62
7
  6
CENTER
 10
125.4761808143
 20
231.9669373674
 11
133.8761808143
 21
231.9669373674
  0
LINE
  5
318
100
AcDbEntity
  8
94818605R00_BL3
100
AcDbLine
 62
7
  6
CENTER
 10
125.4761808143
 20
327.9669373674
 11
117.0761808143
 21
327.9669373674
  0
LINE
  5
319
100
AcDbEntity
  8
94818605R00_BL3
100
AcDbLine
 62
7
  6
CENTER
 10
125.4761808143
 20
327.9669373674
 11
133.8761808143
 21
327.9669373674
  0
LINE
  5
31A
100
AcDbEntity
  8
94818605R00_BL3
100
AcDbLine
 62
7
  6
CENTER
 10
125.4761808143
 20
626.9669373674
 11
117.0761808143
 21
626.9669373674
  0
LINE
  5
31B
100
AcDbEntity
  8
94818605R00_BL3
100
AcDbLine
 62
7
  6
CENTER
 10
125.4761808143
 20
626.9669373674
 11
133.8761808143
 21
626.9669373674
  0
LINE
  5
31C
100
AcDbEntity
  8
94818605R00_BL3
100
AcDbLine
 62
7
  6
CENTER
 10
125.4761808143
 20
906.9669373674
 11
117.0761808143
 21
906.9669373674
  0
LINE
  5
31D
100
AcDbEntity
  8
94818605R00_BL3
100
AcDbLine
 62
7
  6
CENTER
 10
125.4761808143
 20
906.9669373674
 11
133.8761808143
 21
906.9669373674
  0
LINE
  5
31E
100
AcDbEntity
  8
94818605R00_BL3
100
AcDbLine
 62
7
  6
CONTINUOUS
 10
137.4761808143
 20
918.9669373674
 11
113.4761808143
 21
918.9669373674
  0
LINE
  5
31F
100
AcDbEntity
  8
94818605R00_BL3
100
AcDbLine
 62
7
  6
CONTINUOUS
 10
113.4761808143
 20
918.9669373674
 11
113.4761808143
 21
149.9669373674
  0
LINE
  5
320
100
AcDbEntity
  8
94818605R00_BL3
100
AcDbLine
 62
9
  6
CONTINUOUS
 10
116.4761808143
 20
918.9669373674
 11
116.4761808143
 21
149.9669373674
  0
LINE
  5
321
100
AcDbEntity
  8
94818605R00_BL3
100
AcDbLine
 62
7
  6
CENTER
 10
125.4761808143
 20
906.9669373674
 11
125.4761808143
 21
898.5669373674
  0
LINE
  5
322
100
AcDbEntity
  8
94818605R00_BL3
100
AcDbLine
 62
7
  6
CENTER
 10
125.4761808143
 20
626.9669373674
 11
125.4761808143
 21
618.5669373674
  0
LINE
  5
323
100
AcDbEntity
  8
94818605R00_BL3
100
AcDbLine
 62
7
  6
CENTER
 10
125.4761808143
 20
327.9669373674
 11
125.4761808143
 21
319.5669373674
  0
LINE
  5
324
100
AcDbEntity
  8
94818605R00_BL3
100
AcDbLine
 62
7
  6
CENTER
 10
125.4761808143
 20
231.9669373674
 11
125.4761808143
 21
223.5669373674
  0
LINE
  5
325
100
AcDbEntity
  8
94818605R00_BL3
100
AcDbLine
 62
7
  6
CENTER
 10
125.4761808143
 20
231.9669373674
 11
125.4761808143
 21
240.3669373674
  0
LINE
  5
326
100
AcDbEntity
  8
94818605R00_BL3
100
AcDbLine
 62
7
  6
CENTER
 10
125.4761808143
 20
327.9669373674
 11
125.4761808143
 21
336.3669373674
  0
LINE
  5
327
100
AcDbEntity
  8
94818605R00_BL3
100
AcDbLine
 62
7
  6
CENTER
 10
125.4761808143
 20
626.9669373674
 11
125.4761808143
 21
635.3669373674
  0
LINE
  5
328
100
AcDbEntity
  8
94818605R00_BL3
100
AcDbLine
 62
7
  6
CENTER
 10
125.4761808143
 20
906.9669373674
 11
125.4761808143
 21
915.3669373674
  0
LINE
  5
329
100
AcDbEntity
  8
94818605R00_BL3
100
AcDbLine
 62
9
  6
CONTINUOUS
 10
134.4761808143
 20
918.9669373674
 11
134.4761808143
 21
313.3078929016
  0
LINE
  5
32A
100
AcDbEntity
  8
94818605R00_BL3
100
AcDbLine
 62
9
  6
CONTINUOUS
 10
134.4761808143
 20
246.6259818331
 11
134.4761808143
 21
149.9669373674
  0
LINE
  5
32B
100
AcDbEntity
  8
94818605R00_BL3
100
AcDbLine
 62
7
  6
CONTINUOUS
 10
137.4761808143
 20
918.9669373674
 11
137.4761808143
 21
149.9669373674
  0
LINE
  5
32C
100
AcDbEntity
  8
94818605R00_BL3
100
AcDbLine
 62
7
  6
CONTINUOUS
 10
29.4895947321
 20
149.9669373674
 11
23.4895947321
 21
149.9669373674
  0
LINE
  5
32D
100
AcDbEntity
  8
94818605R00_BL3
100
AcDbLine
 62
7
  6
CENTER
 10
30.4895947321
 20
231.9669373674
 11
22.4895947321
 21
231.9669373674
  0
LINE
  5
32E
100
AcDbEntity
  8
94818605R00_BL3
100
AcDbLine
 62
7
  6
CENTER
 10
30.4895947321
 20
327.9669373674
 11
22.4895947321
 21
327.9669373674
  0
LINE
  5
32F
100
AcDbEntity
  8
94818605R00_BL3
100
AcDbLine
 62
7
  6
CENTER
 10
30.4895947321
 20
626.9669373674
 11
22.4895947321
 21
626.9669373674
  0
LINE
  5
330
100
AcDbEntity
  8
94818605R00_BL3
100
AcDbLine
 62
7
  6
CONTINUOUS
 10
29.4895947321
 20
918.9669373674
 11
23.4895947321
 21
918.9669373674
  0
LINE
  5
331
100
AcDbEntity
  8
94818605R00_BL3
100
AcDbLine
 62
7
  6
CONTINUOUS
 10
23.4895947321
 20
918.9669373674
 11
23.4895947321
 21
313.3115733646
  0
LINE
  5
332
100
AcDbEntity
  8
94818605R00_BL3
100
AcDbLine
 62
7
  6
CONTINUOUS
 10
23.4895947321
 20
246.6223013701
 11
23.4895947321
 21
149.9669373674
  0
LINE
  5
333
100
AcDbEntity
  8
94818605R00_BL3
100
AcDbLine
 62
9
  6
CONTINUOUS
 10
26.4895947321
 20
918.9669373674
 11
26.4895947321
 21
149.9669373674
  0
LINE
  5
334
100
AcDbEntity
  8
94818605R00_BL3
100
AcDbLine
 62
7
  6
CONTINUOUS
 10
29.4895947321
 20
918.9669373674
 11
29.4895947321
 21
149.9669373674
  0
CIRCLE
  5
335
100
AcDbEntity
  8
94818605R00_BL3
100
AcDbCircle
 62
7
  6
CONTINUOUS
 10
125.4761808143
 20
161.9669373674
 40
4.15
  0
CIRCLE
  5
336
100
AcDbEntity
  8
94818605R00_BL3
100
AcDbCircle
 62
7
  6
CONTINUOUS
 10
125.4761808143
 20
231.9669373674
 40
4.15
  0
CIRCLE
  5
337
100
AcDbEntity
  8
94818605R00_BL3
100
AcDbCircle
 62
7
  6
CONTINUOUS
 10
125.4761808143
 20
161.9669373674
 40
2.6
  0
CIRCLE
  5
338
100
AcDbEntity
  8
94818605R00_BL3
100
AcDbCircle
 62
7
  6
CONTINUOUS
 10
125.4761808143
 20
231.9669373674
 40
2.6
  0
CIRCLE
  5
339
100
AcDbEntity
  8
94818605R00_BL3
100
AcDbCircle
 62
7
  6
CONTINUOUS
 10
125.4761808143
 20
327.9669373674
 40
4.15
  0
CIRCLE
  5
33A
100
AcDbEntity
  8
94818605R00_BL3
100
AcDbCircle
 62
7
  6
CONTINUOUS
 10
125.4761808143
 20
327.9669373674
 40
2.6
  0
CIRCLE
  5
33B
100
AcDbEntity
  8
94818605R00_BL3
100
AcDbCircle
 62
7
  6
CONTINUOUS
 10
125.4761808143
 20
626.9669373674
 40
4.15
  0
CIRCLE
  5
33C
100
AcDbEntity
  8
94818605R00_BL3
100
AcDbCircle
 62
7
  6
CONTINUOUS
 10
125.4761808143
 20
906.9669373674
 40
4.15
  0
CIRCLE
  5
33D
100
AcDbEntity
  8
94818605R00_BL3
100
AcDbCircle
 62
7
  6
CONTINUOUS
 10
125.4761808143
 20
626.9669373674
 40
2.6
  0
CIRCLE
  5
33E
100
AcDbEntity
  8
94818605R00_BL3
100
AcDbCircle
 62
7
  6
CONTINUOUS
 10
125.4761808143
 20
906.9669373674
 40
2.6
  0
ENDBLK
  5
33F
100
AcDbEntity
  8
0
  6
BYBLOCK
 62
0
100
AcDbBlockEnd
  0
BLOCK
  5
340
100
AcDbEntity
  8
94528905000_M_BL4
100
AcDbBlockBegin
  2
94528905000_M_BL4
 70
64
 10
80.7342849478
 20
249.8669373674
  3
94528905000_M_BL4
  1

  0
LINE
  5
341
100
AcDbEntity
  8
94528905000_M_BL4
100
AcDbLine
 62
7
  6
CONTINUOUS
 10
125.6011808143
 20
247.3513929108
 11
127.3511808143
 21
247.3513929108
  0
LINE
  5
342
100
AcDbEntity
  8
94528905000_M_BL4
100
AcDbLine
 62
7
  6
CONTINUOUS
 10
127.3511808143
 20
250.382481824
 11
125.6011808143
 21
250.382481824
  0
LINE
  5
343
100
AcDbEntity
  8
94528905000_M_BL4
100
AcDbLine
 62
7
  6
CONTINUOUS
 10
124.7261808143
 20
248.8669373674
 11
125.6011808143
 21
247.3513929108
  0
LINE
  5
344
100
AcDbEntity
  8
94528905000_M_BL4
100
AcDbLine
 62
7
  6
CONTINUOUS
 10
128.2261808143
 20
248.8669373674
 11
127.3511808143
 21
250.382481824
  0
LINE
  5
345
100
AcDbEntity
  8
94528905000_M_BL4
100
AcDbLine
 62
7
  6
CONTINUOUS
 10
125.6011808143
 20
250.382481824
 11
124.7261808143
 21
248.8669373674
  0
LINE
  5
346
100
AcDbEntity
  8
94528905000_M_BL4
100
AcDbLine
 62
7
  6
CONTINUOUS
 10
127.3511808143
 20
247.3513929108
 11
128.2261808143
 21
248.8669373674
  0
CIRCLE
  5
347
100
AcDbEntity
  8
94528905000_M_BL4
100
AcDbCircle
 62
7
  6
CONTINUOUS
 10
126.4761808143
 20
249.8669373674
 40
5.5
  0
CIRCLE
  5
348
100
AcDbEntity
  8
94528905000_M_BL4
100
AcDbCircle
 62
7
  6
CONTINUOUS
 10
126.4761808143
 20
248.8669373674
 40
1.75
  0
CIRCLE
  5
349
100
AcDbEntity
  8
94528905000_M_BL4
100
AcDbCircle
 62
7
  6
CONTINUOUS
 10
126.4761808143
 20
248.8669373674
 40
1.515
  0
CIRCLE
  5
34A
100
AcDbEntity
  8
94528905000_M_BL4
100
AcDbCircle
 62
7
  6
CONTINUOUS
 10
126.4761808143
 20
252.3669373674
 40
0.75
  0
ARC
  5
34B
100
AcDbEntity
  8
94528905000_M_BL4
100
AcDbCircle
 62
7
  6
CONTINUOUS
 10
26.143843421
 20
248.8669373674
 40
4.0
100
AcDbArc
 50
326.8389561101
 51
33.1610438899
  0
ENDBLK
  5
34C
100
AcDbEntity
  8
0
  6
BYBLOCK
 62
0
100
AcDbBlockEnd
  0
BLOCK
  5
34D
100
AcDbEntity
  8
94529001000_BL5
100
AcDbBlockBegin
  2
94529001000_BL5
 70
64
 10
79.7328877732
 20
279.9669373674
  3
94529001000_BL5
  1

  0
LINE
  5
34E
100
AcDbEntity
  8
94529001000_BL5
100
AcDbLine
 62
7
  6
CONTINUOUS
 10
134.9761808143
 20
257.7169373674
 11
134.1761808143
 21
257.7169373674
  0
LINE
  5
34F
100
AcDbEntity
  8
94529001000_BL5
100
AcDbLine
 62
7
  6
CONTINUOUS
 10
118.7761808143
 20
257.7169373674
 11
117.9761808143
 21
257.7169373674
  0
LINE
  5
350
100
AcDbEntity
  8
94529001000_BL5
100
AcDbLine
 62
7
  6
CONTINUOUS
 10
122.2761808143
 20
260.1669373674
 11
129.6761808143
 21
260.1669373674
  0
LINE
  5
351
100
AcDbEntity
  8
94529001000_BL5
100
AcDbLine
 62
7
  6
CONTINUOUS
 10
122.2761808143
 20
260.9669373674
 11
129.6761808143
 21
260.9669373674
  0
LINE
  5
352
100
AcDbEntity
  8
94529001000_BL5
100
AcDbLine
 62
9
  6
CONTINUOUS
 10
120.2761808143
 20
262.9669373674
 11
119.4761808143
 21
262.9669373674
  0
LINE
  5
353
100
AcDbEntity
  8
94529001000_BL5
100
AcDbLine
 62
9
  6
CONTINUOUS
 10
131.6761808143
 20
262.9669373674
 11
132.4761808143
 21
262.9669373674
  0
LINE
  5
354
100
AcDbEntity
  8
94529001000_BL5
100
AcDbLine
 62
7
  6
CONTINUOUS
 10
134.1761808143
 20
279.8169373674
 11
132.4761808143
 21
279.8169373674
  0
LINE
  5
355
100
AcDbEntity
  8
94529001000_BL5
100
AcDbLine
 62
7
  6
CONTINUOUS
 10
134.3261808143
 20
279.9669373674
 11
132.3261808143
 21
279.9669373674
  0
LINE
  5
356
100
AcDbEntity
  8
94529001000_BL5
100
AcDbLine
 62
7
  6
CENTER
 10
114.9761808143
 20
279.9669373674
 11
137.9761808143
 21
279.9669373674
  0
LINE
  5
357
100
AcDbEntity
  8
94529001000_BL5
100
AcDbLine
 62
7
  6
CONTINUOUS
 10
134.1761808143
 20
280.1169373674
 11
132.4761808143
 21
280.1169373674
  0
LINE
  5
358
100
AcDbEntity
  8
94529001000_BL5
100
AcDbLine
 62
9
  6
CONTINUOUS
 10
120.2761808143
 20
296.9669373674
 11
119.4761808143
 21
296.9669373674
  0
LINE
  5
359
100
AcDbEntity
  8
94529001000_BL5
100
AcDbLine
 62
9
  6
CONTINUOUS
 10
131.6761808143
 20
296.9669373674
 11
132.4761808143
 21
296.9669373674
  0
LINE
  5
35A
100
AcDbEntity
  8
94529001000_BL5
100
AcDbLine
 62
7
  6
CONTINUOUS
 10
129.6761808143
 20
298.9669373674
 11
122.2761808143
 21
298.9669373674
  0
LINE
  5
35B
100
AcDbEntity
  8
94529001000_BL5
100
AcDbLine
 62
7
  6
CONTINUOUS
 10
129.6761808143
 20
299.7669373674
 11
122.2761808143
 21
299.7669373674
  0
LINE
  5
35C
100
AcDbEntity
  8
94529001000_BL5
100
AcDbLine
 62
7
  6
CONTINUOUS
 10
134.9761808143
 20
302.2169373674
 11
134.1761808143
 21
302.2169373674
  0
LINE
  5
35D
100
AcDbEntity
  8
94529001000_BL5
100
AcDbLine
 62
7
  6
CONTINUOUS
 10
118.7761808143
 20
302.2169373674
 11
117.9761808143
 21
302.2169373674
  0
LINE
  5
35E
100
AcDbEntity
  8
94529001000_BL5
100
AcDbLine
 62
7
  6
CONTINUOUS
 10
132.4761808143
 20
279.8169373674
 11
132.3261808143
 21
279.9669373674
  0
LINE
  5
35F
100
AcDbEntity
  8
94529001000_BL5
100
AcDbLine
 62
7
  6
CONTINUOUS
 10
134.1761808143
 20
280.1169373674
 11
134.3261808143
 21
279.9669373674
  0
LINE
  5
360
100
AcDbEntity
  8
94529001000_BL5
100
AcDbLine
 62
7
  6
CONTINUOUS
 10
117.9761808143
 20
310.4669373674
 11
117.9761808143
 21
249.4669373674
  0
LINE
  5
361
100
AcDbEntity
  8
94529001000_BL5
100
AcDbLine
 62
7
  6
CONTINUOUS
 10
118.7761808143
 20
302.2169373674
 11
118.7761808143
 21
257.7169373674
  0
LINE
  5
362
100
AcDbEntity
  8
94529001000_BL5
100
AcDbLine
 62
7
  6
CONTINUOUS
 10
119.4761808143
 20
296.9669373674
 11
119.4761808143
 21
262.9669373674
  0
LINE
  5
363
100
AcDbEntity
  8
94529001000_BL5
100
AcDbLine
 62
7
  6
CONTINUOUS
 10
120.2761808143
 20
296.9669373674
 11
120.2761808143
 21
262.9669373674
  0
LINE
  5
364
100
AcDbEntity
  8
94529001000_BL5
100
AcDbLine
 62
9
  6
CONTINUOUS
 10
122.2761808143
 20
260.9669373674
 11
122.2761808143
 21
260.1669373674
  0
LINE
  5
365
100
AcDbEntity
  8
94529001000_BL5
100
AcDbLine
 62
9
  6
CONTINUOUS
 10
122.2761808143
 20
298.9669373674
 11
122.2761808143
 21
299.7669373674
  0
LINE
  5
366
100
AcDbEntity
  8
94529001000_BL5
100
AcDbLine
 62
7
  6
CENTER
 10
126.4761808143
 20
237.9534647019
 11
126.4761808143
 21
321.9804100328
  0
LINE
  5
367
100
AcDbEntity
  8
94529001000_BL5
100
AcDbLine
 62
9
  6
CONTINUOUS
 10
129.6761808143
 20
260.9669373674
 11
129.6761808143
 21
260.1669373674
  0
LINE
  5
368
100
AcDbEntity
  8
94529001000_BL5
100
AcDbLine
 62
9
  6
CONTINUOUS
 10
129.6761808143
 20
298.9669373674
 11
129.6761808143
 21
299.7669373674
  0
LINE
  5
369
100
AcDbEntity
  8
94529001000_BL5
100
AcDbLine
 62
7
  6
CONTINUOUS
 10
131.6761808143
 20
262.9669373674
 11
131.6761808143
 21
296.9669373674
  0
LINE
  5
36A
100
AcDbEntity
  8
94529001000_BL5
100
AcDbLine
 62
7
  6
CONTINUOUS
 10
132.4761808143
 20
262.9669373674
 11
132.4761808143
 21
279.8169373674
  0
LINE
  5
36B
100
AcDbEntity
  8
94529001000_BL5
100
AcDbLine
 62
7
  6
CONTINUOUS
 10
132.4761808143
 20
280.1169373674
 11
132.4761808143
 21
296.9669373674
  0
LINE
  5
36C
100
AcDbEntity
  8
94529001000_BL5
100
AcDbLine
 62
7
  6
CONTINUOUS
 10
134.1761808143
 20
302.2169373674
 11
134.1761808143
 21
280.1169373674
  0
LINE
  5
36D
100
AcDbEntity
  8
94529001000_BL5
100
AcDbLine
 62
7
  6
CONTINUOUS
 10
134.1761808143
 20
279.8169373674
 11
134.1761808143
 21
257.7169373674
  0
LINE
  5
36E
100
AcDbEntity
  8
94529001000_BL5
100
AcDbLine
 62
7
  6
CONTINUOUS
 10
134.9761808143
 20
249.4669373674
 11
134.9761808143
 21
310.4669373674
  0
LINE
  5
36F
100
AcDbEntity
  8
94529001000_BL5
100
AcDbLine
 62
7
  6
CONTINUOUS
 10
132.4761808143
 20
280.1169373674
 11
132.3261808143
 21
279.9669373674
  0
LINE
  5
370
100
AcDbEntity
  8
94529001000_BL5
100
AcDbLine
 62
7
  6
CONTINUOUS
 10
134.1761808143
 20
279.8169373674
 11
134.3261808143
 21
279.9669373674
  0
LINE
  5
371
100
AcDbEntity
  8
94529001000_BL5
100
AcDbLine
 62
7
  6
CONTINUOUS
 10
23.4895947321
 20
240.9669373674
 11
21.4895947321
 21
240.9669373674
  0
LINE
  5
372
100
AcDbEntity
  8
94529001000_BL5
100
AcDbLine
 62
9
  6
CONTINUOUS
 10
21.4895947321
 20
249.4669373674
 11
23.4895947321
 21
249.4669373674
  0
LINE
  5
373
100
AcDbEntity
  8
94529001000_BL5
100
AcDbLine
 62
7
  6
CONTINUOUS
 10
21.4895947321
 20
257.7169373674
 11
22.2895947321
 21
257.7169373674
  0
LINE
  5
374
100
AcDbEntity
  8
94529001000_BL5
100
AcDbLine
 62
7
  6
CONTINUOUS
 10
21.4895947321
 20
302.2169373674
 11
22.2895947321
 21
302.2169373674
  0
LINE
  5
375
100
AcDbEntity
  8
94529001000_BL5
100
AcDbLine
 62
9
  6
CONTINUOUS
 10
21.4895947321
 20
310.4669373674
 11
23.4895947321
 21
310.4669373674
  0
LINE
  5
376
100
AcDbEntity
  8
94529001000_BL5
100
AcDbLine
 62
7
  6
CONTINUOUS
 10
23.4895947321
 20
318.9669373674
 11
21.4895947321
 21
318.9669373674
  0
LINE
  5
377
100
AcDbEntity
  8
94529001000_BL5
100
AcDbLine
 62
7
  6
CONTINUOUS
 10
21.4895947321
 20
280.1169373674
 11
21.6395947321
 21
279.9669373674
  0
LINE
  5
378
100
AcDbEntity
  8
94529001000_BL5
100
AcDbLine
 62
7
  6
CONTINUOUS
 10
21.4895947321
 20
280.1169373674
 11
21.4895947321
 21
279.8169373674
  0
LINE
  5
379
100
AcDbEntity
  8
94529001000_BL5
100
AcDbLine
 62
7
  6
CONTINUOUS
 10
21.4895947321
 20
240.9669373674
 11
21.4895947321
 21
279.8169373674
  0
LINE
  5
37A
100
AcDbEntity
  8
94529001000_BL5
100
AcDbLine
 62
7
  6
CONTINUOUS
 10
21.4895947321
 20
280.1169373674
 11
21.4895947321
 21
318.9669373674
  0
LINE
  5
37B
100
AcDbEntity
  8
94529001000_BL5
100
AcDbLine
 62
7
  6
CONTINUOUS
 10
22.2895947321
 20
302.2169373674
 11
22.2895947321
 21
257.7169373674
  0
LINE
  5
37C
100
AcDbEntity
  8
94529001000_BL5
100
AcDbLine
 62
7
  6
CONTINUOUS
 10
23.4895947321
 20
313.3115733646
 11
23.4895947321
 21
246.6223013701
  0
LINE
  5
37D
100
AcDbEntity
  8
94529001000_BL5
100
AcDbLine
 62
7
  6
CONTINUOUS
 10
21.4895947321
 20
279.8169373674
 11
21.6395947321
 21
279.9669373674
  0
ARC
  5
37E
100
AcDbEntity
  8
94529001000_BL5
100
AcDbCircle
 62
7
  6
CONTINUOUS
 10
122.2761808143
 20
296.9669373674
 40
2.7999942656
100
AcDbArc
 50
90.0
 51
180.0
  0
ARC
  5
37F
100
AcDbEntity
  8
94529001000_BL5
100
AcDbCircle
 62
7
  6
CONTINUOUS
 10
122.2761808143
 20
262.9669373674
 40
2.7999942656
100
AcDbArc
 50
180.0
 51
270.0
  0
ARC
  5
380
100
AcDbEntity
  8
94529001000_BL5
100
AcDbCircle
 62
7
  6
CONTINUOUS
 10
122.2761808143
 20
296.9669373674
 40
2.0
100
AcDbArc
 50
90.0
 51
180.0
  0
ARC
  5
381
100
AcDbEntity
  8
94529001000_BL5
100
AcDbCircle
 62
7
  6
CONTINUOUS
 10
122.2761808143
 20
262.9669373674
 40
2.0
100
AcDbArc
 50
180.0
 51
270.0
  0
ARC
  5
382
100
AcDbEntity
  8
94529001000_BL5
100
AcDbCircle
 62
7
  6
CONTINUOUS
 10
126.4761808143
 20
249.4669373674
 40
8.5
100
AcDbArc
 50
180.0
 51
360.0
  0
CIRCLE
  5
383
100
AcDbEntity
  8
94529001000_BL5
100
AcDbCircle
 62
7
  6
CONTINUOUS
 10
126.4761808143
 20
249.8669373674
 40
5.65
  0
ARC
  5
384
100
AcDbEntity
  8
94529001000_BL5
100
AcDbCircle
 62
7
  6
CONTINUOUS
 10
126.4761808143
 20
310.4669373674
 40
8.5
100
AcDbArc
 50
0.0
 51
180.0
  0
CIRCLE
  5
385
100
AcDbEntity
  8
94529001000_BL5
100
AcDbCircle
 62
7
  6
CONTINUOUS
 10
126.4761808143
 20
310.0669373674
 40
5.65
  0
ARC
  5
386
100
AcDbEntity
  8
94529001000_BL5
100
AcDbCircle
 62
7
  6
CONTINUOUS
 10
129.6761808143
 20
296.9669373674
 40
2.7999942656
100
AcDbArc
 50
0.0
 51
90.0
  0
ARC
  5
387
100
AcDbEntity
  8
94529001000_BL5
100
AcDbCircle
 62
7
  6
CONTINUOUS
 10
129.6761808143
 20
262.9669373674
 40
2.7999942656
100
AcDbArc
 50
270.0
 51
360.0
  0
ARC
  5
388
100
AcDbEntity
  8
94529001000_BL5
100
AcDbCircle
 62
7
  6
CONTINUOUS
 10
129.6761808143
 20
296.9669373674
 40
2.0
100
AcDbArc
 50
0.0
 51
90.0
  0
ARC
  5
389
100
AcDbEntity
  8
94529001000_BL5
100
AcDbCircle
 62
7
  6
CONTINUOUS
 10
129.6761808143
 20
262.9669373674
 40
2.0
100
AcDbArc
 50
270.0
 51
360.0
  0
ENDBLK
  5
38A
100
AcDbEntity
  8
0
  6
BYBLOCK
 62
0
100
AcDbBlockEnd
  0
BLOCK
  5
38B
100
AcDbEntity
  8
94673901000_BL6
100
AcDbBlockBegin
  2
94673901000_BL6
 70
64
 10
76.8346665025
 20
198.2522187276
  3
94673901000_BL6
  1

  0
LINE
  5
38C
100
AcDbEntity
  8
94673901000_BL6
100
AcDbLine
 62
9
  6
CONTINUOUS
 10
129.729030564
 20
261.6250438269
 11
123.2233310646
 21
261.6250438269
  0
LINE
  5
38D
100
AcDbEntity
  8
94673901000_BL6
100
AcDbLine
 62
9
  6
CONTINUOUS
 10
120.2761808143
 20
262.9669373674
 11
120.5762188025
 21
262.9669373674
  0
LINE
  5
38E
100
AcDbEntity
  8
94673901000_BL6
100
AcDbLine
 62
9
  6
CONTINUOUS
 10
121.2342872739
 20
263.6140876177
 11
131.6761808143
 21
263.6140876177
  0
LINE
  5
38F
100
AcDbEntity
  8
94673901000_BL6
100
AcDbLine
 62
7
  6
CONTINUOUS
 10
124.9761808143
 20
279.5669373674
 11
126.4761808143
 21
279.5669373674
  0
LINE
  5
390
100
AcDbEntity
  8
94673901000_BL6
100
AcDbLine
 62
7
  6
CONTINUOUS
 10
126.4761808143
 20
280.3669373674
 11
124.9761808143
 21
280.3669373674
  0
LINE
  5
391
100
AcDbEntity
  8
94673901000_BL6
100
AcDbLine
 62
9
  6
CONTINUOUS
 10
121.2342872739
 20
296.3197871171
 11
131.6761808143
 21
296.3197871171
  0
LINE
  5
392
100
AcDbEntity
  8
94673901000_BL6
100
AcDbLine
 62
9
  6
CONTINUOUS
 10
120.5762188025
 20
296.9669373674
 11
120.2761808143
 21
296.9669373674
  0
LINE
  5
393
100
AcDbEntity
  8
94673901000_BL6
100
AcDbLine
 62
9
  6
CONTINUOUS
 10
123.2233310646
 20
298.3088309078
 11
129.729030564
 21
298.3088309078
  0
LINE
  5
394
100
AcDbEntity
  8
94673901000_BL6
100
AcDbLine
 62
7
  6
CONTINUOUS
 10
128.4761808143
 20
279.9669373674
 11
126.4761808143
 21
281.1216379058
  0
LINE
  5
395
100
AcDbEntity
  8
94673901000_BL6
100
AcDbLine
 62
9
  6
CONTINUOUS
 10
130.1737046416
 20
261.1803697493
 11
129.729030564
 21
261.6250438269
  0
LINE
  5
396
100
AcDbEntity
  8
94673901000_BL6
100
AcDbLine
 62
9
  6
CONTINUOUS
 10
120.7896131963
 20
296.7644611947
 11
121.2342872739
 21
296.3197871171
  0
LINE
  5
397
100
AcDbEntity
  8
94673901000_BL6
100
AcDbLine
 62
9
  6
CONTINUOUS
 10
122.778656987
 20
298.7535049854
 11
123.2233310646
 21
298.3088309078
  0
LINE
  5
398
100
AcDbEntity
  8
94673901000_BL6
100
AcDbLine
 62
7
  6
CONTINUOUS
 10
120.5816890939
 20
262.9669948872
 11
120.5816890939
 21
296.9668798476
  0
LINE
  5
399
100
AcDbEntity
  8
94673901000_BL6
100
AcDbLine
 62
9
  6
CONTINUOUS
 10
121.2342872739
 20
263.6140876177
 11
121.2342872739
 21
296.3197871171
  0
LINE
  5
39A
100
AcDbEntity
  8
94673901000_BL6
100
AcDbLine
 62
9
  6
CONTINUOUS
 10
123.2233310646
 20
261.6250438269
 11
123.2233310646
 21
298.3088309078
  0
LINE
  5
39B
100
AcDbEntity
  8
94673901000_BL6
100
AcDbLine
 62
7
  6
CONTINUOUS
 10
124.9761808143
 20
280.3669373674
 11
124.9761808143
 21
279.5669373674
  0
LINE
  5
39C
100
AcDbEntity
  8
94673901000_BL6
100
AcDbLine
 62
7
  6
CONTINUOUS
 10
126.4761808143
 20
281.1216379058
 11
126.4761808143
 21
280.3669373674
  0
LINE
  5
39D
100
AcDbEntity
  8
94673901000_BL6
100
AcDbLine
 62
7
  6
CONTINUOUS
 10
126.4761808143
 20
279.5669373674
 11
126.4761808143
 21
278.812236829
  0
LINE
  5
39E
100
AcDbEntity
  8
94673901000_BL6
100
AcDbLine
 62
9
  6
CONTINUOUS
 10
129.729030564
 20
261.6250438269
 11
129.729030564
 21
298.3088309078
  0
LINE
  5
39F
100
AcDbEntity
  8
94673901000_BL6
100
AcDbLine
 62
9
  6
CONTINUOUS
 10
129.729030564
 20
298.3088309078
 11
130.1737046416
 21
298.7535049854
  0
LINE
  5
3A0
100
AcDbEntity
  8
94673901000_BL6
100
AcDbLine
 62
9
  6
CONTINUOUS
 10
121.2342872739
 20
263.6140876177
 11
120.7896131962
 21
263.16941354
  0
LINE
  5
3A1
100
AcDbEntity
  8
94673901000_BL6
100
AcDbLine
 62
9
  6
CONTINUOUS
 10
123.2233310646
 20
261.6250438269
 11
122.778656987
 21
261.1803697493
  0
LINE
  5
3A2
100
AcDbEntity
  8
94673901000_BL6
100
AcDbLine
 62
7
  6
CONTINUOUS
 10
126.4761808143
 20
278.812236829
 11
128.4761808143
 21
279.9669373674
  0
LINE
  5
3A3
100
AcDbEntity
  8
94673901000_BL6
100
AcDbLine
 62
7
  6
CONTINUOUS
 10
31.4896065436
 20
259.9669386088
 11
37.8031801219
 21
260.6305219316
  0
LINE
  5
3A4
100
AcDbEntity
  8
94673901000_BL6
100
AcDbLine
 62
9
  6
CONTINUOUS
 10
31.4900206889
 20
262.9505478233
 11
37.8031801219
 21
263.6140876177
  0
LINE
  5
3A5
100
AcDbEntity
  8
94673901000_BL6
100
AcDbLine
 62
7
  6
CONTINUOUS
 10
31.4895947321
 20
259.9669373674
 11
29.4895947321
 21
259.9669373674
  0
LINE
  5
3A6
100
AcDbEntity
  8
94673901000_BL6
100
AcDbLine
 62
9
  6
CONTINUOUS
 10
31.4895947321
 20
262.9669373674
 11
29.4895947321
 21
262.9669373674
  0
LINE
  5
3A7
100
AcDbEntity
  8
94673901000_BL6
100
AcDbLine
 62
9
  6
CONTINUOUS
 10
40.4895947321
 20
263.6140876177
 11
37.803180122
 21
263.6140876255
  0
LINE
  5
3A8
100
AcDbEntity
  8
94673901000_BL6
100
AcDbLine
 62
7
  6
CONTINUOUS
 10
40.4895947321
 20
278.812236829
 11
40.6895947321
 21
278.812236829
  0
LINE
  5
3A9
100
AcDbEntity
  8
94673901000_BL6
100
AcDbLine
 62
7
  6
CENTER
 10
21.9895947321
 20
279.9669373674
 11
43.6895947321
 21
279.9669373674
  0
LINE
  5
3AA
100
AcDbEntity
  8
94673901000_BL6
100
AcDbLine
 62
7
  6
CONTINUOUS
 10
40.4895947321
 20
279.9669373674
 11
40.6895947321
 21
279.9669373674
  0
LINE
  5
3AB
100
AcDbEntity
  8
94673901000_BL6
100
AcDbLine
 62
7
  6
CONTINUOUS
 10
40.4895947321
 20
281.1216379058
 11
40.6895947321
 21
281.1216379058
  0
LINE
  5
3AC
100
AcDbEntity
  8
94673901000_BL6
100
AcDbLine
 62
9
  6
CONTINUOUS
 10
40.4895947321
 20
296.3197871171
 11
37.8031801219
 21
296.3197871171
  0
LINE
  5
3AD
100
AcDbEntity
  8
94673901000_BL6
100
AcDbLine
 62
9
  6
CONTINUOUS
 10
29.4895947321
 20
296.9669373674
 11
31.4895947321
 21
296.9669373674
  0
LINE
  5
3AE
100
AcDbEntity
  8
94673901000_BL6
100
AcDbLine
 62
7
  6
CONTINUOUS
 10
29.4895947321
 20
299.9669373674
 11
31.4895947321
 21
299.9669373674
  0
LINE
  5
3AF
100
AcDbEntity
  8
94673901000_BL6
100
AcDbLine
 62
9
  6
CONTINUOUS
 10
37.8031801219
 20
296.3197871171
 11
31.4900206889
 21
296.9833269114
  0
LINE
  5
3B0
100
AcDbEntity
  8
94673901000_BL6
100
AcDbLine
 62
7
  6
CONTINUOUS
 10
37.8031801219
 20
299.3033528032
 11
31.4900206889
 21
299.9668925975
  0
LINE
  5
3B1
100
AcDbEntity
  8
94673901000_BL6
100
AcDbLine
 62
7
  6
CONTINUOUS
 10
31.4895947321
 20
262.9669373674
 11
31.4895947321
 21
296.9669373674
  0
LINE
  5
3B2
100
AcDbEntity
  8
94673901000_BL6
100
AcDbLine
 62
9
  6
CONTINUOUS
 10
37.8031801219
 20
296.3197871171
 11
37.8031801219
 21
263.6140876177
  0
LINE
  5
3B3
100
AcDbEntity
  8
94673901000_BL6
100
AcDbLine
 62
7
  6
CONTINUOUS
 10
40.4895947321
 20
296.3197871171
 11
40.4895947321
 21
263.6140876177
  0
LINE
  5
3B4
100
AcDbEntity
  8
94673901000_BL6
100
AcDbLine
 62
7
  6
CONTINUOUS
 10
40.6895947321
 20
281.1216379058
 11
40.6895947321
 21
278.812236829
  0
LINE
  5
3B5
100
AcDbEntity
  8
94673901000_BL6
100
AcDbLine
 62
7
  6
CENTER
 10
21.9895947321
 20
96.5375000877
 11
43.6895947321
 21
96.5375000877
  0
ARC
  5
3B6
100
AcDbEntity
  8
94673901000_BL6
100
AcDbCircle
 62
7
  6
CONTINUOUS
 10
122.5868241312
 20
296.9343582317
 40
2.0327511965
100
AcDbArc
 50
98.3271761057
 51
103.9682282896
  0
ARC
  5
3B7
100
AcDbEntity
  8
94673901000_BL6
100
AcDbCircle
 62
7
  6
CONTINUOUS
 10
122.5868108783
 20
262.9994416452
 40
2.0326753592
100
AcDbArc
 50
256.0316145017
 51
261.3540527656
  0
ARC
  5
3B8
100
AcDbEntity
  8
94673901000_BL6
100
AcDbCircle
 62
7
  6
CONTINUOUS
 10
122.5842466183
 20
262.9889526497
 40
2.021877556
100
AcDbArc
 50
253.6053211145
 51
256.0303826762
  0
ARC
  5
3B9
100
AcDbEntity
  8
94673901000_BL6
100
AcDbCircle
 62
7
  6
CONTINUOUS
 10
122.5842464255
 20
296.9449229819
 40
2.021876633
100
AcDbArc
 50
103.9696077065
 51
106.3951342496
  0
ARC
  5
3BA
100
AcDbEntity
  8
94673901000_BL6
100
AcDbCircle
 62
7
  6
CONTINUOUS
 10
122.5754447425
 20
262.9679688512
 40
1.9992641942
100
AcDbArc
 50
180.029560712
 51
253.6775766837
  0
ARC
  5
3BB
100
AcDbEntity
  8
94673901000_BL6
100
AcDbCircle
 62
7
  6
CONTINUOUS
 10
122.5754446624
 20
296.965905914
 40
1.9992641142
100
AcDbArc
 50
106.3228799202
 51
179.970440159
  0
ARC
  5
3BC
100
AcDbEntity
  8
94673901000_BL6
100
AcDbCircle
 62
9
  6
CONTINUOUS
 10
130.1491206816
 20
296.741627501
 40
2.0120276794
100
AcDbArc
 50
73.0166699288
 51
89.2999141102
  0
ARC
  5
3BD
100
AcDbEntity
  8
94673901000_BL6
100
AcDbCircle
 62
9
  6
CONTINUOUS
 10
130.1491214908
 20
263.1922423694
 40
2.0120228054
100
AcDbArc
 50
270.7000645416
 51
286.9806663763
  0
ARC
  5
3BE
100
AcDbEntity
  8
94673901000_BL6
100
AcDbCircle
 62
9
  6
CONTINUOUS
 10
129.7082556827
 20
263.6382292031
 40
2.0099748626
100
AcDbArc
 50
341.5926574538
 51
348.7688397749
  0
ARC
  5
3BF
100
AcDbEntity
  8
94673901000_BL6
100
AcDbCircle
 62
9
  6
CONTINUOUS
 10
129.7082556827
 20
296.2956455317
 40
2.0099748626
100
AcDbArc
 50
11.2311602251
 51
18.4073425462
  0
ARC
  5
3C0
100
AcDbEntity
  8
94673901000_BL6
100
AcDbCircle
 62
9
  6
CONTINUOUS
 10
129.7270635734
 20
263.6324083836
 40
1.9902912668
100
AcDbArc
 50
341.2911395931
 51
341.5806823987
  0
ARC
  5
3C1
100
AcDbEntity
  8
94673901000_BL6
100
AcDbCircle
 62
9
  6
CONTINUOUS
 10
129.7270635719
 20
296.3014663506
 40
1.9902912685
100
AcDbArc
 50
18.4193176014
 51
18.7088604067
  0
ARC
  5
3C2
100
AcDbEntity
  8
94673901000_BL6
100
AcDbCircle
 62
7
  6
CONTINUOUS
 10
37.4895947321
 20
296.3197871171
 40
3.0
100
AcDbArc
 50
0.0
 51
83.9999999972
  0
ARC
  5
3C3
100
AcDbEntity
  8
94673901000_BL6
100
AcDbCircle
 62
7
  6
CONTINUOUS
 10
37.4895947321
 20
263.6140876177
 40
3.0
100
AcDbArc
 50
276.0
 51
360.0
  0
SPLINE
  5
3C4
100
AcDbEntity
  8
94673901000_BL6
100
AcDbSpline
 62
9
  6
CONTINUOUS
 70
0
 71
3
 72
16
 73
12
 74
0
 42
0.0000001
 43
0.0000001
 44
0.0000000001
 40
0.0
 40
0.0
 40
0.0
 40
0.0
 40
0.0518457162
 40
0.0996592902
 40
0.1687964974
 40
0.2518181064
 40
0.4066326948
 40
0.5218483669
 40
0.6336359316
 40
0.7750325309
 40
1.0
 40
1.0
 40
1.0
 40
1.0
 10
122.5831674123
 20
298.9614290878
 30
0.0
 10
122.5789488115
 20
298.9583781053
 30
0.0
 10
122.5708135586
 20
298.9488990682
 30
0.0
 10
122.581732081
 20
298.932636534
 30
0.0
 10
122.5978647505
 20
298.9216214646
 30
0.0
 10
122.6244323482
 20
298.9056900441
 30
0.0
 10
122.65573358
 20
298.8879112558
 30
0.0
 10
122.6797872937
 20
298.857909535
 30
0.0
 10
122.7026817083
 20
298.8274861617
 30
0.0
 10
122.7377448345
 20
298.8025778639
 30
0.0
 10
122.7885174609
 20
298.7738302601
 30
0.0
 10
122.778656987
 20
298.7535049854
 30
0.0
  0
SPLINE
  5
3C5
100
AcDbEntity
  8
94673901000_BL6
100
AcDbSpline
 62
9
  6
CONTINUOUS
 70
0
 71
3
 72
9
 73
5
 74
0
 42
0.0000001
 43
0.0000001
 44
0.0000000001
 40
0.0
 40
0.0
 40
0.0
 40
0.0
 40
0.507127267
 40
1.0
 40
1.0
 40
1.0
 40
1.0
 10
130.2821024554
 20
298.869725398
 30
0.0
 10
130.2647247821
 20
298.849233204
 30
0.0
 10
130.2403839282
 20
298.8111905435
 30
0.0
 10
130.1623067121
 20
298.7769993987
 30
0.0
 10
130.1737046416
 20
298.7535049854
 30
0.0
  0
SPLINE
  5
3C6
100
AcDbEntity
  8
94673901000_BL6
100
AcDbSpline
 62
9
  6
CONTINUOUS
 70
0
 71
3
 72
9
 73
5
 74
0
 42
0.0000001
 43
0.0000001
 44
0.0000000001
 40
0.0
 40
0.0
 40
0.0
 40
0.0
 40
0.5004894952
 40
1.0
 40
1.0
 40
1.0
 40
1.0
 10
131.6121892146
 20
262.9940036188
 30
0.0
 10
131.481464261
 20
262.6079895383
 30
0.0
 10
130.9669466005
 20
261.9013305756
 30
0.0
 10
130.1357577225
 20
261.6294878077
 30
0.0
 10
129.729030564
 20
261.6250438269
 30
0.0
  0
SPLINE
  5
3C7
100
AcDbEntity
  8
94673901000_BL6
100
AcDbSpline
 62
9
  6
CONTINUOUS
 70
0
 71
3
 72
11
 73
7
 74
0
 42
0.0000001
 43
0.0000001
 44
0.0000000001
 40
0.0
 40
0.0
 40
0.0
 40
0.0
 40
0.2496681654
 40
0.5
 40
0.7503318346
 40
1.0
 40
1.0
 40
1.0
 40
1.0
 10
123.2233310646
 20
261.6250438269
 30
0.0
 10
122.9658352914
 20
261.6278572763
 30
0.0
 10
122.4458403848
 20
261.7360702003
 30
0.0
 10
121.7889881747
 20
262.1797447276
 30
0.0
 10
121.3453136472
 20
262.8365969377
 30
0.0
 10
121.2371007233
 20
263.3565918444
 30
0.0
 10
121.2342872739
 20
263.6140876177
 30
0.0
  0
SPLINE
  5
3C8
100
AcDbEntity
  8
94673901000_BL6
100
AcDbSpline
 62
9
  6
CONTINUOUS
 70
0
 71
3
 72
11
 73
7
 74
0
 42
0.0000001
 43
0.0000001
 44
0.0000000001
 40
0.0
 40
0.0
 40
0.0
 40
0.0
 40
0.2496374777
 40
0.5
 40
0.7503625223
 40
1.0
 40
1.0
 40
1.0
 40
1.0
 10
122.7786569872
 20
261.1803697496
 30
0.0
 10
122.5211909074
 20
261.1831828754
 30
0.0
 10
122.0012296814
 20
261.2914435322
 30
0.0
 10
121.3441871062
 20
261.7349436592
 30
0.0
 10
120.9006869791
 20
262.3919862344
 30
0.0
 10
120.7924263223
 20
262.9119474605
 30
0.0
 10
120.7896131965
 20
263.1694135403
 30
0.0
  0
SPLINE
  5
3C9
100
AcDbEntity
  8
94673901000_BL6
100
AcDbSpline
 62
9
  6
CONTINUOUS
 70
0
 71
3
 72
11
 73
7
 74
0
 42
0.0000001
 43
0.0000001
 44
0.0000000001
 40
0.0
 40
0.0
 40
0.0
 40
0.0
 40
0.2496681654
 40
0.5
 40
0.7503318346
 40
1.0
 40
1.0
 40
1.0
 40
1.0
 10
121.2342872739
 20
296.3197871171
 30
0.0
 10
121.2371007233
 20
296.5772828903
 30
0.0
 10
121.3453136472
 20
297.097277797
 30
0.0
 10
121.7889881747
 20
297.7541300071
 30
0.0
 10
122.4458403848
 20
298.1978045345
 30
0.0
 10
122.9658352914
 20
298.3060174584
 30
0.0
 10
123.2233310646
 20
298.3088309078
 30
0.0
  0
SPLINE
  5
3CA
100
AcDbEntity
  8
94673901000_BL6
100
AcDbSpline
 62
9
  6
CONTINUOUS
 70
0
 71
3
 72
11
 73
7
 74
0
 42
0.0000001
 43
0.0000001
 44
0.0000000001
 40
0.0
 40
0.0
 40
0.0
 40
0.0
 40
0.2496374777
 40
0.5
 40
0.7503625223
 40
1.0
 40
1.0
 40
1.0
 40
1.0
 10
120.7896131965
 20
296.7644611944
 30
0.0
 10
120.7924263223
 20
297.0219272743
 30
0.0
 10
120.9006869791
 20
297.5418885003
 30
0.0
 10
121.3441871062
 20
298.1989310755
 30
0.0
 10
122.0012296814
 20
298.6424312026
 30
0.0
 10
122.5211909074
 20
298.7506918594
 30
0.0
 10
122.7786569872
 20
298.7535049852
 30
0.0
  0
SPLINE
  5
3CB
100
AcDbEntity
  8
94673901000_BL6
100
AcDbSpline
 62
9
  6
CONTINUOUS
 70
0
 71
3
 72
9
 73
5
 74
0
 42
0.0000001
 43
0.0000001
 44
0.0000000001
 40
0.0
 40
0.0
 40
0.0
 40
0.0
 40
0.4995105048
 40
1.0
 40
1.0
 40
1.0
 40
1.0
 10
129.729030564
 20
298.3088309078
 30
0.0
 10
130.1357577225
 20
298.304386927
 30
0.0
 10
130.9669466005
 20
298.0325441592
 30
0.0
 10
131.481464261
 20
297.3258851965
 30
0.0
 10
131.6121892146
 20
296.939871116
 30
0.0
  0
SPLINE
  5
3CC
100
AcDbEntity
  8
94673901000_BL6
100
AcDbSpline
 62
9
  6
CONTINUOUS
 70
0
 71
3
 72
15
 73
11
 74
0
 42
0.0000001
 43
0.0000001
 44
0.0000000001
 40
0.0
 40
0.0
 40
0.0
 40
0.0
 40
0.0496003836
 40
0.098122615
 40
0.1682822838
 40
0.2520846427
 40
0.4081783296
 40
0.5242973605
 40
0.7764562012
 40
1.0
 40
1.0
 40
1.0
 40
1.0
 10
120.5816890939
 20
262.9669948872
 30
0.0
 10
120.5847625963
 20
262.9630072956
 30
0.0
 10
120.5947648377
 20
262.9556604663
 30
0.0
 10
120.6104029261
 20
262.9676136974
 30
0.0
 10
120.6214917723
 20
262.984131027
 30
0.0
 10
120.6374554359
 20
263.0115379841
 30
0.0
 10
120.654833266
 20
263.0434744061
 30
0.0
 10
120.697426479
 20
263.0781905928
 30
0.0
 10
120.7344012695
 20
263.1130564567
 30
0.0
 10
120.7691942819
 20
263.179309263
 30
0.0
 10
120.7896131962
 20
263.16941354
 30
0.0
  0
SPLINE
  5
3CD
100
AcDbEntity
  8
94673901000_BL6
100
AcDbSpline
 62
9
  6
CONTINUOUS
 70
0
 71
3
 72
15
 73
11
 74
0
 42
0.0000001
 43
0.0000001
 44
0.0000000001
 40
0.0
 40
0.0
 40
0.0
 40
0.0
 40
0.0496003836
 40
0.098122615
 40
0.1682822838
 40
0.2520846427
 40
0.4081783296
 40
0.5242973605
 40
0.7764562012
 40
1.0
 40
1.0
 40
1.0
 40
1.0
 10
120.5816890939
 20
296.9668798476
 30
0.0
 10
120.5847625963
 20
296.9708674392
 30
0.0
 10
120.5947648377
 20
296.9782142685
 30
0.0
 10
120.6104029261
 20
296.9662610374
 30
0.0
 10
120.6214917723
 20
296.9497437077
 30
0.0
 10
120.6374554359
 20
296.9223367506
 30
0.0
 10
120.654833266
 20
296.8904003286
 30
0.0
 10
120.697426479
 20
296.8556841419
 30
0.0
 10
120.7344012695
 20
296.8208182781
 30
0.0
 10
120.7691942819
 20
296.7545654718
 30
0.0
 10
120.7896131963
 20
296.7644611947
 30
0.0
  0
SPLINE
  5
3CE
100
AcDbEntity
  8
94673901000_BL6
100
AcDbSpline
 62
9
  6
CONTINUOUS
 70
0
 71
3
 72
9
 73
5
 74
0
 42
0.0000001
 43
0.0000001
 44
0.0000000001
 40
0.0
 40
0.0
 40
0.0
 40
0.0
 40
0.5071087384
 40
1.0
 40
1.0
 40
1.0
 40
1.0
 10
130.2821142637
 20
261.0641354137
 30
0.0
 10
130.2647329591
 20
261.084627261
 30
0.0
 10
130.2403971098
 20
261.1226817439
 30
0.0
 10
130.1623049829
 20
261.1568717716
 30
0.0
 10
130.1737046416
 20
261.1803697493
 30
0.0
  0
SPLINE
  5
3CF
100
AcDbEntity
  8
94673901000_BL6
100
AcDbSpline
 62
9
  6
CONTINUOUS
 70
0
 71
3
 72
16
 73
12
 74
0
 42
0.0000001
 43
0.0000001
 44
0.0000000001
 40
0.0
 40
0.0
 40
0.0
 40
0.0
 40
0.0518457162
 40
0.0996592902
 40
0.1687964974
 40
0.2518181064
 40
0.4066326948
 40
0.5218483669
 40
0.6336359316
 40
0.7750325309
 40
1.0
 40
1.0
 40
1.0
 40
1.0
 10
122.5831674123
 20
260.9724456469
 30
0.0
 10
122.5789488115
 20
260.9754966294
 30
0.0
 10
122.5708135586
 20
260.9849756665
 30
0.0
 10
122.581732081
 20
261.0012382008
 30
0.0
 10
122.5978647505
 20
261.0122532701
 30
0.0
 10
122.6244323482
 20
261.0281846906
 30
0.0
 10
122.65573358
 20
261.0459634789
 30
0.0
 10
122.6797872937
 20
261.0759651998
 30
0.0
 10
122.7026817083
 20
261.106388573
 30
0.0
 10
122.7377448345
 20
261.1312968708
 30
0.0
 10
122.7885174609
 20
261.1600444747
 30
0.0
 10
122.778656987
 20
261.1803697493
 30
0.0
  0
SPLINE
  5
3D0
100
AcDbEntity
  8
94673901000_BL6
100
AcDbSpline
 62
9
  6
CONTINUOUS
 70
0
 71
3
 72
14
 73
10
 74
0
 42
0.0000001
 43
0.0000001
 44
0.0000000001
 40
0.0
 40
0.0
 40
0.0
 40
0.0
 40
0.3776820376
 40
0.5481208497
 40
0.6976595954
 40
0.820892234
 40
0.9133709115
 40
0.9724701644
 40
1.0
 40
1.0
 40
1.0
 40
1.0
 10
37.8031801219
 20
263.6140876177
 30
0.0
 10
37.8424145452
 20
263.2366733113
 30
0.0
 10
37.8890082266
 20
262.6875728142
 30
0.0
 10
37.9240208069
 20
261.9878715038
 30
0.0
 10
37.9328068925
 20
261.5416142732
 30
0.0
 10
37.9281073797
 20
261.1773618601
 30
0.0
 10
37.9034987205
 20
260.8950646738
 30
0.0
 10
37.878107485
 20
260.7306745905
 30
0.0
 10
37.8306871757
 20
260.6334130388
 30
0.0
 10
37.8031801219
 20
260.6305219316
 30
0.0
  0
SPLINE
  5
3D1
100
AcDbEntity
  8
94673901000_BL6
100
AcDbSpline
 62
9
  6
CONTINUOUS
 70
0
 71
3
 72
14
 73
10
 74
0
 42
0.0000001
 43
0.0000001
 44
0.0000000001
 40
0.0
 40
0.0
 40
0.0
 40
0.0
 40
0.0275298356
 40
0.0866290885
 40
0.179107766
 40
0.3023404046
 40
0.4518791503
 40
0.6223179624
 40
1.0
 40
1.0
 40
1.0
 40
1.0
 10
37.8031801219
 20
299.3033528032
 30
0.0
 10
37.8306871757
 20
299.300461696
 30
0.0
 10
37.878107485
 20
299.2032001443
 30
0.0
 10
37.9034987205
 20
299.0388100609
 30
0.0
 10
37.9281073797
 20
298.7565128747
 30
0.0
 10
37.9328068925
 20
298.3922604615
 30
0.0
 10
37.9240208069
 20
297.946003231
 30
0.0
 10
37.8890082266
 20
297.2463019205
 30
0.0
 10
37.8424145452
 20
296.6972014235
 30
0.0
 10
37.8031801219
 20
296.3197871171
 30
0.0
  0
SPLINE
  5
3D2
100
AcDbEntity
  8
94673901000_BL6
100
AcDbSpline
 62
7
  6
CONTINUOUS
 70
0
 71
3
 72
13
 73
9
 74
0
 42
0.0000001
 43
0.0000001
 44
0.0000000001
 40
0.0
 40
0.0
 40
0.0
 40
0.0
 40
0.0235352288
 40
0.0753518244
 40
0.1578016002
 40
0.2707522048
 40
0.5831770189
 40
1.0
 40
1.0
 40
1.0
 40
1.0
 10
31.4900206889
 20
299.9668925975
 30
0.0
 10
31.4978534806
 20
299.9660693379
 30
0.0
 10
31.5111680121
 20
299.9376859204
 30
0.0
 10
31.5210879112
 20
299.8902641885
 30
0.0
 10
31.5324580875
 20
299.8059363477
 30
0.0
 10
31.5449800001
 20
299.6377442375
 30
0.0
 10
31.5538335478
 20
299.3549870644
 30
0.0
 10
31.5545264104
 20
299.111272593
 30
0.0
 10
31.5537891562
 20
298.971786987
 30
0.0
  0
SPLINE
  5
3D3
100
AcDbEntity
  8
94673901000_BL6
100
AcDbSpline
 62
7
  6
CONTINUOUS
 70
0
 71
3
 72
9
 73
5
 74
0
 42
0.0000001
 43
0.0000001
 44
0.0000000001
 40
0.0
 40
0.0
 40
0.0
 40
0.0
 40
0.2192189109
 40
1.0
 40
1.0
 40
1.0
 40
1.0
 10
31.5537891562
 20
298.971786987
 30
0.0
 10
31.5530207335
 20
298.8264044143
 30
0.0
 10
31.5434576075
 20
298.1632574836
 30
0.0
 10
31.5168998466
 20
297.5004379099
 30
0.0
 10
31.4900206889
 20
296.9833269114
 30
0.0
  0
SPLINE
  5
3D4
100
AcDbEntity
  8
94673901000_BL6
100
AcDbSpline
 62
7
  6
CONTINUOUS
 70
0
 71
3
 72
13
 73
9
 74
0
 42
0.0000001
 43
0.0000001
 44
0.0000000001
 40
0.0
 40
0.0
 40
0.0
 40
0.0
 40
0.023535275
 40
0.0753518635
 40
0.1578016021
 40
0.2707521577
 40
0.5831769056
 40
1.0
 40
1.0
 40
1.0
 40
1.0
 10
31.4900206889
 20
259.9669821372
 30
0.0
 10
31.4978534153
 20
259.96780539
 30
0.0
 10
31.5111679037
 20
259.9961884523
 30
0.0
 10
31.5210877571
 20
260.0436097266
 30
0.0
 10
31.5324579069
 20
260.1279366324
 30
0.0
 10
31.544979813
 20
260.2961269642
 30
0.0
 10
31.5538334312
 20
260.5788812102
 30
0.0
 10
31.5545263968
 20
260.8225931904
 30
0.0
 10
31.5537892109
 20
260.962077398
 30
0.0
  0
SPLINE
  5
3D5
100
AcDbEntity
  8
94673901000_BL6
100
AcDbSpline
 62
7
  6
CONTINUOUS
 70
0
 71
3
 72
9
 73
5
 74
0
 42
0.0000001
 43
0.0000001
 44
0.0000000001
 40
0.0
 40
0.0
 40
0.0
 40
0.0
 40
0.2192185014
 40
1.0
 40
1.0
 40
1.0
 40
1.0
 10
31.5537892109
 20
260.962077398
 30
0.0
 10
31.5530208492
 20
261.1074604557
 30
0.0
 10
31.5434578733
 20
261.7706108391
 30
0.0
 10
31.5169000005
 20
262.4334338639
 30
0.0
 10
31.4900206889
 20
262.9505478233
 30
0.0
  0
ELLIPSE
  5
3D6
100
AcDbEntity
  8
94673901000_BL6
100
AcDbEllipse
 62
7
  6
CONTINUOUS
 10
60.0326880948
 20
262.9669373674
 30
0.0
 11
28.5430933627
 21
0.0
 31
0.0
 40
0.1051042353
 41
-3.1415926536
 42
-3.1361294451
  0
ELLIPSE
  5
3D7
100
AcDbEntity
  8
94673901000_BL6
100
AcDbEllipse
 62
7
  6
CONTINUOUS
 10
60.0326880948
 20
296.9669373674
 30
0.0
 11
28.5430933627
 21
0.0
 31
0.0
 40
0.1051042353
 41
3.1361294451
 42
3.1415926536
  0
ENDBLK
  5
3D8
100
AcDbEntity
  8
0
  6
BYBLOCK
 62
0
100
AcDbBlockEnd
  0
BLOCK
  5
3D9
100
AcDbEntity
  8
94528905000_M_BL7
100
AcDbBlockBegin
  2
94528905000_M_BL7
 70
64
 10
80.7342849478
 20
310.0669373674
  3
94528905000_M_BL7
  1

  0
LINE
  5
3DA
100
AcDbEntity
  8
94528905000_M_BL7
100
AcDbLine
 62
7
  6
CONTINUOUS
 10
125.6011808143
 20
309.5513929108
 11
127.3511808143
 21
309.5513929108
  0
LINE
  5
3DB
100
AcDbEntity
  8
94528905000_M_BL7
100
AcDbLine
 62
7
  6
CONTINUOUS
 10
127.3511808143
 20
312.582481824
 11
125.6011808143
 21
312.582481824
  0
LINE
  5
3DC
100
AcDbEntity
  8
94528905000_M_BL7
100
AcDbLine
 62
7
  6
CONTINUOUS
 10
124.7261808143
 20
311.0669373674
 11
125.6011808143
 21
309.5513929108
  0
LINE
  5
3DD
100
AcDbEntity
  8
94528905000_M_BL7
100
AcDbLine
 62
7
  6
CONTINUOUS
 10
128.2261808143
 20
311.0669373674
 11
127.3511808143
 21
312.582481824
  0
LINE
  5
3DE
100
AcDbEntity
  8
94528905000_M_BL7
100
AcDbLine
 62
7
  6
CONTINUOUS
 10
125.6011808143
 20
312.582481824
 11
124.7261808143
 21
311.0669373674
  0
LINE
  5
3DF
100
AcDbEntity
  8
94528905000_M_BL7
100
AcDbLine
 62
7
  6
CONTINUOUS
 10
127.3511808143
 20
309.5513929108
 11
128.2261808143
 21
311.0669373674
  0
CIRCLE
  5
3E0
100
AcDbEntity
  8
94528905000_M_BL7
100
AcDbCircle
 62
7
  6
CONTINUOUS
 10
126.4761808143
 20
310.0669373674
 40
5.5
  0
CIRCLE
  5
3E1
100
AcDbEntity
  8
94528905000_M_BL7
100
AcDbCircle
 62
7
  6
CONTINUOUS
 10
126.4761808143
 20
311.0669373674
 40
1.75
  0
CIRCLE
  5
3E2
100
AcDbEntity
  8
94528905000_M_BL7
100
AcDbCircle
 62
7
  6
CONTINUOUS
 10
126.4761808143
 20
311.0669373674
 40
1.515
  0
CIRCLE
  5
3E3
100
AcDbEntity
  8
94528905000_M_BL7
100
AcDbCircle
 62
7
  6
CONTINUOUS
 10
126.4761808143
 20
307.5669373674
 40
0.75
  0
ARC
  5
3E4
100
AcDbEntity
  8
94528905000_M_BL7
100
AcDbCircle
 62
7
  6
CONTINUOUS
 10
26.143843421
 20
311.0669373674
 40
4.0
100
AcDbArc
 50
326.8389561101
 51
33.1610438899
  0
ENDBLK
  5
3E5
100
AcDbEntity
  8
0
  6
BYBLOCK
 62
0
100
AcDbBlockEnd
  0
BLOCK
  5
3E6
100
AcDbEntity
  8
94673901000_BL8
100
AcDbBlockBegin
  2
94673901000_BL8
 70
64
 10
79.6828877733
 20
939.8022187276
  3
94673901000_BL8
  1

  0
LINE
  5
3E7
100
AcDbEntity
  8
94673901000_BL8
100
AcDbLine
 62
7
  6
CONTINUOUS
 10
126.4761808143
 20
1768.812236829
 11
128.4761808143
 21
1769.9669373674
  0
LINE
  5
3E8
100
AcDbEntity
  8
94673901000_BL8
100
AcDbLine
 62
9
  6
CONTINUOUS
 10
129.729030564
 20
1788.3088309078
 11
130.1737046416
 21
1788.7535049854
  0
LINE
  5
3E9
100
AcDbEntity
  8
94673901000_BL8
100
AcDbLine
 62
9
  6
CONTINUOUS
 10
121.2342872739
 20
1753.6140876177
 11
120.7896131962
 21
1753.16941354
  0
LINE
  5
3EA
100
AcDbEntity
  8
94673901000_BL8
100
AcDbLine
 62
9
  6
CONTINUOUS
 10
123.2233310646
 20
1751.6250438269
 11
122.778656987
 21
1751.1803697493
  0
LINE
  5
3EB
100
AcDbEntity
  8
94673901000_BL8
100
AcDbLine
 62
7
  6
CONTINUOUS
 10
120.5816890939
 20
1752.9669948872
 11
120.5816890939
 21
1786.9668798476
  0
LINE
  5
3EC
100
AcDbEntity
  8
94673901000_BL8
100
AcDbLine
 62
9
  6
CONTINUOUS
 10
121.2342872739
 20
1753.6140876177
 11
121.2342872739
 21
1786.3197871171
  0
LINE
  5
3ED
100
AcDbEntity
  8
94673901000_BL8
100
AcDbLine
 62
9
  6
CONTINUOUS
 10
123.2233310646
 20
1751.6250438269
 11
123.2233310646
 21
1788.3088309078
  0
LINE
  5
3EE
100
AcDbEntity
  8
94673901000_BL8
100
AcDbLine
 62
7
  6
CONTINUOUS
 10
124.9761808143
 20
1770.3669373674
 11
124.9761808143
 21
1769.5669373674
  0
LINE
  5
3EF
100
AcDbEntity
  8
94673901000_BL8
100
AcDbLine
 62
7
  6
CONTINUOUS
 10
126.4761808143
 20
1771.1216379058
 11
126.4761808143
 21
1770.3669373674
  0
LINE
  5
3F0
100
AcDbEntity
  8
94673901000_BL8
100
AcDbLine
 62
7
  6
CONTINUOUS
 10
126.4761808143
 20
1769.5669373674
 11
126.4761808143
 21
1768.812236829
  0
LINE
  5
3F1
100
AcDbEntity
  8
94673901000_BL8
100
AcDbLine
 62
9
  6
CONTINUOUS
 10
129.729030564
 20
1751.6250438269
 11
129.729030564
 21
1788.3088309078
  0
LINE
  5
3F2
100
AcDbEntity
  8
94673901000_BL8
100
AcDbLine
 62
9
  6
CONTINUOUS
 10
130.1737046416
 20
1751.1803697493
 11
129.729030564
 21
1751.6250438269
  0
LINE
  5
3F3
100
AcDbEntity
  8
94673901000_BL8
100
AcDbLine
 62
9
  6
CONTINUOUS
 10
120.7896131962
 20
1786.7644611947
 11
121.2342872739
 21
1786.3197871171
  0
LINE
  5
3F4
100
AcDbEntity
  8
94673901000_BL8
100
AcDbLine
 62
9
  6
CONTINUOUS
 10
122.778656987
 20
1788.7535049854
 11
123.2233310646
 21
1788.3088309078
  0
LINE
  5
3F5
100
AcDbEntity
  8
94673901000_BL8
100
AcDbLine
 62
7
  6
CONTINUOUS
 10
128.4761808143
 20
1769.9669373674
 11
126.4761808143
 21
1771.1216379058
  0
LINE
  5
3F6
100
AcDbEntity
  8
94673901000_BL8
100
AcDbLine
 62
9
  6
CONTINUOUS
 10
129.729030564
 20
1751.6250438269
 11
123.2233310646
 21
1751.6250438269
  0
LINE
  5
3F7
100
AcDbEntity
  8
94673901000_BL8
100
AcDbLine
 62
9
  6
CONTINUOUS
 10
120.2761808143
 20
1752.9669373674
 11
120.5762188025
 21
1752.9669373674
  0
LINE
  5
3F8
100
AcDbEntity
  8
94673901000_BL8
100
AcDbLine
 62
9
  6
CONTINUOUS
 10
121.2342872739
 20
1753.6140876177
 11
131.6761808143
 21
1753.6140876177
  0
LINE
  5
3F9
100
AcDbEntity
  8
94673901000_BL8
100
AcDbLine
 62
7
  6
CONTINUOUS
 10
124.9761808143
 20
1769.5669373674
 11
126.4761808143
 21
1769.5669373674
  0
LINE
  5
3FA
100
AcDbEntity
  8
94673901000_BL8
100
AcDbLine
 62
7
  6
CENTER
 10
115.5761808142
 20
1769.9669373674
 11
137.3761808145
 21
1769.9669373674
  0
LINE
  5
3FB
100
AcDbEntity
  8
94673901000_BL8
100
AcDbLine
 62
7
  6
CONTINUOUS
 10
126.4761808143
 20
1770.3669373674
 11
124.9761808143
 21
1770.3669373674
  0
LINE
  5
3FC
100
AcDbEntity
  8
94673901000_BL8
100
AcDbLine
 62
9
  6
CONTINUOUS
 10
121.2342872739
 20
1786.3197871171
 11
131.6761808143
 21
1786.3197871171
  0
LINE
  5
3FD
100
AcDbEntity
  8
94673901000_BL8
100
AcDbLine
 62
9
  6
CONTINUOUS
 10
120.5762188025
 20
1786.9669373674
 11
120.2761808143
 21
1786.9669373674
  0
LINE
  5
3FE
100
AcDbEntity
  8
94673901000_BL8
100
AcDbLine
 62
9
  6
CONTINUOUS
 10
123.2233310646
 20
1788.3088309078
 11
129.729030564
 21
1788.3088309078
  0
LINE
  5
3FF
100
AcDbEntity
  8
94673901000_BL8
100
AcDbLine
 62
7
  6
CONTINUOUS
 10
31.4895947321
 20
1752.9669373674
 11
31.4895947321
 21
1786.9669373674
  0
LINE
  5
400
100
AcDbEntity
  8
94673901000_BL8
100
AcDbLine
 62
9
  6
CONTINUOUS
 10
37.8031801219
 20
1786.3197871171
 11
37.8031801219
 21
1753.6140876177
  0
LINE
  5
401
100
AcDbEntity
  8
94673901000_BL8
100
AcDbLine
 62
7
  6
CONTINUOUS
 10
40.4895947321
 20
1786.3197871171
 11
40.4895947321
 21
1753.6140876177
  0
LINE
  5
402
100
AcDbEntity
  8
94673901000_BL8
100
AcDbLine
 62
7
  6
CONTINUOUS
 10
40.6895947321
 20
1771.1216379058
 11
40.6895947321
 21
1768.812236829
  0
LINE
  5
403
100
AcDbEntity
  8
94673901000_BL8
100
AcDbLine
 62
7
  6
CONTINUOUS
 10
31.4896065436
 20
1749.9669386088
 11
37.8031801219
 21
1750.6305219316
  0
LINE
  5
404
100
AcDbEntity
  8
94673901000_BL8
100
AcDbLine
 62
9
  6
CONTINUOUS
 10
31.4900206889
 20
1752.9505478233
 11
37.8031801219
 21
1753.6140876177
  0
LINE
  5
405
100
AcDbEntity
  8
94673901000_BL8
100
AcDbLine
 62
7
  6
CONTINUOUS
 10
31.4895947321
 20
1749.9669373674
 11
29.4895947321
 21
1749.9669373674
  0
LINE
  5
406
100
AcDbEntity
  8
94673901000_BL8
100
AcDbLine
 62
9
  6
CONTINUOUS
 10
31.4895947321
 20
1752.9669373674
 11
29.4895947321
 21
1752.9669373674
  0
LINE
  5
407
100
AcDbEntity
  8
94673901000_BL8
100
AcDbLine
 62
9
  6
CONTINUOUS
 10
40.4895947321
 20
1753.6140876177
 11
37.803180122
 21
1753.6140876255
  0
LINE
  5
408
100
AcDbEntity
  8
94673901000_BL8
100
AcDbLine
 62
7
  6
CONTINUOUS
 10
40.4895947321
 20
1768.812236829
 11
40.6895947321
 21
1768.812236829
  0
LINE
  5
409
100
AcDbEntity
  8
94673901000_BL8
100
AcDbLine
 62
7
  6
CENTER
 10
21.9895947321
 20
1769.9669373674
 11
43.6895947321
 21
1769.9669373674
  0
LINE
  5
40A
100
AcDbEntity
  8
94673901000_BL8
100
AcDbLine
 62
7
  6
CONTINUOUS
 10
40.4895947321
 20
1769.9669373674
 11
40.6895947321
 21
1769.9669373674
  0
LINE
  5
40B
100
AcDbEntity
  8
94673901000_BL8
100
AcDbLine
 62
7
  6
CONTINUOUS
 10
40.4895947321
 20
1771.1216379058
 11
40.6895947321
 21
1771.1216379058
  0
LINE
  5
40C
100
AcDbEntity
  8
94673901000_BL8
100
AcDbLine
 62
9
  6
CONTINUOUS
 10
40.4895947321
 20
1786.3197871171
 11
37.8031801219
 21
1786.3197871171
  0
LINE
  5
40D
100
AcDbEntity
  8
94673901000_BL8
100
AcDbLine
 62
9
  6
CONTINUOUS
 10
29.4895947321
 20
1786.9669373674
 11
31.4895947321
 21
1786.9669373674
  0
LINE
  5
40E
100
AcDbEntity
  8
94673901000_BL8
100
AcDbLine
 62
7
  6
CONTINUOUS
 10
29.4895947321
 20
1789.9669373674
 11
31.4895947321
 21
1789.9669373674
  0
LINE
  5
40F
100
AcDbEntity
  8
94673901000_BL8
100
AcDbLine
 62
9
  6
CONTINUOUS
 10
37.8031801219
 20
1786.3197871171
 11
31.4900206889
 21
1786.9833269114
  0
LINE
  5
410
100
AcDbEntity
  8
94673901000_BL8
100
AcDbLine
 62
7
  6
CONTINUOUS
 10
37.8031801219
 20
1789.3033528032
 11
31.4900206889
 21
1789.9668925975
  0
LINE
  5
411
100
AcDbEntity
  8
94673901000_BL8
100
AcDbLine
 62
7
  6
CONTINUOUS
 10
37.8031801219
 20
90.3010846519
 11
31.4900206889
 21
89.6375448576
  0
LINE
  5
412
100
AcDbEntity
  8
94673901000_BL8
100
AcDbLine
 62
7
  6
CONTINUOUS
 10
25.4895947321
 20
89.6375000877
 11
27.5895947321
 21
89.6375000877
  0
LINE
  5
413
100
AcDbEntity
  8
94673901000_BL8
100
AcDbLine
 62
7
  6
CONTINUOUS
 10
27.5895947321
 20
89.6375000877
 11
31.4895947321
 21
89.6375000877
  0
LINE
  5
414
100
AcDbEntity
  8
94673901000_BL8
100
AcDbLine
 62
9
  6
CONTINUOUS
 10
37.8031801219
 20
93.284650338
 11
31.4900206889
 21
92.6211105437
  0
LINE
  5
415
100
AcDbEntity
  8
94673901000_BL8
100
AcDbLine
 62
9
  6
CONTINUOUS
 10
28.7895947321
 20
92.6375000877
 11
31.4895947321
 21
92.6375000877
  0
LINE
  5
416
100
AcDbEntity
  8
94673901000_BL8
100
AcDbLine
 62
9
  6
CONTINUOUS
 10
40.4895947321
 20
93.284650338
 11
37.8031801221
 21
93.2846503519
  0
LINE
  5
417
100
AcDbEntity
  8
94673901000_BL8
100
AcDbLine
 62
7
  6
CONTINUOUS
 10
27.5895947321
 20
103.4375000877
 11
27.5895947321
 21
89.6375000877
  0
LINE
  5
418
100
AcDbEntity
  8
94673901000_BL8
100
AcDbLine
 62
7
  6
CONTINUOUS
 10
40.4895947321
 20
94.5375000877
 11
40.6895947321
 21
94.5375000877
  0
LINE
  5
419
100
AcDbEntity
  8
94673901000_BL8
100
AcDbLine
 62
9
  6
CONTINUOUS
 10
28.5895947321
 20
89.6375000877
 11
28.5895947321
 21
92.5375000877
  0
LINE
  5
41A
100
AcDbEntity
  8
94673901000_BL8
100
AcDbLine
 62
9
  6
CONTINUOUS
 10
28.5895947321
 20
100.5375000877
 11
28.5895947321
 21
103.4375000877
  0
LINE
  5
41B
100
AcDbEntity
  8
94673901000_BL8
100
AcDbLine
 62
7
  6
CONTINUOUS
 10
40.4895947321
 20
96.5375000877
 11
40.6895947321
 21
96.5375000877
  0
LINE
  5
41C
100
AcDbEntity
  8
94673901000_BL8
100
AcDbLine
 62
7
  6
CONTINUOUS
 10
31.4895947321
 20
92.6375000877
 11
31.4895947321
 21
100.4375000877
  0
LINE
  5
41D
100
AcDbEntity
  8
94673901000_BL8
100
AcDbLine
 62
7
  6
CONTINUOUS
 10
40.4895947321
 20
98.0375000877
 11
40.6895947321
 21
98.0375000877
  0
LINE
  5
41E
100
AcDbEntity
  8
94673901000_BL8
100
AcDbLine
 62
9
  6
CONTINUOUS
 10
40.4895947321
 20
99.7903498374
 11
37.8031801219
 21
99.7903498374
  0
LINE
  5
41F
100
AcDbEntity
  8
94673901000_BL8
100
AcDbLine
 62
9
  6
CONTINUOUS
 10
31.4895947321
 20
100.4375000877
 11
28.7895947321
 21
100.4375000877
  0
LINE
  5
420
100
AcDbEntity
  8
94673901000_BL8
100
AcDbLine
 62
9
  6
CONTINUOUS
 10
31.4900206889
 20
100.4538896318
 11
37.8031801219
 21
99.7903498374
  0
LINE
  5
421
100
AcDbEntity
  8
94673901000_BL8
100
AcDbLine
 62
7
  6
CONTINUOUS
 10
25.4895947321
 20
103.4375000877
 11
27.5895947321
 21
103.4375000877
  0
LINE
  5
422
100
AcDbEntity
  8
94673901000_BL8
100
AcDbLine
 62
7
  6
CONTINUOUS
 10
27.5895947321
 20
103.4375000877
 11
31.4895947321
 21
103.4375000877
  0
LINE
  5
423
100
AcDbEntity
  8
94673901000_BL8
100
AcDbLine
 62
7
  6
CONTINUOUS
 10
31.4900206889
 20
103.4374553179
 11
37.8031801219
 21
102.7739155236
  0
LINE
  5
424
100
AcDbEntity
  8
94673901000_BL8
100
AcDbLine
 62
9
  6
CONTINUOUS
 10
37.8031801219
 20
99.7903498374
 11
37.8031801219
 21
93.284650338
  0
LINE
  5
425
100
AcDbEntity
  8
94673901000_BL8
100
AcDbLine
 62
7
  6
CONTINUOUS
 10
40.4895947321
 20
99.7903498374
 11
40.4895947321
 21
93.284650338
  0
LINE
  5
426
100
AcDbEntity
  8
94673901000_BL8
100
AcDbLine
 62
7
  6
CONTINUOUS
 10
40.6895947321
 20
98.0375000877
 11
40.6895947321
 21
94.5375000877
  0
ARC
  5
427
100
AcDbEntity
  8
94673901000_BL8
100
AcDbCircle
 62
7
  6
CONTINUOUS
 10
122.5868241312
 20
1786.9343582318
 40
2.0327511964
100
AcDbArc
 50
98.3271761056
 51
103.9682282899
  0
ARC
  5
428
100
AcDbEntity
  8
94673901000_BL8
100
AcDbCircle
 62
7
  6
CONTINUOUS
 10
122.5868108783
 20
1752.9994416453
 40
2.0326753593
100
AcDbArc
 50
256.0316145019
 51
261.3540527654
  0
ARC
  5
429
100
AcDbEntity
  8
94673901000_BL8
100
AcDbCircle
 62
7
  6
CONTINUOUS
 10
122.5842466185
 20
1752.9889526504
 40
2.0218775567
100
AcDbArc
 50
253.6053211151
 51
256.0303826759
  0
ARC
  5
42A
100
AcDbEntity
  8
94673901000_BL8
100
AcDbCircle
 62
7
  6
CONTINUOUS
 10
122.5842464255
 20
1786.9449229819
 40
2.021876633
100
AcDbArc
 50
103.9696077062
 51
106.3951342494
  0
ARC
  5
42B
100
AcDbEntity
  8
94673901000_BL8
100
AcDbCircle
 62
7
  6
CONTINUOUS
 10
122.5754447424
 20
1752.9679688512
 40
1.9992641942
100
AcDbArc
 50
180.029560712
 51
253.6775766837
  0
ARC
  5
42C
100
AcDbEntity
  8
94673901000_BL8
100
AcDbCircle
 62
7
  6
CONTINUOUS
 10
122.5754446624
 20
1786.965905914
 40
1.9992641142
100
AcDbArc
 50
106.3228799202
 51
179.970440159
  0
ARC
  5
42D
100
AcDbEntity
  8
94673901000_BL8
100
AcDbCircle
 62
9
  6
CONTINUOUS
 10
130.1491206816
 20
1786.741627501
 40
2.0120276794
100
AcDbArc
 50
73.0166699288
 51
89.2999141102
  0
ARC
  5
42E
100
AcDbEntity
  8
94673901000_BL8
100
AcDbCircle
 62
9
  6
CONTINUOUS
 10
130.1491214908
 20
1753.1922423694
 40
2.0120228054
100
AcDbArc
 50
270.7000645416
 51
286.9806663763
  0
ARC
  5
42F
100
AcDbEntity
  8
94673901000_BL8
100
AcDbCircle
 62
9
  6
CONTINUOUS
 10
129.7082556827
 20
1753.6382292031
 40
2.0099748626
100
AcDbArc
 50
341.5926574538
 51
348.768839775
  0
ARC
  5
430
100
AcDbEntity
  8
94673901000_BL8
100
AcDbCircle
 62
9
  6
CONTINUOUS
 10
129.7082556827
 20
1786.2956455317
 40
2.0099748626
100
AcDbArc
 50
11.231160225
 51
18.4073425462
  0
ARC
  5
431
100
AcDbEntity
  8
94673901000_BL8
100
AcDbCircle
 62
9
  6
CONTINUOUS
 10
129.7270635384
 20
1753.6324083954
 40
1.9902913038
100
AcDbArc
 50
341.2911395939
 51
341.5806823941
  0
ARC
  5
432
100
AcDbEntity
  8
94673901000_BL8
100
AcDbCircle
 62
9
  6
CONTINUOUS
 10
129.7270635627
 20
1786.3014663475
 40
1.9902912782
100
AcDbArc
 50
18.4193176022
 51
18.7088604061
  0
ARC
  5
433
100
AcDbEntity
  8
94673901000_BL8
100
AcDbCircle
 62
7
  6
CONTINUOUS
 10
37.4895947321
 20
1786.3197871171
 40
3.0
100
AcDbArc
 50
0.0
 51
83.9999999972
  0
ARC
  5
434
100
AcDbEntity
  8
94673901000_BL8
100
AcDbCircle
 62
7
  6
CONTINUOUS
 10
37.4895947321
 20
1753.6140876177
 40
3.0
100
AcDbArc
 50
276.0
 51
360.0
  0
ARC
  5
435
100
AcDbEntity
  8
94673901000_BL8
100
AcDbCircle
 62
7
  6
CONTINUOUS
 10
9.4609639813
 20
90.5146769536
 40
22.0931404969
100
AcDbArc
 50
0.0041115976
 51
0.3199885925
  0
ARC
  5
436
100
AcDbEntity
  8
94673901000_BL8
100
AcDbCircle
 62
7
  6
CONTINUOUS
 10
9.4611034882
 20
102.5603229628
 40
22.0930009899
100
AcDbArc
 50
359.6800370647
 51
359.9958890481
  0
ARC
  5
437
100
AcDbEntity
  8
94673901000_BL8
100
AcDbCircle
 62
7
  6
CONTINUOUS
 10
37.4895947321
 20
99.7903498374
 40
3.0
100
AcDbArc
 50
0.0
 51
83.9999999991
  0
ARC
  5
438
100
AcDbEntity
  8
94673901000_BL8
100
AcDbCircle
 62
7
  6
CONTINUOUS
 10
37.4895947321
 20
93.284650338
 40
3.0
100
AcDbArc
 50
276.0000000009
 51
360.0
  0
SPLINE
  5
439
100
AcDbEntity
  8
94673901000_BL8
100
AcDbSpline
 62
9
  6
CONTINUOUS
 70
0
 71
3
 72
16
 73
12
 74
0
 42
0.0000001
 43
0.0000001
 44
0.0000000001
 40
0.0
 40
0.0
 40
0.0
 40
0.0
 40
0.0518457162
 40
0.0996592902
 40
0.1687964974
 40
0.2518181064
 40
0.4066326948
 40
0.5218483669
 40
0.6336359316
 40
0.7750325309
 40
1.0
 40
1.0
 40
1.0
 40
1.0
 10
122.5831674123
 20
1788.9614290878
 30
0.0
 10
122.5789488115
 20
1788.9583781053
 30
0.0
 10
122.5708135586
 20
1788.9488990682
 30
0.0
 10
122.581732081
 20
1788.932636534
 30
0.0
 10
122.5978647505
 20
1788.9216214646
 30
0.0
 10
122.6244323482
 20
1788.9056900441
 30
0.0
 10
122.65573358
 20
1788.8879112558
 30
0.0
 10
122.6797872937
 20
1788.857909535
 30
0.0
 10
122.7026817083
 20
1788.8274861617
 30
0.0
 10
122.7377448345
 20
1788.8025778639
 30
0.0
 10
122.7885174609
 20
1788.7738302601
 30
0.0
 10
122.778656987
 20
1788.7535049854
 30
0.0
  0
SPLINE
  5
43A
100
AcDbEntity
  8
94673901000_BL8
100
AcDbSpline
 62
9
  6
CONTINUOUS
 70
0
 71
3
 72
9
 73
5
 74
0
 42
0.0000001
 43
0.0000001
 44
0.0000000001
 40
0.0
 40
0.0
 40
0.0
 40
0.0
 40
0.507127267
 40
1.0
 40
1.0
 40
1.0
 40
1.0
 10
130.2821024554
 20
1788.869725398
 30
0.0
 10
130.2647247821
 20
1788.849233204
 30
0.0
 10
130.2403839282
 20
1788.8111905435
 30
0.0
 10
130.1623067121
 20
1788.7769993987
 30
0.0
 10
130.1737046416
 20
1788.7535049854
 30
0.0
  0
SPLINE
  5
43B
100
AcDbEntity
  8
94673901000_BL8
100
AcDbSpline
 62
9
  6
CONTINUOUS
 70
0
 71
3
 72
9
 73
5
 74
0
 42
0.0000001
 43
0.0000001
 44
0.0000000001
 40
0.0
 40
0.0
 40
0.0
 40
0.0
 40
0.5004894952
 40
1.0
 40
1.0
 40
1.0
 40
1.0
 10
131.6121892146
 20
1752.9940036188
 30
0.0
 10
131.481464261
 20
1752.6079895383
 30
0.0
 10
130.9669466005
 20
1751.9013305756
 30
0.0
 10
130.1357577225
 20
1751.6294878077
 30
0.0
 10
129.729030564
 20
1751.6250438269
 30
0.0
  0
SPLINE
  5
43C
100
AcDbEntity
  8
94673901000_BL8
100
AcDbSpline
 62
9
  6
CONTINUOUS
 70
0
 71
3
 72
11
 73
7
 74
0
 42
0.0000001
 43
0.0000001
 44
0.0000000001
 40
0.0
 40
0.0
 40
0.0
 40
0.0
 40
0.2496681654
 40
0.5
 40
0.7503318346
 40
1.0
 40
1.0
 40
1.0
 40
1.0
 10
123.2233310646
 20
1751.6250438269
 30
0.0
 10
122.9658352914
 20
1751.6278572763
 30
0.0
 10
122.4458403848
 20
1751.7360702003
 30
0.0
 10
121.7889881747
 20
1752.1797447276
 30
0.0
 10
121.3453136472
 20
1752.8365969377
 30
0.0
 10
121.2371007233
 20
1753.3565918444
 30
0.0
 10
121.2342872739
 20
1753.6140876177
 30
0.0
  0
SPLINE
  5
43D
100
AcDbEntity
  8
94673901000_BL8
100
AcDbSpline
 62
9
  6
CONTINUOUS
 70
0
 71
3
 72
11
 73
7
 74
0
 42
0.0000001
 43
0.0000001
 44
0.0000000001
 40
0.0
 40
0.0
 40
0.0
 40
0.0
 40
0.2496374777
 40
0.5
 40
0.7503625223
 40
1.0
 40
1.0
 40
1.0
 40
1.0
 10
122.7786569872
 20
1751.1803697496
 30
0.0
 10
122.5211909074
 20
1751.1831828754
 30
0.0
 10
122.0012296814
 20
1751.2914435322
 30
0.0
 10
121.3441871062
 20
1751.7349436592
 30
0.0
 10
120.9006869791
 20
1752.3919862344
 30
0.0
 10
120.7924263223
 20
1752.9119474605
 30
0.0
 10
120.7896131965
 20
1753.1694135403
 30
0.0
  0
SPLINE
  5
43E
100
AcDbEntity
  8
94673901000_BL8
100
AcDbSpline
 62
9
  6
CONTINUOUS
 70
0
 71
3
 72
11
 73
7
 74
0
 42
0.0000001
 43
0.0000001
 44
0.0000000001
 40
0.0
 40
0.0
 40
0.0
 40
0.0
 40
0.2496681654
 40
0.5
 40
0.7503318346
 40
1.0
 40
1.0
 40
1.0
 40
1.0
 10
121.2342872739
 20
1786.3197871171
 30
0.0
 10
121.2371007233
 20
1786.5772828903
 30
0.0
 10
121.3453136472
 20
1787.097277797
 30
0.0
 10
121.7889881747
 20
1787.7541300071
 30
0.0
 10
122.4458403848
 20
1788.1978045345
 30
0.0
 10
122.9658352914
 20
1788.3060174584
 30
0.0
 10
123.2233310646
 20
1788.3088309078
 30
0.0
  0
SPLINE
  5
43F
100
AcDbEntity
  8
94673901000_BL8
100
AcDbSpline
 62
9
  6
CONTINUOUS
 70
0
 71
3
 72
11
 73
7
 74
0
 42
0.0000001
 43
0.0000001
 44
0.0000000001
 40
0.0
 40
0.0
 40
0.0
 40
0.0
 40
0.2496374777
 40
0.5
 40
0.7503625223
 40
1.0
 40
1.0
 40
1.0
 40
1.0
 10
120.7896131965
 20
1786.7644611944
 30
0.0
 10
120.7924263223
 20
1787.0219272743
 30
0.0
 10
120.9006869791
 20
1787.5418885003
 30
0.0
 10
121.3441871062
 20
1788.1989310755
 30
0.0
 10
122.0012296814
 20
1788.6424312026
 30
0.0
 10
122.5211909074
 20
1788.7506918594
 30
0.0
 10
122.7786569872
 20
1788.7535049852
 30
0.0
  0
SPLINE
  5
440
100
AcDbEntity
  8
94673901000_BL8
100
AcDbSpline
 62
9
  6
CONTINUOUS
 70
0
 71
3
 72
9
 73
5
 74
0
 42
0.0000001
 43
0.0000001
 44
0.0000000001
 40
0.0
 40
0.0
 40
0.0
 40
0.0
 40
0.4995105048
 40
1.0
 40
1.0
 40
1.0
 40
1.0
 10
129.729030564
 20
1788.3088309078
 30
0.0
 10
130.1357577225
 20
1788.304386927
 30
0.0
 10
130.9669466005
 20
1788.0325441592
 30
0.0
 10
131.481464261
 20
1787.3258851965
 30
0.0
 10
131.6121892146
 20
1786.939871116
 30
0.0
  0
SPLINE
  5
441
100
AcDbEntity
  8
94673901000_BL8
100
AcDbSpline
 62
9
  6
CONTINUOUS
 70
0
 71
3
 72
15
 73
11
 74
0
 42
0.0000001
 43
0.0000001
 44
0.0000000001
 40
0.0
 40
0.0
 40
0.0
 40
0.0
 40
0.0496003836
 40
0.098122615
 40
0.1682822838
 40
0.2520846427
 40
0.4081783296
 40
0.5242973605
 40
0.7764562012
 40
1.0
 40
1.0
 40
1.0
 40
1.0
 10
120.5816890939
 20
1752.9669948872
 30
0.0
 10
120.5847625963
 20
1752.9630072956
 30
0.0
 10
120.5947648377
 20
1752.9556604663
 30
0.0
 10
120.6104029261
 20
1752.9676136974
 30
0.0
 10
120.6214917723
 20
1752.984131027
 30
0.0
 10
120.6374554359
 20
1753.0115379841
 30
0.0
 10
120.654833266
 20
1753.0434744061
 30
0.0
 10
120.697426479
 20
1753.0781905928
 30
0.0
 10
120.7344012695
 20
1753.1130564567
 30
0.0
 10
120.7691942819
 20
1753.179309263
 30
0.0
 10
120.7896131962
 20
1753.16941354
 30
0.0
  0
SPLINE
  5
442
100
AcDbEntity
  8
94673901000_BL8
100
AcDbSpline
 62
9
  6
CONTINUOUS
 70
0
 71
3
 72
15
 73
11
 74
0
 42
0.0000001
 43
0.0000001
 44
0.0000000001
 40
0.0
 40
0.0
 40
0.0
 40
0.0
 40
0.0496003836
 40
0.098122615
 40
0.1682822838
 40
0.2520846427
 40
0.4081783296
 40
0.5242973605
 40
0.7764562012
 40
1.0
 40
1.0
 40
1.0
 40
1.0
 10
120.5816890939
 20
1786.9668798476
 30
0.0
 10
120.5847625963
 20
1786.9708674392
 30
0.0
 10
120.5947648377
 20
1786.9782142685
 30
0.0
 10
120.6104029261
 20
1786.9662610374
 30
0.0
 10
120.6214917723
 20
1786.9497437077
 30
0.0
 10
120.6374554359
 20
1786.9223367506
 30
0.0
 10
120.654833266
 20
1786.8904003286
 30
0.0
 10
120.697426479
 20
1786.8556841419
 30
0.0
 10
120.7344012695
 20
1786.8208182781
 30
0.0
 10
120.7691942819
 20
1786.7545654718
 30
0.0
 10
120.7896131963
 20
1786.7644611947
 30
0.0
  0
SPLINE
  5
443
100
AcDbEntity
  8
94673901000_BL8
100
AcDbSpline
 62
9
  6
CONTINUOUS
 70
0
 71
3
 72
9
 73
5
 74
0
 42
0.0000001
 43
0.0000001
 44
0.0000000001
 40
0.0
 40
0.0
 40
0.0
 40
0.0
 40
0.5071087384
 40
1.0
 40
1.0
 40
1.0
 40
1.0
 10
130.2821142637
 20
1751.0641354137
 30
0.0
 10
130.2647329591
 20
1751.084627261
 30
0.0
 10
130.2403971098
 20
1751.1226817439
 30
0.0
 10
130.1623049829
 20
1751.1568717716
 30
0.0
 10
130.1737046416
 20
1751.1803697493
 30
0.0
  0
SPLINE
  5
444
100
AcDbEntity
  8
94673901000_BL8
100
AcDbSpline
 62
9
  6
CONTINUOUS
 70
0
 71
3
 72
16
 73
12
 74
0
 42
0.0000001
 43
0.0000001
 44
0.0000000001
 40
0.0
 40
0.0
 40
0.0
 40
0.0
 40
0.0518457162
 40
0.0996592902
 40
0.1687964974
 40
0.2518181064
 40
0.4066326948
 40
0.5218483669
 40
0.6336359316
 40
0.7750325309
 40
1.0
 40
1.0
 40
1.0
 40
1.0
 10
122.5831674123
 20
1750.9724456469
 30
0.0
 10
122.5789488115
 20
1750.9754966294
 30
0.0
 10
122.5708135586
 20
1750.9849756665
 30
0.0
 10
122.581732081
 20
1751.0012382008
 30
0.0
 10
122.5978647505
 20
1751.0122532701
 30
0.0
 10
122.6244323482
 20
1751.0281846906
 30
0.0
 10
122.65573358
 20
1751.0459634789
 30
0.0
 10
122.6797872937
 20
1751.0759651998
 30
0.0
 10
122.7026817083
 20
1751.106388573
 30
0.0
 10
122.7377448345
 20
1751.1312968708
 30
0.0
 10
122.7885174609
 20
1751.1600444747
 30
0.0
 10
122.778656987
 20
1751.1803697493
 30
0.0
  0
SPLINE
  5
445
100
AcDbEntity
  8
94673901000_BL8
100
AcDbSpline
 62
9
  6
CONTINUOUS
 70
0
 71
3
 72
14
 73
10
 74
0
 42
0.0000001
 43
0.0000001
 44
0.0000000001
 40
0.0
 40
0.0
 40
0.0
 40
0.0
 40
0.3776820376
 40
0.5481208497
 40
0.6976595954
 40
0.820892234
 40
0.9133709115
 40
0.9724701644
 40
1.0
 40
1.0
 40
1.0
 40
1.0
 10
37.8031801219
 20
1753.6140876177
 30
0.0
 10
37.8424145452
 20
1753.2366733113
 30
0.0
 10
37.8890082266
 20
1752.6875728142
 30
0.0
 10
37.9240208069
 20
1751.9878715038
 30
0.0
 10
37.9328068925
 20
1751.5416142732
 30
0.0
 10
37.9281073797
 20
1751.1773618601
 30
0.0
 10
37.9034987205
 20
1750.8950646738
 30
0.0
 10
37.878107485
 20
1750.7306745905
 30
0.0
 10
37.8306871757
 20
1750.6334130388
 30
0.0
 10
37.8031801219
 20
1750.6305219316
 30
0.0
  0
SPLINE
  5
446
100
AcDbEntity
  8
94673901000_BL8
100
AcDbSpline
 62
9
  6
CONTINUOUS
 70
0
 71
3
 72
14
 73
10
 74
0
 42
0.0000001
 43
0.0000001
 44
0.0000000001
 40
0.0
 40
0.0
 40
0.0
 40
0.0
 40
0.0275298356
 40
0.0866290885
 40
0.179107766
 40
0.3023404046
 40
0.4518791503
 40
0.6223179624
 40
1.0
 40
1.0
 40
1.0
 40
1.0
 10
37.8031801219
 20
1789.3033528032
 30
0.0
 10
37.8306871757
 20
1789.300461696
 30
0.0
 10
37.878107485
 20
1789.2032001443
 30
0.0
 10
37.9034987205
 20
1789.0388100609
 30
0.0
 10
37.9281073797
 20
1788.7565128747
 30
0.0
 10
37.9328068925
 20
1788.3922604615
 30
0.0
 10
37.9240208069
 20
1787.946003231
 30
0.0
 10
37.8890082266
 20
1787.2463019205
 30
0.0
 10
37.8424145452
 20
1786.6972014235
 30
0.0
 10
37.8031801219
 20
1786.3197871171
 30
0.0
  0
SPLINE
  5
447
100
AcDbEntity
  8
94673901000_BL8
100
AcDbSpline
 62
7
  6
CONTINUOUS
 70
0
 71
3
 72
13
 73
9
 74
0
 42
0.0000001
 43
0.0000001
 44
0.0000000001
 40
0.0
 40
0.0
 40
0.0
 40
0.0
 40
0.0235352288
 40
0.0753518244
 40
0.1578016002
 40
0.2707522048
 40
0.5831770189
 40
1.0
 40
1.0
 40
1.0
 40
1.0
 10
31.4900206889
 20
1789.9668925975
 30
0.0
 10
31.4978534806
 20
1789.9660693379
 30
0.0
 10
31.5111680121
 20
1789.9376859204
 30
0.0
 10
31.5210879112
 20
1789.8902641885
 30
0.0
 10
31.5324580875
 20
1789.8059363477
 30
0.0
 10
31.5449800001
 20
1789.6377442375
 30
0.0
 10
31.5538335478
 20
1789.3549870644
 30
0.0
 10
31.5545264104
 20
1789.111272593
 30
0.0
 10
31.5537891562
 20
1788.971786987
 30
0.0
  0
SPLINE
  5
448
100
AcDbEntity
  8
94673901000_BL8
100
AcDbSpline
 62
7
  6
CONTINUOUS
 70
0
 71
3
 72
9
 73
5
 74
0
 42
0.0000001
 43
0.0000001
 44
0.0000000001
 40
0.0
 40
0.0
 40
0.0
 40
0.0
 40
0.2192189109
 40
1.0
 40
1.0
 40
1.0
 40
1.0
 10
31.5537891562
 20
1788.971786987
 30
0.0
 10
31.5530207335
 20
1788.8264044143
 30
0.0
 10
31.5434576075
 20
1788.1632574836
 30
0.0
 10
31.5168998466
 20
1787.5004379099
 30
0.0
 10
31.4900206889
 20
1786.9833269114
 30
0.0
  0
SPLINE
  5
449
100
AcDbEntity
  8
94673901000_BL8
100
AcDbSpline
 62
7
  6
CONTINUOUS
 70
0
 71
3
 72
13
 73
9
 74
0
 42
0.0000001
 43
0.0000001
 44
0.0000000001
 40
0.0
 40
0.0
 40
0.0
 40
0.0
 40
0.023535275
 40
0.0753518635
 40
0.1578016021
 40
0.2707521577
 40
0.5831769056
 40
1.0
 40
1.0
 40
1.0
 40
1.0
 10
31.4900206889
 20
1749.9669821372
 30
0.0
 10
31.4978534153
 20
1749.96780539
 30
0.0
 10
31.5111679037
 20
1749.9961884523
 30
0.0
 10
31.5210877571
 20
1750.0436097266
 30
0.0
 10
31.5324579069
 20
1750.1279366324
 30
0.0
 10
31.544979813
 20
1750.2961269642
 30
0.0
 10
31.5538334312
 20
1750.5788812102
 30
0.0
 10
31.5545263968
 20
1750.8225931904
 30
0.0
 10
31.5537892109
 20
1750.962077398
 30
0.0
  0
SPLINE
  5
44A
100
AcDbEntity
  8
94673901000_BL8
100
AcDbSpline
 62
7
  6
CONTINUOUS
 70
0
 71
3
 72
9
 73
5
 74
0
 42
0.0000001
 43
0.0000001
 44
0.0000000001
 40
0.0
 40
0.0
 40
0.0
 40
0.0
 40
0.2192185014
 40
1.0
 40
1.0
 40
1.0
 40
1.0
 10
31.5537892109
 20
1750.962077398
 30
0.0
 10
31.5530208492
 20
1751.1074604557
 30
0.0
 10
31.5434578733
 20
1751.7706108391
 30
0.0
 10
31.5169000005
 20
1752.4334338639
 30
0.0
 10
31.4900206889
 20
1752.9505478233
 30
0.0
  0
SPLINE
  5
44B
100
AcDbEntity
  8
94673901000_BL8
100
AcDbSpline
 62
9
  6
CONTINUOUS
 70
0
 71
3
 72
14
 73
10
 74
0
 42
0.0000001
 43
0.0000001
 44
0.0000000001
 40
0.0
 40
0.0
 40
0.0
 40
0.0
 40
0.0275298356
 40
0.0866290885
 40
0.179107766
 40
0.3023404047
 40
0.4518791503
 40
0.6223179624
 40
1.0
 40
1.0
 40
1.0
 40
1.0
 10
37.8031801219
 20
102.7739155236
 30
0.0
 10
37.8306871757
 20
102.771024416
 30
0.0
 10
37.8781074849
 20
102.6737628648
 30
0.0
 10
37.9034987206
 20
102.5093727811
 30
0.0
 10
37.9281073797
 20
102.227075595
 30
0.0
 10
37.9328068926
 20
101.8628231817
 30
0.0
 10
37.9240208069
 20
101.4165659512
 30
0.0
 10
37.8890082266
 20
100.7168646408
 30
0.0
 10
37.8424145453
 20
100.1677641438
 30
0.0
 10
37.8031801219
 20
99.7903498374
 30
0.0
  0
SPLINE
  5
44C
100
AcDbEntity
  8
94673901000_BL8
100
AcDbSpline
 62
7
  6
CONTINUOUS
 70
0
 71
3
 72
9
 73
5
 74
0
 42
0.0000001
 43
0.0000001
 44
0.0000000001
 40
0.0
 40
0.0
 40
0.0
 40
0.0
 40
0.2719210866
 40
1.0
 40
1.0
 40
1.0
 40
1.0
 10
31.4900206889
 20
100.4538896318
 30
0.0
 10
31.4993563603
 20
100.6334926694
 30
0.0
 10
31.5303936983
 20
101.2941369589
 30
0.0
 10
31.5511054138
 20
101.9554115282
 30
0.0
 10
31.5537599873
 20
102.4369473012
 30
0.0
  0
SPLINE
  5
44D
100
AcDbEntity
  8
94673901000_BL8
100
AcDbSpline
 62
7
  6
CONTINUOUS
 70
0
 71
3
 72
13
 73
9
 74
0
 42
0.0000001
 43
0.0000001
 44
0.0000000001
 40
0.0
 40
0.0
 40
0.0
 40
0.0
 40
0.4179847521
 40
0.7296530173
 40
0.8420473503
 40
0.9241002237
 40
0.9758734503
 40
1.0
 40
1.0
 40
1.0
 40
1.0
 10
31.5541044213
 20
102.5587377978
 30
0.0
 10
31.5541044213
 20
102.6824136966
 30
0.0
 10
31.5522988676
 20
102.8980497721
 30
0.0
 10
31.5427357909
 20
103.147858681
 30
0.0
 10
31.5303253662
 20
103.2961057159
 30
0.0
 10
31.5193057648
 20
103.3699959874
 30
0.0
 10
31.5098883396
 20
103.4122695022
 30
0.0
 10
31.4971202941
 20
103.4367091193
 30
0.0
 10
31.4900206889
 20
103.4374553179
 30
0.0
  0
SPLINE
  5
44E
100
AcDbEntity
  8
94673901000_BL8
100
AcDbSpline
 62
9
  6
CONTINUOUS
 70
0
 71
3
 72
14
 73
10
 74
0
 42
0.0000001
 43
0.0000001
 44
0.0000000001
 40
0.0
 40
0.0
 40
0.0
 40
0.0
 40
0.3776820376
 40
0.5481208497
 40
0.6976595953
 40
0.820892234
 40
0.9133709115
 40
0.9724701644
 40
1.0
 40
1.0
 40
1.0
 40
1.0
 10
37.8031801219
 20
93.284650338
 30
0.0
 10
37.8424145453
 20
92.9072360317
 30
0.0
 10
37.8890082266
 20
92.3581355346
 30
0.0
 10
37.9240208069
 20
91.6584342242
 30
0.0
 10
37.9328068926
 20
91.2121769937
 30
0.0
 10
37.9281073797
 20
90.8479245804
 30
0.0
 10
37.9034987206
 20
90.5656273943
 30
0.0
 10
37.8781074849
 20
90.4012373106
 30
0.0
 10
37.8306871757
 20
90.3039757594
 30
0.0
 10
37.8031801219
 20
90.3010846519
 30
0.0
  0
SPLINE
  5
44F
100
AcDbEntity
  8
94673901000_BL8
100
AcDbSpline
 62
7
  6
CONTINUOUS
 70
0
 71
3
 72
9
 73
5
 74
0
 42
0.0000001
 43
0.0000001
 44
0.0000000001
 40
0.0
 40
0.0
 40
0.0
 40
0.0
 40
0.2719207816
 40
1.0
 40
1.0
 40
1.0
 40
1.0
 10
31.4900206889
 20
92.6211105437
 30
0.0
 10
31.4993563008
 20
92.44150865
 30
0.0
 10
31.5303935011
 20
91.7808678276
 30
0.0
 10
31.551105159
 20
91.1195967344
 30
0.0
 10
31.5537599299
 20
90.6380632875
 30
0.0
  0
SPLINE
  5
450
100
AcDbEntity
  8
94673901000_BL8
100
AcDbSpline
 62
7
  6
CONTINUOUS
 70
0
 71
3
 72
13
 73
9
 74
0
 42
0.0000001
 43
0.0000001
 44
0.0000000001
 40
0.0
 40
0.0
 40
0.0
 40
0.0
 40
0.4179847521
 40
0.7296530173
 40
0.8420473503
 40
0.9241002237
 40
0.9758734503
 40
1.0
 40
1.0
 40
1.0
 40
1.0
 10
31.5541044213
 20
90.5162623776
 30
0.0
 10
31.5541044213
 20
90.3925864789
 30
0.0
 10
31.5522988676
 20
90.1769504034
 30
0.0
 10
31.5427357909
 20
89.9271414944
 30
0.0
 10
31.5303253662
 20
89.7788944596
 30
0.0
 10
31.5193057648
 20
89.7050041881
 30
0.0
 10
31.5098883396
 20
89.6627306733
 30
0.0
 10
31.4971202941
 20
89.6382910562
 30
0.0
 10
31.4900206889
 20
89.6375448576
 30
0.0
  0
ELLIPSE
  5
451
100
AcDbEntity
  8
94673901000_BL8
100
AcDbEllipse
 62
7
  6
CONTINUOUS
 10
60.0326880948
 20
1752.9669373674
 30
0.0
 11
28.5430933627
 21
0.0
 31
0.0
 40
0.1051042353
 41
-3.1415926536
 42
-3.1361294451
  0
ELLIPSE
  5
452
100
AcDbEntity
  8
94673901000_BL8
100
AcDbEllipse
 62
7
  6
CONTINUOUS
 10
60.0326880948
 20
1786.9669373674
 30
0.0
 11
28.5430933627
 21
-0.0
 31
0.0
 40
0.1051042353
 41
3.1361294451
 42
3.1415926536
  0
ELLIPSE
  5
453
100
AcDbEntity
  8
94673901000_BL8
100
AcDbEllipse
 62
7
  6
CONTINUOUS
 10
60.0326880948
 20
92.6375000877
 30
0.0
 11
28.5430933627
 21
-0.0
 31
0.0
 40
0.1051042353
 41
3.1415926536
 42
3.1470558621
  0
ELLIPSE
  5
454
100
AcDbEntity
  8
94673901000_BL8
100
AcDbEllipse
 62
7
  6
CONTINUOUS
 10
60.0326880948
 20
100.4375000877
 30
0.0
 11
28.5430933627
 21
-0.0
 31
0.0
 40
0.1051042353
 41
3.1361294451
 42
3.1415926536
  0
ENDBLK
  5
455
100
AcDbEntity
  8
0
  6
BYBLOCK
 62
0
100
AcDbBlockEnd
  0
BLOCK
  5
456
100
AcDbEntity
  8
94529001000_BL9
100
AcDbBlockBegin
  2
94529001000_BL9
 70
64
 10
78.2328877732
 20
950.0089550603
  3
94529001000_BL9
  1

  0
LINE
  5
457
100
AcDbEntity
  8
94529001000_BL9
100
AcDbLine
 62
7
  6
CONTINUOUS
 10
132.4761808143
 20
1770.1169373674
 11
132.3261808143
 21
1769.9669373674
  0
LINE
  5
458
100
AcDbEntity
  8
94529001000_BL9
100
AcDbLine
 62
7
  6
CONTINUOUS
 10
134.1761808143
 20
1769.8169373674
 11
134.3261808143
 21
1769.9669373674
  0
LINE
  5
459
100
AcDbEntity
  8
94529001000_BL9
100
AcDbLine
 62
7
  6
CONTINUOUS
 10
117.9761808143
 20
1800.4669373674
 11
117.9761808143
 21
1739.4669373674
  0
LINE
  5
45A
100
AcDbEntity
  8
94529001000_BL9
100
AcDbLine
 62
7
  6
CONTINUOUS
 10
118.7761808143
 20
1792.2169373674
 11
118.7761808143
 21
1747.7169373674
  0
LINE
  5
45B
100
AcDbEntity
  8
94529001000_BL9
100
AcDbLine
 62
7
  6
CONTINUOUS
 10
119.4761808143
 20
1786.9669373674
 11
119.4761808143
 21
1752.9669373674
  0
LINE
  5
45C
100
AcDbEntity
  8
94529001000_BL9
100
AcDbLine
 62
7
  6
CONTINUOUS
 10
120.2761808143
 20
1786.9669373674
 11
120.2761808143
 21
1752.9669373674
  0
LINE
  5
45D
100
AcDbEntity
  8
94529001000_BL9
100
AcDbLine
 62
9
  6
CONTINUOUS
 10
122.2761808143
 20
1750.9669373674
 11
122.2761808143
 21
1750.1669373674
  0
LINE
  5
45E
100
AcDbEntity
  8
94529001000_BL9
100
AcDbLine
 62
9
  6
CONTINUOUS
 10
122.2761808143
 20
1788.9669373674
 11
122.2761808143
 21
1789.7669373674
  0
LINE
  5
45F
100
AcDbEntity
  8
94529001000_BL9
100
AcDbLine
 62
7
  6
CENTER
 10
126.4761808143
 20
1727.9534647019
 11
126.4761808143
 21
1811.9804100328
  0
LINE
  5
460
100
AcDbEntity
  8
94529001000_BL9
100
AcDbLine
 62
9
  6
CONTINUOUS
 10
129.6761808143
 20
1750.9669373674
 11
129.6761808143
 21
1750.1669373674
  0
LINE
  5
461
100
AcDbEntity
  8
94529001000_BL9
100
AcDbLine
 62
9
  6
CONTINUOUS
 10
129.6761808143
 20
1788.9669373674
 11
129.6761808143
 21
1789.7669373674
  0
LINE
  5
462
100
AcDbEntity
  8
94529001000_BL9
100
AcDbLine
 62
7
  6
CONTINUOUS
 10
131.6761808143
 20
1752.9669373674
 11
131.6761808143
 21
1786.9669373674
  0
LINE
  5
463
100
AcDbEntity
  8
94529001000_BL9
100
AcDbLine
 62
7
  6
CONTINUOUS
 10
132.4761808143
 20
1752.9669373674
 11
132.4761808143
 21
1769.8169373674
  0
LINE
  5
464
100
AcDbEntity
  8
94529001000_BL9
100
AcDbLine
 62
7
  6
CONTINUOUS
 10
132.4761808143
 20
1770.1169373674
 11
132.4761808143
 21
1786.9669373674
  0
LINE
  5
465
100
AcDbEntity
  8
94529001000_BL9
100
AcDbLine
 62
7
  6
CONTINUOUS
 10
134.1761808143
 20
1792.2169373674
 11
134.1761808143
 21
1770.1169373674
  0
LINE
  5
466
100
AcDbEntity
  8
94529001000_BL9
100
AcDbLine
 62
7
  6
CONTINUOUS
 10
134.1761808143
 20
1769.8169373674
 11
134.1761808143
 21
1747.7169373674
  0
LINE
  5
467
100
AcDbEntity
  8
94529001000_BL9
100
AcDbLine
 62
7
  6
CONTINUOUS
 10
134.9761808143
 20
1739.4669373674
 11
134.9761808143
 21
1800.4669373674
  0
LINE
  5
468
100
AcDbEntity
  8
94529001000_BL9
100
AcDbLine
 62
7
  6
CONTINUOUS
 10
132.4761808143
 20
1769.8169373674
 11
132.3261808143
 21
1769.9669373674
  0
LINE
  5
469
100
AcDbEntity
  8
94529001000_BL9
100
AcDbLine
 62
7
  6
CONTINUOUS
 10
134.1761808143
 20
1770.1169373674
 11
134.3261808143
 21
1769.9669373674
  0
LINE
  5
46A
100
AcDbEntity
  8
94529001000_BL9
100
AcDbLine
 62
7
  6
CONTINUOUS
 10
134.9761808143
 20
1747.7169373674
 11
134.1761808143
 21
1747.7169373674
  0
LINE
  5
46B
100
AcDbEntity
  8
94529001000_BL9
100
AcDbLine
 62
7
  6
CONTINUOUS
 10
118.7761808143
 20
1747.7169373674
 11
117.9761808143
 21
1747.7169373674
  0
LINE
  5
46C
100
AcDbEntity
  8
94529001000_BL9
100
AcDbLine
 62
7
  6
CONTINUOUS
 10
122.2761808143
 20
1750.1669373674
 11
129.6761808143
 21
1750.1669373674
  0
LINE
  5
46D
100
AcDbEntity
  8
94529001000_BL9
100
AcDbLine
 62
7
  6
CONTINUOUS
 10
122.2761808143
 20
1750.9669373674
 11
129.6761808143
 21
1750.9669373674
  0
LINE
  5
46E
100
AcDbEntity
  8
94529001000_BL9
100
AcDbLine
 62
9
  6
CONTINUOUS
 10
120.2761808143
 20
1752.9669373674
 11
119.4761808143
 21
1752.9669373674
  0
LINE
  5
46F
100
AcDbEntity
  8
94529001000_BL9
100
AcDbLine
 62
9
  6
CONTINUOUS
 10
131.6761808143
 20
1752.9669373674
 11
132.4761808143
 21
1752.9669373674
  0
LINE
  5
470
100
AcDbEntity
  8
94529001000_BL9
100
AcDbLine
 62
7
  6
CONTINUOUS
 10
134.1761808143
 20
1769.8169373674
 11
132.4761808143
 21
1769.8169373674
  0
LINE
  5
471
100
AcDbEntity
  8
94529001000_BL9
100
AcDbLine
 62
7
  6
CONTINUOUS
 10
134.3261808143
 20
1769.9669373674
 11
132.3261808143
 21
1769.9669373674
  0
LINE
  5
472
100
AcDbEntity
  8
94529001000_BL9
100
AcDbLine
 62
7
  6
CONTINUOUS
 10
134.1761808143
 20
1770.1169373674
 11
132.4761808143
 21
1770.1169373674
  0
LINE
  5
473
100
AcDbEntity
  8
94529001000_BL9
100
AcDbLine
 62
9
  6
CONTINUOUS
 10
120.2761808143
 20
1786.9669373674
 11
119.4761808143
 21
1786.9669373674
  0
LINE
  5
474
100
AcDbEntity
  8
94529001000_BL9
100
AcDbLine
 62
9
  6
CONTINUOUS
 10
131.6761808143
 20
1786.9669373674
 11
132.4761808143
 21
1786.9669373674
  0
LINE
  5
475
100
AcDbEntity
  8
94529001000_BL9
100
AcDbLine
 62
7
  6
CONTINUOUS
 10
129.6761808143
 20
1788.9669373674
 11
122.2761808143
 21
1788.9669373674
  0
LINE
  5
476
100
AcDbEntity
  8
94529001000_BL9
100
AcDbLine
 62
7
  6
CONTINUOUS
 10
129.6761808143
 20
1789.7669373674
 11
122.2761808143
 21
1789.7669373674
  0
LINE
  5
477
100
AcDbEntity
  8
94529001000_BL9
100
AcDbLine
 62
7
  6
CONTINUOUS
 10
134.9761808143
 20
1792.2169373674
 11
134.1761808143
 21
1792.2169373674
  0
LINE
  5
478
100
AcDbEntity
  8
94529001000_BL9
100
AcDbLine
 62
7
  6
CONTINUOUS
 10
118.7761808143
 20
1792.2169373674
 11
117.9761808143
 21
1792.2169373674
  0
LINE
  5
479
100
AcDbEntity
  8
94529001000_BL9
100
AcDbLine
 62
7
  6
CONTINUOUS
 10
21.4895947321
 20
1769.8169373674
 11
21.6395947321
 21
1769.9669373674
  0
LINE
  5
47A
100
AcDbEntity
  8
94529001000_BL9
100
AcDbLine
 62
7
  6
CONTINUOUS
 10
21.4895947321
 20
1770.1169373674
 11
21.4895947321
 21
1769.8169373674
  0
LINE
  5
47B
100
AcDbEntity
  8
94529001000_BL9
100
AcDbLine
 62
7
  6
CONTINUOUS
 10
21.4895947321
 20
1730.9669373674
 11
21.4895947321
 21
1769.8169373674
  0
LINE
  5
47C
100
AcDbEntity
  8
94529001000_BL9
100
AcDbLine
 62
7
  6
CONTINUOUS
 10
21.4895947321
 20
1770.1169373674
 11
21.4895947321
 21
1808.9669373674
  0
LINE
  5
47D
100
AcDbEntity
  8
94529001000_BL9
100
AcDbLine
 62
7
  6
CONTINUOUS
 10
22.2895947321
 20
1792.2169373674
 11
22.2895947321
 21
1747.7169373674
  0
LINE
  5
47E
100
AcDbEntity
  8
94529001000_BL9
100
AcDbLine
 62
7
  6
CONTINUOUS
 10
23.4895947321
 20
1803.3115733646
 11
23.4895947321
 21
1736.6223013701
  0
LINE
  5
47F
100
AcDbEntity
  8
94529001000_BL9
100
AcDbLine
 62
7
  6
CONTINUOUS
 10
21.4895947321
 20
1770.1169373674
 11
21.6395947321
 21
1769.9669373674
  0
LINE
  5
480
100
AcDbEntity
  8
94529001000_BL9
100
AcDbLine
 62
7
  6
CONTINUOUS
 10
23.4895947321
 20
1730.9669373674
 11
21.4895947321
 21
1730.9669373674
  0
LINE
  5
481
100
AcDbEntity
  8
94529001000_BL9
100
AcDbLine
 62
9
  6
CONTINUOUS
 10
21.4895947321
 20
1739.4669373674
 11
23.4895947321
 21
1739.4669373674
  0
LINE
  5
482
100
AcDbEntity
  8
94529001000_BL9
100
AcDbLine
 62
7
  6
CONTINUOUS
 10
21.4895947321
 20
1747.7169373674
 11
22.2895947321
 21
1747.7169373674
  0
LINE
  5
483
100
AcDbEntity
  8
94529001000_BL9
100
AcDbLine
 62
7
  6
CONTINUOUS
 10
21.4895947321
 20
1792.2169373674
 11
22.2895947321
 21
1792.2169373674
  0
LINE
  5
484
100
AcDbEntity
  8
94529001000_BL9
100
AcDbLine
 62
9
  6
CONTINUOUS
 10
21.4895947321
 20
1800.4669373674
 11
23.4895947321
 21
1800.4669373674
  0
LINE
  5
485
100
AcDbEntity
  8
94529001000_BL9
100
AcDbLine
 62
7
  6
CONTINUOUS
 10
23.4895947321
 20
1808.9669373674
 11
21.4895947321
 21
1808.9669373674
  0
LINE
  5
486
100
AcDbEntity
  8
94529001000_BL9
100
AcDbLine
 62
7
  6
CONTINUOUS
 10
21.4895947321
 20
88.0375000877
 11
21.4895947321
 21
105.0375000877
  0
LINE
  5
487
100
AcDbEntity
  8
94529001000_BL9
100
AcDbLine
 62
7
  6
CONTINUOUS
 10
23.4895947321
 20
88.0375000877
 11
21.4895947321
 21
88.0375000877
  0
LINE
  5
488
100
AcDbEntity
  8
94529001000_BL9
100
AcDbLine
 62
7
  6
CONTINUOUS
 10
23.4895947321
 20
88.4538829306
 11
23.4895947321
 21
88.0375000877
  0
LINE
  5
489
100
AcDbEntity
  8
94529001000_BL9
100
AcDbLine
 62
7
  6
CONTINUOUS
 10
21.4895947321
 20
105.0375000877
 11
23.4895947321
 21
105.0375000877
  0
ARC
  5
48A
100
AcDbEntity
  8
94529001000_BL9
100
AcDbCircle
 62
7
  6
CONTINUOUS
 10
122.2761808143
 20
1786.9669373674
 40
2.7999942656
100
AcDbArc
 50
90.0
 51
180.0
  0
ARC
  5
48B
100
AcDbEntity
  8
94529001000_BL9
100
AcDbCircle
 62
7
  6
CONTINUOUS
 10
122.2761808143
 20
1752.9669373674
 40
2.7999942656
100
AcDbArc
 50
180.0
 51
270.0
  0
ARC
  5
48C
100
AcDbEntity
  8
94529001000_BL9
100
AcDbCircle
 62
7
  6
CONTINUOUS
 10
122.2761808143
 20
1786.9669373674
 40
2.0
100
AcDbArc
 50
90.0
 51
180.0
  0
ARC
  5
48D
100
AcDbEntity
  8
94529001000_BL9
100
AcDbCircle
 62
7
  6
CONTINUOUS
 10
122.2761808143
 20
1752.9669373674
 40
2.0
100
AcDbArc
 50
180.0
 51
270.0
  0
ARC
  5
48E
100
AcDbEntity
  8
94529001000_BL9
100
AcDbCircle
 62
7
  6
CONTINUOUS
 10
126.4761808143
 20
1739.4669373674
 40
8.5
100
AcDbArc
 50
180.0
 51
360.0
  0
CIRCLE
  5
48F
100
AcDbEntity
  8
94529001000_BL9
100
AcDbCircle
 62
7
  6
CONTINUOUS
 10
126.4761808143
 20
1739.8669373674
 40
5.65
  0
ARC
  5
490
100
AcDbEntity
  8
94529001000_BL9
100
AcDbCircle
 62
7
  6
CONTINUOUS
 10
126.4761808143
 20
1800.4669373674
 40
8.5
100
AcDbArc
 50
0.0
 51
180.0
  0
CIRCLE
  5
491
100
AcDbEntity
  8
94529001000_BL9
100
AcDbCircle
 62
7
  6
CONTINUOUS
 10
126.4761808143
 20
1800.0669373674
 40
5.65
  0
ARC
  5
492
100
AcDbEntity
  8
94529001000_BL9
100
AcDbCircle
 62
7
  6
CONTINUOUS
 10
129.6761808143
 20
1786.9669373674
 40
2.7999942656
100
AcDbArc
 50
0.0
 51
90.0
  0
ARC
  5
493
100
AcDbEntity
  8
94529001000_BL9
100
AcDbCircle
 62
7
  6
CONTINUOUS
 10
129.6761808143
 20
1752.9669373674
 40
2.7999942656
100
AcDbArc
 50
270.0
 51
360.0
  0
ARC
  5
494
100
AcDbEntity
  8
94529001000_BL9
100
AcDbCircle
 62
7
  6
CONTINUOUS
 10
129.6761808143
 20
1786.9669373674
 40
2.0
100
AcDbArc
 50
0.0
 51
90.0
  0
ARC
  5
495
100
AcDbEntity
  8
94529001000_BL9
100
AcDbCircle
 62
7
  6
CONTINUOUS
 10
129.6761808143
 20
1752.9669373674
 40
2.0
100
AcDbArc
 50
270.0
 51
360.0
  0
ENDBLK
  5
496
100
AcDbEntity
  8
0
  6
BYBLOCK
 62
0
100
AcDbBlockEnd
  0
BLOCK
  5
497
100
AcDbEntity
  8
94528905000_M_BL10
100
AcDbBlockBegin
  2
94528905000_M_BL10
 70
64
 10
80.3828877732
 20
949.5522187276
  3
94528905000_M_BL10
  1

  0
LINE
  5
498
100
AcDbEntity
  8
94528905000_M_BL10
100
AcDbLine
 62
7
  6
CONTINUOUS
 10
125.6011808143
 20
1802.582481824
 11
124.7261808143
 21
1801.0669373674
  0
LINE
  5
499
100
AcDbEntity
  8
94528905000_M_BL10
100
AcDbLine
 62
7
  6
CONTINUOUS
 10
127.3511808143
 20
1799.5513929108
 11
128.2261808143
 21
1801.0669373674
  0
LINE
  5
49A
100
AcDbEntity
  8
94528905000_M_BL10
100
AcDbLine
 62
7
  6
CONTINUOUS
 10
124.7261808143
 20
1801.0669373674
 11
125.6011808143
 21
1799.5513929108
  0
LINE
  5
49B
100
AcDbEntity
  8
94528905000_M_BL10
100
AcDbLine
 62
7
  6
CONTINUOUS
 10
128.2261808143
 20
1801.0669373674
 11
127.3511808143
 21
1802.582481824
  0
LINE
  5
49C
100
AcDbEntity
  8
94528905000_M_BL10
100
AcDbLine
 62
7
  6
CONTINUOUS
 10
125.6011808143
 20
1799.5513929108
 11
127.3511808143
 21
1799.5513929108
  0
LINE
  5
49D
100
AcDbEntity
  8
94528905000_M_BL10
100
AcDbLine
 62
7
  6
CONTINUOUS
 10
127.3511808143
 20
1802.582481824
 11
125.6011808143
 21
1802.582481824
  0
CIRCLE
  5
49E
100
AcDbEntity
  8
94528905000_M_BL10
100
AcDbCircle
 62
7
  6
CONTINUOUS
 10
126.4761808143
 20
1800.0669373674
 40
5.5
  0
CIRCLE
  5
49F
100
AcDbEntity
  8
94528905000_M_BL10
100
AcDbCircle
 62
7
  6
CONTINUOUS
 10
126.4761808143
 20
1801.0669373674
 40
1.75
  0
CIRCLE
  5
4A0
100
AcDbEntity
  8
94528905000_M_BL10
100
AcDbCircle
 62
7
  6
CONTINUOUS
 10
126.4761808143
 20
1801.0669373674
 40
1.515
  0
CIRCLE
  5
4A1
100
AcDbEntity
  8
94528905000_M_BL10
100
AcDbCircle
 62
7
  6
CONTINUOUS
 10
126.4761808143
 20
1797.5669373674
 40
0.75
  0
ARC
  5
4A2
100
AcDbEntity
  8
94528905000_M_BL10
100
AcDbCircle
 62
7
  6
CONTINUOUS
 10
26.143843421
 20
1801.0669373674
 40
4.0
100
AcDbArc
 50
326.8389561101
 51
33.1610438899
  0
ARC
  5
4A3
100
AcDbEntity
  8
94528905000_M_BL10
100
AcDbCircle
 62
7
  6
CONTINUOUS
 10
26.143843421
 20
96.5375000877
 40
4.0
100
AcDbArc
 50
311.4096221093
 51
48.5903778907
  0
ENDBLK
  5
4A4
100
AcDbEntity
  8
0
  6
BYBLOCK
 62
0
100
AcDbBlockEnd
  0
BLOCK
  5
4A5
100
AcDbEntity
  8
94528905000_M_BL11
100
AcDbBlockBegin
  2
94528905000_M_BL11
 70
64
 10
80.7342849478
 20
1739.8669373674
  3
94528905000_M_BL11
  1

  0
LINE
  5
4A6
100
AcDbEntity
  8
94528905000_M_BL11
100
AcDbLine
 62
7
  6
CONTINUOUS
 10
125.6011808143
 20
1740.382481824
 11
124.7261808143
 21
1738.8669373674
  0
LINE
  5
4A7
100
AcDbEntity
  8
94528905000_M_BL11
100
AcDbLine
 62
7
  6
CONTINUOUS
 10
127.3511808143
 20
1737.3513929108
 11
128.2261808143
 21
1738.8669373674
  0
LINE
  5
4A8
100
AcDbEntity
  8
94528905000_M_BL11
100
AcDbLine
 62
7
  6
CONTINUOUS
 10
124.7261808143
 20
1738.8669373674
 11
125.6011808143
 21
1737.3513929108
  0
LINE
  5
4A9
100
AcDbEntity
  8
94528905000_M_BL11
100
AcDbLine
 62
7
  6
CONTINUOUS
 10
128.2261808143
 20
1738.8669373674
 11
127.3511808143
 21
1740.382481824
  0
LINE
  5
4AA
100
AcDbEntity
  8
94528905000_M_BL11
100
AcDbLine
 62
7
  6
CONTINUOUS
 10
125.6011808143
 20
1737.3513929108
 11
127.3511808143
 21
1737.3513929108
  0
LINE
  5
4AB
100
AcDbEntity
  8
94528905000_M_BL11
100
AcDbLine
 62
7
  6
CONTINUOUS
 10
127.3511808143
 20
1740.382481824
 11
125.6011808143
 21
1740.382481824
  0
CIRCLE
  5
4AC
100
AcDbEntity
  8
94528905000_M_BL11
100
AcDbCircle
 62
7
  6
CONTINUOUS
 10
126.4761808143
 20
1739.8669373674
 40
5.5
  0
CIRCLE
  5
4AD
100
AcDbEntity
  8
94528905000_M_BL11
100
AcDbCircle
 62
7
  6
CONTINUOUS
 10
126.4761808143
 20
1738.8669373674
 40
1.75
  0
CIRCLE
  5
4AE
100
AcDbEntity
  8
94528905000_M_BL11
100
AcDbCircle
 62
7
  6
CONTINUOUS
 10
126.4761808143
 20
1738.8669373674
 40
1.515
  0
CIRCLE
  5
4AF
100
AcDbEntity
  8
94528905000_M_BL11
100
AcDbCircle
 62
7
  6
CONTINUOUS
 10
126.4761808143
 20
1742.3669373674
 40
0.75
  0
ARC
  5
4B0
100
AcDbEntity
  8
94528905000_M_BL11
100
AcDbCircle
 62
7
  6
CONTINUOUS
 10
26.143843421
 20
1738.8669373674
 40
4.0
100
AcDbArc
 50
326.8389561101
 51
33.1610438899
  0
ENDBLK
  5
4B1
100
AcDbEntity
  8
0
  6
BYBLOCK
 62
0
100
AcDbBlockEnd
  0
BLOCK
  5
4B2
100
AcDbEntity
  8
93794908000_BL12
100
AcDbBlockBegin
  2
93794908000_BL12
 70
64
 10
78.9389537904
 20
617.5022202891
  3
93794908000_BL12
  1

  0
LINE
  5
4B3
100
AcDbEntity
  8
93794908000_BL12
100
AcDbLine
 62
7
  6
CONTINUOUS
 10
135.3883128487
 20
1131.254805333
 11
134.4761808143
 21
1130.3426732987
  0
LINE
  5
4B4
100
AcDbEntity
  8
93794908000_BL12
100
AcDbLine
 62
7
  6
CONTINUOUS
 10
135.3883128487
 20
1116.254805333
 11
134.4761808143
 21
1115.3426732987
  0
LINE
  5
4B5
100
AcDbEntity
  8
93794908000_BL12
100
AcDbLine
 62
7
  6
CONTINUOUS
 10
115.4761808143
 20
1113.4669373674
 11
115.4761808143
 21
1135.4669373674
  0
LINE
  5
4B6
100
AcDbEntity
  8
93794908000_BL12
100
AcDbLine
 62
7
  6
CONTINUOUS
 10
116.9761808143
 20
1113.4669373674
 11
116.9761808143
 21
1135.4669373674
  0
LINE
  5
4B7
100
AcDbEntity
  8
93794908000_BL12
100
AcDbLine
 62
7
  6
CONTINUOUS
 10
133.9761808143
 20
1113.4669373674
 11
133.9761808143
 21
1135.4669373674
  0
LINE
  5
4B8
100
AcDbEntity
  8
93794908000_BL12
100
AcDbLine
 62
7
  6
CONTINUOUS
 10
134.4761808143
 20
1135.4669373674
 11
134.4761808143
 21
1132.5912014361
  0
LINE
  5
4B9
100
AcDbEntity
  8
93794908000_BL12
100
AcDbLine
 62
7
  6
CONTINUOUS
 10
134.4761808143
 20
1130.3426732987
 11
134.4761808143
 21
1117.5912014361
  0
LINE
  5
4BA
100
AcDbEntity
  8
93794908000_BL12
100
AcDbLine
 62
7
  6
CONTINUOUS
 10
134.4761808143
 20
1113.4669373674
 11
134.4761808143
 21
1115.3426732987
  0
LINE
  5
4BB
100
AcDbEntity
  8
93794908000_BL12
100
AcDbLine
 62
7
  6
CONTINUOUS
 10
134.4761808143
 20
1113.4669373674
 11
116.9761808143
 21
1113.4669373674
  0
LINE
  5
4BC
100
AcDbEntity
  8
93794908000_BL12
100
AcDbLine
 62
7
  6
CONTINUOUS
 10
116.9761808143
 20
1113.4669373674
 11
115.4761808143
 21
1113.4669373674
  0
LINE
  5
4BD
100
AcDbEntity
  8
93794908000_BL12
100
AcDbLine
 62
7
  6
CONTINUOUS
 10
134.4761808143
 20
1117.5912014361
 11
135.3883128487
 21
1116.6790694017
  0
LINE
  5
4BE
100
AcDbEntity
  8
93794908000_BL12
100
AcDbLine
 62
7
  6
CONTINUOUS
 10
134.4761808143
 20
1132.5912014361
 11
135.3883128487
 21
1131.6790694017
  0
LINE
  5
4BF
100
AcDbEntity
  8
93794908000_BL12
100
AcDbLine
 62
7
  6
CONTINUOUS
 10
26.9017267665
 20
1131.254805333
 11
25.9895947321
 21
1130.3426732987
  0
LINE
  5
4C0
100
AcDbEntity
  8
93794908000_BL12
100
AcDbLine
 62
7
  6
CONTINUOUS
 10
26.9017267665
 20
1116.254805333
 11
25.9895947321
 21
1115.3426732987
  0
LINE
  5
4C1
100
AcDbEntity
  8
93794908000_BL12
100
AcDbLine
 62
7
  6
CONTINUOUS
 10
25.4895947321
 20
1113.4669373674
 11
25.4895947321
 21
1135.4669373674
  0
LINE
  5
4C2
100
AcDbEntity
  8
93794908000_BL12
100
AcDbLine
 62
7
  6
CONTINUOUS
 10
25.9895947321
 20
1135.4669373674
 11
25.9895947321
 21
1132.5912014361
  0
LINE
  5
4C3
100
AcDbEntity
  8
93794908000_BL12
100
AcDbLine
 62
7
  6
CONTINUOUS
 10
25.9895947321
 20
1130.3426732987
 11
25.9895947321
 21
1117.5912014361
  0
LINE
  5
4C4
100
AcDbEntity
  8
93794908000_BL12
100
AcDbLine
 62
7
  6
CONTINUOUS
 10
25.9895947321
 20
1113.4669373674
 11
25.9895947321
 21
1115.3426732987
  0
LINE
  5
4C5
100
AcDbEntity
  8
93794908000_BL12
100
AcDbLine
 62
7
  6
CONTINUOUS
 10
29.1895947321
 20
1113.4669373674
 11
29.1895947321
 21
1135.4669373674
  0
LINE
  5
4C6
100
AcDbEntity
  8
93794908000_BL12
100
AcDbLine
 62
7
  6
CONTINUOUS
 10
25.9895947321
 20
1117.5912014361
 11
26.9017267665
 21
1116.6790694017
  0
LINE
  5
4C7
100
AcDbEntity
  8
93794908000_BL12
100
AcDbLine
 62
7
  6
CONTINUOUS
 10
29.1895947321
 20
1113.4669373674
 11
25.4895947321
 21
1113.4669373674
  0
LINE
  5
4C8
100
AcDbEntity
  8
93794908000_BL12
100
AcDbLine
 62
7
  6
CONTINUOUS
 10
25.9895947321
 20
1115.3426732987
 11
29.1895947321
 21
1115.3426732987
  0
LINE
  5
4C9
100
AcDbEntity
  8
93794908000_BL12
100
AcDbLine
 62
9
  6
CONTINUOUS
 10
26.9017267665
 20
1116.254805333
 11
29.1895947321
 21
1116.254805333
  0
LINE
  5
4CA
100
AcDbEntity
  8
93794908000_BL12
100
AcDbLine
 62
9
  6
CONTINUOUS
 10
26.9017267665
 20
1116.6790694017
 11
29.1895947321
 21
1116.6790694017
  0
LINE
  5
4CB
100
AcDbEntity
  8
93794908000_BL12
100
AcDbLine
 62
7
  6
CONTINUOUS
 10
25.9895947321
 20
1117.5912014361
 11
29.1895947321
 21
1117.5912014361
  0
LINE
  5
4CC
100
AcDbEntity
  8
93794908000_BL12
100
AcDbLine
 62
7
  6
CONTINUOUS
 10
25.9895947321
 20
1130.3426732987
 11
29.1895947321
 21
1130.3426732987
  0
LINE
  5
4CD
100
AcDbEntity
  8
93794908000_BL12
100
AcDbLine
 62
9
  6
CONTINUOUS
 10
26.9017267665
 20
1131.254805333
 11
29.1895947321
 21
1131.254805333
  0
LINE
  5
4CE
100
AcDbEntity
  8
93794908000_BL12
100
AcDbLine
 62
9
  6
CONTINUOUS
 10
26.9017267665
 20
1131.6790694017
 11
29.1895947321
 21
1131.6790694017
  0
LINE
  5
4CF
100
AcDbEntity
  8
93794908000_BL12
100
AcDbLine
 62
7
  6
CONTINUOUS
 10
25.9895947321
 20
1132.5912014361
 11
29.1895947321
 21
1132.5912014361
  0
LINE
  5
4D0
100
AcDbEntity
  8
93794908000_BL12
100
AcDbLine
 62
7
  6
CENTER
 10
22.4895947321
 20
1147.4669373674
 11
32.1895947321
 21
1147.4669373674
  0
LINE
  5
4D1
100
AcDbEntity
  8
93794908000_BL12
100
AcDbLine
 62
7
  6
CONTINUOUS
 10
25.9895947321
 20
1132.5912014361
 11
26.9017267665
 21
1131.6790694017
  0
LINE
  5
4D2
100
AcDbEntity
  8
93794908000_BL12
100
AcDbLine
 62
7
  6
CONTINUOUS
 10
26.9895947321
 20
107.5375000877
 11
26.8895947321
 21
107.4375000877
  0
LINE
  5
4D3
100
AcDbEntity
  8
93794908000_BL12
100
AcDbLine
 62
9
  6
CONTINUOUS
 10
26.9017267665
 20
87.6253680534
 11
29.1895947321
 21
87.6253680534
  0
LINE
  5
4D4
100
AcDbEntity
  8
93794908000_BL12
100
AcDbLine
 62
7
  6
CONTINUOUS
 10
26.9017267665
 20
87.6253680534
 11
26.989591609
 21
87.5375032108
  0
LINE
  5
4D5
100
AcDbEntity
  8
93794908000_BL12
100
AcDbLine
 62
7
  6
CONTINUOUS
 10
29.1895947321
 20
107.5375000877
 11
29.1895947321
 21
107.4375000877
  0
LINE
  5
4D6
100
AcDbEntity
  8
93794908000_BL12
100
AcDbLine
 62
7
  6
CONTINUOUS
 10
29.1895947321
 20
87.5380289369
 11
29.1895947321
 21
87.6253680534
  0
CIRCLE
  5
4D7
100
AcDbEntity
  8
93794908000_BL12
100
AcDbCircle
 62
7
  6
CONTINUOUS
 10
121.5761808143
 20
1133.1669373674
 40
2.0
  0
CIRCLE
  5
4D8
100
AcDbEntity
  8
93794908000_BL12
100
AcDbCircle
 62
7
  6
CONTINUOUS
 10
118.3761808143
 20
1131.4669373674
 40
0.75
  0
CIRCLE
  5
4D9
100
AcDbEntity
  8
93794908000_BL12
100
AcDbCircle
 62
7
  6
CONTINUOUS
 10
118.3761808143
 20
1116.4669373674
 40
0.75
  0
CIRCLE
  5
4DA
100
AcDbEntity
  8
93794908000_BL12
100
AcDbCircle
 62
7
  6
CONTINUOUS
 10
125.4761808143
 20
1123.4669373674
 40
6.0
  0
CIRCLE
  5
4DB
100
AcDbEntity
  8
93794908000_BL12
100
AcDbCircle
 62
7
  6
CONTINUOUS
 10
125.4761808143
 20
1123.4669373674
 40
3.5
  0
CIRCLE
  5
4DC
100
AcDbEntity
  8
93794908000_BL12
100
AcDbCircle
 62
7
  6
CONTINUOUS
 10
125.4761808143
 20
1123.4669373674
 40
3.3
  0
CIRCLE
  5
4DD
100
AcDbEntity
  8
93794908000_BL12
100
AcDbCircle
 62
7
  6
CONTINUOUS
 10
129.3761808143
 20
1133.1669373674
 40
2.0
  0
CIRCLE
  5
4DE
100
AcDbEntity
  8
93794908000_BL12
100
AcDbCircle
 62
7
  6
CONTINUOUS
 10
125.4761808143
 20
1115.4669373674
 40
2.0
  0
CIRCLE
  5
4DF
100
AcDbEntity
  8
93794908000_BL12
100
AcDbCircle
 62
7
  6
CONTINUOUS
 10
132.5761808143
 20
1131.4669373674
 40
0.75
  0
CIRCLE
  5
4E0
100
AcDbEntity
  8
93794908000_BL12
100
AcDbCircle
 62
7
  6
CONTINUOUS
 10
132.5761808143
 20
1116.4669373674
 40
0.75
  0
ARC
  5
4E1
100
AcDbEntity
  8
93794908000_BL12
100
AcDbCircle
 62
7
  6
CONTINUOUS
 10
135.1761808143
 20
1131.4669373674
 40
0.3
100
AcDbArc
 50
315.0
 51
45.0
  0
ARC
  5
4E2
100
AcDbEntity
  8
93794908000_BL12
100
AcDbCircle
 62
7
  6
CONTINUOUS
 10
135.1761808143
 20
1116.4669373674
 40
0.3
100
AcDbArc
 50
315.0
 51
45.0
  0
ARC
  5
4E3
100
AcDbEntity
  8
93794908000_BL12
100
AcDbCircle
 62
7
  6
CONTINUOUS
 10
26.4895947321
 20
1131.4669373674
 40
1.25
100
AcDbArc
 50
143.1301023542
 51
216.8698976458
  0
ARC
  5
4E4
100
AcDbEntity
  8
93794908000_BL12
100
AcDbCircle
 62
7
  6
CONTINUOUS
 10
26.4895947321
 20
1116.4669373674
 40
1.25
100
AcDbArc
 50
143.1301023542
 51
216.8698976458
  0
ELLIPSE
  5
4E5
100
AcDbEntity
  8
93794908000_BL12
100
AcDbEllipse
 62
7
  6
CONTINUOUS
 10
26.6895947321
 20
1131.4669373674
 30
0.0
 11
0.0
 21
0.3
 31
0.0
 40
1.0
 41
-2.3561944902
 42
-0.7853981634
  0
ELLIPSE
  5
4E6
100
AcDbEntity
  8
93794908000_BL12
100
AcDbEllipse
 62
7
  6
CONTINUOUS
 10
26.6895947321
 20
1116.4669373674
 30
0.0
 11
-0.0
 21
0.3
 31
0.0
 40
1.0
 41
-2.3561944902
 42
-0.7853981634
  0
ENDBLK
  5
4E7
100
AcDbEntity
  8
0
  6
BYBLOCK
 62
0
100
AcDbBlockEnd
  0
BLOCK
  5
4E8
100
AcDbEntity
  8
93794908000_BL13
100
AcDbBlockBegin
  2
93794908000_BL13
 70
64
 10
78.9389537904
 20
923.9669373674
  3
93794908000_BL13
  1

  0
LINE
  5
4E9
100
AcDbEntity
  8
93794908000_BL13
100
AcDbLine
 62
7
  6
CONTINUOUS
 10
115.4761808143
 20
940.9669373674
 11
116.9761808143
 21
940.9669373674
  0
LINE
  5
4EA
100
AcDbEntity
  8
93794908000_BL13
100
AcDbLine
 62
7
  6
CONTINUOUS
 10
116.9761808143
 20
940.9669373674
 11
134.4761808143
 21
940.9669373674
  0
LINE
  5
4EB
100
AcDbEntity
  8
93794908000_BL13
100
AcDbLine
 62
7
  6
CONTINUOUS
 10
134.4761808143
 20
924.0912014361
 11
135.3883128487
 21
923.1790694017
  0
LINE
  5
4EC
100
AcDbEntity
  8
93794908000_BL13
100
AcDbLine
 62
7
  6
CONTINUOUS
 10
134.4761808143
 20
939.0912014361
 11
135.3883128487
 21
938.1790694017
  0
LINE
  5
4ED
100
AcDbEntity
  8
93794908000_BL13
100
AcDbLine
 62
7
  6
CONTINUOUS
 10
115.4761808143
 20
918.9669373674
 11
115.4761808143
 21
940.9669373674
  0
LINE
  5
4EE
100
AcDbEntity
  8
93794908000_BL13
100
AcDbLine
 62
7
  6
CONTINUOUS
 10
116.9761808143
 20
918.9669373674
 11
116.9761808143
 21
940.9669373674
  0
LINE
  5
4EF
100
AcDbEntity
  8
93794908000_BL13
100
AcDbLine
 62
7
  6
CONTINUOUS
 10
133.9761808143
 20
918.9669373674
 11
133.9761808143
 21
940.9669373674
  0
LINE
  5
4F0
100
AcDbEntity
  8
93794908000_BL13
100
AcDbLine
 62
7
  6
CONTINUOUS
 10
134.4761808143
 20
940.9669373674
 11
134.4761808143
 21
939.0912014361
  0
LINE
  5
4F1
100
AcDbEntity
  8
93794908000_BL13
100
AcDbLine
 62
7
  6
CONTINUOUS
 10
134.4761808143
 20
936.8426732987
 11
134.4761808143
 21
924.0912014361
  0
LINE
  5
4F2
100
AcDbEntity
  8
93794908000_BL13
100
AcDbLine
 62
7
  6
CONTINUOUS
 10
134.4761808143
 20
921.8426732987
 11
134.4761808143
 21
918.9669373674
  0
LINE
  5
4F3
100
AcDbEntity
  8
93794908000_BL13
100
AcDbLine
 62
7
  6
CONTINUOUS
 10
135.3883128487
 20
937.754805333
 11
134.4761808143
 21
936.8426732987
  0
LINE
  5
4F4
100
AcDbEntity
  8
93794908000_BL13
100
AcDbLine
 62
7
  6
CONTINUOUS
 10
135.3883128487
 20
922.754805333
 11
134.4761808143
 21
921.8426732987
  0
LINE
  5
4F5
100
AcDbEntity
  8
93794908000_BL13
100
AcDbLine
 62
7
  6
CENTER
 10
22.4895947321
 20
906.9669373674
 11
32.1895947321
 21
906.9669373674
  0
LINE
  5
4F6
100
AcDbEntity
  8
93794908000_BL13
100
AcDbLine
 62
7
  6
CONTINUOUS
 10
25.9895947321
 20
921.8426732987
 11
29.1895947321
 21
921.8426732987
  0
LINE
  5
4F7
100
AcDbEntity
  8
93794908000_BL13
100
AcDbLine
 62
9
  6
CONTINUOUS
 10
26.9017267665
 20
922.754805333
 11
29.1895947321
 21
922.754805333
  0
LINE
  5
4F8
100
AcDbEntity
  8
93794908000_BL13
100
AcDbLine
 62
9
  6
CONTINUOUS
 10
26.9017267665
 20
923.1790694017
 11
29.1895947321
 21
923.1790694017
  0
LINE
  5
4F9
100
AcDbEntity
  8
93794908000_BL13
100
AcDbLine
 62
7
  6
CONTINUOUS
 10
25.9895947321
 20
924.0912014361
 11
29.1895947321
 21
924.0912014361
  0
LINE
  5
4FA
100
AcDbEntity
  8
93794908000_BL13
100
AcDbLine
 62
7
  6
CONTINUOUS
 10
25.9895947321
 20
936.8426732987
 11
29.1895947321
 21
936.8426732987
  0
LINE
  5
4FB
100
AcDbEntity
  8
93794908000_BL13
100
AcDbLine
 62
9
  6
CONTINUOUS
 10
26.9017267665
 20
937.754805333
 11
29.1895947321
 21
937.754805333
  0
LINE
  5
4FC
100
AcDbEntity
  8
93794908000_BL13
100
AcDbLine
 62
9
  6
CONTINUOUS
 10
26.9017267665
 20
938.1790694017
 11
29.1895947321
 21
938.1790694017
  0
LINE
  5
4FD
100
AcDbEntity
  8
93794908000_BL13
100
AcDbLine
 62
7
  6
CONTINUOUS
 10
25.9895947321
 20
939.0912014361
 11
29.1895947321
 21
939.0912014361
  0
LINE
  5
4FE
100
AcDbEntity
  8
93794908000_BL13
100
AcDbLine
 62
7
  6
CONTINUOUS
 10
25.4895947321
 20
940.9669373674
 11
29.1895947321
 21
940.9669373674
  0
LINE
  5
4FF
100
AcDbEntity
  8
93794908000_BL13
100
AcDbLine
 62
7
  6
CONTINUOUS
 10
25.9895947321
 20
924.0912014361
 11
26.9017267665
 21
923.1790694017
  0
LINE
  5
500
100
AcDbEntity
  8
93794908000_BL13
100
AcDbLine
 62
7
  6
CONTINUOUS
 10
25.9895947321
 20
939.0912014361
 11
26.9017267665
 21
938.1790694017
  0
LINE
  5
501
100
AcDbEntity
  8
93794908000_BL13
100
AcDbLine
 62
7
  6
CONTINUOUS
 10
25.4895947321
 20
918.9669373674
 11
25.4895947321
 21
940.9669373674
  0
LINE
  5
502
100
AcDbEntity
  8
93794908000_BL13
100
AcDbLine
 62
7
  6
CONTINUOUS
 10
25.9895947321
 20
940.9669373674
 11
25.9895947321
 21
939.0912014361
  0
LINE
  5
503
100
AcDbEntity
  8
93794908000_BL13
100
AcDbLine
 62
7
  6
CONTINUOUS
 10
25.9895947321
 20
936.8426732987
 11
25.9895947321
 21
924.0912014361
  0
LINE
  5
504
100
AcDbEntity
  8
93794908000_BL13
100
AcDbLine
 62
7
  6
CONTINUOUS
 10
25.9895947321
 20
921.8426732987
 11
25.9895947321
 21
918.9669373674
  0
LINE
  5
505
100
AcDbEntity
  8
93794908000_BL13
100
AcDbLine
 62
7
  6
CONTINUOUS
 10
29.1895947321
 20
918.9669373674
 11
29.1895947321
 21
940.9669373674
  0
LINE
  5
506
100
AcDbEntity
  8
93794908000_BL13
100
AcDbLine
 62
7
  6
CONTINUOUS
 10
26.9017267665
 20
937.754805333
 11
25.9895947321
 21
936.8426732987
  0
LINE
  5
507
100
AcDbEntity
  8
93794908000_BL13
100
AcDbLine
 62
7
  6
CONTINUOUS
 10
26.9017267665
 20
922.754805333
 11
25.9895947321
 21
921.8426732987
  0
CIRCLE
  5
508
100
AcDbEntity
  8
93794908000_BL13
100
AcDbCircle
 62
7
  6
CONTINUOUS
 10
121.5761808143
 20
921.2669373674
 40
2.0
  0
CIRCLE
  5
509
100
AcDbEntity
  8
93794908000_BL13
100
AcDbCircle
 62
7
  6
CONTINUOUS
 10
118.3761808143
 20
937.9669373674
 40
0.75
  0
CIRCLE
  5
50A
100
AcDbEntity
  8
93794908000_BL13
100
AcDbCircle
 62
7
  6
CONTINUOUS
 10
118.3761808143
 20
922.9669373674
 40
0.75
  0
CIRCLE
  5
50B
100
AcDbEntity
  8
93794908000_BL13
100
AcDbCircle
 62
7
  6
CONTINUOUS
 10
125.4761808143
 20
930.9669373674
 40
6.0
  0
CIRCLE
  5
50C
100
AcDbEntity
  8
93794908000_BL13
100
AcDbCircle
 62
7
  6
CONTINUOUS
 10
125.4761808143
 20
930.9669373674
 40
3.5
  0
CIRCLE
  5
50D
100
AcDbEntity
  8
93794908000_BL13
100
AcDbCircle
 62
7
  6
CONTINUOUS
 10
125.4761808143
 20
930.9669373674
 40
3.3
  0
CIRCLE
  5
50E
100
AcDbEntity
  8
93794908000_BL13
100
AcDbCircle
 62
7
  6
CONTINUOUS
 10
129.3761808143
 20
921.2669373674
 40
2.0
  0
CIRCLE
  5
50F
100
AcDbEntity
  8
93794908000_BL13
100
AcDbCircle
 62
7
  6
CONTINUOUS
 10
125.4761808143
 20
938.9669373674
 40
2.0
  0
CIRCLE
  5
510
100
AcDbEntity
  8
93794908000_BL13
100
AcDbCircle
 62
7
  6
CONTINUOUS
 10
132.5761808143
 20
922.9669373674
 40
0.75
  0
CIRCLE
  5
511
100
AcDbEntity
  8
93794908000_BL13
100
AcDbCircle
 62
7
  6
CONTINUOUS
 10
132.5761808143
 20
937.9669373674
 40
0.75
  0
ARC
  5
512
100
AcDbEntity
  8
93794908000_BL13
100
AcDbCircle
 62
7
  6
CONTINUOUS
 10
135.1761808143
 20
937.9669373674
 40
0.3
100
AcDbArc
 50
315.0
 51
45.0
  0
ARC
  5
513
100
AcDbEntity
  8
93794908000_BL13
100
AcDbCircle
 62
7
  6
CONTINUOUS
 10
135.1761808143
 20
922.9669373674
 40
0.3
100
AcDbArc
 50
315.0
 51
45.0
  0
ARC
  5
514
100
AcDbEntity
  8
93794908000_BL13
100
AcDbCircle
 62
7
  6
CONTINUOUS
 10
26.4895947321
 20
922.9669373674
 40
1.25
100
AcDbArc
 50
143.1301023542
 51
216.8698976458
  0
ARC
  5
515
100
AcDbEntity
  8
93794908000_BL13
100
AcDbCircle
 62
7
  6
CONTINUOUS
 10
26.4895947321
 20
937.9669373674
 40
1.25
100
AcDbArc
 50
143.1301023542
 51
216.8698976458
  0
ELLIPSE
  5
516
100
AcDbEntity
  8
93794908000_BL13
100
AcDbEllipse
 62
7
  6
CONTINUOUS
 10
26.6895947321
 20
937.9669373674
 30
0.0
 11
0.3
 21
0.0
 31
0.0
 40
1.0
 41
-0.7853981634
 42
0.7853981634
  0
ELLIPSE
  5
517
100
AcDbEntity
  8
93794908000_BL13
100
AcDbEllipse
 62
7
  6
CONTINUOUS
 10
26.6895947321
 20
922.9669373674
 30
0.0
 11
0.3
 21
0.0
 31
0.0
 40
1.0
 41
-0.7853981634
 42
0.7853981634
  0
ENDBLK
  5
518
100
AcDbEntity
  8
0
  6
BYBLOCK
 62
0
100
AcDbBlockEnd
  0
BLOCK
  5
519
100
AcDbEntity
  8
93773508000_O_BL14
100
AcDbBlockBegin
  2
93773508000_O_BL14
 70
64
 10
80.4828877732
 20
1893.4669373674
  3
93773508000_O_BL14
  1

  0
LINE
  5
51A
100
AcDbEntity
  8
93773508000_O_BL14
100
AcDbLine
 62
7
  6
CONTINUOUS
 10
113.4761808143
 20
1900.3669373674
 11
113.4761808143
 21
1907.9669373674
  0
LINE
  5
51B
100
AcDbEntity
  8
93773508000_O_BL14
100
AcDbLine
 62
9
  6
CONTINUOUS
 10
115.9761808143
 20
1903.4669373674
 11
115.9761808143
 21
1899.9669373674
  0
LINE
  5
51C
100
AcDbEntity
  8
93773508000_O_BL14
100
AcDbLine
 62
7
  6
CENTER
 10
125.4761808143
 20
1887.9669373674
 11
125.4761808143
 21
1878.9669373674
  0
LINE
  5
51D
100
AcDbEntity
  8
93773508000_O_BL14
100
AcDbLine
 62
7
  6
CENTER
 10
125.4761808143
 20
1887.9669373674
 11
125.4761808143
 21
1896.9669373674
  0
LINE
  5
51E
100
AcDbEntity
  8
93773508000_O_BL14
100
AcDbLine
 62
9
  6
CONTINUOUS
 10
134.9761808143
 20
1903.4669373674
 11
134.9761808143
 21
1899.9669373674
  0
LINE
  5
51F
100
AcDbEntity
  8
93773508000_O_BL14
100
AcDbLine
 62
7
  6
CONTINUOUS
 10
137.4761808143
 20
1907.9669373674
 11
137.4761808143
 21
1900.3669373674
  0
LINE
  5
520
100
AcDbEntity
  8
93773508000_O_BL14
100
AcDbLine
 62
7
  6
CENTER
 10
125.4761808143
 20
1887.9669373674
 11
116.4761808143
 21
1887.9669373674
  0
LINE
  5
521
100
AcDbEntity
  8
93773508000_O_BL14
100
AcDbLine
 62
7
  6
CENTER
 10
125.4761808143
 20
1887.9669373674
 11
134.4761808143
 21
1887.9669373674
  0
LINE
  5
522
100
AcDbEntity
  8
93773508000_O_BL14
100
AcDbLine
 62
9
  6
CONTINUOUS
 10
113.4761808143
 20
1900.3669373674
 11
137.4761808143
 21
1900.3669373674
  0
LINE
  5
523
100
AcDbEntity
  8
93773508000_O_BL14
100
AcDbLine
 62
9
  6
CONTINUOUS
 10
134.9761808143
 20
1903.4669373674
 11
115.9761808143
 21
1903.4669373674
  0
LINE
  5
524
100
AcDbEntity
  8
93773508000_O_BL14
100
AcDbLine
 62
7
  6
CONTINUOUS
 10
137.4761808143
 20
1907.9669373674
 11
113.4761808143
 21
1907.9669373674
  0
LINE
  5
525
100
AcDbEntity
  8
93773508000_O_BL14
100
AcDbLine
 62
7
  6
CONTINUOUS
 10
23.4895947321
 20
1903.4669373674
 11
23.4895947321
 21
1900.3669373674
  0
LINE
  5
526
100
AcDbEntity
  8
93773508000_O_BL14
100
AcDbLine
 62
9
  6
CONTINUOUS
 10
25.9895947321
 20
1907.4980662415
 11
25.9895947321
 21
1899.9669373674
  0
LINE
  5
527
100
AcDbEntity
  8
93773508000_O_BL14
100
AcDbLine
 62
7
  6
CONTINUOUS
 10
29.4895947321
 20
1907.9669373674
 11
29.4895947321
 21
1899.9669373674
  0
LINE
  5
528
100
AcDbEntity
  8
93773508000_O_BL14
100
AcDbLine
 62
9
  6
CONTINUOUS
 10
23.4895947321
 20
1900.3669373674
 11
29.4895947321
 21
1900.3669373674
  0
LINE
  5
529
100
AcDbEntity
  8
93773508000_O_BL14
100
AcDbLine
 62
7
  6
CONTINUOUS
 10
29.4895947321
 20
1907.9669373674
 11
27.9895947321
 21
1907.9669373674
  0
ARC
  5
52A
100
AcDbEntity
  8
93773508000_O_BL14
100
AcDbCircle
 62
7
  6
CONTINUOUS
 10
113.8761808143
 20
1900.3669373674
 40
0.4
100
AcDbArc
 50
180.0
 51
270.0
  0
ARC
  5
52B
100
AcDbEntity
  8
93773508000_O_BL14
100
AcDbCircle
 62
7
  6
CONTINUOUS
 10
137.0761808143
 20
1900.3669373674
 40
0.4
100
AcDbArc
 50
270.0
 51
360.0
  0
ARC
  5
52C
100
AcDbEntity
  8
93773508000_O_BL14
100
AcDbCircle
 62
7
  6
CONTINUOUS
 10
27.9895947321
 20
1903.4669373674
 40
4.5
100
AcDbArc
 50
90.0
 51
180.0
  0
ARC
  5
52D
100
AcDbEntity
  8
93773508000_O_BL14
100
AcDbCircle
 62
7
  6
CONTINUOUS
 10
23.8895947321
 20
1900.3669373674
 40
0.4
100
AcDbArc
 50
180.0
 51
270.0
  0
SPLINE
  5
52E
100
AcDbEntity
  8
93773508000_O_BL14
100
AcDbSpline
 62
7
  6
CONTINUOUS
 70
0
 71
3
 72
12
 73
8
 74
0
 42
0.0000001
 43
0.0000001
 44
0.0000000001
 40
0.0
 40
0.0
 40
0.0
 40
0.0
 40
0.0772200496
 40
0.1770414267
 40
0.4238050361
 40
0.7050572243
 40
1.0
 40
1.0
 40
1.0
 40
1.0
 10
137.4761808143
 20
1907.4980662415
 30
0.0
 10
137.4761808143
 20
1907.3750901687
 30
0.0
 10
137.4011413456
 20
1907.0964747861
 30
0.0
 10
137.1120863568
 20
1906.4877101714
 30
0.0
 10
136.5673130715
 20
1905.6446024568
 30
0.0
 10
135.8058225198
 20
1904.5792414027
 30
0.0
 10
135.2568852601
 20
1903.8435419009
 30
0.0
 10
134.9761808143
 20
1903.4669373674
 30
0.0
  0
SPLINE
  5
52F
100
AcDbEntity
  8
93773508000_O_BL14
100
AcDbSpline
 62
7
  6
CONTINUOUS
 70
0
 71
3
 72
12
 73
8
 74
0
 42
0.0000001
 43
0.0000001
 44
0.0000000001
 40
0.0
 40
0.0
 40
0.0
 40
0.0
 40
0.2950120828
 40
0.5762835698
 40
0.8230069521
 40
0.9228007747
 40
1.0
 40
1.0
 40
1.0
 40
1.0
 10
115.9761808143
 20
1903.4669373674
 30
0.0
 10
115.6954105891
 20
1903.8436301532
 30
0.0
 10
115.1463897312
 20
1904.57944334
 30
0.0
 10
114.3848746585
 20
1905.6448782783
 30
0.0
 10
113.8401464471
 20
1906.4879268123
 30
0.0
 10
113.5512027761
 20
1907.0965863788
 30
0.0
 10
113.4761808143
 20
1907.3751234119
 30
0.0
 10
113.4761808143
 20
1907.4980662415
 30
0.0
  0
ENDBLK
  5
530
100
AcDbEntity
  8
0
  6
BYBLOCK
 62
0
100
AcDbBlockEnd
  0
BLOCK
  5
531
100
AcDbEntity
  8
93782708000_BL15
100
AcDbBlockBegin
  2
93782708000_BL15
 70
64
 10
27.4395947321
 20
97.5375000877
  3
93782708000_BL15
  1

  0
LINE
  5
532
100
AcDbEntity
  8
93782708000_BL15
100
AcDbLine
 62
7
  6
CONTINUOUS
 10
25.4895947321
 20
106.4375000877
 11
26.4895947321
 21
107.4375000877
  0
LINE
  5
533
100
AcDbEntity
  8
93782708000_BL15
100
AcDbLine
 62
7
  6
CONTINUOUS
 10
26.4895947321
 20
87.6375000877
 11
25.4895947321
 21
88.6375000877
  0
LINE
  5
534
100
AcDbEntity
  8
93782708000_BL15
100
AcDbLine
 62
7
  6
CONTINUOUS
 10
26.4895947321
 20
87.6375000877
 11
29.3895947321
 21
87.6375000877
  0
LINE
  5
535
100
AcDbEntity
  8
93782708000_BL15
100
AcDbLine
 62
7
  6
CONTINUOUS
 10
29.3895947321
 20
87.6375000877
 11
29.3895947321
 21
89.6375000877
  0
LINE
  5
536
100
AcDbEntity
  8
93782708000_BL15
100
AcDbLine
 62
7
  6
CONTINUOUS
 10
29.3895947321
 20
103.4375000877
 11
29.3895947321
 21
107.4375000877
  0
LINE
  5
537
100
AcDbEntity
  8
93782708000_BL15
100
AcDbLine
 62
7
  6
CONTINUOUS
 10
29.3895947321
 20
107.4375000877
 11
26.4895947321
 21
107.4375000877
  0
ENDBLK
  5
538
100
AcDbEntity
  8
0
  6
BYBLOCK
 62
0
100
AcDbBlockEnd
  0
BLOCK
  5
539
100
AcDbEntity
  8
91511100000_BL16
100
AcDbBlockBegin
  2
91511100000_BL16
 70
64
 10
28.1895947321
 20
96.5375000877
  3
91511100000_BL16
  1

  0
LINE
  5
53A
100
AcDbEntity
  8
91511100000_BL16
100
AcDbLine
 62
7
  6
CONTINUOUS
 10
28.7895947321
 20
92.5375000877
 11
27.5895947321
 21
92.5375000877
  0
LINE
  5
53B
100
AcDbEntity
  8
91511100000_BL16
100
AcDbLine
 62
7
  6
CONTINUOUS
 10
28.7895947321
 20
92.5375000877
 11
28.7895947321
 21
100.5375000877
  0
LINE
  5
53C
100
AcDbEntity
  8
91511100000_BL16
100
AcDbLine
 62
7
  6
CONTINUOUS
 10
28.7895947321
 20
100.5375000877
 11
27.5895947321
 21
100.5375000877
  0
ENDBLK
  5
53D
100
AcDbEntity
  8
0
  6
BYBLOCK
 62
0
100
AcDbBlockEnd
  0
BLOCK
  5
53E
100
AcDbEntity
  8
0
100
AcDbBlockBegin
  2
_FILLED
 70
64
 10
0.0
 20
0.0
  3
_FILLED
  1

  0
SOLID
  5
53F
100
AcDbEntity
  8
0
  6
BYBLOCK
 62
0
100
AcDbTrace
 10
0.0
 20
0.0
 11
-1.0
 21
0.1428571429
 12
-1.0
 22
-0.1428571429
 13
-1.0
 23
-0.1428571429
  0
ENDBLK
  5
540
100
AcDbEntity
  8
0
  6
BYBLOCK
 62
0
100
AcDbBlockEnd
  0
BLOCK
  5
541
100
AcDbEntity
  8
0
100
AcDbBlockBegin
  2
_NONE
 70
64
 10
0.0
 20
0.0
  3
_NONE
  1

  0
ENDBLK
  5
542
100
AcDbEntity
  8
0
  6
BYBLOCK
 62
0
100
AcDbBlockEnd
  0
BLOCK
  5
543
100
AcDbEntity
  8
0
100
AcDbBlockBegin
 62
2
  6
CONTINUOUS
  2
*D0
 70
65
 10
0.0
 20
0.0
  3
*D0
  1

  0
TEXT
  5
544
100
AcDbEntity
  8
0
100
AcDbText
 62
5
  6
CONTINUOUS
 10
57.0645947321
 20
93.140659939
  7
STANDARD
 40
2.5
  1
13.8
 50
90.0
 72
5
 11
57.0645947321
 21
99.9343402364
100
AcDbText
  0
LINE
  5
545
100
AcDbEntity
  8
0
100
AcDbLine
 62
2
  6
CONTINUOUS
 10
31.4895947321
 20
89.6375000877
 11
49.5404755779
 21
89.6375000877
  0
LINE
  5
546
100
AcDbEntity
  8
0
100
AcDbLine
 62
2
  6
CONTINUOUS
 10
51.6725583452
 20
89.6375000877
 11
58.6895947321
 21
89.6375000877
  0
LINE
  5
547
100
AcDbEntity
  8
0
100
AcDbLine
 62
2
  6
CONTINUOUS
 10
31.4895947321
 20
103.4375000877
 11
58.6895947321
 21
103.4375000877
  0
LINE
  5
548
100
AcDbEntity
  8
0
100
AcDbLine
 62
2
  6
CONTINUOUS
 10
57.6895947321
 20
89.6375000877
 11
57.6895947321
 21
96.5375000877
  0
LINE
  5
549
100
AcDbEntity
  8
0
100
AcDbLine
 62
2
  6
CONTINUOUS
 10
57.6895947321
 20
103.4375000877
 11
57.6895947321
 21
96.5375000877
  0
INSERT
  5
54A
100
AcDbEntity
  8
0
100
AcDbBlockReference
 62
2
  6
CONTINUOUS
  2
_FILLED
 10
57.6895947321
 20
89.6375000877
 41
3.5
 42
3.5
 43
3.5
 50
270.0
  0
INSERT
  5
54B
100
AcDbEntity
  8
0
100
AcDbBlockReference
 62
2
  6
CONTINUOUS
  2
_FILLED
 10
57.6895947321
 20
103.4375000877
 41
3.5
 42
3.5
 43
3.5
 50
90.0
  0
ENDBLK
  5
54C
100
AcDbEntity
  8
0
  6
BYBLOCK
 62
0
100
AcDbBlockEnd
  0
BLOCK
  5
54D
100
AcDbEntity
  8
0
100
AcDbBlockBegin
 62
2
  6
CONTINUOUS
  2
*D1
 70
65
 10
0.0
 20
0.0
  3
*D1
  1

  0
TEXT
  5
54E
100
AcDbEntity
  8
0
100
AcDbText
 62
5
  6
CONTINUOUS
 10
50.0645947321
 20
79.1803075284
  7
STANDARD
 40
2.5
  1
2
 50
90.0
 72
5
 11
50.0645947321
 21
81.1226867105
100
AcDbText
  0
LINE
  5
54F
100
AcDbEntity
  8
0
100
AcDbLine
 62
2
  6
CONTINUOUS
 10
29.4895947321
 20
87.5375000877
 11
51.6895947321
 21
87.5375000877
  0
LINE
  5
550
100
AcDbEntity
  8
0
100
AcDbLine
 62
2
  6
CONTINUOUS
 10
29.4895947321
 20
85.5375000877
 11
51.6895947321
 21
85.5375000877
  0
LINE
  5
551
100
AcDbEntity
  8
0
100
AcDbLine
 62
2
  6
CONTINUOUS
 10
50.6895947321
 20
87.5375000877
 11
50.6895947321
 21
94.5375000877
  0
LINE
  5
552
100
AcDbEntity
  8
0
100
AcDbLine
 62
2
  6
CONTINUOUS
 10
50.6895947321
 20
94.5375000877
 11
50.6895947321
 21
86.5375000877
  0
LINE
  5
553
100
AcDbEntity
  8
0
100
AcDbLine
 62
2
  6
CONTINUOUS
 10
50.6895947321
 20
85.5375000877
 11
50.6895947321
 21
79.1803075284
  0
LINE
  5
554
100
AcDbEntity
  8
0
100
AcDbLine
 62
2
  6
CONTINUOUS
 10
50.6895947321
 20
79.1803075284
 11
50.6895947321
 21
86.5375000877
  0
INSERT
  5
555
100
AcDbEntity
  8
0
100
AcDbBlockReference
 62
2
  6
CONTINUOUS
  2
_FILLED
 10
50.6895947321
 20
87.5375000877
 41
3.5
 42
3.5
 43
3.5
 50
270.0
  0
INSERT
  5
556
100
AcDbEntity
  8
0
100
AcDbBlockReference
 62
2
  6
CONTINUOUS
  2
_FILLED
 10
50.6895947321
 20
85.5375000877
 41
3.5
 42
3.5
 43
3.5
 50
90.0
  0
ENDBLK
  5
557
100
AcDbEntity
  8
0
  6
BYBLOCK
 62
0
100
AcDbBlockEnd
  0
BLOCK
  5
558
100
AcDbEntity
  8
0
100
AcDbBlockBegin
 62
2
  6
CONTINUOUS
  2
*D2
 70
65
 10
0.0
 20
0.0
  3
*D2
  1

  0
TEXT
  5
559
100
AcDbEntity
  8
0
100
AcDbText
 62
5
  6
CONTINUOUS
 10
28.1413061946
 20
120.1625000877
  7
STANDARD
 40
2.5
  1
2
 72
5
 11
30.0836853767
 21
120.1625000877
100
AcDbText
  0
LINE
  5
55A
100
AcDbEntity
  8
0
100
AcDbLine
 62
2
  6
CONTINUOUS
 10
21.4895947321
 20
105.0375000877
 11
21.4895947321
 21
120.5375000877
  0
LINE
  5
55B
100
AcDbEntity
  8
0
100
AcDbLine
 62
2
  6
CONTINUOUS
 10
23.4895947321
 20
105.0375000877
 11
23.4895947321
 21
120.5375000877
  0
LINE
  5
55C
100
AcDbEntity
  8
0
100
AcDbLine
 62
2
  6
CONTINUOUS
 10
21.4895947321
 20
119.5375000877
 11
14.4895947321
 21
119.5375000877
  0
LINE
  5
55D
100
AcDbEntity
  8
0
100
AcDbLine
 62
2
  6
CONTINUOUS
 10
14.4895947321
 20
119.5375000877
 11
22.4895947321
 21
119.5375000877
  0
LINE
  5
55E
100
AcDbEntity
  8
0
100
AcDbLine
 62
2
  6
CONTINUOUS
 10
23.4895947321
 20
119.5375000877
 11
30.0836853767
 21
119.5375000877
  0
LINE
  5
55F
100
AcDbEntity
  8
0
100
AcDbLine
 62
2
  6
CONTINUOUS
 10
30.0836853767
 20
119.5375000877
 11
22.4895947321
 21
119.5375000877
  0
INSERT
  5
560
100
AcDbEntity
  8
0
100
AcDbBlockReference
 62
2
  6
CONTINUOUS
  2
_FILLED
 10
21.4895947321
 20
119.5375000877
 41
3.5
 42
3.5
 43
3.5
  0
INSERT
  5
561
100
AcDbEntity
  8
0
100
AcDbBlockReference
 62
2
  6
CONTINUOUS
  2
_FILLED
 10
23.4895947321
 20
119.5375000877
 41
3.5
 42
3.5
 43
3.5
 50
180.0
  0
ENDBLK
  5
562
100
AcDbEntity
  8
0
  6
BYBLOCK
 62
0
100
AcDbBlockEnd
  0
BLOCK
  5
563
100
AcDbEntity
  8
0
100
AcDbBlockBegin
 62
2
  6
CONTINUOUS
  2
*D3
 70
65
 10
0.0
 20
0.0
  3
*D3
  1

  0
TEXT
  5
564
100
AcDbEntity
  8
0
100
AcDbText
 62
5
  6
CONTINUOUS
 10
25.518405141
 20
1918.5919373674
  7
STANDARD
 40
2.5
  1
6
 72
5
 11
27.4607843232
 21
1918.5919373674
100
AcDbText
  0
LINE
  5
565
100
AcDbEntity
  8
0
100
AcDbLine
 62
2
  6
CONTINUOUS
 10
23.4895947321
 20
1899.9669373674
 11
23.4895947321
 21
1918.9669373674
  0
LINE
  5
566
100
AcDbEntity
  8
0
100
AcDbLine
 62
2
  6
CONTINUOUS
 10
29.4895947321
 20
1899.9669373674
 11
29.4895947321
 21
1918.9669373674
  0
LINE
  5
567
100
AcDbEntity
  8
0
100
AcDbLine
 62
2
  6
CONTINUOUS
 10
23.4895947321
 20
1917.9669373674
 11
16.4895947321
 21
1917.9669373674
  0
LINE
  5
568
100
AcDbEntity
  8
0
100
AcDbLine
 62
2
  6
CONTINUOUS
 10
16.4895947321
 20
1917.9669373674
 11
26.4895947321
 21
1917.9669373674
  0
LINE
  5
569
100
AcDbEntity
  8
0
100
AcDbLine
 62
2
  6
CONTINUOUS
 10
29.4895947321
 20
1917.9669373674
 11
36.4895947321
 21
1917.9669373674
  0
LINE
  5
56A
100
AcDbEntity
  8
0
100
AcDbLine
 62
2
  6
CONTINUOUS
 10
36.4895947321
 20
1917.9669373674
 11
26.4895947321
 21
1917.9669373674
  0
INSERT
  5
56B
100
AcDbEntity
  8
0
100
AcDbBlockReference
 62
2
  6
CONTINUOUS
  2
_FILLED
 10
23.4895947321
 20
1917.9669373674
 41
3.5
 42
3.5
 43
3.5
  0
INSERT
  5
56C
100
AcDbEntity
  8
0
100
AcDbBlockReference
 62
2
  6
CONTINUOUS
  2
_FILLED
 10
29.4895947321
 20
1917.9669373674
 41
3.5
 42
3.5
 43
3.5
 50
180.0
  0
ENDBLK
  5
56D
100
AcDbEntity
  8
0
  6
BYBLOCK
 62
0
100
AcDbBlockEnd
  0
BLOCK
  5
56E
100
AcDbEntity
  8
0
100
AcDbBlockBegin
 62
2
  6
CONTINUOUS
  2
*D4
 70
65
 10
0.0
 20
0.0
  3
*D4
  1

  0
TEXT
  5
56F
100
AcDbEntity
  8
0
100
AcDbText
 62
5
  6
CONTINUOUS
 10
123.5338016322
 20
1918.5919373674
  7
STANDARD
 40
2.5
  1
24
 72
5
 11
127.4185599965
 21
1918.5919373674
100
AcDbText
  0
LINE
  5
570
100
AcDbEntity
  8
0
100
AcDbLine
 62
2
  6
CONTINUOUS
 10
137.4761808143
 20
1899.9669373674
 11
137.4761808143
 21
1918.9669373674
  0
LINE
  5
571
100
AcDbEntity
  8
0
100
AcDbLine
 62
2
  6
CONTINUOUS
 10
113.4761808143
 20
1899.9669373674
 11
113.4761808143
 21
1918.9669373674
  0
LINE
  5
572
100
AcDbEntity
  8
0
100
AcDbLine
 62
2
  6
CONTINUOUS
 10
137.4761808143
 20
1917.9669373674
 11
125.4761808143
 21
1917.9669373674
  0
LINE
  5
573
100
AcDbEntity
  8
0
100
AcDbLine
 62
2
  6
CONTINUOUS
 10
113.4761808143
 20
1917.9669373674
 11
125.4761808143
 21
1917.9669373674
  0
INSERT
  5
574
100
AcDbEntity
  8
0
100
AcDbBlockReference
 62
2
  6
CONTINUOUS
  2
_FILLED
 10
137.4761808143
 20
1917.9669373674
 41
3.5
 42
3.5
 43
3.5
  0
INSERT
  5
575
100
AcDbEntity
  8
0
100
AcDbBlockReference
 62
2
  6
CONTINUOUS
  2
_FILLED
 10
113.4761808143
 20
1917.9669373674
 41
3.5
 42
3.5
 43
3.5
 50
180.0
  0
ENDBLK
  5
576
100
AcDbEntity
  8
0
  6
BYBLOCK
 62
0
100
AcDbBlockEnd
  0
BLOCK
  5
577
100
AcDbEntity
  8
0
100
AcDbBlockBegin
 62
2
  6
CONTINUOUS
  2
*D5
 70
65
 10
0.0
 20
0.0
  3
*D5
  1

  0
TEXT
  5
578
100
AcDbEntity
  8
0
100
AcDbText
 62
5
  6
CONTINUOUS
 10
50.0645947321
 20
278.0245581852
  7
STANDARD
 40
2.5
  1
74
 50
90.0
 72
5
 11
50.0645947321
 21
281.9093165495
100
AcDbText
  0
LINE
  5
579
100
AcDbEntity
  8
0
100
AcDbLine
 62
2
  6
CONTINUOUS
 10
29.505247365
 20
242.9669373674
 11
51.6895947321
 21
242.9669373674
  0
LINE
  5
57A
100
AcDbEntity
  8
0
100
AcDbLine
 62
2
  6
CONTINUOUS
 10
29.5094519649
 20
316.9669373674
 11
51.6895947321
 21
316.9669373674
  0
LINE
  5
57B
100
AcDbEntity
  8
0
100
AcDbLine
 62
2
  6
CONTINUOUS
 10
50.6895947321
 20
242.9669373674
 11
50.6895947321
 21
279.9669373674
  0
LINE
  5
57C
100
AcDbEntity
  8
0
100
AcDbLine
 62
2
  6
CONTINUOUS
 10
50.6895947321
 20
316.9669373674
 11
50.6895947321
 21
279.9669373674
  0
INSERT
  5
57D
100
AcDbEntity
  8
0
100
AcDbBlockReference
 62
2
  6
CONTINUOUS
  2
_FILLED
 10
50.6895947321
 20
242.9669373674
 41
3.5
 42
3.5
 43
3.5
 50
270.0
  0
INSERT
  5
57E
100
AcDbEntity
  8
0
100
AcDbBlockReference
 62
2
  6
CONTINUOUS
  2
_FILLED
 10
50.6895947321
 20
316.9669373674
 41
3.5
 42
3.5
 43
3.5
 50
90.0
  0
ENDBLK
  5
57F
100
AcDbEntity
  8
0
  6
BYBLOCK
 62
0
100
AcDbBlockEnd
  0
BLOCK
  5
580
100
AcDbEntity
  8
0
100
AcDbBlockBegin
 62
2
  6
CONTINUOUS
  2
*D6
 70
65
 10
0.0
 20
0.0
  3
*D6
  1

  0
TEXT
  5
581
100
AcDbEntity
  8
0
100
AcDbText
 62
5
  6
CONTINUOUS
 10
50.0645947321
 20
1768.0245581852
  7
STANDARD
 40
2.5
  1
74
 50
90.0
 72
5
 11
50.0645947321
 21
1771.9093165495
100
AcDbText
  0
LINE
  5
582
100
AcDbEntity
  8
0
100
AcDbLine
 62
2
  6
CONTINUOUS
 10
29.468482175
 20
1732.9669373674
 11
51.6895947321
 21
1732.9669373674
  0
LINE
  5
583
100
AcDbEntity
  8
0
100
AcDbLine
 62
2
  6
CONTINUOUS
 10
29.4913644886
 20
1806.9669373674
 11
51.6895947321
 21
1806.9669373674
  0
LINE
  5
584
100
AcDbEntity
  8
0
100
AcDbLine
 62
2
  6
CONTINUOUS
 10
50.6895947321
 20
1732.9669373674
 11
50.6895947321
 21
1769.9669373674
  0
LINE
  5
585
100
AcDbEntity
  8
0
100
AcDbLine
 62
2
  6
CONTINUOUS
 10
50.6895947321
 20
1806.9669373674
 11
50.6895947321
 21
1769.9669373674
  0
INSERT
  5
586
100
AcDbEntity
  8
0
100
AcDbBlockReference
 62
2
  6
CONTINUOUS
  2
_FILLED
 10
50.6895947321
 20
1732.9669373674
 41
3.5
 42
3.5
 43
3.5
 50
270.0
  0
INSERT
  5
587
100
AcDbEntity
  8
0
100
AcDbBlockReference
 62
2
  6
CONTINUOUS
  2
_FILLED
 10
50.6895947321
 20
1806.9669373674
 41
3.5
 42
3.5
 43
3.5
 50
90.0
  0
ENDBLK
  5
588
100
AcDbEntity
  8
0
  6
BYBLOCK
 62
0
100
AcDbBlockEnd
  0
BLOCK
  5
589
100
AcDbEntity
  8
0
100
AcDbBlockBegin
 62
2
  6
CONTINUOUS
  2
*D7
 70
65
 10
0.0
 20
0.0
  3
*D7
  1

  0
TEXT
  5
58A
100
AcDbEntity
  8
0
100
AcDbText
 62
5
  6
CONTINUOUS
 10
50.0645947321
 20
1851.5245581852
  7
STANDARD
 40
2.5
  1
93
 50
90.0
 72
5
 11
50.0645947321
 21
1855.4093165495
100
AcDbText
  0
LINE
  5
58B
100
AcDbEntity
  8
0
100
AcDbLine
 62
2
  6
CONTINUOUS
 10
29.505247365
 20
1806.9669373674
 11
51.6895947321
 21
1806.9669373674
  0
LINE
  5
58C
100
AcDbEntity
  8
0
100
AcDbLine
 62
2
  6
CONTINUOUS
 10
29.505247365
 20
1899.9669373674
 11
51.6895947321
 21
1899.9669373674
  0
LINE
  5
58D
100
AcDbEntity
  8
0
100
AcDbLine
 62
2
  6
CONTINUOUS
 10
50.6895947321
 20
1806.9669373674
 11
50.6895947321
 21
1853.4669373674
  0
LINE
  5
58E
100
AcDbEntity
  8
0
100
AcDbLine
 62
2
  6
CONTINUOUS
 10
50.6895947321
 20
1899.9669373674
 11
50.6895947321
 21
1853.4669373674
  0
INSERT
  5
58F
100
AcDbEntity
  8
0
100
AcDbBlockReference
 62
2
  6
CONTINUOUS
  2
_FILLED
 10
50.6895947321
 20
1806.9669373674
 41
3.5
 42
3.5
 43
3.5
 50
270.0
  0
INSERT
  5
590
100
AcDbEntity
  8
0
100
AcDbBlockReference
 62
2
  6
CONTINUOUS
  2
_FILLED
 10
50.6895947321
 20
1899.9669373674
 41
3.5
 42
3.5
 43
3.5
 50
90.0
  0
ENDBLK
  5
591
100
AcDbEntity
  8
0
  6
BYBLOCK
 62
0
100
AcDbBlockEnd
  0
BLOCK
  5
592
100
AcDbEntity
  8
0
100
AcDbBlockBegin
 62
2
  6
CONTINUOUS
  2
*D8
 70
65
 10
0.0
 20
0.0
  3
*D8
  1

  0
TEXT
  5
593
100
AcDbEntity
  8
0
100
AcDbText
 62
5
  6
CONTINUOUS
 10
50.0645947321
 20
194.5245581852
  7
STANDARD
 40
2.5
  1
93
 50
90.0
 72
5
 11
50.0645947321
 21
198.4093165495
100
AcDbText
  0
LINE
  5
594
100
AcDbEntity
  8
0
100
AcDbLine
 62
2
  6
CONTINUOUS
 10
29.505247365
 20
149.9669373674
 11
51.6895947321
 21
149.9669373674
  0
LINE
  5
595
100
AcDbEntity
  8
0
100
AcDbLine
 62
2
  6
CONTINUOUS
 10
29.505247365
 20
242.9669373674
 11
51.6895947321
 21
242.9669373674
  0
LINE
  5
596
100
AcDbEntity
  8
0
100
AcDbLine
 62
2
  6
CONTINUOUS
 10
50.6895947321
 20
149.9669373674
 11
50.6895947321
 21
196.4669373674
  0
LINE
  5
597
100
AcDbEntity
  8
0
100
AcDbLine
 62
2
  6
CONTINUOUS
 10
50.6895947321
 20
242.9669373674
 11
50.6895947321
 21
196.4669373674
  0
INSERT
  5
598
100
AcDbEntity
  8
0
100
AcDbBlockReference
 62
2
  6
CONTINUOUS
  2
_FILLED
 10
50.6895947321
 20
149.9669373674
 41
3.5
 42
3.5
 43
3.5
 50
270.0
  0
INSERT
  5
599
100
AcDbEntity
  8
0
100
AcDbBlockReference
 62
2
  6
CONTINUOUS
  2
_FILLED
 10
50.6895947321
 20
242.9669373674
 41
3.5
 42
3.5
 43
3.5
 50
90.0
  0
ENDBLK
  5
59A
100
AcDbEntity
  8
0
  6
BYBLOCK
 62
0
100
AcDbBlockEnd
  0
BLOCK
  5
59B
100
AcDbEntity
  8
0
100
AcDbBlockBegin
 62
2
  6
CONTINUOUS
  2
*D9
 70
65
 10
0.0
 20
0.0
  3
*D9
  1

  0
TEXT
  5
59C
100
AcDbEntity
  8
0
100
AcDbText
 62
5
  6
CONTINUOUS
 10
81.8511808143
 20
1021.0821790031
  7
STANDARD
 40
2.5
  1
1750
 50
90.0
 72
5
 11
81.8511808143
 21
1028.8516957317
100
AcDbText
  0
LINE
  5
59D
100
AcDbEntity
  8
0
100
AcDbLine
 62
2
  6
CONTINUOUS
 10
116.4761808143
 20
1899.9669373674
 11
81.4761808143
 21
1899.9669373674
  0
LINE
  5
59E
100
AcDbEntity
  8
0
100
AcDbLine
 62
2
  6
CONTINUOUS
 10
116.4761808143
 20
149.9669373674
 11
81.4761808143
 21
149.9669373674
  0
LINE
  5
59F
100
AcDbEntity
  8
0
100
AcDbLine
 62
2
  6
CONTINUOUS
 10
82.4761808143
 20
1899.9669373674
 11
82.4761808143
 21
1024.9669373674
  0
LINE
  5
5A0
100
AcDbEntity
  8
0
100
AcDbLine
 62
2
  6
CONTINUOUS
 10
82.4761808143
 20
149.9669373674
 11
82.4761808143
 21
1024.9669373674
  0
INSERT
  5
5A1
100
AcDbEntity
  8
0
100
AcDbBlockReference
 62
2
  6
CONTINUOUS
  2
_FILLED
 10
82.4761808143
 20
1899.9669373674
 41
3.5
 42
3.5
 43
3.5
 50
90.0
  0
INSERT
  5
5A2
100
AcDbEntity
  8
0
100
AcDbBlockReference
 62
2
  6
CONTINUOUS
  2
_FILLED
 10
82.4761808143
 20
149.9669373674
 41
3.5
 42
3.5
 43
3.5
 50
270.0
  0
ENDBLK
  5
5A3
100
AcDbEntity
  8
0
  6
BYBLOCK
 62
0
100
AcDbBlockEnd
  0
BLOCK
  5
5A4
100
AcDbEntity
  8
0
100
AcDbBlockBegin
 62
2
  6
CONTINUOUS
  2
*D10
 70
65
 10
0.0
 20
0.0
  3
*D10
  1

  0
TEXT
  5
5A5
100
AcDbEntity
  8
0
100
AcDbText
 62
5
  6
CONTINUOUS
 10
74.8511808143
 20
1021.0821790031
  7
STANDARD
 40
2.5
  1
1766
 50
90.0
 72
5
 11
74.8511808143
 21
1028.8516957317
100
AcDbText
  0
LINE
  5
5A6
100
AcDbEntity
  8
0
100
AcDbLine
 62
2
  6
CONTINUOUS
 10
113.4761808143
 20
1907.9669373674
 11
74.4761808143
 21
1907.9669373674
  0
LINE
  5
5A7
100
AcDbEntity
  8
0
100
AcDbLine
 62
2
  6
CONTINUOUS
 10
113.4761808143
 20
141.9669373674
 11
74.4761808143
 21
141.9669373674
  0
LINE
  5
5A8
100
AcDbEntity
  8
0
100
AcDbLine
 62
2
  6
CONTINUOUS
 10
75.4761808143
 20
1907.9669373674
 11
75.4761808143
 21
1024.9669373674
  0
LINE
  5
5A9
100
AcDbEntity
  8
0
100
AcDbLine
 62
2
  6
CONTINUOUS
 10
75.4761808143
 20
141.9669373674
 11
75.4761808143
 21
1024.9669373674
  0
INSERT
  5
5AA
100
AcDbEntity
  8
0
100
AcDbBlockReference
 62
2
  6
CONTINUOUS
  2
_FILLED
 10
75.4761808143
 20
1907.9669373674
 41
3.5
 42
3.5
 43
3.5
 50
90.0
  0
INSERT
  5
5AB
100
AcDbEntity
  8
0
100
AcDbBlockReference
 62
2
  6
CONTINUOUS
  2
_FILLED
 10
75.4761808143
 20
141.9669373674
 41
3.5
 42
3.5
 43
3.5
 50
270.0
  0
ENDBLK
  5
5AC
100
AcDbEntity
  8
0
  6
BYBLOCK
 62
0
100
AcDbBlockEnd
  0
BLOCK
  5
5AD
100
AcDbEntity
  8
0
100
AcDbBlockBegin
 62
2
  6
CONTINUOUS
  2
*D11
 70
65
 10
0.0
 20
0.0
  3
*D11
  1

  0
TEXT
  5
5AE
100
AcDbEntity
  8
0
100
AcDbText
 62
5
  6
CONTINUOUS
 10
88.8511808143
 20
1513.3489076276
  7
STANDARD
 40
2.5
  1
764.5
 50
90.0
 72
5
 11
88.8511808143
 21
1522.0849671072
100
AcDbText
  0
LINE
  5
5AF
100
AcDbEntity
  8
0
100
AcDbLine
 62
2
  6
CONTINUOUS
 10
116.4761808143
 20
1135.4669373674
 11
97.6368874583
 21
1135.4669373674
  0
LINE
  5
5B0
100
AcDbEntity
  8
0
100
AcDbLine
 62
2
  6
CONTINUOUS
 10
94.6756613926
 20
1135.4669373674
 11
88.4761808143
 21
1135.4669373674
  0
LINE
  5
5B1
100
AcDbEntity
  8
0
100
AcDbLine
 62
2
  6
CONTINUOUS
 10
116.4761808143
 20
1899.9669373674
 11
88.4761808143
 21
1899.9669373674
  0
LINE
  5
5B2
100
AcDbEntity
  8
0
100
AcDbLine
 62
2
  6
CONTINUOUS
 10
89.4761808143
 20
1135.4669373674
 11
89.4761808143
 21
1517.7169373674
  0
LINE
  5
5B3
100
AcDbEntity
  8
0
100
AcDbLine
 62
2
  6
CONTINUOUS
 10
89.4761808143
 20
1899.9669373674
 11
89.4761808143
 21
1517.7169373674
  0
INSERT
  5
5B4
100
AcDbEntity
  8
0
100
AcDbBlockReference
 62
2
  6
CONTINUOUS
  2
_FILLED
 10
89.4761808143
 20
1135.4669373674
 41
3.5
 42
3.5
 43
3.5
 50
270.0
  0
INSERT
  5
5B5
100
AcDbEntity
  8
0
100
AcDbBlockReference
 62
2
  6
CONTINUOUS
  2
_FILLED
 10
89.4761808143
 20
1899.9669373674
 41
3.5
 42
3.5
 43
3.5
 50
90.0
  0
ENDBLK
  5
5B6
100
AcDbEntity
  8
0
  6
BYBLOCK
 62
0
100
AcDbBlockEnd
  0
BLOCK
  5
5B7
100
AcDbEntity
  8
0
100
AcDbBlockBegin
 62
2
  6
CONTINUOUS
  2
*D12
 70
65
 10
0.0
 20
0.0
  3
*D12
  1

  0
TEXT
  5
5B8
100
AcDbEntity
  8
0
100
AcDbText
 62
5
  6
CONTINUOUS
 10
102.8511808143
 20
1448.3489076276
  7
STANDARD
 40
2.5
  1
634.5
 50
90.0
 72
5
 11
102.8511808143
 21
1457.0849671072
100
AcDbText
  0
LINE
  5
5B9
100
AcDbEntity
  8
0
100
AcDbLine
 62
2
  6
CONTINUOUS
 10
116.4761808143
 20
1135.4669373674
 11
102.4761808143
 21
1135.4669373674
  0
LINE
  5
5BA
100
AcDbEntity
  8
0
100
AcDbLine
 62
2
  6
CONTINUOUS
 10
115.5761808142
 20
1769.9669373674
 11
102.4761808143
 21
1769.9669373674
  0
LINE
  5
5BB
100
AcDbEntity
  8
0
100
AcDbLine
 62
2
  6
CONTINUOUS
 10
103.4761808143
 20
1135.4669373674
 11
103.4761808143
 21
1452.7169373674
  0
LINE
  5
5BC
100
AcDbEntity
  8
0
100
AcDbLine
 62
2
  6
CONTINUOUS
 10
103.4761808143
 20
1769.9669373674
 11
103.4761808143
 21
1452.7169373674
  0
INSERT
  5
5BD
100
AcDbEntity
  8
0
100
AcDbBlockReference
 62
2
  6
CONTINUOUS
  2
_FILLED
 10
103.4761808143
 20
1135.4669373674
 41
3.5
 42
3.5
 43
3.5
 50
270.0
  0
INSERT
  5
5BE
100
AcDbEntity
  8
0
100
AcDbBlockReference
 62
2
  6
CONTINUOUS
  2
_FILLED
 10
103.4761808143
 20
1769.9669373674
 41
3.5
 42
3.5
 43
3.5
 50
90.0
  0
ENDBLK
  5
5BF
100
AcDbEntity
  8
0
  6
BYBLOCK
 62
0
100
AcDbBlockEnd
  0
BLOCK
  5
5C0
100
AcDbEntity
  8
0
100
AcDbBlockBegin
 62
2
  6
CONTINUOUS
  2
*D13
 70
65
 10
0.0
 20
0.0
  3
*D13
  1

  0
TEXT
  5
5C1
100
AcDbEntity
  8
0
100
AcDbText
 62
5
  6
CONTINUOUS
 10
95.8511808143
 20
1438.1630340216
  7
STANDARD
 40
2.5
  1
730 bis Kennkerbe
 50
90.0
 72
5
 11
95.8511808143
 21
1467.2708407131
100
AcDbText
  0
LINE
  5
5C2
100
AcDbEntity
  8
0
100
AcDbLine
 62
2
  6
CONTINUOUS
 10
115.5761808142
 20
1769.9669373674
 11
95.8511808143
 21
1769.9669373674
  0
LINE
  5
5C3
100
AcDbEntity
  8
0
100
AcDbLine
 62
2
  6
CONTINUOUS
 10
95.8511808143
 20
1769.9669373674
 11
95.4761808143
 21
1769.9669373674
  0
LINE
  5
5C4
100
AcDbEntity
  8
0
100
AcDbLine
 62
2
  6
CONTINUOUS
 10
96.4761808143
 20
1085.3840197717
 11
96.4761808143
 21
1427.6754785695
  0
LINE
  5
5C5
100
AcDbEntity
  8
0
100
AcDbLine
 62
2
  6
CONTINUOUS
 10
96.4761808143
 20
1769.9669373674
 11
96.4761808143
 21
1427.6754785695
  0
INSERT
  5
5C6
100
AcDbEntity
  8
0
100
AcDbBlockReference
 62
2
  6
CONTINUOUS
  2
_NONE
 10
96.4761808143
 20
1085.3840197717
 41
3.5
 42
3.5
 43
3.5
 50
270.0
  0
INSERT
  5
5C7
100
AcDbEntity
  8
0
100
AcDbBlockReference
 62
2
  6
CONTINUOUS
  2
_FILLED
 10
96.4761808143
 20
1769.9669373674
 41
3.5
 42
3.5
 43
3.5
 50
90.0
  0
ENDBLK
  5
5C8
100
AcDbEntity
  8
0
  6
BYBLOCK
 62
0
100
AcDbBlockEnd
  0
BLOCK
  5
5C9
100
AcDbEntity
  8
0
100
AcDbBlockBegin
 62
2
  6
CONTINUOUS
  2
*D14
 70
65
 10
0.0
 20
0.0
  3
*D14
  1

  0
TEXT
  5
5CA
100
AcDbEntity
  8
0
100
AcDbText
 62
5
  6
CONTINUOUS
 10
146.8511808143
 20
1139.5245581852
  7
STANDARD
 40
2.5
  1
12
 50
90.0
 72
5
 11
146.8511808143
 21
1143.4093165495
100
AcDbText
  0
LINE
  5
5CB
100
AcDbEntity
  8
0
100
AcDbLine
 62
2
  6
CONTINUOUS
 10
134.4761808143
 20
1135.4669373674
 11
148.4761808143
 21
1135.4669373674
  0
LINE
  5
5CC
100
AcDbEntity
  8
0
100
AcDbLine
 62
2
  6
CONTINUOUS
 10
133.8761808143
 20
1147.4669373674
 11
148.4761808143
 21
1147.4669373674
  0
LINE
  5
5CD
100
AcDbEntity
  8
0
100
AcDbLine
 62
2
  6
CONTINUOUS
 10
147.4761808143
 20
1135.4669373674
 11
147.4761808143
 21
1141.4669373674
  0
LINE
  5
5CE
100
AcDbEntity
  8
0
100
AcDbLine
 62
2
  6
CONTINUOUS
 10
147.4761808143
 20
1147.4669373674
 11
147.4761808143
 21
1141.4669373674
  0
INSERT
  5
5CF
100
AcDbEntity
  8
0
100
AcDbBlockReference
 62
2
  6
CONTINUOUS
  2
_FILLED
 10
147.4761808143
 20
1135.4669373674
 41
3.5
 42
3.5
 43
3.5
 50
270.0
  0
INSERT
  5
5D0
100
AcDbEntity
  8
0
100
AcDbBlockReference
 62
2
  6
CONTINUOUS
  2
_FILLED
 10
147.4761808143
 20
1147.4669373674
 41
3.5
 42
3.5
 43
3.5
 50
90.0
  0
ENDBLK
  5
5D1
100
AcDbEntity
  8
0
  6
BYBLOCK
 62
0
100
AcDbBlockEnd
  0
BLOCK
  5
5D2
100
AcDbEntity
  8
0
100
AcDbBlockBegin
 62
2
  6
CONTINUOUS
  2
*D15
 70
65
 10
0.0
 20
0.0
  3
*D15
  1

  0
TEXT
  5
5D3
100
AcDbEntity
  8
0
100
AcDbText
 62
5
  6
CONTINUOUS
 10
153.8511808143
 20
1280.0533685941
  7
STANDARD
 40
2.5
  1
295
 50
90.0
 72
5
 11
153.8511808143
 21
1285.8805061406
100
AcDbText
  0
LINE
  5
5D4
100
AcDbEntity
  8
0
100
AcDbLine
 62
2
  6
CONTINUOUS
 10
134.4761808143
 20
1135.4669373674
 11
155.4761808143
 21
1135.4669373674
  0
LINE
  5
5D5
100
AcDbEntity
  8
0
100
AcDbLine
 62
2
  6
CONTINUOUS
 10
133.8761808143
 20
1430.4669373674
 11
155.4761808143
 21
1430.4669373674
  0
LINE
  5
5D6
100
AcDbEntity
  8
0
100
AcDbLine
 62
2
  6
CONTINUOUS
 10
154.4761808143
 20
1135.4669373674
 11
154.4761808143
 21
1282.9669373674
  0
LINE
  5
5D7
100
AcDbEntity
  8
0
100
AcDbLine
 62
2
  6
CONTINUOUS
 10
154.4761808143
 20
1430.4669373674
 11
154.4761808143
 21
1282.9669373674
  0
INSERT
  5
5D8
100
AcDbEntity
  8
0
100
AcDbBlockReference
 62
2
  6
CONTINUOUS
  2
_FILLED
 10
154.4761808143
 20
1135.4669373674
 41
3.5
 42
3.5
 43
3.5
 50
270.0
  0
INSERT
  5
5D9
100
AcDbEntity
  8
0
100
AcDbBlockReference
 62
2
  6
CONTINUOUS
  2
_FILLED
 10
154.4761808143
 20
1430.4669373674
 41
3.5
 42
3.5
 43
3.5
 50
90.0
  0
ENDBLK
  5
5DA
100
AcDbEntity
  8
0
  6
BYBLOCK
 62
0
100
AcDbBlockEnd
  0
BLOCK
  5
5DB
100
AcDbEntity
  8
0
100
AcDbBlockBegin
 62
2
  6
CONTINUOUS
  2
*D16
 70
65
 10
0.0
 20
0.0
  3
*D16
  1

  0
TEXT
  5
5DC
100
AcDbEntity
  8
0
100
AcDbText
 62
5
  6
CONTINUOUS
 10
160.8511808143
 20
1409.3489076276
  7
STANDARD
 40
2.5
  1
556.5
 50
90.0
 72
5
 11
160.8511808143
 21
1418.0849671072
100
AcDbText
  0
LINE
  5
5DD
100
AcDbEntity
  8
0
100
AcDbLine
 62
2
  6
CONTINUOUS
 10
134.4761808143
 20
1135.4669373674
 11
162.4761808143
 21
1135.4669373674
  0
LINE
  5
5DE
100
AcDbEntity
  8
0
100
AcDbLine
 62
2
  6
CONTINUOUS
 10
133.8761808143
 20
1691.9669373674
 11
162.4761808143
 21
1691.9669373674
  0
LINE
  5
5DF
100
AcDbEntity
  8
0
100
AcDbLine
 62
2
  6
CONTINUOUS
 10
161.4761808143
 20
1135.4669373674
 11
161.4761808143
 21
1413.7169373674
  0
LINE
  5
5E0
100
AcDbEntity
  8
0
100
AcDbLine
 62
2
  6
CONTINUOUS
 10
161.4761808143
 20
1691.9669373674
 11
161.4761808143
 21
1413.7169373674
  0
INSERT
  5
5E1
100
AcDbEntity
  8
0
100
AcDbBlockReference
 62
2
  6
CONTINUOUS
  2
_FILLED
 10
161.4761808143
 20
1135.4669373674
 41
3.5
 42
3.5
 43
3.5
 50
270.0
  0
INSERT
  5
5E2
100
AcDbEntity
  8
0
100
AcDbBlockReference
 62
2
  6
CONTINUOUS
  2
_FILLED
 10
161.4761808143
 20
1691.9669373674
 41
3.5
 42
3.5
 43
3.5
 50
90.0
  0
ENDBLK
  5
5E3
100
AcDbEntity
  8
0
  6
BYBLOCK
 62
0
100
AcDbBlockEnd
  0
BLOCK
  5
5E4
100
AcDbEntity
  8
0
100
AcDbBlockBegin
 62
2
  6
CONTINUOUS
  2
*D17
 70
65
 10
0.0
 20
0.0
  3
*D17
  1

  0
TEXT
  5
5E5
100
AcDbEntity
  8
0
100
AcDbText
 62
5
  6
CONTINUOUS
 10
167.8511808143
 20
1472.3489076276
  7
STANDARD
 40
2.5
  1
682.5
 50
90.0
 72
5
 11
167.8511808143
 21
1481.0849671072
100
AcDbText
  0
LINE
  5
5E6
100
AcDbEntity
  8
0
100
AcDbLine
 62
2
  6
CONTINUOUS
 10
134.4761808143
 20
1135.4669373674
 11
169.4761808143
 21
1135.4669373674
  0
LINE
  5
5E7
100
AcDbEntity
  8
0
100
AcDbLine
 62
2
  6
CONTINUOUS
 10
133.8761808143
 20
1817.9669373674
 11
169.4761808143
 21
1817.9669373674
  0
LINE
  5
5E8
100
AcDbEntity
  8
0
100
AcDbLine
 62
2
  6
CONTINUOUS
 10
168.4761808143
 20
1135.4669373674
 11
168.4761808143
 21
1476.7169373674
  0
LINE
  5
5E9
100
AcDbEntity
  8
0
100
AcDbLine
 62
2
  6
CONTINUOUS
 10
168.4761808143
 20
1817.9669373674
 11
168.4761808143
 21
1476.7169373674
  0
INSERT
  5
5EA
100
AcDbEntity
  8
0
100
AcDbBlockReference
 62
2
  6
CONTINUOUS
  2
_FILLED
 10
168.4761808143
 20
1135.4669373674
 41
3.5
 42
3.5
 43
3.5
 50
270.0
  0
INSERT
  5
5EB
100
AcDbEntity
  8
0
100
AcDbBlockReference
 62
2
  6
CONTINUOUS
  2
_FILLED
 10
168.4761808143
 20
1817.9669373674
 41
3.5
 42
3.5
 43
3.5
 50
90.0
  0
ENDBLK
  5
5EC
100
AcDbEntity
  8
0
  6
BYBLOCK
 62
0
100
AcDbBlockEnd
  0
BLOCK
  5
5ED
100
AcDbEntity
  8
0
100
AcDbBlockBegin
 62
2
  6
CONTINUOUS
  2
*D18
 70
65
 10
0.0
 20
0.0
  3
*D18
  1

  0
TEXT
  5
5EE
100
AcDbEntity
  8
0
100
AcDbText
 62
5
  6
CONTINUOUS
 10
174.8511808143
 20
1507.3489076276
  7
STANDARD
 40
2.5
  1
752.5
 50
90.0
 72
5
 11
174.8511808143
 21
1516.0849671072
100
AcDbText
  0
LINE
  5
5EF
100
AcDbEntity
  8
0
100
AcDbLine
 62
2
  6
CONTINUOUS
 10
134.4761808143
 20
1887.9669373674
 11
176.4761808143
 21
1887.9669373674
  0
LINE
  5
5F0
100
AcDbEntity
  8
0
100
AcDbLine
 62
2
  6
CONTINUOUS
 10
134.4761808143
 20
1135.4669373674
 11
176.4761808143
 21
1135.4669373674
  0
LINE
  5
5F1
100
AcDbEntity
  8
0
100
AcDbLine
 62
2
  6
CONTINUOUS
 10
175.4761808143
 20
1887.9669373674
 11
175.4761808143
 21
1511.7169373674
  0
LINE
  5
5F2
100
AcDbEntity
  8
0
100
AcDbLine
 62
2
  6
CONTINUOUS
 10
175.4761808143
 20
1135.4669373674
 11
175.4761808143
 21
1511.7169373674
  0
INSERT
  5
5F3
100
AcDbEntity
  8
0
100
AcDbBlockReference
 62
2
  6
CONTINUOUS
  2
_FILLED
 10
175.4761808143
 20
1887.9669373674
 41
3.5
 42
3.5
 43
3.5
 50
90.0
  0
INSERT
  5
5F4
100
AcDbEntity
  8
0
100
AcDbBlockReference
 62
2
  6
CONTINUOUS
  2
_FILLED
 10
175.4761808143
 20
1135.4669373674
 41
3.5
 42
3.5
 43
3.5
 50
270.0
  0
ENDBLK
  5
5F5
100
AcDbEntity
  8
0
  6
BYBLOCK
 62
0
100
AcDbBlockEnd
  0
BLOCK
  5
5F6
100
AcDbEntity
  8
0
100
AcDbBlockBegin
 62
2
  6
CONTINUOUS
  2
*D19
 70
65
 10
0.0
 20
0.0
  3
*D19
  1

  0
TEXT
  5
5F7
100
AcDbEntity
  8
0
100
AcDbText
 62
5
  6
CONTINUOUS
 10
88.8511808143
 20
531.5533685941
  7
STANDARD
 40
2.5
  1
769
 50
90.0
 72
5
 11
88.8511808143
 21
537.3805061406
100
AcDbText
  0
LINE
  5
5F8
100
AcDbEntity
  8
0
100
AcDbLine
 62
2
  6
CONTINUOUS
 10
116.4761808143
 20
918.9669373674
 11
97.9291423231
 21
918.9669373674
  0
LINE
  5
5F9
100
AcDbEntity
  8
0
100
AcDbLine
 62
2
  6
CONTINUOUS
 10
94.7140968804
 20
918.9669373674
 11
88.4761808143
 21
918.9669373674
  0
LINE
  5
5FA
100
AcDbEntity
  8
0
100
AcDbLine
 62
2
  6
CONTINUOUS
 10
116.4761808143
 20
149.9669373674
 11
88.4761808143
 21
149.9669373674
  0
LINE
  5
5FB
100
AcDbEntity
  8
0
100
AcDbLine
 62
2
  6
CONTINUOUS
 10
89.4761808143
 20
918.9669373674
 11
89.4761808143
 21
534.4669373674
  0
LINE
  5
5FC
100
AcDbEntity
  8
0
100
AcDbLine
 62
2
  6
CONTINUOUS
 10
89.4761808143
 20
149.9669373674
 11
89.4761808143
 21
534.4669373674
  0
INSERT
  5
5FD
100
AcDbEntity
  8
0
100
AcDbBlockReference
 62
2
  6
CONTINUOUS
  2
_FILLED
 10
89.4761808143
 20
918.9669373674
 41
3.5
 42
3.5
 43
3.5
 50
90.0
  0
INSERT
  5
5FE
100
AcDbEntity
  8
0
100
AcDbBlockReference
 62
2
  6
CONTINUOUS
  2
_FILLED
 10
89.4761808143
 20
149.9669373674
 41
3.5
 42
3.5
 43
3.5
 50
270.0
  0
ENDBLK
  5
5FF
100
AcDbEntity
  8
0
  6
BYBLOCK
 62
0
100
AcDbBlockEnd
  0
BLOCK
  5
600
100
AcDbEntity
  8
0
100
AcDbBlockBegin
 62
2
  6
CONTINUOUS
  2
*D20
 70
65
 10
0.0
 20
0.0
  3
*D20
  1

  0
TEXT
  5
601
100
AcDbEntity
  8
0
100
AcDbText
 62
5
  6
CONTINUOUS
 10
95.8511808143
 20
584.9130340216
  7
STANDARD
 40
2.5
  1
760 bis Kennkerbe
 50
90.0
 72
5
 11
95.8511808143
 21
614.0208407131
100
AcDbText
  0
LINE
  5
602
100
AcDbEntity
  8
0
100
AcDbLine
 62
2
  6
CONTINUOUS
 10
114.9761808143
 20
279.9669373674
 11
95.8511808143
 21
279.9669373674
  0
LINE
  5
603
100
AcDbEntity
  8
0
100
AcDbLine
 62
2
  6
CONTINUOUS
 10
95.8511808143
 20
279.9669373674
 11
95.4761808143
 21
279.9669373674
  0
LINE
  5
604
100
AcDbEntity
  8
0
100
AcDbLine
 62
2
  6
CONTINUOUS
 10
96.4761808143
 20
968.6830606467
 11
96.4761808143
 21
624.324999007
  0
LINE
  5
605
100
AcDbEntity
  8
0
100
AcDbLine
 62
2
  6
CONTINUOUS
 10
96.4761808143
 20
279.9669373674
 11
96.4761808143
 21
624.324999007
  0
INSERT
  5
606
100
AcDbEntity
  8
0
100
AcDbBlockReference
 62
2
  6
CONTINUOUS
  2
_NONE
 10
96.4761808143
 20
968.6830606467
 41
3.5
 42
3.5
 43
3.5
 50
90.0
  0
INSERT
  5
607
100
AcDbEntity
  8
0
100
AcDbBlockReference
 62
2
  6
CONTINUOUS
  2
_FILLED
 10
96.4761808143
 20
279.9669373674
 41
3.5
 42
3.5
 43
3.5
 50
270.0
  0
ENDBLK
  5
608
100
AcDbEntity
  8
0
  6
BYBLOCK
 62
0
100
AcDbBlockEnd
  0
BLOCK
  5
609
100
AcDbEntity
  8
0
100
AcDbBlockBegin
 62
2
  6
CONTINUOUS
  2
*D21
 70
65
 10
0.0
 20
0.0
  3
*D21
  1

  0
TEXT
  5
60A
100
AcDbEntity
  8
0
100
AcDbText
 62
5
  6
CONTINUOUS
 10
102.8511808143
 20
596.5533685941
  7
STANDARD
 40
2.5
  1
639
 50
90.0
 72
5
 11
102.8511808143
 21
602.3805061406
100
AcDbText
  0
LINE
  5
60B
100
AcDbEntity
  8
0
100
AcDbLine
 62
2
  6
CONTINUOUS
 10
116.4761808143
 20
918.9669373674
 11
102.4761808143
 21
918.9669373674
  0
LINE
  5
60C
100
AcDbEntity
  8
0
100
AcDbLine
 62
2
  6
CONTINUOUS
 10
114.9761808143
 20
279.9669373674
 11
102.4761808143
 21
279.9669373674
  0
LINE
  5
60D
100
AcDbEntity
  8
0
100
AcDbLine
 62
2
  6
CONTINUOUS
 10
103.4761808143
 20
918.9669373674
 11
103.4761808143
 21
599.4669373674
  0
LINE
  5
60E
100
AcDbEntity
  8
0
100
AcDbLine
 62
2
  6
CONTINUOUS
 10
103.4761808143
 20
279.9669373674
 11
103.4761808143
 21
599.4669373674
  0
INSERT
  5
60F
100
AcDbEntity
  8
0
100
AcDbBlockReference
 62
2
  6
CONTINUOUS
  2
_FILLED
 10
103.4761808143
 20
918.9669373674
 41
3.5
 42
3.5
 43
3.5
 50
90.0
  0
INSERT
  5
610
100
AcDbEntity
  8
0
100
AcDbBlockReference
 62
2
  6
CONTINUOUS
  2
_FILLED
 10
103.4761808143
 20
279.9669373674
 41
3.5
 42
3.5
 43
3.5
 50
270.0
  0
ENDBLK
  5
611
100
AcDbEntity
  8
0
  6
BYBLOCK
 62
0
100
AcDbBlockEnd
  0
BLOCK
  5
612
100
AcDbEntity
  8
0
100
AcDbBlockBegin
 62
2
  6
CONTINUOUS
  2
*D22
 70
65
 10
0.0
 20
0.0
  3
*D22
  1

  0
TEXT
  5
613
100
AcDbEntity
  8
0
100
AcDbText
 62
5
  6
CONTINUOUS
 10
146.8511808143
 20
911.0245581852
  7
STANDARD
 40
2.5
  1
12
 50
90.0
 72
5
 11
146.8511808143
 21
914.9093165495
100
AcDbText
  0
LINE
  5
614
100
AcDbEntity
  8
0
100
AcDbLine
 62
2
  6
CONTINUOUS
 10
134.4761808143
 20
918.9669373674
 11
148.4761808143
 21
918.9669373674
  0
LINE
  5
615
100
AcDbEntity
  8
0
100
AcDbLine
 62
2
  6
CONTINUOUS
 10
133.8761808143
 20
906.9669373674
 11
148.4761808143
 21
906.9669373674
  0
LINE
  5
616
100
AcDbEntity
  8
0
100
AcDbLine
 62
2
  6
CONTINUOUS
 10
147.4761808143
 20
918.9669373674
 11
147.4761808143
 21
912.9669373674
  0
LINE
  5
617
100
AcDbEntity
  8
0
100
AcDbLine
 62
2
  6
CONTINUOUS
 10
147.4761808143
 20
906.9669373674
 11
147.4761808143
 21
912.9669373674
  0
INSERT
  5
618
100
AcDbEntity
  8
0
100
AcDbBlockReference
 62
2
  6
CONTINUOUS
  2
_FILLED
 10
147.4761808143
 20
918.9669373674
 41
3.5
 42
3.5
 43
3.5
 50
90.0
  0
INSERT
  5
619
100
AcDbEntity
  8
0
100
AcDbBlockReference
 62
2
  6
CONTINUOUS
  2
_FILLED
 10
147.4761808143
 20
906.9669373674
 41
3.5
 42
3.5
 43
3.5
 50
270.0
  0
ENDBLK
  5
61A
100
AcDbEntity
  8
0
  6
BYBLOCK
 62
0
100
AcDbBlockEnd
  0
BLOCK
  5
61B
100
AcDbEntity
  8
0
100
AcDbBlockBegin
 62
2
  6
CONTINUOUS
  2
*D23
 70
65
 10
0.0
 20
0.0
  3
*D23
  1

  0
TEXT
  5
61C
100
AcDbEntity
  8
0
100
AcDbText
 62
5
  6
CONTINUOUS
 10
153.8511808143
 20
770.0533685941
  7
STANDARD
 40
2.5
  1
292
 50
90.0
 72
5
 11
153.8511808143
 21
775.8805061406
100
AcDbText
  0
LINE
  5
61D
100
AcDbEntity
  8
0
100
AcDbLine
 62
2
  6
CONTINUOUS
 10
134.4761808143
 20
918.9669373674
 11
155.4761808143
 21
918.9669373674
  0
LINE
  5
61E
100
AcDbEntity
  8
0
100
AcDbLine
 62
2
  6
CONTINUOUS
 10
133.8761808143
 20
626.9669373674
 11
155.4761808143
 21
626.9669373674
  0
LINE
  5
61F
100
AcDbEntity
  8
0
100
AcDbLine
 62
2
  6
CONTINUOUS
 10
154.4761808143
 20
918.9669373674
 11
154.4761808143
 21
772.9669373674
  0
LINE
  5
620
100
AcDbEntity
  8
0
100
AcDbLine
 62
2
  6
CONTINUOUS
 10
154.4761808143
 20
626.9669373674
 11
154.4761808143
 21
772.9669373674
  0
INSERT
  5
621
100
AcDbEntity
  8
0
100
AcDbBlockReference
 62
2
  6
CONTINUOUS
  2
_FILLED
 10
154.4761808143
 20
918.9669373674
 41
3.5
 42
3.5
 43
3.5
 50
90.0
  0
INSERT
  5
622
100
AcDbEntity
  8
0
100
AcDbBlockReference
 62
2
  6
CONTINUOUS
  2
_FILLED
 10
154.4761808143
 20
626.9669373674
 41
3.5
 42
3.5
 43
3.5
 50
270.0
  0
ENDBLK
  5
623
100
AcDbEntity
  8
0
  6
BYBLOCK
 62
0
100
AcDbBlockEnd
  0
BLOCK
  5
624
100
AcDbEntity
  8
0
100
AcDbBlockBegin
 62
2
  6
CONTINUOUS
  2
*D24
 70
65
 10
0.0
 20
0.0
  3
*D24
  1

  0
TEXT
  5
625
100
AcDbEntity
  8
0
100
AcDbText
 62
5
  6
CONTINUOUS
 10
160.8511808143
 20
620.5533685941
  7
STANDARD
 40
2.5
  1
591
 50
90.0
 72
5
 11
160.8511808143
 21
626.3805061406
100
AcDbText
  0
LINE
  5
626
100
AcDbEntity
  8
0
100
AcDbLine
 62
2
  6
CONTINUOUS
 10
134.4761808143
 20
918.9669373674
 11
162.4761808143
 21
918.9669373674
  0
LINE
  5
627
100
AcDbEntity
  8
0
100
AcDbLine
 62
2
  6
CONTINUOUS
 10
133.8761808143
 20
327.9669373674
 11
162.4761808143
 21
327.9669373674
  0
LINE
  5
628
100
AcDbEntity
  8
0
100
AcDbLine
 62
2
  6
CONTINUOUS
 10
161.4761808143
 20
918.9669373674
 11
161.4761808143
 21
623.4669373674
  0
LINE
  5
629
100
AcDbEntity
  8
0
100
AcDbLine
 62
2
  6
CONTINUOUS
 10
161.4761808143
 20
327.9669373674
 11
161.4761808143
 21
623.4669373674
  0
INSERT
  5
62A
100
AcDbEntity
  8
0
100
AcDbBlockReference
 62
2
  6
CONTINUOUS
  2
_FILLED
 10
161.4761808143
 20
918.9669373674
 41
3.5
 42
3.5
 43
3.5
 50
90.0
  0
INSERT
  5
62B
100
AcDbEntity
  8
0
100
AcDbBlockReference
 62
2
  6
CONTINUOUS
  2
_FILLED
 10
161.4761808143
 20
327.9669373674
 41
3.5
 42
3.5
 43
3.5
 50
270.0
  0
ENDBLK
  5
62C
100
AcDbEntity
  8
0
  6
BYBLOCK
 62
0
100
AcDbBlockEnd
  0
BLOCK
  5
62D
100
AcDbEntity
  8
0
100
AcDbBlockBegin
 62
2
  6
CONTINUOUS
  2
*D25
 70
65
 10
0.0
 20
0.0
  3
*D25
  1

  0
TEXT
  5
62E
100
AcDbEntity
  8
0
100
AcDbText
 62
5
  6
CONTINUOUS
 10
167.8511808143
 20
572.5533685941
  7
STANDARD
 40
2.5
  1
687
 50
90.0
 72
5
 11
167.8511808143
 21
578.3805061406
100
AcDbText
  0
LINE
  5
62F
100
AcDbEntity
  8
0
100
AcDbLine
 62
2
  6
CONTINUOUS
 10
134.4761808143
 20
918.9669373674
 11
169.4761808143
 21
918.9669373674
  0
LINE
  5
630
100
AcDbEntity
  8
0
100
AcDbLine
 62
2
  6
CONTINUOUS
 10
133.8761808143
 20
231.9669373674
 11
169.4761808143
 21
231.9669373674
  0
LINE
  5
631
100
AcDbEntity
  8
0
100
AcDbLine
 62
2
  6
CONTINUOUS
 10
168.4761808143
 20
918.9669373674
 11
168.4761808143
 21
575.4669373674
  0
LINE
  5
632
100
AcDbEntity
  8
0
100
AcDbLine
 62
2
  6
CONTINUOUS
 10
168.4761808143
 20
231.9669373674
 11
168.4761808143
 21
575.4669373674
  0
INSERT
  5
633
100
AcDbEntity
  8
0
100
AcDbBlockReference
 62
2
  6
CONTINUOUS
  2
_FILLED
 10
168.4761808143
 20
918.9669373674
 41
3.5
 42
3.5
 43
3.5
 50
90.0
  0
INSERT
  5
634
100
AcDbEntity
  8
0
100
AcDbBlockReference
 62
2
  6
CONTINUOUS
  2
_FILLED
 10
168.4761808143
 20
231.9669373674
 41
3.5
 42
3.5
 43
3.5
 50
270.0
  0
ENDBLK
  5
635
100
AcDbEntity
  8
0
  6
BYBLOCK
 62
0
100
AcDbBlockEnd
  0
BLOCK
  5
636
100
AcDbEntity
  8
0
100
AcDbBlockBegin
 62
2
  6
CONTINUOUS
  2
*D26
 70
65
 10
0.0
 20
0.0
  3
*D26
  1

  0
TEXT
  5
637
100
AcDbEntity
  8
0
100
AcDbText
 62
5
  6
CONTINUOUS
 10
174.8511808143
 20
537.5533685941
  7
STANDARD
 40
2.5
  1
757
 50
90.0
 72
5
 11
174.8511808143
 21
543.3805061406
100
AcDbText
  0
LINE
  5
638
100
AcDbEntity
  8
0
100
AcDbLine
 62
2
  6
CONTINUOUS
 10
134.4761808143
 20
918.9669373674
 11
176.4761808143
 21
918.9669373674
  0
LINE
  5
639
100
AcDbEntity
  8
0
100
AcDbLine
 62
2
  6
CONTINUOUS
 10
134.4761808143
 20
161.9669373674
 11
176.4761808143
 21
161.9669373674
  0
LINE
  5
63A
100
AcDbEntity
  8
0
100
AcDbLine
 62
2
  6
CONTINUOUS
 10
175.4761808143
 20
918.9669373674
 11
175.4761808143
 21
540.4669373674
  0
LINE
  5
63B
100
AcDbEntity
  8
0
100
AcDbLine
 62
2
  6
CONTINUOUS
 10
175.4761808143
 20
161.9669373674
 11
175.4761808143
 21
540.4669373674
  0
INSERT
  5
63C
100
AcDbEntity
  8
0
100
AcDbBlockReference
 62
2
  6
CONTINUOUS
  2
_FILLED
 10
175.4761808143
 20
918.9669373674
 41
3.5
 42
3.5
 43
3.5
 50
90.0
  0
INSERT
  5
63D
100
AcDbEntity
  8
0
100
AcDbBlockReference
 62
2
  6
CONTINUOUS
  2
_FILLED
 10
175.4761808143
 20
161.9669373674
 41
3.5
 42
3.5
 43
3.5
 50
270.0
  0
ENDBLK
  5
63E
100
AcDbEntity
  8
0
  6
BYBLOCK
 62
0
100
AcDbBlockEnd
  0
BLOCK
  5
63F
100
AcDbEntity
  8
0
100
AcDbBlockBegin
 62
2
  6
CONTINUOUS
  2
*D27
 70
65
 10
0.0
 20
0.0
  3
*D27
  1

  0
TEXT
  5
640
100
AcDbEntity
  8
0
100
AcDbText
 62
5
  6
CONTINUOUS
 10
31.1283259517
 20
235.5558994573
  7
STANDARD
 40
2.5
  1
17
 72
5
 11
35.013084316
 21
235.5558994573
100
AcDbText
  0
LINE
  5
641
100
AcDbEntity
  8
0
100
AcDbLine
 62
2
  6
CONTINUOUS
 10
40.4895947321
 20
263.6140876177
 11
40.4895947321
 21
233.9308994573
  0
LINE
  5
642
100
AcDbEntity
  8
0
100
AcDbLine
 62
2
  6
CONTINUOUS
 10
23.4895947321
 20
249.4669373674
 11
23.4895947321
 21
233.9308994573
  0
LINE
  5
643
100
AcDbEntity
  8
0
100
AcDbLine
 62
2
  6
CONTINUOUS
 10
40.4895947321
 20
234.9308994573
 11
31.9895947321
 21
234.9308994573
  0
LINE
  5
644
100
AcDbEntity
  8
0
100
AcDbLine
 62
2
  6
CONTINUOUS
 10
23.4895947321
 20
234.9308994573
 11
31.9895947321
 21
234.9308994573
  0
INSERT
  5
645
100
AcDbEntity
  8
0
100
AcDbBlockReference
 62
2
  6
CONTINUOUS
  2
_FILLED
 10
40.4895947321
 20
234.9308994573
 41
3.5
 42
3.5
 43
3.5
  0
INSERT
  5
646
100
AcDbEntity
  8
0
100
AcDbBlockReference
 62
2
  6
CONTINUOUS
  2
_FILLED
 10
23.4895947321
 20
234.9308994573
 41
3.5
 42
3.5
 43
3.5
 50
180.0
  0
ENDBLK
  5
647
100
AcDbEntity
  8
0
  6
BYBLOCK
 62
0
100
AcDbBlockEnd
  0
ENDSEC
  0
SECTION
  2
ENTITIES
  0
DIMENSION
  5
648
100
AcDbEntity
  8
0
100
AcDbDimension
 62
2
  6
CONTINUOUS
  2
*D0
 10
57.6895947321
 20
103.4375000877
 11
57.6895947321
 21
96.5375000877
 70
160
 71
2
 42
13.8
  3
DIMSTYLE_1
100
AcDbAlignedDimension
 13
31.4895947321
 23
89.6375000877
 14
31.4895947321
 24
103.4375000877
 50
90.0
100
AcDbRotatedDimension
  0
DIMENSION
  5
649
100
AcDbEntity
  8
0
100
AcDbDimension
 62
2
  6
CONTINUOUS
  2
*D1
 10
50.6895947321
 20
85.5375000877
 11
50.6895947321
 21
80.1514971194
 70
160
 71
3
 42
2.0
  3
DIMSTYLE_2
100
AcDbAlignedDimension
 13
29.4895947321
 23
87.5375000877
 14
29.4895947321
 24
85.5375000877
 50
270.0
100
AcDbRotatedDimension
  0
DIMENSION
  5
64A
100
AcDbEntity
  8
0
100
AcDbDimension
 62
2
  6
CONTINUOUS
  2
*D2
 10
23.4895947321
 20
119.5375000877
 11
29.1124957857
 21
119.5375000877
 70
160
 71
1
 42
2.0
  3
DIMSTYLE_2
100
AcDbAlignedDimension
 13
21.4895947321
 23
105.0375000877
 14
23.4895947321
 24
105.0375000877
100
AcDbRotatedDimension
  0
DIMENSION
  5
64B
100
AcDbEntity
  8
0
100
AcDbDimension
 62
2
  6
CONTINUOUS
  2
*D3
 10
29.4895947321
 20
1917.9669373674
 11
26.4895947321
 21
1917.9669373674
 70
160
 71
2
 42
6.0
  3
DIMSTYLE_2
100
AcDbAlignedDimension
 13
23.4895947321
 23
1899.9669373674
 14
29.4895947321
 24
1899.9669373674
100
AcDbRotatedDimension
  0
DIMENSION
  5
64C
100
AcDbEntity
  8
0
100
AcDbDimension
 62
2
  6
CONTINUOUS
  2
*D4
 10
113.4761808143
 20
1917.9669373674
 11
125.4761808143
 21
1917.9669373674
 70
160
 71
2
 42
24.0
  3
DIMSTYLE_1
100
AcDbAlignedDimension
 13
137.4761808143
 23
1899.9669373674
 14
113.4761808143
 24
1899.9669373674
 50
180.0
100
AcDbRotatedDimension
  0
DIMENSION
  5
64D
100
AcDbEntity
  8
0
100
AcDbDimension
 62
2
  6
CONTINUOUS
  2
*D5
 10
50.6895947321
 20
316.9669373674
 11
50.6895947321
 21
279.9669373674
 70
160
 71
2
 42
74.0
  3
DIMSTYLE_3
100
AcDbAlignedDimension
 13
29.505247365
 23
242.9669373674
 14
29.5094519649
 24
316.9669373674
 50
90.0
100
AcDbRotatedDimension
  0
DIMENSION
  5
64E
100
AcDbEntity
  8
0
100
AcDbDimension
 62
2
  6
CONTINUOUS
  2
*D6
 10
50.6895947321
 20
1806.9669373674
 11
50.6895947321
 21
1769.9669373674
 70
160
 71
2
 42
74.0
  3
DIMSTYLE_3
100
AcDbAlignedDimension
 13
29.468482175
 23
1732.9669373674
 14
29.4913644886
 24
1806.9669373674
 50
90.0
100
AcDbRotatedDimension
  0
DIMENSION
  5
64F
100
AcDbEntity
  8
0
100
AcDbDimension
 62
2
  6
CONTINUOUS
  2
*D7
 10
50.6895947321
 20
1899.9669373674
 11
50.6895947321
 21
1853.4669373674
 70
160
 71
2
 42
93.0
  3
DIMSTYLE_3
100
AcDbAlignedDimension
 13
29.505247365
 23
1806.9669373674
 14
29.505247365
 24
1899.9669373674
 50
90.0
100
AcDbRotatedDimension
  0
DIMENSION
  5
650
100
AcDbEntity
  8
0
100
AcDbDimension
 62
2
  6
CONTINUOUS
  2
*D8
 10
50.6895947321
 20
242.9669373674
 11
50.6895947321
 21
196.4669373674
 70
160
 71
2
 42
93.0
  3
DIMSTYLE_3
100
AcDbAlignedDimension
 13
29.505247365
 23
149.9669373674
 14
29.505247365
 24
242.9669373674
 50
90.0
100
AcDbRotatedDimension
  0
DIMENSION
  5
651
100
AcDbEntity
  8
0
100
AcDbDimension
 62
2
  6
CONTINUOUS
  2
*D9
 10
82.4761808143
 20
149.9669373674
 11
82.4761808143
 21
1024.9669373674
 70
160
 71
2
 42
1750.0
  3
DIMSTYLE_4
100
AcDbAlignedDimension
 13
116.4761808143
 23
1899.9669373674
 14
116.4761808143
 24
149.9669373674
 50
270.0
100
AcDbRotatedDimension
  0
DIMENSION
  5
652
100
AcDbEntity
  8
0
100
AcDbDimension
 62
2
  6
CONTINUOUS
  2
*D10
 10
75.4761808143
 20
141.9669373674
 11
75.4761808143
 21
1024.9669373674
 70
160
 71
2
 42
1766.0
  3
DIMSTYLE_4
100
AcDbAlignedDimension
 13
113.4761808143
 23
1907.9669373674
 14
113.4761808143
 24
141.9669373674
 50
270.0
100
AcDbRotatedDimension
  0
DIMENSION
  5
653
100
AcDbEntity
  8
0
100
AcDbDimension
 62
2
  6
CONTINUOUS
  2
*D11
 10
89.4761808143
 20
1899.9669373674
 11
89.4761808143
 21
1517.7169373674
 70
160
 71
2
 42
764.5
  3
DIMSTYLE_5
100
AcDbAlignedDimension
 13
116.4761808143
 23
1135.4669373674
 14
116.4761808143
 24
1899.9669373674
 50
90.0
100
AcDbRotatedDimension
  0
DIMENSION
  5
654
100
AcDbEntity
  8
0
100
AcDbDimension
 62
2
  6
CONTINUOUS
  2
*D12
 10
103.4761808143
 20
1769.9669373674
 11
103.4761808143
 21
1452.7169373674
 70
160
 71
2
 42
634.5
  3
DIMSTYLE_5
100
AcDbAlignedDimension
 13
116.4761808143
 23
1135.4669373674
 14
115.5761808142
 24
1769.9669373674
 50
90.0
100
AcDbRotatedDimension
  0
DIMENSION
  5
655
100
AcDbEntity
  8
0
100
AcDbDimension
 62
2
  6
CONTINUOUS
  2
*D13
 10
96.4761808143
 20
1769.9669373674
 11
96.4761808143
 21
1452.7169373674
 70
160
 71
2
 42
634.5
  1
730 bis Kennkerbe
  3
DIMSTYLE_5
100
AcDbAlignedDimension
 13
97.4761808143
 23
1085.3840197717
 14
115.5761808142
 24
1769.9669373674
 50
90.0
100
AcDbRotatedDimension
1001
ACAD
1000
DSTYLE
1002
{
1070
173
1070
1
1070
6
1000
_NONE
1002
}
  0
DIMENSION
  5
656
100
AcDbEntity
  8
0
100
AcDbDimension
 62
2
  6
CONTINUOUS
  2
*D14
 10
147.4761808143
 20
1147.4669373674
 11
147.4761808143
 21
1141.4669373674
 70
160
 71
2
 42
12.0
  3
DIMSTYLE_1
100
AcDbAlignedDimension
 13
134.4761808143
 23
1135.4669373674
 14
133.8761808143
 24
1147.4669373674
 50
90.0
100
AcDbRotatedDimension
  0
DIMENSION
  5
657
100
AcDbEntity
  8
0
100
AcDbDimension
 62
2
  6
CONTINUOUS
  2
*D15
 10
154.4761808143
 20
1430.4669373674
 11
154.4761808143
 21
1282.9669373674
 70
160
 71
2
 42
295.0
  3
DIMSTYLE_6
100
AcDbAlignedDimension
 13
134.4761808143
 23
1135.4669373674
 14
133.8761808143
 24
1430.4669373674
 50
90.0
100
AcDbRotatedDimension
  0
DIMENSION
  5
658
100
AcDbEntity
  8
0
100
AcDbDimension
 62
2
  6
CONTINUOUS
  2
*D16
 10
161.4761808143
 20
1691.9669373674
 11
161.4761808143
 21
1413.7169373674
 70
160
 71
2
 42
556.5
  3
DIMSTYLE_5
100
AcDbAlignedDimension
 13
134.4761808143
 23
1135.4669373674
 14
133.8761808143
 24
1691.9669373674
 50
90.0
100
AcDbRotatedDimension
  0
DIMENSION
  5
659
100
AcDbEntity
  8
0
100
AcDbDimension
 62
2
  6
CONTINUOUS
  2
*D17
 10
168.4761808143
 20
1817.9669373674
 11
168.4761808143
 21
1476.7169373674
 70
160
 71
2
 42
682.5
  3
DIMSTYLE_5
100
AcDbAlignedDimension
 13
134.4761808143
 23
1135.4669373674
 14
133.8761808143
 24
1817.9669373674
 50
90.0
100
AcDbRotatedDimension
  0
DIMENSION
  5
65A
100
AcDbEntity
  8
0
100
AcDbDimension
 62
2
  6
CONTINUOUS
  2
*D18
 10
175.4761808143
 20
1135.4669373674
 11
175.4761808143
 21
1511.7169373674
 70
160
 71
2
 42
752.5
  3
DIMSTYLE_5
100
AcDbAlignedDimension
 13
134.4761808143
 23
1887.9669373674
 14
134.4761808143
 24
1135.4669373674
 50
270.0
100
AcDbRotatedDimension
  0
DIMENSION
  5
65B
100
AcDbEntity
  8
0
100
AcDbDimension
 62
2
  6
CONTINUOUS
  2
*D19
 10
89.4761808143
 20
149.9669373674
 11
89.4761808143
 21
534.4669373674
 70
160
 71
2
 42
769.0
  3
DIMSTYLE_5
100
AcDbAlignedDimension
 13
116.4761808143
 23
918.9669373674
 14
116.4761808143
 24
149.9669373674
 50
270.0
100
AcDbRotatedDimension
  0
DIMENSION
  5
65C
100
AcDbEntity
  8
0
100
AcDbDimension
 62
2
  6
CONTINUOUS
  2
*D20
 10
96.4761808143
 20
279.9669373674
 11
96.4761808143
 21
599.4669373674
 70
160
 71
2
 42
639.0
  1
760 bis Kennkerbe
  3
DIMSTYLE_5
100
AcDbAlignedDimension
 13
97.4761808143
 23
968.6830606467
 14
114.9761808143
 24
279.9669373674
 50
270.0
100
AcDbRotatedDimension
1001
ACAD
1000
DSTYLE
1002
{
1070
173
1070
1
1070
6
1000
_NONE
1002
}
  0
DIMENSION
  5
65D
100
AcDbEntity
  8
0
100
AcDbDimension
 62
2
  6
CONTINUOUS
  2
*D21
 10
103.4761808143
 20
279.9669373674
 11
103.4761808143
 21
599.4669373674
 70
160
 71
2
 42
639.0
  3
DIMSTYLE_5
100
AcDbAlignedDimension
 13
116.4761808143
 23
918.9669373674
 14
114.9761808143
 24
279.9669373674
 50
270.0
100
AcDbRotatedDimension
  0
DIMENSION
  5
65E
100
AcDbEntity
  8
0
100
AcDbDimension
 62
2
  6
CONTINUOUS
  2
*D22
 10
147.4761808143
 20
906.9669373674
 11
147.4761808143
 21
912.9669373674
 70
160
 71
2
 42
12.0
  3
DIMSTYLE_1
100
AcDbAlignedDimension
 13
134.4761808143
 23
918.9669373674
 14
133.8761808143
 24
906.9669373674
 50
270.0
100
AcDbRotatedDimension
  0
DIMENSION
  5
65F
100
AcDbEntity
  8
0
100
AcDbDimension
 62
2
  6
CONTINUOUS
  2
*D23
 10
154.4761808143
 20
626.9669373674
 11
154.4761808143
 21
772.9669373674
 70
160
 71
2
 42
292.0
  3
DIMSTYLE_6
100
AcDbAlignedDimension
 13
134.4761808143
 23
918.9669373674
 14
133.8761808143
 24
626.9669373674
 50
270.0
100
AcDbRotatedDimension
  0
DIMENSION
  5
660
100
AcDbEntity
  8
0
100
AcDbDimension
 62
2
  6
CONTINUOUS
  2
*D24
 10
161.4761808143
 20
327.9669373674
 11
161.4761808143
 21
623.4669373674
 70
160
 71
2
 42
591.0
  3
DIMSTYLE_5
100
AcDbAlignedDimension
 13
134.4761808143
 23
918.9669373674
 14
133.8761808143
 24
327.9669373674
 50
270.0
100
AcDbRotatedDimension
  0
DIMENSION
  5
661
100
AcDbEntity
  8
0
100
AcDbDimension
 62
2
  6
CONTINUOUS
  2
*D25
 10
168.4761808143
 20
231.9669373674
 11
168.4761808143
 21
575.4669373674
 70
160
 71
2
 42
687.0
  3
DIMSTYLE_5
100
AcDbAlignedDimension
 13
134.4761808143
 23
918.9669373674
 14
133.8761808143
 24
231.9669373674
 50
270.0
100
AcDbRotatedDimension
  0
DIMENSION
  5
662
100
AcDbEntity
  8
0
100
AcDbDimension
 62
2
  6
CONTINUOUS
  2
*D26
 10
175.4761808143
 20
161.9669373674
 11
175.4761808143
 21
540.4669373674
 70
160
 71
2
 42
757.0
  3
DIMSTYLE_5
100
AcDbAlignedDimension
 13
134.4761808143
 23
918.9669373674
 14
134.4761808143
 24
161.9669373674
 50
270.0
100
AcDbRotatedDimension
  0
DIMENSION
  5
663
100
AcDbEntity
  8
0
100
AcDbDimension
 62
2
  6
CONTINUOUS
  2
*D27
 10
23.4895947321
 20
234.9308994573
 11
33.0707051339
 21
234.9308994573
 70
160
 71
2
 42
17.0
  3
DIMSTYLE_1
100
AcDbAlignedDimension
 13
40.4895947321
 23
263.6140876177
 14
23.4895947321
 24
249.4669373674
 50
180.0
100
AcDbRotatedDimension
  0
TEXT
  5
664
100
AcDbEntity
  8
0
100
AcDbText
 62
5
  6
CONTINUOUS
 10
23.6367185152
 20
72.9045635954
  7
STANDARD
 40
5.0
  1
A-A
 72
5
 11
35.2538188869
 21
72.9045635954
100
AcDbText
  0
INSERT
  5
665
100
AcDbEntity
  8
0
100
AcDbBlockReference
 62
2
  6
CONTINUOUS
  2
SYMBOL_0_BL17
 10
31.0000000239
 20
34.9999999785
  0
LINE
  5
666
100
AcDbEntity
  8
S-AXIS
100
AcDbLine
 62
7
  6
CENTER
 10
43.6895947321
 20
97.5375000877
 11
18.4895947321
 21
97.5375000877
  0
INSERT
  5
667
100
AcDbEntity
  8
HATCHING_BL0
100
AcDbBlockReference
  2
HATCHING_BL0
 10
27.9292878627
 20
1823.2811479875
  0
INSERT
  5
668
100
AcDbEntity
  8
94820009R00_BL1
100
AcDbBlockReference
  2
94820009R00_BL1
 10
79.9828877732
 20
992.7522187276
  0
INSERT
  5
669
100
AcDbEntity
  8
93773508000_O_BL2
100
AcDbBlockReference
  2
93773508000_O_BL2
 10
80.4828877732
 20
128.2522187276
  0
INSERT
  5
66A
100
AcDbEntity
  8
94818605R00_BL3
100
AcDbBlockReference
  2
94818605R00_BL3
 10
79.9828877732
 20
534.4669373674
  0
INSERT
  5
66B
100
AcDbEntity
  8
94528905000_M_BL4
100
AcDbBlockReference
  2
94528905000_M_BL4
 10
80.7342849478
 20
249.8669373674
  0
INSERT
  5
66C
100
AcDbEntity
  8
94529001000_BL5
100
AcDbBlockReference
  2
94529001000_BL5
 10
79.7328877732
 20
279.9669373674
  0
INSERT
  5
66D
100
AcDbEntity
  8
94673901000_BL6
100
AcDbBlockReference
  2
94673901000_BL6
 10
76.8346665025
 20
198.2522187276
  0
INSERT
  5
66E
100
AcDbEntity
  8
94528905000_M_BL7
100
AcDbBlockReference
  2
94528905000_M_BL7
 10
80.7342849478
 20
310.0669373674
  0
INSERT
  5
66F
100
AcDbEntity
  8
94673901000_BL8
100
AcDbBlockReference
  2
94673901000_BL8
 10
79.6828877733
 20
939.8022187276
  0
INSERT
  5
670
100
AcDbEntity
  8
94529001000_BL9
100
AcDbBlockReference
  2
94529001000_BL9
 10
78.2328877732
 20
950.0089550603
  0
INSERT
  5
671
100
AcDbEntity
  8
94528905000_M_BL10
100
AcDbBlockReference
  2
94528905000_M_BL10
 10
80.3828877732
 20
949.5522187276
  0
INSERT
  5
672
100
AcDbEntity
  8
94528905000_M_BL11
100
AcDbBlockReference
  2
94528905000_M_BL11
 10
80.7342849478
 20
1739.8669373674
  0
INSERT
  5
673
100
AcDbEntity
  8
93794908000_BL12
100
AcDbBlockReference
  2
93794908000_BL12
 10
78.9389537904
 20
617.5022202891
  0
INSERT
  5
674
100
AcDbEntity
  8
93794908000_BL13
100
AcDbBlockReference
  2
93794908000_BL13
 10
78.9389537904
 20
923.9669373674
  0
INSERT
  5
675
100
AcDbEntity
  8
93773508000_O_BL14
100
AcDbBlockReference
  2
93773508000_O_BL14
 10
80.4828877732
 20
1893.4669373674
  0
INSERT
  5
676
100
AcDbEntity
  8
93782708000_BL15
100
AcDbBlockReference
  2
93782708000_BL15
 10
27.4395947321
 20
97.5375000877
  0
INSERT
  5
677
100
AcDbEntity
  8
91511100000_BL16
100
AcDbBlockReference
  2
91511100000_BL16
 10
28.1895947321
 20
96.5375000877
  0
ENDSEC
  0
SECTION
  2
OBJECTS
  0
DICTIONARY
  5
C
100
AcDbDictionary
280
0
281
1
  3
ACAD_GROUP
350
D
  3
ACAD_MLINESTYLE
350
17
  3
ACAD_LAYOUT
350
1A
  3
ACAD_PLOTSETTINGS
350
19
  3
ACAD_PLOTSTYLENAME
350
E
  0
DICTIONARY
  5
D
102
{ACAD_REACTORS
330
C
102
}
100
AcDbDictionary
280
0
281
1
  0
ACDBDICTIONARYWDFLT
  5
E
102
{ACAD_REACTORS
330
C
102
}
100
AcDbDictionary
281
1
  3
Normal
350
F
100
AcDbDictionaryWithDefault
340
F
  0
DICTIONARY
  5
17
102
{ACAD_REACTORS
330
C
102
}
100
AcDbDictionary
280
0
281
1
  3
Standard
350
18
  0
DICTIONARY
  5
19
102
{ACAD_REACTORS
330
C
102
}
100
AcDbDictionary
281
1
  0
DICTIONARY
  5
1A
102
{ACAD_REACTORS
330
C
102
}
100
AcDbDictionary
281
1
  3
Model
350
678
  3
Layout1
350
679
  0
ACDBPLACEHOLDER
  5
F
102
{ACAD_REACTORS
330
E
102
}
  0
MLINESTYLE
  5
18
102
{ACAD_REACTORS
330
17
102
}
100
AcDbMlineStyle
  2
STANDARD
 70
0
  3

 62
256
 51
90.0
 52
90.0
 71
2
 49
0.5
 62
256
  6
BYLAYER
 49
-0.5
 62
256
  6
BYLAYER
  0
LAYOUT
  5
678
102
{ACAD_REACTORS
330
1A
102
}
100
AcDbPlotSettings
  1

  2
none_device
  4

  6

 40
0.0
 41
0.0
 42
0.0
 43
0.0
 44
200.0
 45
1935.0
 46
0.0
 47
0.0
 48
0.0
 49
0.0
140
0.0
141
0.0
142
1.0
143
1.0
 70
1024
 72
1
 73
0
 74
0
  7

 75
0
147
1.0
148
0.0
149
0.0
100
AcDbLayout
  1
Model
 70
0
 71
0
 10
0.0
 20
0.0
 11
200.0
 21
1935.0
 12
0.0
 22
0.0
 32
0.0
 14
0.0
 24
0.0
 34
0.0
 15
0.0
 25
0.0
 35
0.0
146
0.0
 13
0.0
 23
0.0
 33
0.0
 16
1.0
 26
0.0
 36
0.0
 17
0.0
 27
1.0
 37
0.0
 76
0
330
21C
345
0
346
0
  0
LAYOUT
  5
679
102
{ACAD_REACTORS
330
1A
102
}
100
AcDbPlotSettings
  1

  2
none_device
  4

  6

 40
0.0
 41
0.0
 42
0.0
 43
0.0
 44
200.0
 45
1935.0
 46
0.0
 47
0.0
 48
0.0
 49
0.0
140
0.0
141
0.0
142
1.0
143
1.0
 70
0
 72
1
 73
0
 74
0
  7

 75
0
147
1.0
148
0.0
149
0.0
100
AcDbLayout
  1
Layout1
 70
0
 71
1
 10
0.0
 20
0.0
 11
200.0
 21
1935.0
 12
0.0
 22
0.0
 32
0.0
 14
0.0
 24
0.0
 34
0.0
 15
0.0
 25
0.0
 35
0.0
146
0.0
 13
0.0
 23
0.0
 33
0.0
 16
1.0
 26
0.0
 36
0.0
 17
0.0
 27
1.0
 37
0.0
 76
0
330
21D
345
0
346
0
  0
ENDSEC
  0
EOF
