  0
SECTION
  2
HEADER
  9
$ACADVER
  1
AC1021
  9
$DWGCODEPAGE
  3
ANSI_1252
  9
$EXTMAX
 10
200.0
 20
1935.0
 30
0.0
  9
$EXTMIN
 10
0.0
 20
0.0
 30
0.0
  9
$LIMMIN
 10
0.0
 20
0.0
  9
$LIMMAX
 10
200.0
 20
1935.0
  9
$VIEWCTR
 10
100.0
 20
967.5
  9
$VIEWSIZE
 40
1935.0
  9
$CLAYER
  8
0
  9
$LTSCALE
 40
126.1333333333
  9
$CELTYPE
  6
BYLAYER
  9
$DIMSCALE
 40
1.0
  9
$DIMASZ
 40
3.5
  9
$DIMEXO
 40
0.0
  9
$DIMDLI
 40
87.1466666667
  9
$DIMEXE
 40
1.0
  9
$DIMCEN
 40
20.64
  9
$DIMLFAC
 40
1.0
  9
$DIMBLK
  1
_FILLED
  9
$DIMTXT
 40
2.5
  9
$DIMTOL
 70
1
  9
$DIMLIM
 70
0
  9
$DIMTFAC
 40
1.0
  9
$DIMTP
 40
0.001
  9
$DIMTM
 40
0.001
  9
$DIMGAP
 40
0.625
  9
$DIMDSEP
 70
46
  9
$PDMODE
 70
3
  9
$PDSIZE
 40
2.0
  9
$HANDSEED
  5
67C
  9
$TILEMODE
 70
1
  9
$MEASUREMENT
 70
1
  9
$INSUNITS
 70
4
  0
ENDSEC
  0
SECTION
  2
CLASSES
  0
CLASS
  1
ACDBDICTIONARYWDFLT
  2
AcDbDictionaryWithDefault
  3
AutoCAD 2000
 90
0
 91
1
280
0
281
0
  0
CLASS
  1
ACDBPLACEHOLDER
  2
AcDbPlaceHolder
  3
AutoCAD 2000
 90
0
 91
1
280
0
281
0
  0
CLASS
  1
LAYOUT
  2
AcDbLayout
  3
AutoCAD 2000
 90
0
 91
0
280
0
281
0
  0
ENDSEC
  0
SECTION
  2
TABLES
  0
TABLE
  2
VPORT
  5
8
100
AcDbSymbolTable
 70
2
  0
VPORT
  5
1F4
100
AcDbSymbolTableRecord
100
AcDbViewportTableRecord
  2
*ACTIVE
 70
0
 10
0.0
 20
0.0
 11
1.0
 21
1.0
 12
100.0
 22
967.5
 13
0.0
 23
0.0
 14
1.0
 24
1.0
 15
0.0
 25
0.0
 16
0.0
 26
0.0
 36
1.0
 17
0.0
 27
0.0
 37
0.0
 40
1935.0
 41
0.1033591731
 42
50.0
 43
0.0
 44
0.0
 50
0.0
 51
0.0
 71
0
 72
100
 73
1
 74
1
 75
0
 76
0
 77
0
 78
0
  0
ENDTAB
  0
TABLE
  2
LTYPE
  5
5
100
AcDbSymbolTable
 70
6
  0
LTYPE
  5
14
100
AcDbSymbolTableRecord
100
AcDbLinetypeTableRecord
  2
BYBLOCK
 70
0
  3

 72
65
 73
0
 40
0.0
  0
LTYPE
  5
15
100
AcDbSymbolTableRecord
100
AcDbLinetypeTableRecord
  2
BYLAYER
 70
0
  3

 72
65
 73
0
 40
0.0
  0
LTYPE
  5
16
100
AcDbSymbolTableRecord
100
AcDbLinetypeTableRecord
  2
CONTINUOUS
 70
64
  3
Solid line
 72
65
 73
0
 40
0.0
  0
LTYPE
  5
1F5
100
AcDbSymbolTableRecord
100
AcDbLinetypeTableRecord
  2
CENTER
 70
64
  3
____ _ ____ _ ____ _ ____ _ ____ _ ____ _ ____
 72
65
 73
4
 40
0.6
 49
0.375
 74
0
 49
-0.075
 74
0
 49
0.075
 74
0
 49
-0.075
 74
0
  0
LTYPE
  5
1F6
100
AcDbSymbolTableRecord
100
AcDbLinetypeTableRecord
  2
HIDDEN
 70
64
  3
- - - - - - - - - - - - - - - - - - - -
 72
65
 73
2
 40
0.2
 49
0.1
 74
0
 49
-0.1
 74
0
  0
LTYPE
  5
1F7
100
AcDbSymbolTableRecord
100
AcDbLinetypeTableRecord
  2
PHANTOM
 70
64
  3
_____ _ _ _____ _ _ _____ _ _ _____
 72
65
 73
6
 40
0.8
 49
0.45
 74
0
 49
-0.05
 74
0
 49
0.1
 74
0
 49
-0.05
 74
0
 49
0.1
 74
0
 49
-0.05
 74
0
  0
LTYPE
  5
1F8
100
AcDbSymbolTableRecord
100
AcDbLinetypeTableRecord
  2
DOT
 70
64
  3
. . . . . . . . . . . . . . . . . . . .
 72
65
 73
2
 40
0.2
 49
0.1
 74
0
 49
-0.1
 74
0
  0
LTYPE
  5
1F9
100
AcDbSymbolTableRecord
100
AcDbLinetypeTableRecord
  2
DASHED
 70
64
  3
- - - - - - - - - - - - - - - - - - - -
 72
65
 73
2
 40
0.2
 49
0.1
 74
0
 49
-0.1
 74
0
  0
ENDTAB
  0
TABLE
  2
LAYER
  5
2
100
AcDbSymbolTable
 70
36
  0
LAYER
  5
10
100
AcDbSymbolTableRecord
100
AcDbLayerTableRecord
  2
0
 70
0
 62
7
  6
CONTINUOUS
370
-3
390
F
  0
LAYER
  5
1FA
100
AcDbSymbolTableRecord
100
AcDbLayerTableRecord
  2
DEFAULT_1
 70
0
 62
7
  6
CENTER
370
-3
390
F
  0
LAYER
  5
1FB
100
AcDbSymbolTableRecord
100
AcDbLayerTableRecord
  2
DEFAULT_2
 70
0
 62
8
  6
HIDDEN
370
-3
390
F
  0
LAYER
  5
1FC
100
AcDbSymbolTableRecord
100
AcDbLayerTableRecord
  2
DEFAULT_3
 70
0
 62
7
  6
PHANTOM
370
-3
390
F
  0
LAYER
  5
1FD
100
AcDbSymbolTableRecord
100
AcDbLayerTableRecord
  2
AXIS
 70
0
 62
7
  6
CONTINUOUS
370
-3
390
F
  0
LAYER
  5
1FE
100
AcDbSymbolTableRecord
100
AcDbLayerTableRecord
  2
COORDSYS
 70
0
 62
7
  6
CONTINUOUS
370
-3
390
F
  0
LAYER
  5
1FF
100
AcDbSymbolTableRecord
100
AcDbLayerTableRecord
  2
CURVES
 70
0
 62
7
  6
CONTINUOUS
370
-3
390
F
  0
LAYER
  5
200
100
AcDbSymbolTableRecord
100
AcDbLayerTableRecord
  2
EINBAUREFERENZ
 70
0
 62
7
  6
CONTINUOUS
370
-3
390
F
  0
LAYER
  5
201
100
AcDbSymbolTableRecord
100
AcDbLayerTableRecord
  2
PLANES
 70
0
 62
7
  6
CONTINUOUS
370
-3
390
F
  0
LAYER
  5
202
100
AcDbSymbolTableRecord
100
AcDbLayerTableRecord
  2
POINTS
 70
0
 62
7
  6
CONTINUOUS
370
-3
390
F
  0
LAYER
  5
203
100
AcDbSymbolTableRecord
100
AcDbLayerTableRecord
  2
PROFIL-EINBAULAGE
 70
0
 62
7
  6
CONTINUOUS
370
-3
390
F
  0
LAYER
  5
204
100
AcDbSymbolTableRecord
100
AcDbLayerTableRecord
  2
S-AXIS
 70
0
 62
7
  6
CONTINUOUS
370
-3
390
F
  0
LAYER
  5
205
100
AcDbSymbolTableRecord
100
AcDbLayerTableRecord
  2
S-COORDSYS
 70
0
 62
7
  6
CONTINUOUS
370
-3
390
F
  0
LAYER
  5
206
100
AcDbSymbolTableRecord
100
AcDbLayerTableRecord
  2
S-PLANES
 70
0
 62
7
  6
CONTINUOUS
370
-3
390
F
  0
LAYER
  5
207
100
AcDbSymbolTableRecord
100
AcDbLayerTableRecord
  2
THREADS
 70
0
 62
7
  6
CONTINUOUS
370
-3
390
F
  0
LAYER
  5
208
100
AcDbSymbolTableRecord
100
AcDbLayerTableRecord
  2
HATCHING_BL0
 70
0
 62
7
  6
CONTINUOUS
370
-3
390
F
  0
LAYER
  5
209
100
AcDbSymbolTableRecord
100
AcDbLayerTableRecord
  2
94820009L00_BL1
 70
0
 62
7
  6
CONTINUOUS
370
-3
390
F
  0
LAYER
  5
20A
100
AcDbSymbolTableRecord
100
AcDbLayerTableRecord
  2
93773508000_O_BL2
 70
0
 62
7
  6
CONTINUOUS
370
-3
390
F
  0
LAYER
  5
20B
100
AcDbSymbolTableRecord
100
AcDbLayerTableRecord
  2
94818605L00_BL3
 70
0
 62
7
  6
CONTINUOUS
370
-3
390
F
  0
LAYER
  5
20C
100
AcDbSymbolTableRecord
100
AcDbLayerTableRecord
  2
94528905000_M_BL4
 70
0
 62
7
  6
CONTINUOUS
370
-3
390
F
  0
LAYER
  5
20D
100
AcDbSymbolTableRecord
100
AcDbLayerTableRecord
  2
94529001000_BL5
 70
0
 62
7
  6
CONTINUOUS
370
-3
390
F
  0
LAYER
  5
20E
100
AcDbSymbolTableRecord
100
AcDbLayerTableRecord
  2
94673901000_BL6
 70
0
 62
7
  6
CONTINUOUS
370
-3
390
F
  0
LAYER
  5
20F
100
AcDbSymbolTableRecord
100
AcDbLayerTableRecord
  2
94528905000_M_BL7
 70
0
 62
7
  6
CONTINUOUS
370
-3
390
F
  0
LAYER
  5
210
100
AcDbSymbolTableRecord
100
AcDbLayerTableRecord
  2
94673901000_BL8
 70
0
 62
7
  6
CONTINUOUS
370
-3
390
F
  0
LAYER
  5
211
100
AcDbSymbolTableRecord
100
AcDbLayerTableRecord
  2
94529001000_BL9
 70
0
 62
7
  6
CONTINUOUS
370
-3
390
F
  0
LAYER
  5
212
100
AcDbSymbolTableRecord
100
AcDbLayerTableRecord
  2
94528905000_M_BL10
 70
0
 62
7
  6
CONTINUOUS
370
-3
390
F
  0
LAYER
  5
213
100
AcDbSymbolTableRecord
100
AcDbLayerTableRecord
  2
94528905000_M_BL11
 70
0
 62
7
  6
CONTINUOUS
370
-3
390
F
  0
LAYER
  5
214
100
AcDbSymbolTableRecord
100
AcDbLayerTableRecord
  2
93794908000_BL12
 70
0
 62
7
  6
CONTINUOUS
370
-3
390
F
  0
LAYER
  5
215
100
AcDbSymbolTableRecord
100
AcDbLayerTableRecord
  2
93794908000_BL13
 70
0
 62
7
  6
CONTINUOUS
370
-3
390
F
  0
LAYER
  5
216
100
AcDbSymbolTableRecord
100
AcDbLayerTableRecord
  2
93773508000_O_BL14
 70
0
 62
7
  6
CONTINUOUS
370
-3
390
F
  0
LAYER
  5
217
100
AcDbSymbolTableRecord
100
AcDbLayerTableRecord
  2
93782708000_BL15
 70
0
 62
7
  6
CONTINUOUS
370
-3
390
F
  0
LAYER
  5
218
100
AcDbSymbolTableRecord
100
AcDbLayerTableRecord
  2
91511100000_BL16
 70
0
 62
7
  6
CONTINUOUS
370
-3
390
F
  0
ENDTAB
  0
TABLE
  2
STYLE
  5
3
100
AcDbSymbolTable
 70
1
  0
STYLE
  5
11
100
AcDbSymbolTableRecord
100
AcDbTextStyleTableRecord
  2
STANDARD
 70
0
 40
0.0
 41
1.0
 50
0.0
 71
0
 42
0.2
  3
arial.ttf
  4

  0
STYLE
  5
219
100
AcDbSymbolTableRecord
100
AcDbTextStyleTableRecord
  2
TEXTSTYLE_1
 70
0
 40
0.0
 41
0.8
 50
0.0
 71
0
 42
0.2
  3
gdt
  4

  0
STYLE
  5
21A
100
AcDbSymbolTableRecord
100
AcDbTextStyleTableRecord
  2
TEXTSTYLE_2
 70
0
 40
0.0
 41
1.0
 50
0.0
 71
0
 42
0.2
  3
arialbd.ttf
  4

  0
ENDTAB
  0
TABLE
  2
VIEW
  5
6
100
AcDbSymbolTable
 70
0
  0
ENDTAB
  0
TABLE
  2
UCS
  5
7
100
AcDbSymbolTable
 70
0
  0
ENDTAB
  0
TABLE
  2
APPID
  5
9
100
AcDbSymbolTable
 70
1
  0
APPID
  5
21B
100
AcDbSymbolTableRecord
100
AcDbRegAppTableRecord
  2
ACAD
 70
0
  0
ENDTAB
  0
TABLE
  2
BLOCK_RECORD
  5
1
100
AcDbSymbolTable
 70
0
  0
BLOCK_RECORD
  5
21C
100
AcDbSymbolTableRecord
100
AcDbBlockTableRecord
  2
*Model_Space
  0
BLOCK_RECORD
  5
21D
100
AcDbSymbolTableRecord
100
AcDbBlockTableRecord
  2
*Paper_Space
  0
BLOCK_RECORD
  5
21E
100
AcDbSymbolTableRecord
100
AcDbBlockTableRecord
  2
_FILLED
  0
BLOCK_RECORD
  5
21F
100
AcDbSymbolTableRecord
100
AcDbBlockTableRecord
  2
_NONE
  0
BLOCK_RECORD
  5
220
100
AcDbSymbolTableRecord
100
AcDbBlockTableRecord
  2
*D0
  0
BLOCK_RECORD
  5
221
100
AcDbSymbolTableRecord
100
AcDbBlockTableRecord
  2
*D1
  0
BLOCK_RECORD
  5
222
100
AcDbSymbolTableRecord
100
AcDbBlockTableRecord
  2
*D2
  0
BLOCK_RECORD
  5
223
100
AcDbSymbolTableRecord
100
AcDbBlockTableRecord
  2
*D3
  0
BLOCK_RECORD
  5
224
100
AcDbSymbolTableRecord
100
AcDbBlockTableRecord
  2
*D4
  0
BLOCK_RECORD
  5
225
100
AcDbSymbolTableRecord
100
AcDbBlockTableRecord
  2
*D5
  0
BLOCK_RECORD
  5
226
100
AcDbSymbolTableRecord
100
AcDbBlockTableRecord
  2
*D6
  0
BLOCK_RECORD
  5
227
100
AcDbSymbolTableRecord
100
AcDbBlockTableRecord
  2
*D7
  0
BLOCK_RECORD
  5
228
100
AcDbSymbolTableRecord
100
AcDbBlockTableRecord
  2
*D8
  0
BLOCK_RECORD
  5
229
100
AcDbSymbolTableRecord
100
AcDbBlockTableRecord
  2
*D9
  0
BLOCK_RECORD
  5
22A
100
AcDbSymbolTableRecord
100
AcDbBlockTableRecord
  2
*D10
  0
BLOCK_RECORD
  5
22B
100
AcDbSymbolTableRecord
100
AcDbBlockTableRecord
  2
*D11
  0
BLOCK_RECORD
  5
22C
100
AcDbSymbolTableRecord
100
AcDbBlockTableRecord
  2
*D12
  0
BLOCK_RECORD
  5
22D
100
AcDbSymbolTableRecord
100
AcDbBlockTableRecord
  2
*D13
  0
BLOCK_RECORD
  5
22E
100
AcDbSymbolTableRecord
100
AcDbBlockTableRecord
  2
*D14
  0
BLOCK_RECORD
  5
22F
100
AcDbSymbolTableRecord
100
AcDbBlockTableRecord
  2
*D15
  0
BLOCK_RECORD
  5
230
100
AcDbSymbolTableRecord
100
AcDbBlockTableRecord
  2
*D16
  0
BLOCK_RECORD
  5
231
100
AcDbSymbolTableRecord
100
AcDbBlockTableRecord
  2
*D17
  0
BLOCK_RECORD
  5
232
100
AcDbSymbolTableRecord
100
AcDbBlockTableRecord
  2
*D18
  0
BLOCK_RECORD
  5
233
100
AcDbSymbolTableRecord
100
AcDbBlockTableRecord
  2
*D19
  0
BLOCK_RECORD
  5
234
100
AcDbSymbolTableRecord
100
AcDbBlockTableRecord
  2
*D20
  0
BLOCK_RECORD
  5
235
100
AcDbSymbolTableRecord
100
AcDbBlockTableRecord
  2
*D21
  0
BLOCK_RECORD
  5
236
100
AcDbSymbolTableRecord
100
AcDbBlockTableRecord
  2
*D22
  0
BLOCK_RECORD
  5
237
100
AcDbSymbolTableRecord
100
AcDbBlockTableRecord
  2
*D23
  0
BLOCK_RECORD
  5
238
100
AcDbSymbolTableRecord
100
AcDbBlockTableRecord
  2
*D24
  0
BLOCK_RECORD
  5
239
100
AcDbSymbolTableRecord
100
AcDbBlockTableRecord
  2
*D25
  0
BLOCK_RECORD
  5
23A
100
AcDbSymbolTableRecord
100
AcDbBlockTableRecord
  2
*D26
  0
BLOCK_RECORD
  5
23B
100
AcDbSymbolTableRecord
100
AcDbBlockTableRecord
  2
*D27
  0
BLOCK_RECORD
  5
23C
100
AcDbSymbolTableRecord
100
AcDbBlockTableRecord
  2
*D28
  0
BLOCK_RECORD
  5
23D
100
AcDbSymbolTableRecord
100
AcDbBlockTableRecord
  2
SYMBOL_0_BL17
  0
BLOCK_RECORD
  5
23E
100
AcDbSymbolTableRecord
100
AcDbBlockTableRecord
  2
HATCHING_BL0
  0
BLOCK_RECORD
  5
23F
100
AcDbSymbolTableRecord
100
AcDbBlockTableRecord
  2
94820009L00_BL1
  0
BLOCK_RECORD
  5
240
100
AcDbSymbolTableRecord
100
AcDbBlockTableRecord
  2
93773508000_O_BL2
  0
BLOCK_RECORD
  5
241
100
AcDbSymbolTableRecord
100
AcDbBlockTableRecord
  2
94818605L00_BL3
  0
BLOCK_RECORD
  5
242
100
AcDbSymbolTableRecord
100
AcDbBlockTableRecord
  2
94528905000_M_BL4
  0
BLOCK_RECORD
  5
243
100
AcDbSymbolTableRecord
100
AcDbBlockTableRecord
  2
94529001000_BL5
  0
BLOCK_RECORD
  5
244
100
AcDbSymbolTableRecord
100
AcDbBlockTableRecord
  2
94673901000_BL6
  0
BLOCK_RECORD
  5
245
100
AcDbSymbolTableRecord
100
AcDbBlockTableRecord
  2
94528905000_M_BL7
  0
BLOCK_RECORD
  5
246
100
AcDbSymbolTableRecord
100
AcDbBlockTableRecord
  2
94673901000_BL8
  0
BLOCK_RECORD
  5
247
100
AcDbSymbolTableRecord
100
AcDbBlockTableRecord
  2
94529001000_BL9
  0
BLOCK_RECORD
  5
248
100
AcDbSymbolTableRecord
100
AcDbBlockTableRecord
  2
94528905000_M_BL10
  0
BLOCK_RECORD
  5
249
100
AcDbSymbolTableRecord
100
AcDbBlockTableRecord
  2
94528905000_M_BL11
  0
BLOCK_RECORD
  5
24A
100
AcDbSymbolTableRecord
100
AcDbBlockTableRecord
  2
93794908000_BL12
  0
BLOCK_RECORD
  5
24B
100
AcDbSymbolTableRecord
100
AcDbBlockTableRecord
  2
93794908000_BL13
  0
BLOCK_RECORD
  5
24C
100
AcDbSymbolTableRecord
100
AcDbBlockTableRecord
  2
93773508000_O_BL14
  0
BLOCK_RECORD
  5
24D
100
AcDbSymbolTableRecord
100
AcDbBlockTableRecord
  2
93782708000_BL15
  0
BLOCK_RECORD
  5
24E
100
AcDbSymbolTableRecord
100
AcDbBlockTableRecord
  2
91511100000_BL16
  0
ENDTAB
  0
TABLE
  2
DIMSTYLE
  5
A
100
AcDbSymbolTable
 70
1
100
AcDbDimStyleTable
 71
0
  0
DIMSTYLE
105
24F
100
AcDbSymbolTableRecord
100
AcDbDimStyleTableRecord
  2
STANDARD
 70
0
  3

  4

 40
1.0
 41
3.5
 42
0.0
 43
0.38
 44
1.0
 45
0.0
 46
0.0
 47
0.001
 48
0.001
140
2.5
141
0.09
142
0.0
143
25.4
144
1.0
145
0.0
146
1.0
147
0.625
 71
1.0
 72
0.0
 73
0
 74
0
 75
0
 76
0
 77
1
 78
8
170
0
171
2
172
0
173
0
174
0
175
0
176
0
177
0
178
5
270
2
271
3
272
3
273
2
274
2
275
0
280
0
281
0
282
0
283
1
284
8
285
0
286
0
287
3
288
0
340
11
278
46
341
21E
342
21E
343
21E
344
21E
  0
DIMSTYLE
105
250
100
AcDbSymbolTableRecord
100
AcDbDimStyleTableRecord
  2
DIMSTYLE_1
 70
0
  3

  4

 40
1.0
 41
3.5
 42
0.0
 43
0.38
 44
1.0
 45
0.0
 46
0.0
 47
0.2
 48
0.2
140
2.5
141
0.09
142
0.0
143
25.4
144
1.0
145
0.0
146
1.0
147
0.625
 71
0.0
 72
0.0
 73
0
 74
0
 75
0
 76
0
 77
1
 78
8
170
0
171
2
172
0
173
0
174
0
175
0
176
0
177
0
178
5
270
2
271
3
272
3
273
2
274
2
275
0
280
0
281
0
282
0
283
1
284
8
285
0
286
0
287
3
288
0
340
11
278
46
341
21E
342
21E
343
21E
344
21E
  0
DIMSTYLE
105
251
100
AcDbSymbolTableRecord
100
AcDbDimStyleTableRecord
  2
DIMSTYLE_2
 70
0
  3

  4

 40
1.0
 41
3.5
 42
0.0
 43
0.38
 44
1.0
 45
0.0
 46
0.0
 47
0.1
 48
0.1
140
2.5
141
0.09
142
0.0
143
25.4
144
1.0
145
0.0
146
1.0
147
0.625
 71
0.0
 72
0.0
 73
0
 74
0
 75
0
 76
0
 77
1
 78
8
170
0
171
2
172
0
173
0
174
0
175
0
176
0
177
0
178
5
270
2
271
3
272
3
273
2
274
2
275
0
280
0
281
0
282
0
283
1
284
8
285
0
286
0
287
3
288
0
340
11
278
46
341
21E
342
21E
343
21E
344
21E
  0
DIMSTYLE
105
252
100
AcDbSymbolTableRecord
100
AcDbDimStyleTableRecord
  2
DIMSTYLE_3
 70
0
  3

  4

 40
1.0
 41
3.5
 42
0.0
 43
0.38
 44
1.0
 45
0.0
 46
0.0
 47
1.2
 48
1.2
140
2.5
141
0.09
142
0.0
143
25.4
144
1.0
145
0.0
146
1.0
147
0.625
 71
0.0
 72
0.0
 73
0
 74
0
 75
0
 76
0
 77
1
 78
8
170
0
171
2
172
0
173
0
174
0
175
0
176
0
177
0
178
5
270
2
271
3
272
3
273
2
274
2
275
0
280
0
281
0
282
0
283
1
284
8
285
0
286
0
287
3
288
0
340
11
278
46
341
21E
342
21E
343
21E
344
21E
  0
DIMSTYLE
105
253
100
AcDbSymbolTableRecord
100
AcDbDimStyleTableRecord
  2
DIMSTYLE_4
 70
0
  3

  4

 40
1.0
 41
3.5
 42
0.0
 43
0.38
 44
1.0
 45
0.0
 46
0.0
 47
0.3
 48
0.3
140
2.5
141
0.09
142
0.0
143
25.4
144
1.0
145
0.0
146
1.0
147
0.625
 71
0.0
 72
0.0
 73
0
 74
0
 75
0
 76
0
 77
1
 78
8
170
0
171
2
172
0
173
0
174
0
175
0
176
0
177
0
178
5
270
2
271
3
272
3
273
2
274
2
275
0
280
0
281
0
282
0
283
1
284
8
285
0
286
0
287
3
288
0
340
11
278
46
341
21E
342
21E
343
21E
344
21E
  0
DIMSTYLE
105
254
100
AcDbSymbolTableRecord
100
AcDbDimStyleTableRecord
  2
DIMSTYLE_5
 70
0
  3

  4

 40
1.0
 41
3.5
 42
0.0
 43
0.38
 44
1.0
 45
0.0
 46
0.0
 47
0.8
 48
0.8
140
2.5
141
0.09
142
0.0
143
25.4
144
1.0
145
0.0
146
1.0
147
0.625
 71
0.0
 72
0.0
 73
0
 74
0
 75
0
 76
0
 77
1
 78
8
170
0
171
2
172
0
173
0
174
0
175
0
176
0
177
0
178
5
270
2
271
3
272
3
273
2
274
2
275
0
280
0
281
0
282
0
283
1
284
8
285
0
286
0
287
3
288
0
340
11
278
46
341
21E
342
21E
343
21E
344
21E
  0
DIMSTYLE
105
255
100
AcDbSymbolTableRecord
100
AcDbDimStyleTableRecord
  2
DIMSTYLE_6
 70
0
  3

  4

 40
1.0
 41
3.5
 42
0.0
 43
0.38
 44
1.0
 45
0.0
 46
0.0
 47
0.5
 48
0.5
140
2.5
141
0.09
142
0.0
143
25.4
144
1.0
145
0.0
146
1.0
147
0.625
 71
0.0
 72
0.0
 73
0
 74
0
 75
0
 76
0
 77
1
 78
8
170
0
171
2
172
0
173
0
174
0
175
0
176
0
177
0
178
5
270
2
271
3
272
3
273
2
274
2
275
0
280
0
281
0
282
0
283
1
284
8
285
0
286
0
287
3
288
0
340
11
278
46
341
21E
342
21E
343
21E
344
21E
  0
ENDTAB
  0
ENDSEC
  0
SECTION
  2
BLOCKS
  0
BLOCK
  5
20
100
AcDbEntity
  8
0
100
AcDbBlockBegin
  2
*Model_Space
 70
0
 10
0.0
 20
0.0
 30
0.0
  3
*Model_Space
  1

  0
ENDBLK
  5
21
100
AcDbEntity
  8
0
100
AcDbBlockEnd
  0
BLOCK
  5
1C
100
AcDbEntity
  8
0
100
AcDbBlockBegin
  2
*Paper_Space
 70
0
 10
0.0
 20
0.0
 30
0.0
  3
*Paper_Space
  1

  0
ENDBLK
  5
1D
100
AcDbEntity
  8
0
100
AcDbBlockEnd
  0
BLOCK
  5
256
100
AcDbEntity
  8
0
100
AcDbBlockBegin
 62
2
  6
CONTINUOUS
  2
SYMBOL_0_BL17
 70
64
 10
31.0000000239
 20
34.9999999785
  3
SYMBOL_0_BL17
  1

  0
TEXT
  5
257
100
AcDbEntity
  8
0
100
AcDbText
 62
5
  6
CONTINUOUS
 10
11.6434778505
 20
32.1908716548
  7
TEXTSTYLE_2
 40
4.0
  1
K-19731-04-L
 72
5
 11
46.409277107
 21
32.1908716548
100
AcDbText
  0
TEXT
  5
258
100
AcDbEntity
  8
0
100
AcDbText
 62
5
  6
CONTINUOUS
 10
10.9089559916
 20
24.1776342906
  7
STANDARD
 40
2.5
  1
Scale
 72
5
 11
19.6357217908
 21
24.1776342906
100
AcDbText
  0
TEXT
  5
259
100
AcDbEntity
  8
0
100
AcDbText
 62
5
  6
CONTINUOUS
 10
10.9089559916
 20
20.4276342906
  7
STANDARD
 40
2.5
  1
1:1
 72
5
 11
15.7602571068
 21
20.4276342906
100
AcDbText
  0
TEXT
  5
25A
100
AcDbEntity
  8
0
100
AcDbText
 62
5
  6
CONTINUOUS
 10
10.9089559916
 20
13.0518233866
  7
STANDARD
 40
2.5
  1
Draft
 72
5
 11
18.4647180733
 21
13.0518233866
100
AcDbText
  0
TEXT
  5
25B
100
AcDbEntity
  8
0
100
AcDbText
 62
5
  6
CONTINUOUS
 10
23.3811982505
 20
13.113338109
  7
STANDARD
 40
2.5
  1
13.04.2017
 72
5
 11
40.8533172096
 21
13.113338109
100
AcDbText
  0
TEXT
  5
25C
100
AcDbEntity
  8
0
100
AcDbText
 62
5
  6
CONTINUOUS
 10
45.71759366
 20
13.1067461609
  7
STANDARD
 40
2.5
  1
Dr
 72
5
 11
49.435065779
 21
13.1067461609
100
AcDbText
  0
LINE
  5
25D
100
AcDbEntity
  8
0
100
AcDbLine
 62
2
  6
CONTINUOUS
 10
10.0000000239
 20
59.9999999785
 11
52.0000000239
 21
59.9999999785
  0
LINE
  5
25E
100
AcDbEntity
  8
0
100
AcDbLine
 62
2
  6
CONTINUOUS
 10
52.0000000239
 20
59.9999999785
 11
52.0000000239
 21
9.9999999785
  0
LINE
  5
25F
100
AcDbEntity
  8
0
100
AcDbLine
 62
2
  6
CONTINUOUS
 10
10.0000000239
 20
9.9999999785
 11
52.0000000239
 21
9.9999999785
  0
LINE
  5
260
100
AcDbEntity
  8
0
100
AcDbLine
 62
2
  6
CONTINUOUS
 10
10.0000000239
 20
39.9999999785
 11
21.0000000239
 21
39.9999999785
  0
LINE
  5
261
100
AcDbEntity
  8
0
100
AcDbLine
 62
2
  6
CONTINUOUS
 10
10.0000000239
 20
27.9999999785
 11
21.0000000239
 21
27.9999999785
  0
LINE
  5
262
100
AcDbEntity
  8
0
100
AcDbLine
 62
2
  6
CONTINUOUS
 10
10.0000000239
 20
18.9999999785
 11
21.0000000239
 21
18.9999999785
  0
LINE
  5
263
100
AcDbEntity
  8
0
100
AcDbLine
 62
2
  6
CONTINUOUS
 10
21.0000000239
 20
39.9999999785
 11
43.0000000239
 21
39.9999999785
  0
LINE
  5
264
100
AcDbEntity
  8
0
100
AcDbLine
 62
2
  6
CONTINUOUS
 10
43.0000000239
 20
39.9999999785
 11
52.0000000239
 21
39.9999999785
  0
LINE
  5
265
100
AcDbEntity
  8
0
100
AcDbLine
 62
2
  6
CONTINUOUS
 10
21.0000000239
 20
27.9999999785
 11
43.0000000239
 21
27.9999999785
  0
LINE
  5
266
100
AcDbEntity
  8
0
100
AcDbLine
 62
2
  6
CONTINUOUS
 10
43.0000000239
 20
27.9999999785
 11
52.0000000239
 21
27.9999999785
  0
LINE
  5
267
100
AcDbEntity
  8
0
100
AcDbLine
 62
2
  6
CONTINUOUS
 10
21.0000000239
 20
18.9999999785
 11
21.0000000239
 21
9.9999999785
  0
LINE
  5
268
100
AcDbEntity
  8
0
100
AcDbLine
 62
2
  6
CONTINUOUS
 10
21.0000000239
 20
18.9999999785
 11
43.0000000239
 21
18.9999999785
  0
LINE
  5
269
100
AcDbEntity
  8
0
100
AcDbLine
 62
2
  6
CONTINUOUS
 10
43.0000000239
 20
18.9999999785
 11
43.0000000239
 21
9.9999999785
  0
LINE
  5
26A
100
AcDbEntity
  8
0
100
AcDbLine
 62
2
  6
CONTINUOUS
 10
43.0000000239
 20
18.9999999785
 11
52.0000000239
 21
18.9999999785
  0
LINE
  5
26B
100
AcDbEntity
  8
0
100
AcDbLine
 62
2
  6
CONTINUOUS
 10
10.0000000239
 20
9.9999999785
 11
10.0000000239
 21
59.9999999785
  0
ARC
  5
26C
100
AcDbEntity
  8
0
100
AcDbCircle
 62
2
  6
CONTINUOUS
 10
17.6290122978
 20
56.1308274644
 40
1.2679261569
100
AcDbArc
 50
90.0
 51
180.0
  0
LINE
  5
26D
100
AcDbEntity
  8
0
100
AcDbLine
 62
2
  6
CONTINUOUS
 10
17.6290122978
 20
57.3987536213
 11
44.0849627663
 21
57.3987536213
  0
ARC
  5
26E
100
AcDbEntity
  8
0
100
AcDbCircle
 62
2
  6
CONTINUOUS
 10
44.0849627663
 20
56.1308274644
 40
1.2679261569
100
AcDbArc
 50
0.0
 51
90.0
  0
LINE
  5
26F
100
AcDbEntity
  8
0
100
AcDbLine
 62
2
  6
CONTINUOUS
 10
45.3528889231
 20
56.1308274644
 11
45.3528889231
 21
43.6666783678
  0
ARC
  5
270
100
AcDbEntity
  8
0
100
AcDbCircle
 62
2
  6
CONTINUOUS
 10
44.0849627663
 20
43.6666783678
 40
1.2679261569
100
AcDbArc
 50
270.0
 51
360.0
  0
LINE
  5
271
100
AcDbEntity
  8
0
100
AcDbLine
 62
2
  6
CONTINUOUS
 10
44.0849627663
 20
42.3987522109
 11
17.6290122978
 21
42.3987522109
  0
ARC
  5
272
100
AcDbEntity
  8
0
100
AcDbCircle
 62
2
  6
CONTINUOUS
 10
17.6290122978
 20
43.6666783678
 40
1.2679261569
100
AcDbArc
 50
180.0
 51
270.0
  0
LINE
  5
273
100
AcDbEntity
  8
0
100
AcDbLine
 62
2
  6
CONTINUOUS
 10
16.3610861409
 20
43.6666783678
 11
16.3610861409
 21
56.1308274644
  0
ARC
  5
274
100
AcDbEntity
  8
0
100
AcDbCircle
 62
2
  6
CONTINUOUS
 10
25.0981141224
 20
49.7181091975
 40
2.8108394023
100
AcDbArc
 50
35.2282226131
 51
336.934010569
  0
LINE
  5
275
100
AcDbEntity
  8
0
100
AcDbLine
 62
2
  6
CONTINUOUS
 10
27.3941788183
 20
51.3394990511
 11
29.5865173301
 21
52.961744213
  0
ARC
  5
276
100
AcDbEntity
  8
0
100
AcDbCircle
 62
2
  6
CONTINUOUS
 10
25.0981141224
 20
49.7181091975
 40
5.5377731507
100
AcDbArc
 50
35.8545159817
 51
11.4705154501
  0
LINE
  5
277
100
AcDbEntity
  8
0
100
AcDbLine
 62
2
  6
CONTINUOUS
 10
30.5252822719
 20
50.8193709036
 11
25.2029961896
 21
50.8193709036
  0
ARC
  5
278
100
AcDbEntity
  8
0
100
AcDbCircle
 62
2
  6
CONTINUOUS
 10
25.2029961896
 20
49.7181091975
 40
1.1012617061
100
AcDbArc
 50
90.0
 51
270.0
  0
LINE
  5
279
100
AcDbEntity
  8
0
100
AcDbLine
 62
2
  6
CONTINUOUS
 10
25.2029961896
 20
48.6168474914
 11
27.6842387906
 21
48.6168474914
  0
ARC
  5
27A
100
AcDbEntity
  8
0
100
AcDbCircle
 62
2
  6
CONTINUOUS
 10
25.2029961896
 20
49.7181091975
 40
5.9153485927
100
AcDbArc
 50
349.2706340045
 51
10.7293659955
  0
LINE
  5
27B
100
AcDbEntity
  8
0
100
AcDbLine
 62
2
  6
CONTINUOUS
 10
31.014929743
 20
48.6168474914
 11
32.8593870987
 21
48.6168474914
  0
LINE
  5
27C
100
AcDbEntity
  8
0
100
AcDbLine
 62
2
  6
CONTINUOUS
 10
32.8593870987
 20
48.6168474914
 11
32.8593870987
 21
48.0399961216
  0
ARC
  5
27D
100
AcDbEntity
  8
0
100
AcDbCircle
 62
2
  6
CONTINUOUS
 10
36.7610000003
 20
48.0399961216
 40
3.9016129016
100
AcDbArc
 50
180.0
 51
360.0
  0
LINE
  5
27E
100
AcDbEntity
  8
0
100
AcDbLine
 62
2
  6
CONTINUOUS
 10
40.6626129019
 20
48.0399961216
 11
40.6626129019
 21
54.9622125599
  0
LINE
  5
27F
100
AcDbEntity
  8
0
100
AcDbLine
 62
2
  6
CONTINUOUS
 10
40.6626129019
 20
54.9622125599
 11
37.9356791535
 21
54.9622125599
  0
LINE
  5
280
100
AcDbEntity
  8
0
100
AcDbLine
 62
2
  6
CONTINUOUS
 10
37.9356791535
 20
54.9622125599
 11
37.9356791535
 21
48.0399961216
  0
ARC
  5
281
100
AcDbEntity
  8
0
100
AcDbCircle
 62
2
  6
CONTINUOUS
 10
36.7610000003
 20
48.0399961216
 40
1.1746791532
100
AcDbArc
 50
180.0
 51
360.0
  0
LINE
  5
282
100
AcDbEntity
  8
0
100
AcDbLine
 62
2
  6
CONTINUOUS
 10
35.5863208471
 20
48.0399961216
 11
35.5863208471
 21
54.9622125599
  0
LINE
  5
283
100
AcDbEntity
  8
0
100
AcDbLine
 62
2
  6
CONTINUOUS
 10
35.5863208471
 20
54.9622125599
 11
32.8593870987
 21
54.9622125599
  0
LINE
  5
284
100
AcDbEntity
  8
0
100
AcDbLine
 62
2
  6
CONTINUOUS
 10
32.8593870987
 20
54.9622125599
 11
32.8593870987
 21
50.8193709036
  0
LINE
  5
285
100
AcDbEntity
  8
0
100
AcDbLine
 62
2
  6
CONTINUOUS
 10
32.8593870987
 20
50.8193709036
 11
31.014929743
 21
50.8193709036
  0
LINE
  5
286
100
AcDbEntity
  8
0
100
AcDbLine
 62
2
  6
CONTINUOUS
 10
45.1996126437
 20
56.7334185992
 11
45.2185459944
 21
56.6972621935
  0
LWPOLYLINE
  5
287
100
AcDbEntity
  8
0
100
AcDbPolyline
 62
2
  6
CONTINUOUS
 90
42
 70
0
 10
17.4964779251
 20
57.3918123624
 10
17.6290122978
 20
57.398757363
 10
44.0849627663
 20
57.398757363
 10
44.217497139
 20
57.3918123624
 10
44.3485794374
 20
57.3710523604
 10
44.4767734964
 20
57.3367023572
 10
44.600674795
 20
57.2891373527
 10
44.7189258447
 20
57.2288823471
 10
44.8302310623
 20
57.1565973403
 10
44.9333709645
 20
57.0730773324
 10
45.0272155289
 20
56.9792373236
 10
45.1107365748
 20
56.8760973139
 10
45.1830190283
 20
56.7647973034
 10
45.2432709475
 20
56.6465372923
 10
45.2908322
 20
56.5226372807
 10
45.3251816945
 20
56.3944472686
 10
45.345943091
 20
56.2633622563
 10
45.3528889232
 20
56.1308222438
 10
24.5102931399
 20
55.2245960958
 10
23.6929701738
 20
55.0746474408
 10
22.9072856488
 20
54.8040901322
 10
22.1709301607
 20
54.4190160805
 10
21.5004836049
 20
53.9280956735
 10
20.9110418611
 20
53.3423825519
 10
20.4158768919
 20
52.6750647241
 10
20.0261379092
 20
51.9411676226
 10
16.3610861409
 20
43.6666760719
 10
16.3610861409
 20
56.1308222438
 10
16.368031973
 20
56.2633622563
 10
16.3887933695
 20
56.3944472686
 10
16.4231428641
 20
56.5226372807
 10
16.4707041165
 20
56.6465372923
 10
16.5309560358
 20
56.7647973034
 10
16.6032384892
 20
56.8760973139
 10
16.6867595352
 20
56.9792373236
 10
16.7806040996
 20
57.0730773324
 10
16.8837440018
 20
57.1565973403
 10
16.9950492193
 20
57.2288823471
 10
17.113300269
 20
57.2891373527
 10
17.2372015677
 20
57.3367023572
 10
17.3653956267
 20
57.3710523604
 10
17.4964779251
 20
57.3918123624
  0
HATCH
  5
288
100
AcDbEntity
  8
0
100
AcDbHatch
 62
2
  6
CONTINUOUS
 10
0.0
 20
0.0
 30
0.0
210
0.0
220
0.0
230
1.0
  2
SOLID
 70
1
 71
1
 91
1
 92
1
 93
41
 72
1
 10
17.4964779251
 20
57.3918123624
 11
17.6290122978
 21
57.398757363
 72
1
 10
17.6290122978
 20
57.398757363
 11
44.0849627663
 21
57.398757363
 72
1
 10
44.0849627663
 20
57.398757363
 11
44.217497139
 21
57.3918123624
 72
1
 10
44.217497139
 20
57.3918123624
 11
44.3485794374
 21
57.3710523604
 72
1
 10
44.3485794374
 20
57.3710523604
 11
44.4767734964
 21
57.3367023572
 72
1
 10
44.4767734964
 20
57.3367023572
 11
44.600674795
 21
57.2891373527
 72
1
 10
44.600674795
 20
57.2891373527
 11
44.7189258447
 21
57.2288823471
 72
1
 10
44.7189258447
 20
57.2288823471
 11
44.8302310623
 21
57.1565973403
 72
1
 10
44.8302310623
 20
57.1565973403
 11
44.9333709645
 21
57.0730773324
 72
1
 10
44.9333709645
 20
57.0730773324
 11
45.0272155289
 21
56.9792373236
 72
1
 10
45.0272155289
 20
56.9792373236
 11
45.1107365748
 21
56.8760973139
 72
1
 10
45.1107365748
 20
56.8760973139
 11
45.1830190283
 21
56.7647973034
 72
1
 10
45.1830190283
 20
56.7647973034
 11
45.2432709475
 21
56.6465372923
 72
1
 10
45.2432709475
 20
56.6465372923
 11
45.2908322
 21
56.5226372807
 72
1
 10
45.2908322
 20
56.5226372807
 11
45.3251816945
 21
56.3944472686
 72
1
 10
45.3251816945
 20
56.3944472686
 11
45.345943091
 21
56.2633622563
 72
1
 10
45.345943091
 20
56.2633622563
 11
45.3528889232
 21
56.1308222438
 72
1
 10
45.3528889232
 20
56.1308222438
 11
24.5102931399
 21
55.2245960958
 72
1
 10
24.5102931399
 20
55.2245960958
 11
23.6929701738
 21
55.0746474408
 72
1
 10
23.6929701738
 20
55.0746474408
 11
22.9072856488
 21
54.8040901322
 72
1
 10
22.9072856488
 20
54.8040901322
 11
22.1709301607
 21
54.4190160805
 72
1
 10
22.1709301607
 20
54.4190160805
 11
21.5004836049
 21
53.9280956735
 72
1
 10
21.5004836049
 20
53.9280956735
 11
20.9110418611
 21
53.3423825519
 72
1
 10
20.9110418611
 20
53.3423825519
 11
20.4158768919
 21
52.6750647241
 72
1
 10
20.4158768919
 20
52.6750647241
 11
20.0261379092
 21
51.9411676226
 72
1
 10
20.0261379092
 20
51.9411676226
 11
16.3610861409
 21
43.6666760719
 72
1
 10
16.3610861409
 20
43.6666760719
 11
16.3610861409
 21
56.1308222438
 72
1
 10
16.3610861409
 20
56.1308222438
 11
16.368031973
 21
56.2633622563
 72
1
 10
16.368031973
 20
56.2633622563
 11
16.3887933695
 21
56.3944472686
 72
1
 10
16.3887933695
 20
56.3944472686
 11
16.4231428641
 21
56.5226372807
 72
1
 10
16.4231428641
 20
56.5226372807
 11
16.4707041165
 21
56.6465372923
 72
1
 10
16.4707041165
 20
56.6465372923
 11
16.5309560358
 21
56.7647973034
 72
1
 10
16.5309560358
 20
56.7647973034
 11
16.6032384892
 21
56.8760973139
 72
1
 10
16.6032384892
 20
56.8760973139
 11
16.6867595352
 21
56.9792373236
 72
1
 10
16.6867595352
 20
56.9792373236
 11
16.7806040996
 21
57.0730773324
 72
1
 10
16.7806040996
 20
57.0730773324
 11
16.8837440018
 21
57.1565973403
 72
1
 10
16.8837440018
 20
57.1565973403
 11
16.9950492193
 21
57.2288823471
 72
1
 10
16.9950492193
 20
57.2288823471
 11
17.113300269
 21
57.2891373527
 72
1
 10
17.113300269
 20
57.2891373527
 11
17.2372015677
 21
57.3367023572
 72
1
 10
17.2372015677
 20
57.3367023572
 11
17.3653956267
 21
57.3710523604
 72
1
 10
17.3653956267
 20
57.3710523604
 11
17.4964779251
 21
57.3918123624
 97
1
330
287
 75
0
 76
1
 98
1
 10
0.0
 20
0.0
  0
LWPOLYLINE
  5
289
100
AcDbEntity
  8
0
100
AcDbPolyline
 62
2
  6
CONTINUOUS
 90
23
 70
0
 10
26.9669939813
 20
54.9309989471
 10
26.1659444963
 20
55.151954039
 10
45.3528889232
 20
56.1308222438
 10
45.3528889231
 20
43.6666760719
 10
40.1398958888
 20
46.0891912997
 10
40.3656203039
 20
46.5469163427
 10
40.5296686661
 20
47.0301863881
 10
40.6292340626
 20
47.5307364352
 10
40.6626129019
 20
48.0400014831
 10
40.6626129019
 20
54.9622171339
 10
37.9356791535
 20
54.9622171339
 10
35.5863208471
 20
54.9622171339
 10
32.8593870987
 20
54.9622171339
 10
32.8593870987
 20
50.8193667444
 10
31.0149297429
 20
50.8193667444
 10
30.6289655903
 20
49.9949006497
 10
30.5252822719
 20
50.8193667444
 10
27.3941788183
 20
51.3394990511
 10
29.5865173301
 20
52.961744213
 10
29.0506384437
 20
53.5968310176
 10
28.425763901
 20
54.1445839144
 10
27.7259634749
 20
54.5926696135
 10
26.9669939813
 20
54.9309989471
  0
HATCH
  5
28A
100
AcDbEntity
  8
0
100
AcDbHatch
 62
2
  6
CONTINUOUS
 10
0.0
 20
0.0
 30
0.0
210
0.0
220
0.0
230
1.0
  2
SOLID
 70
1
 71
1
 91
1
 92
1
 93
22
 72
1
 10
26.9669939813
 20
54.9309989471
 11
26.1659444963
 21
55.151954039
 72
1
 10
26.1659444963
 20
55.151954039
 11
45.3528889232
 21
56.1308222438
 72
1
 10
45.3528889232
 20
56.1308222438
 11
45.3528889231
 21
43.6666760719
 72
1
 10
45.3528889231
 20
43.6666760719
 11
40.1398958888
 21
46.0891912997
 72
1
 10
40.1398958888
 20
46.0891912997
 11
40.3656203039
 21
46.5469163427
 72
1
 10
40.3656203039
 20
46.5469163427
 11
40.5296686661
 21
47.0301863881
 72
1
 10
40.5296686661
 20
47.0301863881
 11
40.6292340626
 21
47.5307364352
 72
1
 10
40.6292340626
 20
47.5307364352
 11
40.6626129019
 21
48.0400014831
 72
1
 10
40.6626129019
 20
48.0400014831
 11
40.6626129019
 21
54.9622171339
 72
1
 10
40.6626129019
 20
54.9622171339
 11
37.9356791535
 21
54.9622171339
 72
1
 10
37.9356791535
 20
54.9622171339
 11
35.5863208471
 21
54.9622171339
 72
1
 10
35.5863208471
 20
54.9622171339
 11
32.8593870987
 21
54.9622171339
 72
1
 10
32.8593870987
 20
54.9622171339
 11
32.8593870987
 21
50.8193667444
 72
1
 10
32.8593870987
 20
50.8193667444
 11
31.0149297429
 21
50.8193667444
 72
1
 10
31.0149297429
 20
50.8193667444
 11
30.6289655903
 21
49.9949006497
 72
1
 10
30.6289655903
 20
49.9949006497
 11
30.5252822719
 21
50.8193667444
 72
1
 10
30.5252822719
 20
50.8193667444
 11
27.3941788183
 21
51.3394990511
 72
1
 10
27.3941788183
 20
51.3394990511
 11
29.5865173301
 21
52.961744213
 72
1
 10
29.5865173301
 20
52.961744213
 11
29.0506384437
 21
53.5968310176
 72
1
 10
29.0506384437
 20
53.5968310176
 11
28.425763901
 21
54.1445839144
 72
1
 10
28.425763901
 20
54.1445839144
 11
27.7259634749
 21
54.5926696135
 72
1
 10
27.7259634749
 20
54.5926696135
 11
26.9669939813
 21
54.9309989471
 97
1
330
289
 75
0
 76
1
 98
1
 10
0.0
 20
0.0
  0
LWPOLYLINE
  5
28B
100
AcDbEntity
  8
0
100
AcDbPolyline
 62
2
  6
CONTINUOUS
 90
20
 70
0
 10
24.5005684601
 20
52.4646993247
 10
24.9072650814
 20
52.5224620264
 10
25.3180376874
 20
52.5203318459
 10
25.7241133608
 20
52.4583542776
 10
26.1168194973
 20
52.3378529835
 10
26.4877690273
 20
52.1614015236
 10
26.8290395394
 20
51.9327683916
 10
27.1333424806
 20
51.6568365314
 10
27.3941788183
 20
51.3394990511
 10
30.5252822719
 20
50.8193667444
 10
25.2029961896
 20
50.8193667444
 10
25.0592526925
 20
50.8099494571
 10
22.4413895628
 20
50.6360595011
 10
22.6035508656
 20
51.0134749
 10
22.8189888395
 20
51.3632250264
 10
23.0831023513
 20
51.6778402269
 10
23.3902506985
 20
51.9506012291
 10
23.7338740791
 20
52.175682645
 10
24.1066336894
 20
52.3482773854
 10
24.5005684601
 20
52.4646993247
  0
HATCH
  5
28C
100
AcDbEntity
  8
0
100
AcDbHatch
 62
2
  6
CONTINUOUS
 10
0.0
 20
0.0
 30
0.0
210
0.0
220
0.0
230
1.0
  2
SOLID
 70
1
 71
1
 91
1
 92
1
 93
19
 72
1
 10
24.5005684601
 20
52.4646993247
 11
24.9072650814
 21
52.5224620264
 72
1
 10
24.9072650814
 20
52.5224620264
 11
25.3180376874
 21
52.5203318459
 72
1
 10
25.3180376874
 20
52.5203318459
 11
25.7241133608
 21
52.4583542776
 72
1
 10
25.7241133608
 20
52.4583542776
 11
26.1168194973
 21
52.3378529835
 72
1
 10
26.1168194973
 20
52.3378529835
 11
26.4877690273
 21
52.1614015236
 72
1
 10
26.4877690273
 20
52.1614015236
 11
26.8290395394
 21
51.9327683916
 72
1
 10
26.8290395394
 20
51.9327683916
 11
27.1333424806
 21
51.6568365314
 72
1
 10
27.1333424806
 20
51.6568365314
 11
27.3941788183
 21
51.3394990511
 72
1
 10
27.3941788183
 20
51.3394990511
 11
30.5252822719
 21
50.8193667444
 72
1
 10
30.5252822719
 20
50.8193667444
 11
25.2029961896
 21
50.8193667444
 72
1
 10
25.2029961896
 20
50.8193667444
 11
25.0592526925
 21
50.8099494571
 72
1
 10
25.0592526925
 20
50.8099494571
 11
22.4413895628
 21
50.6360595011
 72
1
 10
22.4413895628
 20
50.6360595011
 11
22.6035508656
 21
51.0134749
 72
1
 10
22.6035508656
 20
51.0134749
 11
22.8189888395
 21
51.3632250264
 72
1
 10
22.8189888395
 20
51.3632250264
 11
23.0831023513
 21
51.6778402269
 72
1
 10
23.0831023513
 20
51.6778402269
 11
23.3902506985
 21
51.9506012291
 72
1
 10
23.3902506985
 20
51.9506012291
 11
23.7338740791
 21
52.175682645
 72
1
 10
23.7338740791
 20
52.175682645
 11
24.1066336894
 21
52.3482773854
 72
1
 10
24.1066336894
 20
52.3482773854
 11
24.5005684601
 21
52.4646993247
 97
1
330
28B
 75
0
 76
1
 98
1
 10
0.0
 20
0.0
  0
LWPOLYLINE
  5
28D
100
AcDbEntity
  8
0
100
AcDbPolyline
 62
2
  6
CONTINUOUS
 90
8
 70
0
 10
24.6523653366
 20
50.6718298112
 10
24.5325905397
 20
50.5917988506
 10
22.3359682285
 20
50.2390393331
 10
22.4413895628
 20
50.6360595011
 10
25.0592526925
 20
50.8099494571
 10
24.9179686864
 20
50.7818463209
 10
24.78156158
 20
50.7355423477
 10
24.6523653366
 20
50.6718298112
  0
HATCH
  5
28E
100
AcDbEntity
  8
0
100
AcDbHatch
 62
2
  6
CONTINUOUS
 10
0.0
 20
0.0
 30
0.0
210
0.0
220
0.0
230
1.0
  2
SOLID
 70
1
 71
1
 91
1
 92
1
 93
7
 72
1
 10
24.6523653366
 20
50.6718298112
 11
24.5325905397
 21
50.5917988506
 72
1
 10
24.5325905397
 20
50.5917988506
 11
22.3359682285
 21
50.2390393331
 72
1
 10
22.3359682285
 20
50.2390393331
 11
22.4413895628
 21
50.6360595011
 72
1
 10
22.4413895628
 20
50.6360595011
 11
25.0592526925
 21
50.8099494571
 72
1
 10
25.0592526925
 20
50.8099494571
 11
24.9179686864
 21
50.7818463209
 72
1
 10
24.9179686864
 20
50.7818463209
 11
24.78156158
 21
50.7355423477
 72
1
 10
24.78156158
 20
50.7355423477
 11
24.6523653366
 21
50.6718298112
 97
1
330
28D
 75
0
 76
1
 98
1
 10
0.0
 20
0.0
  0
LWPOLYLINE
  5
28F
100
AcDbEntity
  8
0
100
AcDbPolyline
 62
2
  6
CONTINUOUS
 90
8
 70
0
 10
24.2492755759
 20
50.2687400506
 10
24.1855630394
 20
50.1395438071
 10
22.2895383581
 20
49.830893601
 10
22.3359682285
 20
50.2390393331
 10
24.5325905397
 20
50.5917988506
 10
24.4242865694
 20
50.4968188178
 10
24.3293065366
 20
50.3885148474
 10
24.2492755759
 20
50.2687400506
  0
HATCH
  5
290
100
AcDbEntity
  8
0
100
AcDbHatch
 62
2
  6
CONTINUOUS
 10
0.0
 20
0.0
 30
0.0
210
0.0
220
0.0
230
1.0
  2
SOLID
 70
1
 71
1
 91
1
 92
1
 93
7
 72
1
 10
24.2492755759
 20
50.2687400506
 11
24.1855630394
 21
50.1395438071
 72
1
 10
24.1855630394
 20
50.1395438071
 11
22.2895383581
 21
49.830893601
 72
1
 10
22.2895383581
 20
49.830893601
 11
22.3359682285
 21
50.2390393331
 72
1
 10
22.3359682285
 20
50.2390393331
 11
24.5325905397
 21
50.5917988506
 72
1
 10
24.5325905397
 20
50.5917988506
 11
24.4242865694
 21
50.4968188178
 72
1
 10
24.4242865694
 20
50.4968188178
 11
24.3293065366
 21
50.3885148474
 72
1
 10
24.3293065366
 20
50.3885148474
 11
24.2492755759
 21
50.2687400506
 97
1
330
28F
 75
0
 76
1
 98
1
 10
0.0
 20
0.0
  0
LWPOLYLINE
  5
291
100
AcDbEntity
  8
0
100
AcDbPolyline
 62
2
  6
CONTINUOUS
 90
7
 70
0
 10
31.0993048012
 20
50.1923388153
 10
31.1162282192
 20
49.8763366836
 10
30.6081153911
 20
49.1641981161
 10
30.6289655903
 20
49.9949006497
 10
31.0149297429
 20
50.8193667444
 10
31.0655063992
 20
50.5069837221
 10
31.0993048012
 20
50.1923388153
  0
HATCH
  5
292
100
AcDbEntity
  8
0
100
AcDbHatch
 62
2
  6
CONTINUOUS
 10
0.0
 20
0.0
 30
0.0
210
0.0
220
0.0
230
1.0
  2
SOLID
 70
1
 71
1
 91
1
 92
1
 93
6
 72
1
 10
31.0993048012
 20
50.1923388153
 11
31.1162282192
 21
49.8763366836
 72
1
 10
31.1162282192
 20
49.8763366836
 11
30.6081153911
 21
49.1641981161
 72
1
 10
30.6081153911
 20
49.1641981161
 11
30.6289655903
 21
49.9949006497
 72
1
 10
30.6289655903
 20
49.9949006497
 11
31.0149297429
 21
50.8193667444
 72
1
 10
31.0149297429
 20
50.8193667444
 11
31.0655063992
 21
50.5069837221
 72
1
 10
31.0655063992
 20
50.5069837221
 11
31.0993048012
 21
50.1923388153
 97
1
330
291
 75
0
 76
1
 98
1
 10
0.0
 20
0.0
  0
LWPOLYLINE
  5
293
100
AcDbEntity
  8
0
100
AcDbPolyline
 62
2
  6
CONTINUOUS
 90
7
 70
0
 10
24.1111559301
 20
49.8618526947
 10
24.1017344835
 20
49.7181091975
 10
22.3030915597
 20
49.4203391196
 10
22.2895383581
 20
49.830893601
 10
24.1855630394
 20
50.1395438071
 10
24.1392590662
 20
50.0031367007
 10
24.1111559301
 20
49.8618526947
  0
HATCH
  5
294
100
AcDbEntity
  8
0
100
AcDbHatch
 62
2
  6
CONTINUOUS
 10
0.0
 20
0.0
 30
0.0
210
0.0
220
0.0
230
1.0
  2
SOLID
 70
1
 71
1
 91
1
 92
1
 93
6
 72
1
 10
24.1111559301
 20
49.8618526947
 11
24.1017344835
 21
49.7181091975
 72
1
 10
24.1017344835
 20
49.7181091975
 11
22.3030915597
 21
49.4203391196
 72
1
 10
22.3030915597
 20
49.4203391196
 11
22.2895383581
 21
49.830893601
 72
1
 10
22.2895383581
 20
49.830893601
 11
24.1855630394
 21
50.1395438071
 72
1
 10
24.1855630394
 20
50.1395438071
 11
24.1392590662
 21
50.0031367007
 72
1
 10
24.1392590662
 20
50.0031367007
 11
24.1111559301
 21
49.8618526947
 97
1
330
293
 75
0
 76
1
 98
1
 10
0.0
 20
0.0
  0
LWPOLYLINE
  5
295
100
AcDbEntity
  8
0
100
AcDbPolyline
 62
2
  6
CONTINUOUS
 90
7
 70
0
 10
24.1392590662
 20
49.4330816944
 10
24.1855630394
 20
49.2966745879
 10
22.3763383759
 20
49.0161441476
 10
22.3030915597
 20
49.4203391196
 10
24.1017344835
 20
49.7181091975
 10
24.1111559301
 20
49.5743657004
 10
24.1392590662
 20
49.4330816944
  0
HATCH
  5
296
100
AcDbEntity
  8
0
100
AcDbHatch
 62
2
  6
CONTINUOUS
 10
0.0
 20
0.0
 30
0.0
210
0.0
220
0.0
230
1.0
  2
SOLID
 70
1
 71
1
 91
1
 92
1
 93
6
 72
1
 10
24.1392590662
 20
49.4330816944
 11
24.1855630394
 21
49.2966745879
 72
1
 10
24.1855630394
 20
49.2966745879
 11
22.3763383759
 21
49.0161441476
 72
1
 10
22.3763383759
 20
49.0161441476
 11
22.3030915597
 21
49.4203391196
 72
1
 10
22.3030915597
 20
49.4203391196
 11
24.1017344835
 21
49.7181091975
 72
1
 10
24.1017344835
 20
49.7181091975
 11
24.1111559301
 21
49.5743657004
 72
1
 10
24.1111559301
 20
49.5743657004
 11
24.1392590662
 21
49.4330816944
 97
1
330
295
 75
0
 76
1
 98
1
 10
0.0
 20
0.0
  0
LWPOLYLINE
  5
297
100
AcDbEntity
  8
0
100
AcDbPolyline
 62
2
  6
CONTINUOUS
 90
7
 70
0
 10
31.0993048012
 20
49.2438795798
 10
31.0655063992
 20
48.929234673
 10
30.4632011408
 20
48.3459675312
 10
30.6081153911
 20
49.1641981161
 10
31.1162282192
 20
49.8763366836
 10
31.1162282192
 20
49.5598817115
 10
31.0993048012
 20
49.2438795798
  0
HATCH
  5
298
100
AcDbEntity
  8
0
100
AcDbHatch
 62
2
  6
CONTINUOUS
 10
0.0
 20
0.0
 30
0.0
210
0.0
220
0.0
230
1.0
  2
SOLID
 70
1
 71
1
 91
1
 92
1
 93
6
 72
1
 10
31.0993048012
 20
49.2438795798
 11
31.0655063992
 21
48.929234673
 72
1
 10
31.0655063992
 20
48.929234673
 11
30.4632011408
 21
48.3459675312
 72
1
 10
30.4632011408
 20
48.3459675312
 11
30.6081153911
 21
49.1641981161
 72
1
 10
30.6081153911
 20
49.1641981161
 11
31.1162282192
 21
49.8763366836
 72
1
 10
31.1162282192
 20
49.8763366836
 11
31.1162282192
 21
49.5598817115
 72
1
 10
31.1162282192
 20
49.5598817115
 11
31.0993048012
 21
49.2438795798
 97
1
330
297
 75
0
 76
1
 98
1
 10
0.0
 20
0.0
  0
LWPOLYLINE
  5
299
100
AcDbEntity
  8
0
100
AcDbPolyline
 62
2
  6
CONTINUOUS
 90
7
 70
0
 10
24.3293065366
 20
49.0477035476
 10
24.4242865694
 20
48.9393995773
 10
22.5077144663
 20
48.6269411229
 10
22.3763383759
 20
49.0161441476
 10
24.1855630394
 20
49.2966745879
 10
24.2492755759
 20
49.1674783445
 10
24.3293065366
 20
49.0477035476
  0
HATCH
  5
29A
100
AcDbEntity
  8
0
100
AcDbHatch
 62
2
  6
CONTINUOUS
 10
0.0
 20
0.0
 30
0.0
210
0.0
220
0.0
230
1.0
  2
SOLID
 70
1
 71
1
 91
1
 92
1
 93
6
 72
1
 10
24.3293065366
 20
49.0477035476
 11
24.4242865694
 21
48.9393995773
 72
1
 10
24.4242865694
 20
48.9393995773
 11
22.5077144663
 21
48.6269411229
 72
1
 10
22.5077144663
 20
48.6269411229
 11
22.3763383759
 21
49.0161441476
 72
1
 10
22.3763383759
 20
49.0161441476
 11
24.1855630394
 21
49.2966745879
 72
1
 10
24.1855630394
 20
49.2966745879
 11
24.2492755759
 21
49.1674783445
 72
1
 10
24.2492755759
 20
49.1674783445
 11
24.3293065366
 21
49.0477035476
 97
1
330
299
 75
0
 76
1
 98
1
 10
0.0
 20
0.0
  0
LWPOLYLINE
  5
29B
100
AcDbEntity
  8
0
100
AcDbPolyline
 62
2
  6
CONTINUOUS
 90
9
 70
0
 10
24.9179686864
 20
48.6543720741
 10
25.0592526925
 20
48.626268938
 10
22.6944140166
 20
48.2610422989
 10
22.5077144663
 20
48.6269411229
 10
24.4242865694
 20
48.9393995773
 10
24.5325905397
 20
48.8444195445
 10
24.6523653366
 20
48.7643885839
 10
24.78156158
 20
48.7006760474
 10
24.9179686864
 20
48.6543720741
  0
HATCH
  5
29C
100
AcDbEntity
  8
0
100
AcDbHatch
 62
2
  6
CONTINUOUS
 10
0.0
 20
0.0
 30
0.0
210
0.0
220
0.0
230
1.0
  2
SOLID
 70
1
 71
1
 91
1
 92
1
 93
8
 72
1
 10
24.9179686864
 20
48.6543720741
 11
25.0592526925
 21
48.626268938
 72
1
 10
25.0592526925
 20
48.626268938
 11
22.6944140166
 21
48.2610422989
 72
1
 10
22.6944140166
 20
48.2610422989
 11
22.5077144663
 21
48.6269411229
 72
1
 10
22.5077144663
 20
48.6269411229
 11
24.4242865694
 21
48.9393995773
 72
1
 10
24.4242865694
 20
48.9393995773
 11
24.5325905397
 21
48.8444195445
 72
1
 10
24.5325905397
 20
48.8444195445
 11
24.6523653366
 21
48.7643885839
 72
1
 10
24.6523653366
 20
48.7643885839
 11
24.78156158
 21
48.7006760474
 72
1
 10
24.78156158
 20
48.7006760474
 11
24.9179686864
 21
48.6543720741
 97
1
330
29B
 75
0
 76
1
 98
1
 10
0.0
 20
0.0
  0
LWPOLYLINE
  5
29D
100
AcDbEntity
  8
0
100
AcDbPolyline
 62
2
  6
CONTINUOUS
 90
9
 70
0
 10
32.8593870987
 20
48.6168415373
 10
32.8593870987
 20
48.0400014831
 10
32.8927659379
 20
47.5307364352
 10
29.8169521117
 20
46.8199201942
 10
30.1974857512
 20
47.5586323028
 10
30.4632011408
 20
48.3459675312
 10
31.0655063992
 20
48.929234673
 10
31.0149297429
 20
48.6168415373
 10
32.8593870987
 20
48.6168415373
  0
HATCH
  5
29E
100
AcDbEntity
  8
0
100
AcDbHatch
 62
2
  6
CONTINUOUS
 10
0.0
 20
0.0
 30
0.0
210
0.0
220
0.0
230
1.0
  2
SOLID
 70
1
 71
1
 91
1
 92
1
 93
8
 72
1
 10
32.8593870987
 20
48.6168415373
 11
32.8593870987
 21
48.0400014831
 72
1
 10
32.8593870987
 20
48.0400014831
 11
32.8927659379
 21
47.5307364352
 72
1
 10
32.8927659379
 20
47.5307364352
 11
29.8169521117
 21
46.8199201942
 72
1
 10
29.8169521117
 20
46.8199201942
 11
30.1974857512
 21
47.5586323028
 72
1
 10
30.1974857512
 20
47.5586323028
 11
30.4632011408
 21
48.3459675312
 72
1
 10
30.4632011408
 20
48.3459675312
 11
31.0655063992
 21
48.929234673
 72
1
 10
31.0655063992
 20
48.929234673
 11
31.0149297429
 21
48.6168415373
 72
1
 10
31.0149297429
 20
48.6168415373
 11
32.8593870987
 21
48.6168415373
 97
1
330
29D
 75
0
 76
1
 98
1
 10
0.0
 20
0.0
  0
LWPOLYLINE
  5
29F
100
AcDbEntity
  8
0
100
AcDbPolyline
 62
2
  6
CONTINUOUS
 90
19
 70
0
 10
27.6842387906
 20
48.6168415373
 10
27.4961137435
 20
48.2516795326
 10
27.2567743458
 20
47.9178302789
 10
26.9713321963
 20
47.6224297867
 10
26.6458835153
 20
47.3717869581
 10
26.2873789475
 20
47.1712548002
 10
25.9034751155
 20
47.0251161014
 10
25.5023710973
 20
46.9364919623
 10
25.0926333168
 20
46.9072751387
 10
24.6830125906
 20
46.9380896178
 10
24.2822572349
 20
47.0282772912
 10
23.8989262276
 20
47.1759120104
 10
23.5412064125
 20
47.377840724
 10
23.2167376524
 20
47.6297508175
 10
22.9324496635
 20
47.9262622184
 10
22.6944140166
 20
48.2610422989
 10
25.0592526925
 20
48.626268938
 10
25.2029961896
 20
48.6168415373
 10
27.6842387906
 20
48.6168415373
  0
HATCH
  5
2A0
100
AcDbEntity
  8
0
100
AcDbHatch
 62
2
  6
CONTINUOUS
 10
0.0
 20
0.0
 30
0.0
210
0.0
220
0.0
230
1.0
  2
SOLID
 70
1
 71
1
 91
1
 92
1
 93
18
 72
1
 10
27.6842387906
 20
48.6168415373
 11
27.4961137435
 21
48.2516795326
 72
1
 10
27.4961137435
 20
48.2516795326
 11
27.2567743458
 21
47.9178302789
 72
1
 10
27.2567743458
 20
47.9178302789
 11
26.9713321963
 21
47.6224297867
 72
1
 10
26.9713321963
 20
47.6224297867
 11
26.6458835153
 21
47.3717869581
 72
1
 10
26.6458835153
 20
47.3717869581
 11
26.2873789475
 21
47.1712548002
 72
1
 10
26.2873789475
 20
47.1712548002
 11
25.9034751155
 21
47.0251161014
 72
1
 10
25.9034751155
 20
47.0251161014
 11
25.5023710973
 21
46.9364919623
 72
1
 10
25.5023710973
 20
46.9364919623
 11
25.0926333168
 21
46.9072751387
 72
1
 10
25.0926333168
 20
46.9072751387
 11
24.6830125906
 21
46.9380896178
 72
1
 10
24.6830125906
 20
46.9380896178
 11
24.2822572349
 21
47.0282772912
 72
1
 10
24.2822572349
 20
47.0282772912
 11
23.8989262276
 21
47.1759120104
 72
1
 10
23.8989262276
 20
47.1759120104
 11
23.5412064125
 21
47.377840724
 72
1
 10
23.5412064125
 20
47.377840724
 11
23.2167376524
 21
47.6297508175
 72
1
 10
23.2167376524
 20
47.6297508175
 11
22.9324496635
 21
47.9262622184
 72
1
 10
22.9324496635
 20
47.9262622184
 11
22.6944140166
 21
48.2610422989
 72
1
 10
22.6944140166
 20
48.2610422989
 11
25.0592526925
 21
48.626268938
 72
1
 10
25.0592526925
 20
48.626268938
 11
25.2029961896
 21
48.6168415373
 72
1
 10
25.2029961896
 20
48.6168415373
 11
27.6842387906
 21
48.6168415373
 97
1
330
29F
 75
0
 76
1
 98
1
 10
0.0
 20
0.0
  0
LWPOLYLINE
  5
2A1
100
AcDbEntity
  8
0
100
AcDbPolyline
 62
2
  6
CONTINUOUS
 90
28
 70
0
 10
35.5863208471
 20
48.0400014831
 10
35.5863208471
 20
54.9622171339
 10
37.9356791535
 20
54.9622171339
 10
37.9356791535
 20
48.0400014831
 10
37.9256296104
 20
47.8866714687
 10
37.8956529319
 20
47.7359664545
 10
37.8462620271
 20
47.5904664408
 10
37.7783019882
 20
47.4526614279
 10
37.6929356302
 20
47.3248914159
 10
37.5916235952
 20
47.209376405
 10
37.4760993602
 20
47.1080663955
 10
37.3483395768
 20
47.0227013874
 10
37.2105302505
 20
46.9547363811
 10
37.065029337
 20
46.9053413764
 10
36.9143263972
 20
46.8753713736
 10
36.7610000003
 20
46.8653169684
 10
36.6076736033
 20
46.8753713736
 10
36.4569706635
 20
46.9053413764
 10
36.31146975
 20
46.9547363811
 10
36.1736604237
 20
47.0227013874
 10
36.0459006404
 20
47.1080663955
 10
35.9303764053
 20
47.209376405
 10
35.8290643703
 20
47.3248914159
 10
35.7436980123
 20
47.4526614279
 10
35.6757379734
 20
47.5904664408
 10
35.6263470686
 20
47.7359664545
 10
35.5963703901
 20
47.8866714687
 10
35.5863208471
 20
48.0400014831
  0
HATCH
  5
2A2
100
AcDbEntity
  8
0
100
AcDbHatch
 62
2
  6
CONTINUOUS
 10
0.0
 20
0.0
 30
0.0
210
0.0
220
0.0
230
1.0
  2
SOLID
 70
1
 71
1
 91
1
 92
1
 93
27
 72
1
 10
35.5863208471
 20
48.0400014831
 11
35.5863208471
 21
54.9622171339
 72
1
 10
35.5863208471
 20
54.9622171339
 11
37.9356791535
 21
54.9622171339
 72
1
 10
37.9356791535
 20
54.9622171339
 11
37.9356791535
 21
48.0400014831
 72
1
 10
37.9356791535
 20
48.0400014831
 11
37.9256296104
 21
47.8866714687
 72
1
 10
37.9256296104
 20
47.8866714687
 11
37.8956529319
 21
47.7359664545
 72
1
 10
37.8956529319
 20
47.7359664545
 11
37.8462620271
 21
47.5904664408
 72
1
 10
37.8462620271
 20
47.5904664408
 11
37.7783019882
 21
47.4526614279
 72
1
 10
37.7783019882
 20
47.4526614279
 11
37.6929356302
 21
47.3248914159
 72
1
 10
37.6929356302
 20
47.3248914159
 11
37.5916235952
 21
47.209376405
 72
1
 10
37.5916235952
 20
47.209376405
 11
37.4760993602
 21
47.1080663955
 72
1
 10
37.4760993602
 20
47.1080663955
 11
37.3483395768
 21
47.0227013874
 72
1
 10
37.3483395768
 20
47.0227013874
 11
37.2105302505
 21
46.9547363811
 72
1
 10
37.2105302505
 20
46.9547363811
 11
37.065029337
 21
46.9053413764
 72
1
 10
37.065029337
 20
46.9053413764
 11
36.9143263972
 21
46.8753713736
 72
1
 10
36.9143263972
 20
46.8753713736
 11
36.7610000003
 21
46.8653169684
 72
1
 10
36.7610000003
 20
46.8653169684
 11
36.6076736033
 21
46.8753713736
 72
1
 10
36.6076736033
 20
46.8753713736
 11
36.4569706635
 21
46.9053413764
 72
1
 10
36.4569706635
 20
46.9053413764
 11
36.31146975
 21
46.9547363811
 72
1
 10
36.31146975
 20
46.9547363811
 11
36.1736604237
 21
47.0227013874
 72
1
 10
36.1736604237
 20
47.0227013874
 11
36.0459006404
 21
47.1080663955
 72
1
 10
36.0459006404
 20
47.1080663955
 11
35.9303764053
 21
47.209376405
 72
1
 10
35.9303764053
 20
47.209376405
 11
35.8290643703
 21
47.3248914159
 72
1
 10
35.8290643703
 20
47.3248914159
 11
35.7436980123
 21
47.4526614279
 72
1
 10
35.7436980123
 20
47.4526614279
 11
35.6757379734
 21
47.5904664408
 72
1
 10
35.6757379734
 20
47.5904664408
 11
35.6263470686
 21
47.7359664545
 72
1
 10
35.6263470686
 20
47.7359664545
 11
35.5963703901
 21
47.8866714687
 72
1
 10
35.5963703901
 20
47.8866714687
 11
35.5863208471
 21
48.0400014831
 97
1
330
2A1
 75
0
 76
1
 98
1
 10
0.0
 20
0.0
  0
LWPOLYLINE
  5
2A3
100
AcDbEntity
  8
0
100
AcDbPolyline
 62
2
  6
CONTINUOUS
 90
8
 70
0
 10
32.9923313344
 20
47.0301863881
 10
33.1563796967
 20
46.5469163427
 10
33.3821041117
 20
46.0891912997
 10
28.7480950465
 20
45.5534278506
 10
29.3301683772
 20
46.146464163
 10
29.8169521117
 20
46.8199201942
 10
32.8927659379
 20
47.5307364352
 10
32.9923313344
 20
47.0301863881
  0
HATCH
  5
2A4
100
AcDbEntity
  8
0
100
AcDbHatch
 62
2
  6
CONTINUOUS
 10
0.0
 20
0.0
 30
0.0
210
0.0
220
0.0
230
1.0
  2
SOLID
 70
1
 71
1
 91
1
 92
1
 93
7
 72
1
 10
32.9923313344
 20
47.0301863881
 11
33.1563796967
 21
46.5469163427
 72
1
 10
33.1563796967
 20
46.5469163427
 11
33.3821041117
 21
46.0891912997
 72
1
 10
33.3821041117
 20
46.0891912997
 11
28.7480950465
 21
45.5534278506
 72
1
 10
28.7480950465
 20
45.5534278506
 11
29.3301683772
 21
46.146464163
 72
1
 10
29.3301683772
 20
46.146464163
 11
29.8169521117
 21
46.8199201942
 72
1
 10
29.8169521117
 20
46.8199201942
 11
32.8927659379
 21
47.5307364352
 72
1
 10
32.8927659379
 20
47.5307364352
 11
32.9923313344
 21
47.0301863881
 97
1
330
2A3
 75
0
 76
1
 98
1
 10
0.0
 20
0.0
  0
LWPOLYLINE
  5
2A5
100
AcDbEntity
  8
0
100
AcDbPolyline
 62
2
  6
CONTINUOUS
 90
8
 70
0
 10
33.6656423722
 20
45.6648412598
 10
34.00214306
 20
45.2811412237
 10
34.3858485548
 20
44.9446311921
 10
27.3523542712
 20
44.659914577
 10
28.0838381739
 20
45.0541641554
 10
28.7480950465
 20
45.5534278506
 10
33.3821041117
 20
46.0891912997
 10
33.6656423722
 20
45.6648412598
  0
HATCH
  5
2A6
100
AcDbEntity
  8
0
100
AcDbHatch
 62
2
  6
CONTINUOUS
 10
0.0
 20
0.0
 30
0.0
210
0.0
220
0.0
230
1.0
  2
SOLID
 70
1
 71
1
 91
1
 92
1
 93
7
 72
1
 10
33.6656423722
 20
45.6648412598
 11
34.00214306
 21
45.2811412237
 72
1
 10
34.00214306
 20
45.2811412237
 11
34.3858485548
 21
44.9446311921
 72
1
 10
34.3858485548
 20
44.9446311921
 11
27.3523542712
 21
44.659914577
 72
1
 10
27.3523542712
 20
44.659914577
 11
28.0838381739
 21
45.0541641554
 72
1
 10
28.0838381739
 20
45.0541641554
 11
28.7480950465
 21
45.5534278506
 72
1
 10
28.7480950465
 20
45.5534278506
 11
33.3821041117
 21
46.0891912997
 72
1
 10
33.3821041117
 20
46.0891912997
 11
33.6656423722
 21
45.6648412598
 97
1
330
2A5
 75
0
 76
1
 98
1
 10
0.0
 20
0.0
  0
LWPOLYLINE
  5
2A7
100
AcDbEntity
  8
0
100
AcDbPolyline
 62
2
  6
CONTINUOUS
 90
24
 70
0
 10
34.8101935494
 20
44.6611011654
 10
35.2679173833
 20
44.4353811442
 10
35.7511882747
 20
44.2713261287
 10
36.2517373247
 20
44.1717561194
 10
16.3610861409
 20
43.6666760719
 10
20.0261379092
 20
51.9411676226
 10
19.750600337
 20
51.1572157897
 10
19.5954682224
 20
50.3408608074
 10
19.5642345443
 20
49.5104838523
 10
19.6576025652
 20
48.684781822
 10
19.8734699961
 20
47.8823463527
 10
20.2069763321
 20
47.121245207
 10
20.6506122924
 20
46.4186154575
 10
21.1943889001
 20
45.7902776256
 10
21.8260623961
 20
45.2503794643
 10
22.5314099211
 20
44.8110774052
 10
23.2945497596
 20
44.4822628421
 10
24.0982989358
 20
44.2713261287
 10
24.9245601072
 20
44.1830563096
 10
25.754729048
 20
44.2194013213
 10
26.5701135443
 20
44.3795561005
 10
27.3523542712
 20
44.659914577
 10
34.3858485548
 20
44.9446311921
 10
34.8101935494
 20
44.6611011654
  0
HATCH
  5
2A8
100
AcDbEntity
  8
0
100
AcDbHatch
 62
2
  6
CONTINUOUS
 10
0.0
 20
0.0
 30
0.0
210
0.0
220
0.0
230
1.0
  2
SOLID
 70
1
 71
1
 91
1
 92
1
 93
23
 72
1
 10
34.8101935494
 20
44.6611011654
 11
35.2679173833
 21
44.4353811442
 72
1
 10
35.2679173833
 20
44.4353811442
 11
35.7511882747
 21
44.2713261287
 72
1
 10
35.7511882747
 20
44.2713261287
 11
36.2517373247
 21
44.1717561194
 72
1
 10
36.2517373247
 20
44.1717561194
 11
16.3610861409
 21
43.6666760719
 72
1
 10
16.3610861409
 20
43.6666760719
 11
20.0261379092
 21
51.9411676226
 72
1
 10
20.0261379092
 20
51.9411676226
 11
19.750600337
 21
51.1572157897
 72
1
 10
19.750600337
 20
51.1572157897
 11
19.5954682224
 21
50.3408608074
 72
1
 10
19.5954682224
 20
50.3408608074
 11
19.5642345443
 21
49.5104838523
 72
1
 10
19.5642345443
 20
49.5104838523
 11
19.6576025652
 21
48.684781822
 72
1
 10
19.6576025652
 20
48.684781822
 11
19.8734699961
 21
47.8823463527
 72
1
 10
19.8734699961
 20
47.8823463527
 11
20.2069763321
 21
47.121245207
 72
1
 10
20.2069763321
 20
47.121245207
 11
20.6506122924
 21
46.4186154575
 72
1
 10
20.6506122924
 20
46.4186154575
 11
21.1943889001
 21
45.7902776256
 72
1
 10
21.1943889001
 20
45.7902776256
 11
21.8260623961
 21
45.2503794643
 72
1
 10
21.8260623961
 20
45.2503794643
 11
22.5314099211
 21
44.8110774052
 72
1
 10
22.5314099211
 20
44.8110774052
 11
23.2945497596
 21
44.4822628421
 72
1
 10
23.2945497596
 20
44.4822628421
 11
24.0982989358
 21
44.2713261287
 72
1
 10
24.0982989358
 20
44.2713261287
 11
24.9245601072
 21
44.1830563096
 72
1
 10
24.9245601072
 20
44.1830563096
 11
25.754729048
 21
44.2194013213
 72
1
 10
25.754729048
 20
44.2194013213
 11
26.5701135443
 21
44.3795561005
 72
1
 10
26.5701135443
 20
44.3795561005
 11
27.3523542712
 21
44.659914577
 72
1
 10
27.3523542712
 20
44.659914577
 11
34.3858485548
 21
44.9446311921
 72
1
 10
34.3858485548
 20
44.9446311921
 11
34.8101935494
 21
44.6611011654
 97
1
330
2A7
 75
0
 76
1
 98
1
 10
0.0
 20
0.0
  0
LWPOLYLINE
  5
2A9
100
AcDbEntity
  8
0
100
AcDbPolyline
 62
2
  6
CONTINUOUS
 90
43
 70
0
 10
36.7610000003
 20
44.13838322
 10
37.2702626758
 20
44.1717561194
 10
37.7708117258
 20
44.2713261287
 10
38.2540826172
 20
44.4353811442
 10
38.7118064511
 20
44.6611011654
 10
39.1361514457
 20
44.9446311921
 10
39.5198569406
 20
45.2811412237
 10
39.8563576283
 20
45.6648412598
 10
40.1398958888
 20
46.0891912997
 10
45.3528889231
 20
43.6666760719
 10
45.345943091
 20
43.5341510594
 10
45.3251816945
 20
43.4030660471
 10
45.2908322
 20
43.2748610351
 10
45.2432709475
 20
43.1509610234
 10
45.1830190283
 20
43.0327160123
 10
45.1107365748
 20
42.9214160018
 10
45.0272155289
 20
42.8182759921
 10
44.9333709645
 20
42.7244209833
 10
44.8302310623
 20
42.6409009754
 10
44.7189258447
 20
42.5686159687
 10
44.600674795
 20
42.508375963
 10
44.4767734964
 20
42.4608109585
 10
44.3485794374
 20
42.4264609553
 10
44.217497139
 20
42.4057009533
 10
44.0849627663
 20
42.3987559527
 10
17.6290122978
 20
42.3987559527
 10
17.4964779251
 20
42.4057009533
 10
17.3653956267
 20
42.4264609553
 10
17.2372015677
 20
42.4608109585
 10
17.113300269
 20
42.508375963
 10
16.9950492193
 20
42.5686159687
 10
16.8837440018
 20
42.6409009754
 10
16.7806040996
 20
42.7244209833
 10
16.6867595352
 20
42.8182759921
 10
16.6032384892
 20
42.9214160018
 10
16.5309560358
 20
43.0327160123
 10
16.4707041165
 20
43.1509610234
 10
16.4231428641
 20
43.2748610351
 10
16.3887933695
 20
43.4030660471
 10
16.368031973
 20
43.5341510594
 10
16.3610861409
 20
43.6666760719
 10
36.2517373247
 20
44.1717561194
 10
36.7610000003
 20
44.13838322
  0
HATCH
  5
2AA
100
AcDbEntity
  8
0
100
AcDbHatch
 62
2
  6
CONTINUOUS
 10
0.0
 20
0.0
 30
0.0
210
0.0
220
0.0
230
1.0
  2
SOLID
 70
1
 71
1
 91
1
 92
1
 93
42
 72
1
 10
36.7610000003
 20
44.13838322
 11
37.2702626758
 21
44.1717561194
 72
1
 10
37.2702626758
 20
44.1717561194
 11
37.7708117258
 21
44.2713261287
 72
1
 10
37.7708117258
 20
44.2713261287
 11
38.2540826172
 21
44.4353811442
 72
1
 10
38.2540826172
 20
44.4353811442
 11
38.7118064511
 21
44.6611011654
 72
1
 10
38.7118064511
 20
44.6611011654
 11
39.1361514457
 21
44.9446311921
 72
1
 10
39.1361514457
 20
44.9446311921
 11
39.5198569406
 21
45.2811412237
 72
1
 10
39.5198569406
 20
45.2811412237
 11
39.8563576283
 21
45.6648412598
 72
1
 10
39.8563576283
 20
45.6648412598
 11
40.1398958888
 21
46.0891912997
 72
1
 10
40.1398958888
 20
46.0891912997
 11
45.3528889231
 21
43.6666760719
 72
1
 10
45.3528889231
 20
43.6666760719
 11
45.345943091
 21
43.5341510594
 72
1
 10
45.345943091
 20
43.5341510594
 11
45.3251816945
 21
43.4030660471
 72
1
 10
45.3251816945
 20
43.4030660471
 11
45.2908322
 21
43.2748610351
 72
1
 10
45.2908322
 20
43.2748610351
 11
45.2432709475
 21
43.1509610234
 72
1
 10
45.2432709475
 20
43.1509610234
 11
45.1830190283
 21
43.0327160123
 72
1
 10
45.1830190283
 20
43.0327160123
 11
45.1107365748
 21
42.9214160018
 72
1
 10
45.1107365748
 20
42.9214160018
 11
45.0272155289
 21
42.8182759921
 72
1
 10
45.0272155289
 20
42.8182759921
 11
44.9333709645
 21
42.7244209833
 72
1
 10
44.9333709645
 20
42.7244209833
 11
44.8302310623
 21
42.6409009754
 72
1
 10
44.8302310623
 20
42.6409009754
 11
44.7189258447
 21
42.5686159687
 72
1
 10
44.7189258447
 20
42.5686159687
 11
44.600674795
 21
42.508375963
 72
1
 10
44.600674795
 20
42.508375963
 11
44.4767734964
 21
42.4608109585
 72
1
 10
44.4767734964
 20
42.4608109585
 11
44.3485794374
 21
42.4264609553
 72
1
 10
44.3485794374
 20
42.4264609553
 11
44.217497139
 21
42.4057009533
 72
1
 10
44.217497139
 20
42.4057009533
 11
44.0849627663
 21
42.3987559527
 72
1
 10
44.0849627663
 20
42.3987559527
 11
17.6290122978
 21
42.3987559527
 72
1
 10
17.6290122978
 20
42.3987559527
 11
17.4964779251
 21
42.4057009533
 72
1
 10
17.4964779251
 20
42.4057009533
 11
17.3653956267
 21
42.4264609553
 72
1
 10
17.3653956267
 20
42.4264609553
 11
17.2372015677
 21
42.4608109585
 72
1
 10
17.2372015677
 20
42.4608109585
 11
17.113300269
 21
42.508375963
 72
1
 10
17.113300269
 20
42.508375963
 11
16.9950492193
 21
42.5686159687
 72
1
 10
16.9950492193
 20
42.5686159687
 11
16.8837440018
 21
42.6409009754
 72
1
 10
16.8837440018
 20
42.6409009754
 11
16.7806040996
 21
42.7244209833
 72
1
 10
16.7806040996
 20
42.7244209833
 11
16.6867595352
 21
42.8182759921
 72
1
 10
16.6867595352
 20
42.8182759921
 11
16.6032384892
 21
42.9214160018
 72
1
 10
16.6032384892
 20
42.9214160018
 11
16.5309560358
 21
43.0327160123
 72
1
 10
16.5309560358
 20
43.0327160123
 11
16.4707041165
 21
43.1509610234
 72
1
 10
16.4707041165
 20
43.1509610234
 11
16.4231428641
 21
43.2748610351
 72
1
 10
16.4231428641
 20
43.2748610351
 11
16.3887933695
 21
43.4030660471
 72
1
 10
16.3887933695
 20
43.4030660471
 11
16.368031973
 21
43.5341510594
 72
1
 10
16.368031973
 20
43.5341510594
 11
16.3610861409
 21
43.6666760719
 72
1
 10
16.3610861409
 20
43.6666760719
 11
36.2517373247
 21
44.1717561194
 72
1
 10
36.2517373247
 20
44.1717561194
 11
36.7610000003
 21
44.13838322
 97
1
330
2A9
 75
0
 76
1
 98
1
 10
0.0
 20
0.0
  0
SOLID
  5
2AB
100
AcDbEntity
  8
0
100
AcDbTrace
 62
2
  6
CONTINUOUS
 10
25.3408515753
 20
55.2505598297
 11
24.5102931399
 21
55.2245960958
 12
26.1659444963
 22
55.151954039
 13
45.3528889232
 23
56.1308222438
  0
ENDBLK
  5
2AC
100
AcDbEntity
  8
0
  6
BYBLOCK
 62
0
100
AcDbBlockEnd
  0
BLOCK
  5
2AD
100
AcDbEntity
  8
HATCHING_BL0
100
AcDbBlockBegin
  2
HATCHING_BL0
 70
64
 10
27.4491725978
 20
1818.3877863351
  3
HATCHING_BL0
  1

  0
TEXT
  5
2AE
100
AcDbEntity
  8
HATCHING_BL0
100
AcDbText
 62
7
  6
CONTINUOUS
 10
10.2272570821
 20
1821.6018748194
  7
STANDARD
 40
5.0
  1
A
 72
5
 11
14.8740972308
 21
1821.6018748194
100
AcDbText
  0
LEADER
  5
2AF
100
AcDbEntity
  8
HATCHING_BL0
100
AcDbLeader
 62
7
  6
CONTINUOUS
  3
STANDARD
 71
1
 72
0
 73
3
 75
0
 76
2
 10
15.8406399818
 20
1807.6736978507
 30
0.0
 10
15.8406399818
 20
1829.1018748194
 30
0.0
1001
ACAD
1000
DSTYLE
1002
{
1070
77
1070
0
1002
}
  0
TEXT
  5
2B0
100
AcDbEntity
  8
HATCHING_BL0
100
AcDbText
 62
7
  6
CONTINUOUS
 10
40.0242479648
 20
1821.6018748194
  7
STANDARD
 40
5.0
  1
A
 72
5
 11
44.6710881135
 21
1821.6018748194
100
AcDbText
  0
LEADER
  5
2B1
100
AcDbEntity
  8
HATCHING_BL0
100
AcDbLeader
 62
7
  6
CONTINUOUS
  3
STANDARD
 71
1
 72
0
 73
3
 75
0
 76
2
 10
39.0577052138
 20
1807.6736978507
 30
0.0
 10
39.0577052138
 20
1829.1018748194
 30
0.0
1001
ACAD
1000
DSTYLE
1002
{
1070
77
1070
0
1002
}
  0
LINE
  5
2B2
100
AcDbEntity
  8
HATCHING_BL0
100
AcDbLine
 62
7
  6
CENTER
 10
15.8406399818
 20
1807.6736978507
 11
39.0577052138
 21
1807.6736978507
  0
ENDBLK
  5
2B3
100
AcDbEntity
  8
0
  6
BYBLOCK
 62
0
100
AcDbBlockEnd
  0
BLOCK
  5
2B4
100
AcDbEntity
  8
94820009L00_BL1
100
AcDbBlockBegin
  2
94820009L00_BL1
 70
64
 10
79.2768215581
 20
994.6842975239
  3
94820009L00_BL1
  1

  0
HATCH
  5
2B5
100
AcDbEntity
  8
94820009L00_BL1
100
AcDbHatch
 62
2
  6
CONTINUOUS
 10
0.0
 20
0.0
 30
0.0
210
0.0
220
0.0
230
1.0
  2
default__1
 70
0
 71
0
 91
1
 92
1
 93
12
 72
2
 10
26.2911212248
 20
113.6948971971
 40
3.0
 50
90.0
 51
180.0
 73
1
 72
1
 10
26.2911212248
 20
116.6948971971
 11
29.2911212248
 21
116.6948971971
 72
1
 10
29.2911212248
 20
116.6948971971
 11
29.2911212248
 21
114.6948971971
 72
1
 10
29.2911212248
 20
114.6948971971
 11
25.7911212248
 21
114.6948971971
 72
2
 10
25.7911212248
 20
114.1948971971
 40
0.5
 50
90.0
 51
180.0
 73
1
 72
1
 10
25.2911212248
 20
114.1948971971
 11
25.2911212248
 21
95.1948971971
 72
2
 10
25.7911212248
 20
95.1948971971
 40
0.5
 50
180.0
 51
270.0
 73
1
 72
1
 10
29.2911212248
 20
94.6948971971
 11
25.7911212248
 21
94.6948971971
 72
1
 10
29.2911212248
 20
94.6948971971
 11
29.2911212248
 21
92.6948971971
 72
1
 10
29.2911212248
 20
92.6948971971
 11
26.2911212248
 21
92.6948971971
 72
2
 10
26.2911212248
 20
95.6948971971
 40
3.0
 50
180.0
 51
270.0
 73
1
 72
1
 10
23.2911212248
 20
95.6948971971
 11
23.2911212248
 21
113.6948971971
 97
0
 75
0
 76
0
 52
45.0
 41
45.8666666667
 77
0
 78
1
 53
45.0
 43
0.0
 44
0.0
 45
-32.4326310304
 46
32.4326310304
 79
0
 98
1
 10
0.0
 20
0.0
  0
LINE
  5
2B6
100
AcDbEntity
  8
94820009L00_BL1
100
AcDbLine
 62
7
  6
CONTINUOUS
 10
112.2625218913
 20
1132.1736978507
 11
112.2625218913
 21
1896.6736978507
  0
LINE
  5
2B7
100
AcDbEntity
  8
94820009L00_BL1
100
AcDbLine
 62
9
  6
CONTINUOUS
 10
115.2625218913
 20
1132.1736978507
 11
115.2625218913
 21
1733.3327423165
  0
LINE
  5
2B8
100
AcDbEntity
  8
94820009L00_BL1
100
AcDbLine
 62
9
  6
CONTINUOUS
 10
115.2625218913
 20
1800.014653385
 11
115.2625218913
 21
1896.6736978507
  0
LINE
  5
2B9
100
AcDbEntity
  8
94820009L00_BL1
100
AcDbLine
 62
7
  6
CENTER
 10
124.2625218913
 20
1814.6736978507
 11
124.2625218913
 21
1806.2736978507
  0
LINE
  5
2BA
100
AcDbEntity
  8
94820009L00_BL1
100
AcDbLine
 62
7
  6
CENTER
 10
124.2625218913
 20
1688.6736978507
 11
124.2625218913
 21
1680.2736978507
  0
LINE
  5
2BB
100
AcDbEntity
  8
94820009L00_BL1
100
AcDbLine
 62
7
  6
CENTER
 10
124.2625218913
 20
1427.1736978507
 11
124.2625218913
 21
1418.7736978507
  0
LINE
  5
2BC
100
AcDbEntity
  8
94820009L00_BL1
100
AcDbLine
 62
7
  6
CENTER
 10
124.2625218913
 20
1144.1736978507
 11
124.2625218913
 21
1135.7736978507
  0
LINE
  5
2BD
100
AcDbEntity
  8
94820009L00_BL1
100
AcDbLine
 62
7
  6
CENTER
 10
124.2625218913
 20
1144.1736978507
 11
124.2625218913
 21
1152.5736978507
  0
LINE
  5
2BE
100
AcDbEntity
  8
94820009L00_BL1
100
AcDbLine
 62
7
  6
CENTER
 10
124.2625218913
 20
1427.1736978507
 11
124.2625218913
 21
1435.5736978507
  0
LINE
  5
2BF
100
AcDbEntity
  8
94820009L00_BL1
100
AcDbLine
 62
7
  6
CENTER
 10
124.2625218913
 20
1688.6736978507
 11
124.2625218913
 21
1697.0736978507
  0
LINE
  5
2C0
100
AcDbEntity
  8
94820009L00_BL1
100
AcDbLine
 62
7
  6
CENTER
 10
124.2625218913
 20
1814.6736978507
 11
124.2625218913
 21
1823.0736978507
  0
LINE
  5
2C1
100
AcDbEntity
  8
94820009L00_BL1
100
AcDbLine
 62
9
  6
CONTINUOUS
 10
133.2625218913
 20
1132.1736978507
 11
133.2625218913
 21
1896.6736978507
  0
LINE
  5
2C2
100
AcDbEntity
  8
94820009L00_BL1
100
AcDbLine
 62
7
  6
CONTINUOUS
 10
136.2625218913
 20
1896.6736978507
 11
136.2625218913
 21
1132.1736978507
  0
LINE
  5
2C3
100
AcDbEntity
  8
94820009L00_BL1
100
AcDbLine
 62
7
  6
CONTINUOUS
 10
136.2625218913
 20
1132.1736978507
 11
112.2625218913
 21
1132.1736978507
  0
LINE
  5
2C4
100
AcDbEntity
  8
94820009L00_BL1
100
AcDbLine
 62
7
  6
CENTER
 10
124.2625218913
 20
1144.1736978507
 11
115.8625218913
 21
1144.1736978507
  0
LINE
  5
2C5
100
AcDbEntity
  8
94820009L00_BL1
100
AcDbLine
 62
7
  6
CENTER
 10
124.2625218913
 20
1144.1736978507
 11
132.6625218913
 21
1144.1736978507
  0
LINE
  5
2C6
100
AcDbEntity
  8
94820009L00_BL1
100
AcDbLine
 62
7
  6
CENTER
 10
124.2625218913
 20
1427.1736978507
 11
115.8625218913
 21
1427.1736978507
  0
LINE
  5
2C7
100
AcDbEntity
  8
94820009L00_BL1
100
AcDbLine
 62
7
  6
CENTER
 10
124.2625218913
 20
1427.1736978507
 11
132.6625218913
 21
1427.1736978507
  0
LINE
  5
2C8
100
AcDbEntity
  8
94820009L00_BL1
100
AcDbLine
 62
7
  6
CENTER
 10
124.2625218913
 20
1688.6736978507
 11
115.8625218913
 21
1688.6736978507
  0
LINE
  5
2C9
100
AcDbEntity
  8
94820009L00_BL1
100
AcDbLine
 62
7
  6
CENTER
 10
124.2625218913
 20
1688.6736978507
 11
132.6625218913
 21
1688.6736978507
  0
LINE
  5
2CA
100
AcDbEntity
  8
94820009L00_BL1
100
AcDbLine
 62
7
  6
CENTER
 10
124.2625218913
 20
1814.6736978507
 11
115.8625218913
 21
1814.6736978507
  0
LINE
  5
2CB
100
AcDbEntity
  8
94820009L00_BL1
100
AcDbLine
 62
7
  6
CENTER
 10
124.2625218913
 20
1814.6736978507
 11
132.6625218913
 21
1814.6736978507
  0
LINE
  5
2CC
100
AcDbEntity
  8
94820009L00_BL1
100
AcDbLine
 62
7
  6
CONTINUOUS
 10
136.2625218913
 20
1896.6736978507
 11
112.2625218913
 21
1896.6736978507
  0
LINE
  5
2CD
100
AcDbEntity
  8
94820009L00_BL1
100
AcDbLine
 62
7
  6
CONTINUOUS
 10
23.2911212248
 20
1132.1736978507
 11
23.2911212248
 21
1896.6736978507
  0
LINE
  5
2CE
100
AcDbEntity
  8
94820009L00_BL1
100
AcDbLine
 62
9
  6
CONTINUOUS
 10
26.2911212248
 20
1132.1736978507
 11
26.2911212248
 21
1896.6736978507
  0
LINE
  5
2CF
100
AcDbEntity
  8
94820009L00_BL1
100
AcDbLine
 62
7
  6
CONTINUOUS
 10
29.2911212248
 20
1132.1736978507
 11
29.2911212248
 21
1896.6736978507
  0
LINE
  5
2D0
100
AcDbEntity
  8
94820009L00_BL1
100
AcDbLine
 62
7
  6
CONTINUOUS
 10
29.2911212248
 20
1132.1736978507
 11
23.2911212248
 21
1132.1736978507
  0
LINE
  5
2D1
100
AcDbEntity
  8
94820009L00_BL1
100
AcDbLine
 62
7
  6
CENTER
 10
30.2911212248
 20
1427.1736978507
 11
22.2911212248
 21
1427.1736978507
  0
LINE
  5
2D2
100
AcDbEntity
  8
94820009L00_BL1
100
AcDbLine
 62
7
  6
CENTER
 10
30.2911212248
 20
1688.6736978507
 11
22.2911212248
 21
1688.6736978507
  0
LINE
  5
2D3
100
AcDbEntity
  8
94820009L00_BL1
100
AcDbLine
 62
7
  6
CENTER
 10
30.2911212248
 20
1814.6736978507
 11
22.2911212248
 21
1814.6736978507
  0
LINE
  5
2D4
100
AcDbEntity
  8
94820009L00_BL1
100
AcDbLine
 62
7
  6
CONTINUOUS
 10
29.2911212248
 20
1896.6736978507
 11
23.2911212248
 21
1896.6736978507
  0
LINE
  5
2D5
100
AcDbEntity
  8
94820009L00_BL1
100
AcDbLine
 62
7
  6
CONTINUOUS
 10
29.2911212248
 20
92.6948971971
 11
26.2911212248
 21
92.6948971971
  0
LINE
  5
2D6
100
AcDbEntity
  8
94820009L00_BL1
100
AcDbLine
 62
7
  6
CONTINUOUS
 10
29.2911212248
 20
94.6948971971
 11
25.7911212248
 21
94.6948971971
  0
LINE
  5
2D7
100
AcDbEntity
  8
94820009L00_BL1
100
AcDbLine
 62
7
  6
CONTINUOUS
 10
23.2911212248
 20
95.6948971971
 11
23.2911212248
 21
113.6948971971
  0
LINE
  5
2D8
100
AcDbEntity
  8
94820009L00_BL1
100
AcDbLine
 62
7
  6
CONTINUOUS
 10
25.2911212248
 20
114.1948971971
 11
25.2911212248
 21
95.1948971971
  0
LINE
  5
2D9
100
AcDbEntity
  8
94820009L00_BL1
100
AcDbLine
 62
7
  6
CONTINUOUS
 10
29.2911212248
 20
116.6948971971
 11
29.2911212248
 21
114.6948971971
  0
LINE
  5
2DA
100
AcDbEntity
  8
94820009L00_BL1
100
AcDbLine
 62
7
  6
CONTINUOUS
 10
29.2911212248
 20
94.6948971971
 11
29.2911212248
 21
92.6948971971
  0
LINE
  5
2DB
100
AcDbEntity
  8
94820009L00_BL1
100
AcDbLine
 62
7
  6
CONTINUOUS
 10
29.2911212248
 20
114.6948971971
 11
25.7911212248
 21
114.6948971971
  0
LINE
  5
2DC
100
AcDbEntity
  8
94820009L00_BL1
100
AcDbLine
 62
7
  6
CONTINUOUS
 10
26.2911212248
 20
116.6948971971
 11
29.2911212248
 21
116.6948971971
  0
CIRCLE
  5
2DD
100
AcDbEntity
  8
94820009L00_BL1
100
AcDbCircle
 62
7
  6
CONTINUOUS
 10
124.2625218913
 20
1427.1736978507
 40
4.15
  0
CIRCLE
  5
2DE
100
AcDbEntity
  8
94820009L00_BL1
100
AcDbCircle
 62
7
  6
CONTINUOUS
 10
124.2625218913
 20
1144.1736978507
 40
4.15
  0
CIRCLE
  5
2DF
100
AcDbEntity
  8
94820009L00_BL1
100
AcDbCircle
 62
7
  6
CONTINUOUS
 10
124.2625218913
 20
1427.1736978507
 40
2.6
  0
CIRCLE
  5
2E0
100
AcDbEntity
  8
94820009L00_BL1
100
AcDbCircle
 62
7
  6
CONTINUOUS
 10
124.2625218913
 20
1144.1736978507
 40
2.6
  0
CIRCLE
  5
2E1
100
AcDbEntity
  8
94820009L00_BL1
100
AcDbCircle
 62
7
  6
CONTINUOUS
 10
124.2625218913
 20
1884.6736978507
 40
4.15
  0
CIRCLE
  5
2E2
100
AcDbEntity
  8
94820009L00_BL1
100
AcDbCircle
 62
7
  6
CONTINUOUS
 10
124.2625218913
 20
1814.6736978507
 40
4.15
  0
CIRCLE
  5
2E3
100
AcDbEntity
  8
94820009L00_BL1
100
AcDbCircle
 62
7
  6
CONTINUOUS
 10
124.2625218913
 20
1688.6736978507
 40
4.15
  0
CIRCLE
  5
2E4
100
AcDbEntity
  8
94820009L00_BL1
100
AcDbCircle
 62
7
  6
CONTINUOUS
 10
124.2625218913
 20
1884.6736978507
 40
2.6
  0
CIRCLE
  5
2E5
100
AcDbEntity
  8
94820009L00_BL1
100
AcDbCircle
 62
7
  6
CONTINUOUS
 10
124.2625218913
 20
1814.6736978507
 40
2.6
  0
CIRCLE
  5
2E6
100
AcDbEntity
  8
94820009L00_BL1
100
AcDbCircle
 62
7
  6
CONTINUOUS
 10
124.2625218913
 20
1688.6736978507
 40
2.6
  0
ARC
  5
2E7
100
AcDbEntity
  8
94820009L00_BL1
100
AcDbCircle
 62
7
  6
CONTINUOUS
 10
26.2911212248
 20
113.6948971971
 40
3.0
100
AcDbArc
 50
90.0
 51
180.0
  0
ARC
  5
2E8
100
AcDbEntity
  8
94820009L00_BL1
100
AcDbCircle
 62
7
  6
CONTINUOUS
 10
26.2911212248
 20
95.6948971971
 40
3.0
100
AcDbArc
 50
180.0
 51
270.0
  0
ARC
  5
2E9
100
AcDbEntity
  8
94820009L00_BL1
100
AcDbCircle
 62
7
  6
CONTINUOUS
 10
25.7911212248
 20
114.1948971971
 40
0.5
100
AcDbArc
 50
90.0
 51
180.0
  0
ARC
  5
2EA
100
AcDbEntity
  8
94820009L00_BL1
100
AcDbCircle
 62
7
  6
CONTINUOUS
 10
25.7911212248
 20
95.1948971971
 40
0.5
100
AcDbArc
 50
180.0
 51
270.0
  0
ENDBLK
  5
2EB
100
AcDbEntity
  8
0
  6
BYBLOCK
 62
0
100
AcDbBlockEnd
  0
BLOCK
  5
2EC
100
AcDbEntity
  8
93773508000_O_BL2
100
AcDbBlockBegin
  2
93773508000_O_BL2
 70
64
 10
79.7768215581
 20
130.1842975239
  3
93773508000_O_BL2
  1

  0
LINE
  5
2ED
100
AcDbEntity
  8
93773508000_O_BL2
100
AcDbLine
 62
7
  6
CONTINUOUS
 10
112.2625218913
 20
138.6736978507
 11
136.2625218913
 21
138.6736978507
  0
LINE
  5
2EE
100
AcDbEntity
  8
93773508000_O_BL2
100
AcDbLine
 62
9
  6
CONTINUOUS
 10
114.7625218913
 20
143.1736978507
 11
133.7625218913
 21
143.1736978507
  0
LINE
  5
2EF
100
AcDbEntity
  8
93773508000_O_BL2
100
AcDbLine
 62
9
  6
CONTINUOUS
 10
136.2625218913
 20
146.2736978507
 11
112.2625218913
 21
146.2736978507
  0
LINE
  5
2F0
100
AcDbEntity
  8
93773508000_O_BL2
100
AcDbLine
 62
7
  6
CENTER
 10
124.2625218913
 20
158.6736978507
 11
115.2625218913
 21
158.6736978507
  0
LINE
  5
2F1
100
AcDbEntity
  8
93773508000_O_BL2
100
AcDbLine
 62
7
  6
CENTER
 10
124.2625218913
 20
158.6736978507
 11
133.2625218913
 21
158.6736978507
  0
LINE
  5
2F2
100
AcDbEntity
  8
93773508000_O_BL2
100
AcDbLine
 62
7
  6
CONTINUOUS
 10
112.2625218913
 20
138.6736978507
 11
112.2625218913
 21
146.2736978507
  0
LINE
  5
2F3
100
AcDbEntity
  8
93773508000_O_BL2
100
AcDbLine
 62
9
  6
CONTINUOUS
 10
114.7625218913
 20
143.1736978507
 11
114.7625218913
 21
146.6736978507
  0
LINE
  5
2F4
100
AcDbEntity
  8
93773508000_O_BL2
100
AcDbLine
 62
7
  6
CENTER
 10
124.2625218913
 20
158.6736978507
 11
124.2625218913
 21
149.6736978507
  0
LINE
  5
2F5
100
AcDbEntity
  8
93773508000_O_BL2
100
AcDbLine
 62
7
  6
CENTER
 10
124.2625218913
 20
158.6736978507
 11
124.2625218913
 21
167.6736978507
  0
LINE
  5
2F6
100
AcDbEntity
  8
93773508000_O_BL2
100
AcDbLine
 62
9
  6
CONTINUOUS
 10
133.7625218913
 20
143.1736978507
 11
133.7625218913
 21
146.6736978507
  0
LINE
  5
2F7
100
AcDbEntity
  8
93773508000_O_BL2
100
AcDbLine
 62
7
  6
CONTINUOUS
 10
136.2625218913
 20
138.6736978507
 11
136.2625218913
 21
146.2736978507
  0
LINE
  5
2F8
100
AcDbEntity
  8
93773508000_O_BL2
100
AcDbLine
 62
7
  6
CONTINUOUS
 10
27.7911212248
 20
138.6736978507
 11
29.2911212248
 21
138.6736978507
  0
LINE
  5
2F9
100
AcDbEntity
  8
93773508000_O_BL2
100
AcDbLine
 62
9
  6
CONTINUOUS
 10
29.2911212248
 20
146.2736978507
 11
23.2911212248
 21
146.2736978507
  0
LINE
  5
2FA
100
AcDbEntity
  8
93773508000_O_BL2
100
AcDbLine
 62
7
  6
CONTINUOUS
 10
23.2911212248
 20
143.1736978507
 11
23.2911212248
 21
146.2736978507
  0
LINE
  5
2FB
100
AcDbEntity
  8
93773508000_O_BL2
100
AcDbLine
 62
7
  6
CONTINUOUS
 10
23.2911212248
 20
143.1736978507
 11
23.2911212248
 21
146.2736978507
  0
LINE
  5
2FC
100
AcDbEntity
  8
93773508000_O_BL2
100
AcDbLine
 62
9
  6
CONTINUOUS
 10
25.7911212248
 20
139.1425689766
 11
25.7911212248
 21
146.6736978507
  0
LINE
  5
2FD
100
AcDbEntity
  8
93773508000_O_BL2
100
AcDbLine
 62
7
  6
CONTINUOUS
 10
29.2911212248
 20
138.6736978507
 11
29.2911212248
 21
146.6736978507
  0
LINE
  5
2FE
100
AcDbEntity
  8
93773508000_O_BL2
100
AcDbLine
 62
7
  6
CONTINUOUS
 10
26.2911212248
 20
92.6948971971
 11
25.7911212248
 21
92.6948971971
  0
LINE
  5
2FF
100
AcDbEntity
  8
93773508000_O_BL2
100
AcDbLine
 62
7
  6
CONTINUOUS
 10
29.2911212248
 20
94.7948971971
 11
29.1911212248
 21
94.7948971971
  0
LINE
  5
300
100
AcDbEntity
  8
93773508000_O_BL2
100
AcDbLine
 62
9
  6
CONTINUOUS
 10
23.2911212248
 20
95.1948971971
 11
23.3348478338
 21
95.1948971971
  0
LINE
  5
301
100
AcDbEntity
  8
93773508000_O_BL2
100
AcDbLine
 62
7
  6
CONTINUOUS
 10
29.2911212248
 20
96.2948971971
 11
29.1911212248
 21
96.2948971971
  0
LINE
  5
302
100
AcDbEntity
  8
93773508000_O_BL2
100
AcDbLine
 62
7
  6
CONTINUOUS
 10
23.2911212248
 20
95.1948971971
 11
23.2911212248
 21
95.6948971971
  0
LINE
  5
303
100
AcDbEntity
  8
93773508000_O_BL2
100
AcDbLine
 62
9
  6
CONTINUOUS
 10
25.7911212248
 20
116.6948971971
 11
25.7911212248
 21
116.6511705881
  0
LINE
  5
304
100
AcDbEntity
  8
93773508000_O_BL2
100
AcDbLine
 62
9
  6
CONTINUOUS
 10
25.7911212248
 20
92.6948971971
 11
25.7911212248
 21
92.738623806
  0
LINE
  5
305
100
AcDbEntity
  8
93773508000_O_BL2
100
AcDbLine
 62
7
  6
CONTINUOUS
 10
29.2911212248
 20
94.6948971971
 11
29.2911212248
 21
94.7948971971
  0
LINE
  5
306
100
AcDbEntity
  8
93773508000_O_BL2
100
AcDbLine
 62
7
  6
CONTINUOUS
 10
29.2911212248
 20
94.7948971971
 11
29.2911212248
 21
96.2948971971
  0
LINE
  5
307
100
AcDbEntity
  8
93773508000_O_BL2
100
AcDbLine
 62
7
  6
CONTINUOUS
 10
29.2911212248
 20
112.5948971971
 11
29.2911212248
 21
114.6948971971
  0
LINE
  5
308
100
AcDbEntity
  8
93773508000_O_BL2
100
AcDbLine
 62
7
  6
CONTINUOUS
 10
29.1911212248
 20
113.7948971971
 11
29.2911212248
 21
113.7948971971
  0
LINE
  5
309
100
AcDbEntity
  8
93773508000_O_BL2
100
AcDbLine
 62
9
  6
CONTINUOUS
 10
23.2911212248
 20
114.1948971971
 11
23.3348478338
 21
114.1948971971
  0
LINE
  5
30A
100
AcDbEntity
  8
93773508000_O_BL2
100
AcDbLine
 62
7
  6
CONTINUOUS
 10
25.7911212248
 20
116.6948971971
 11
26.2911212248
 21
116.6948971971
  0
ARC
  5
30B
100
AcDbEntity
  8
93773508000_O_BL2
100
AcDbCircle
 62
7
  6
CONTINUOUS
 10
112.6625218913
 20
146.2736978507
 40
0.4
100
AcDbArc
 50
90.0
 51
180.0
  0
ARC
  5
30C
100
AcDbEntity
  8
93773508000_O_BL2
100
AcDbCircle
 62
7
  6
CONTINUOUS
 10
135.8625218913
 20
146.2736978507
 40
0.4
100
AcDbArc
 50
0.0
 51
90.0
  0
ARC
  5
30D
100
AcDbEntity
  8
93773508000_O_BL2
100
AcDbCircle
 62
7
  6
CONTINUOUS
 10
27.7911212248
 20
143.1736978507
 40
4.5
100
AcDbArc
 50
180.0
 51
270.0
  0
ARC
  5
30E
100
AcDbEntity
  8
93773508000_O_BL2
100
AcDbCircle
 62
7
  6
CONTINUOUS
 10
23.6911212248
 20
146.2736978507
 40
0.4
100
AcDbArc
 50
90.0
 51
180.0
  0
ARC
  5
30F
100
AcDbEntity
  8
93773508000_O_BL2
100
AcDbCircle
 62
7
  6
CONTINUOUS
 10
25.7911212248
 20
95.1948971971
 40
2.5
100
AcDbArc
 50
180.0
 51
270.0
  0
ARC
  5
310
100
AcDbEntity
  8
93773508000_O_BL2
100
AcDbCircle
 62
7
  6
CONTINUOUS
 10
25.7911212248
 20
114.1948971971
 40
2.5
100
AcDbArc
 50
90.0
 51
180.0
  0
SPLINE
  5
311
100
AcDbEntity
  8
93773508000_O_BL2
100
AcDbSpline
 62
7
  6
CONTINUOUS
 70
0
 71
3
 72
12
 73
8
 74
0
 42
0.0000001
 43
0.0000001
 44
0.0000000001
 40
0.0
 40
0.0
 40
0.0
 40
0.0
 40
0.0772200496
 40
0.1770414267
 40
0.4238050361
 40
0.7050572243
 40
1.0
 40
1.0
 40
1.0
 40
1.0
 10
112.2625218913
 20
139.1425689766
 30
0.0
 10
112.2625218913
 20
139.2655450494
 30
0.0
 10
112.33756136
 20
139.544160432
 30
0.0
 10
112.6266163488
 20
140.1529250467
 30
0.0
 10
113.1713896341
 20
140.9960327613
 30
0.0
 10
113.9328801859
 20
142.0613938155
 30
0.0
 10
114.4818174455
 20
142.7970933173
 30
0.0
 10
114.7625218913
 20
143.1736978507
 30
0.0
  0
SPLINE
  5
312
100
AcDbEntity
  8
93773508000_O_BL2
100
AcDbSpline
 62
7
  6
CONTINUOUS
 70
0
 71
3
 72
12
 73
8
 74
0
 42
0.0000001
 43
0.0000001
 44
0.0000000001
 40
0.0
 40
0.0
 40
0.0
 40
0.0
 40
0.2950120828
 40
0.5762835698
 40
0.8230069521
 40
0.9228007747
 40
1.0
 40
1.0
 40
1.0
 40
1.0
 10
133.7625218913
 20
143.1736978507
 30
0.0
 10
134.0432921166
 20
142.7970050649
 30
0.0
 10
134.5923129744
 20
142.0611918781
 30
0.0
 10
135.3538280471
 20
140.9957569398
 30
0.0
 10
135.8985562586
 20
140.1527084059
 30
0.0
 10
136.1874999296
 20
139.5440488393
 30
0.0
 10
136.2625218913
 20
139.2655118062
 30
0.0
 10
136.2625218913
 20
139.1425689766
 30
0.0
  0
ENDBLK
  5
313
100
AcDbEntity
  8
0
  6
BYBLOCK
 62
0
100
AcDbBlockEnd
  0
BLOCK
  5
314
100
AcDbEntity
  8
94818605L00_BL3
100
AcDbBlockBegin
  2
94818605L00_BL3
 70
64
 10
79.2768215581
 20
531.1736978507
  3
94818605L00_BL3
  1

  0
LINE
  5
315
100
AcDbEntity
  8
94818605L00_BL3
100
AcDbLine
 62
7
  6
CONTINUOUS
 10
136.2625218913
 20
146.6736978507
 11
112.2625218913
 21
146.6736978507
  0
LINE
  5
316
100
AcDbEntity
  8
94818605L00_BL3
100
AcDbLine
 62
7
  6
CENTER
 10
124.2625218913
 20
228.6736978507
 11
115.8625218913
 21
228.6736978507
  0
LINE
  5
317
100
AcDbEntity
  8
94818605L00_BL3
100
AcDbLine
 62
7
  6
CENTER
 10
124.2625218913
 20
228.6736978507
 11
132.6625218913
 21
228.6736978507
  0
LINE
  5
318
100
AcDbEntity
  8
94818605L00_BL3
100
AcDbLine
 62
7
  6
CENTER
 10
124.2625218913
 20
324.6736978507
 11
115.8625218913
 21
324.6736978507
  0
LINE
  5
319
100
AcDbEntity
  8
94818605L00_BL3
100
AcDbLine
 62
7
  6
CENTER
 10
124.2625218913
 20
324.6736978507
 11
132.6625218913
 21
324.6736978507
  0
LINE
  5
31A
100
AcDbEntity
  8
94818605L00_BL3
100
AcDbLine
 62
7
  6
CENTER
 10
124.2625218913
 20
623.6736978507
 11
115.8625218913
 21
623.6736978507
  0
LINE
  5
31B
100
AcDbEntity
  8
94818605L00_BL3
100
AcDbLine
 62
7
  6
CENTER
 10
124.2625218913
 20
623.6736978507
 11
132.6625218913
 21
623.6736978507
  0
LINE
  5
31C
100
AcDbEntity
  8
94818605L00_BL3
100
AcDbLine
 62
7
  6
CENTER
 10
124.2625218913
 20
903.6736978507
 11
115.8625218913
 21
903.6736978507
  0
LINE
  5
31D
100
AcDbEntity
  8
94818605L00_BL3
100
AcDbLine
 62
7
  6
CENTER
 10
124.2625218913
 20
903.6736978507
 11
132.6625218913
 21
903.6736978507
  0
LINE
  5
31E
100
AcDbEntity
  8
94818605L00_BL3
100
AcDbLine
 62
7
  6
CONTINUOUS
 10
136.2625218913
 20
915.6736978507
 11
112.2625218913
 21
915.6736978507
  0
LINE
  5
31F
100
AcDbEntity
  8
94818605L00_BL3
100
AcDbLine
 62
7
  6
CONTINUOUS
 10
112.2625218913
 20
915.6736978507
 11
112.2625218913
 21
146.6736978507
  0
LINE
  5
320
100
AcDbEntity
  8
94818605L00_BL3
100
AcDbLine
 62
9
  6
CONTINUOUS
 10
115.2625218913
 20
915.6736978507
 11
115.2625218913
 21
310.014653385
  0
LINE
  5
321
100
AcDbEntity
  8
94818605L00_BL3
100
AcDbLine
 62
9
  6
CONTINUOUS
 10
115.2625218913
 20
243.3327423165
 11
115.2625218913
 21
146.6736978507
  0
LINE
  5
322
100
AcDbEntity
  8
94818605L00_BL3
100
AcDbLine
 62
7
  6
CENTER
 10
124.2625218913
 20
903.6736978507
 11
124.2625218913
 21
895.2736978507
  0
LINE
  5
323
100
AcDbEntity
  8
94818605L00_BL3
100
AcDbLine
 62
7
  6
CENTER
 10
124.2625218913
 20
623.6736978507
 11
124.2625218913
 21
615.2736978507
  0
LINE
  5
324
100
AcDbEntity
  8
94818605L00_BL3
100
AcDbLine
 62
7
  6
CENTER
 10
124.2625218913
 20
324.6736978507
 11
124.2625218913
 21
316.2736978507
  0
LINE
  5
325
100
AcDbEntity
  8
94818605L00_BL3
100
AcDbLine
 62
7
  6
CENTER
 10
124.2625218913
 20
228.6736978507
 11
124.2625218913
 21
220.2736978507
  0
LINE
  5
326
100
AcDbEntity
  8
94818605L00_BL3
100
AcDbLine
 62
7
  6
CENTER
 10
124.2625218913
 20
228.6736978507
 11
124.2625218913
 21
237.0736978507
  0
LINE
  5
327
100
AcDbEntity
  8
94818605L00_BL3
100
AcDbLine
 62
7
  6
CENTER
 10
124.2625218913
 20
324.6736978507
 11
124.2625218913
 21
333.0736978507
  0
LINE
  5
328
100
AcDbEntity
  8
94818605L00_BL3
100
AcDbLine
 62
7
  6
CENTER
 10
124.2625218913
 20
623.6736978507
 11
124.2625218913
 21
632.0736978507
  0
LINE
  5
329
100
AcDbEntity
  8
94818605L00_BL3
100
AcDbLine
 62
7
  6
CENTER
 10
124.2625218913
 20
903.6736978507
 11
124.2625218913
 21
912.0736978507
  0
LINE
  5
32A
100
AcDbEntity
  8
94818605L00_BL3
100
AcDbLine
 62
9
  6
CONTINUOUS
 10
133.2625218913
 20
915.6736978507
 11
133.2625218913
 21
146.6736978507
  0
LINE
  5
32B
100
AcDbEntity
  8
94818605L00_BL3
100
AcDbLine
 62
7
  6
CONTINUOUS
 10
136.2625218913
 20
915.6736978507
 11
136.2625218913
 21
146.6736978507
  0
LINE
  5
32C
100
AcDbEntity
  8
94818605L00_BL3
100
AcDbLine
 62
7
  6
CONTINUOUS
 10
29.2911212248
 20
146.6736978507
 11
23.2911212248
 21
146.6736978507
  0
LINE
  5
32D
100
AcDbEntity
  8
94818605L00_BL3
100
AcDbLine
 62
7
  6
CENTER
 10
30.2911212248
 20
228.6736978507
 11
22.2911212248
 21
228.6736978507
  0
LINE
  5
32E
100
AcDbEntity
  8
94818605L00_BL3
100
AcDbLine
 62
7
  6
CENTER
 10
30.2911212248
 20
324.6736978507
 11
22.2911212248
 21
324.6736978507
  0
LINE
  5
32F
100
AcDbEntity
  8
94818605L00_BL3
100
AcDbLine
 62
7
  6
CENTER
 10
30.2911212248
 20
623.6736978507
 11
22.2911212248
 21
623.6736978507
  0
LINE
  5
330
100
AcDbEntity
  8
94818605L00_BL3
100
AcDbLine
 62
7
  6
CONTINUOUS
 10
29.2911212248
 20
915.6736978507
 11
23.2911212248
 21
915.6736978507
  0
LINE
  5
331
100
AcDbEntity
  8
94818605L00_BL3
100
AcDbLine
 62
7
  6
CONTINUOUS
 10
23.2911212248
 20
915.6736978507
 11
23.2911212248
 21
146.6736978507
  0
LINE
  5
332
100
AcDbEntity
  8
94818605L00_BL3
100
AcDbLine
 62
9
  6
CONTINUOUS
 10
26.2911212248
 20
915.6736978507
 11
26.2911212248
 21
146.6736978507
  0
LINE
  5
333
100
AcDbEntity
  8
94818605L00_BL3
100
AcDbLine
 62
7
  6
CONTINUOUS
 10
29.2911212248
 20
915.6736978507
 11
29.2911212248
 21
146.6736978507
  0
CIRCLE
  5
334
100
AcDbEntity
  8
94818605L00_BL3
100
AcDbCircle
 62
7
  6
CONTINUOUS
 10
124.2625218913
 20
158.6736978507
 40
4.15
  0
CIRCLE
  5
335
100
AcDbEntity
  8
94818605L00_BL3
100
AcDbCircle
 62
7
  6
CONTINUOUS
 10
124.2625218913
 20
324.6736978507
 40
4.15
  0
CIRCLE
  5
336
100
AcDbEntity
  8
94818605L00_BL3
100
AcDbCircle
 62
7
  6
CONTINUOUS
 10
124.2625218913
 20
228.6736978507
 40
4.15
  0
CIRCLE
  5
337
100
AcDbEntity
  8
94818605L00_BL3
100
AcDbCircle
 62
7
  6
CONTINUOUS
 10
124.2625218913
 20
158.6736978507
 40
2.6
  0
CIRCLE
  5
338
100
AcDbEntity
  8
94818605L00_BL3
100
AcDbCircle
 62
7
  6
CONTINUOUS
 10
124.2625218913
 20
324.6736978507
 40
2.6
  0
CIRCLE
  5
339
100
AcDbEntity
  8
94818605L00_BL3
100
AcDbCircle
 62
7
  6
CONTINUOUS
 10
124.2625218913
 20
228.6736978507
 40
2.6
  0
CIRCLE
  5
33A
100
AcDbEntity
  8
94818605L00_BL3
100
AcDbCircle
 62
7
  6
CONTINUOUS
 10
124.2625218913
 20
623.6736978507
 40
4.15
  0
CIRCLE
  5
33B
100
AcDbEntity
  8
94818605L00_BL3
100
AcDbCircle
 62
7
  6
CONTINUOUS
 10
124.2625218913
 20
903.6736978507
 40
4.15
  0
CIRCLE
  5
33C
100
AcDbEntity
  8
94818605L00_BL3
100
AcDbCircle
 62
7
  6
CONTINUOUS
 10
124.2625218913
 20
623.6736978507
 40
2.6
  0
CIRCLE
  5
33D
100
AcDbEntity
  8
94818605L00_BL3
100
AcDbCircle
 62
7
  6
CONTINUOUS
 10
124.2625218913
 20
903.6736978507
 40
2.6
  0
ENDBLK
  5
33E
100
AcDbEntity
  8
0
  6
BYBLOCK
 62
0
100
AcDbBlockEnd
  0
BLOCK
  5
33F
100
AcDbEntity
  8
94528905000_M_BL4
100
AcDbBlockBegin
  2
94528905000_M_BL4
 70
64
 10
79.0282187326
 20
246.5736978507
  3
94528905000_M_BL4
  1

  0
LINE
  5
340
100
AcDbEntity
  8
94528905000_M_BL4
100
AcDbLine
 62
7
  6
CONTINUOUS
 10
122.3875218913
 20
244.0581533941
 11
124.1375218913
 21
244.0581533941
  0
LINE
  5
341
100
AcDbEntity
  8
94528905000_M_BL4
100
AcDbLine
 62
7
  6
CONTINUOUS
 10
124.1375218913
 20
247.0892423074
 11
122.3875218913
 21
247.0892423074
  0
LINE
  5
342
100
AcDbEntity
  8
94528905000_M_BL4
100
AcDbLine
 62
7
  6
CONTINUOUS
 10
121.5125218913
 20
245.5736978507
 11
122.3875218913
 21
244.0581533941
  0
LINE
  5
343
100
AcDbEntity
  8
94528905000_M_BL4
100
AcDbLine
 62
7
  6
CONTINUOUS
 10
125.0125218913
 20
245.5736978507
 11
124.1375218913
 21
247.0892423074
  0
LINE
  5
344
100
AcDbEntity
  8
94528905000_M_BL4
100
AcDbLine
 62
7
  6
CONTINUOUS
 10
122.3875218913
 20
247.0892423074
 11
121.5125218913
 21
245.5736978507
  0
LINE
  5
345
100
AcDbEntity
  8
94528905000_M_BL4
100
AcDbLine
 62
7
  6
CONTINUOUS
 10
124.1375218913
 20
244.0581533941
 11
125.0125218913
 21
245.5736978507
  0
CIRCLE
  5
346
100
AcDbEntity
  8
94528905000_M_BL4
100
AcDbCircle
 62
7
  6
CONTINUOUS
 10
123.2625218913
 20
246.5736978507
 40
5.5
  0
CIRCLE
  5
347
100
AcDbEntity
  8
94528905000_M_BL4
100
AcDbCircle
 62
7
  6
CONTINUOUS
 10
123.2625218913
 20
245.5736978507
 40
1.75
  0
CIRCLE
  5
348
100
AcDbEntity
  8
94528905000_M_BL4
100
AcDbCircle
 62
7
  6
CONTINUOUS
 10
123.2625218913
 20
245.5736978507
 40
1.515
  0
CIRCLE
  5
349
100
AcDbEntity
  8
94528905000_M_BL4
100
AcDbCircle
 62
7
  6
CONTINUOUS
 10
123.2625218913
 20
249.0736978507
 40
0.75
  0
ARC
  5
34A
100
AcDbEntity
  8
94528905000_M_BL4
100
AcDbCircle
 62
7
  6
CONTINUOUS
 10
25.9453699138
 20
245.5736978507
 40
4.0
100
AcDbArc
 50
326.8389561101
 51
33.1610438899
  0
ENDBLK
  5
34B
100
AcDbEntity
  8
0
  6
BYBLOCK
 62
0
100
AcDbBlockEnd
  0
BLOCK
  5
34C
100
AcDbEntity
  8
94529001000_BL5
100
AcDbBlockBegin
  2
94529001000_BL5
 70
64
 10
78.0268215581
 20
276.6736978507
  3
94529001000_BL5
  1

  0
LINE
  5
34D
100
AcDbEntity
  8
94529001000_BL5
100
AcDbLine
 62
7
  6
CONTINUOUS
 10
114.7625218913
 20
254.4236978507
 11
115.5625218913
 21
254.4236978507
  0
LINE
  5
34E
100
AcDbEntity
  8
94529001000_BL5
100
AcDbLine
 62
7
  6
CONTINUOUS
 10
130.9625218913
 20
254.4236978507
 11
131.7625218913
 21
254.4236978507
  0
LINE
  5
34F
100
AcDbEntity
  8
94529001000_BL5
100
AcDbLine
 62
7
  6
CONTINUOUS
 10
120.0625218913
 20
256.8736978507
 11
127.4625218913
 21
256.8736978507
  0
LINE
  5
350
100
AcDbEntity
  8
94529001000_BL5
100
AcDbLine
 62
7
  6
CONTINUOUS
 10
120.0625218913
 20
257.6736978507
 11
127.4625218913
 21
257.6736978507
  0
LINE
  5
351
100
AcDbEntity
  8
94529001000_BL5
100
AcDbLine
 62
9
  6
CONTINUOUS
 10
118.0625218913
 20
259.6736978507
 11
117.2625218913
 21
259.6736978507
  0
LINE
  5
352
100
AcDbEntity
  8
94529001000_BL5
100
AcDbLine
 62
9
  6
CONTINUOUS
 10
129.4625218913
 20
259.6736978507
 11
130.2625218913
 21
259.6736978507
  0
LINE
  5
353
100
AcDbEntity
  8
94529001000_BL5
100
AcDbLine
 62
7
  6
CONTINUOUS
 10
115.5625218913
 20
276.5236978507
 11
117.2625218913
 21
276.5236978507
  0
LINE
  5
354
100
AcDbEntity
  8
94529001000_BL5
100
AcDbLine
 62
7
  6
CENTER
 10
134.7625218913
 20
276.6736978507
 11
111.7625218913
 21
276.6736978507
  0
LINE
  5
355
100
AcDbEntity
  8
94529001000_BL5
100
AcDbLine
 62
7
  6
CONTINUOUS
 10
115.4125218913
 20
276.6736978507
 11
117.4125218913
 21
276.6736978507
  0
LINE
  5
356
100
AcDbEntity
  8
94529001000_BL5
100
AcDbLine
 62
7
  6
CONTINUOUS
 10
115.5625218913
 20
276.8236978507
 11
117.2625218913
 21
276.8236978507
  0
LINE
  5
357
100
AcDbEntity
  8
94529001000_BL5
100
AcDbLine
 62
9
  6
CONTINUOUS
 10
118.0625218913
 20
293.6736978507
 11
117.2625218913
 21
293.6736978507
  0
LINE
  5
358
100
AcDbEntity
  8
94529001000_BL5
100
AcDbLine
 62
9
  6
CONTINUOUS
 10
129.4625218913
 20
293.6736978507
 11
130.2625218913
 21
293.6736978507
  0
LINE
  5
359
100
AcDbEntity
  8
94529001000_BL5
100
AcDbLine
 62
7
  6
CONTINUOUS
 10
127.4625218913
 20
295.6736978507
 11
120.0625218913
 21
295.6736978507
  0
LINE
  5
35A
100
AcDbEntity
  8
94529001000_BL5
100
AcDbLine
 62
7
  6
CONTINUOUS
 10
127.4625218913
 20
296.4736978507
 11
120.0625218913
 21
296.4736978507
  0
LINE
  5
35B
100
AcDbEntity
  8
94529001000_BL5
100
AcDbLine
 62
7
  6
CONTINUOUS
 10
114.7625218913
 20
298.9236978507
 11
115.5625218913
 21
298.9236978507
  0
LINE
  5
35C
100
AcDbEntity
  8
94529001000_BL5
100
AcDbLine
 62
7
  6
CONTINUOUS
 10
130.9625218913
 20
298.9236978507
 11
131.7625218913
 21
298.9236978507
  0
LINE
  5
35D
100
AcDbEntity
  8
94529001000_BL5
100
AcDbLine
 62
7
  6
CONTINUOUS
 10
115.5625218913
 20
276.5236978507
 11
115.4125218913
 21
276.6736978507
  0
LINE
  5
35E
100
AcDbEntity
  8
94529001000_BL5
100
AcDbLine
 62
7
  6
CONTINUOUS
 10
117.2625218913
 20
276.8236978507
 11
117.4125218913
 21
276.6736978507
  0
LINE
  5
35F
100
AcDbEntity
  8
94529001000_BL5
100
AcDbLine
 62
7
  6
CONTINUOUS
 10
114.7625218913
 20
246.1736978507
 11
114.7625218913
 21
307.1736978507
  0
LINE
  5
360
100
AcDbEntity
  8
94529001000_BL5
100
AcDbLine
 62
7
  6
CONTINUOUS
 10
115.5625218913
 20
254.4236978507
 11
115.5625218913
 21
276.5236978507
  0
LINE
  5
361
100
AcDbEntity
  8
94529001000_BL5
100
AcDbLine
 62
7
  6
CONTINUOUS
 10
115.5625218913
 20
276.8236978507
 11
115.5625218913
 21
298.9236978507
  0
LINE
  5
362
100
AcDbEntity
  8
94529001000_BL5
100
AcDbLine
 62
7
  6
CONTINUOUS
 10
117.2625218913
 20
293.6736978507
 11
117.2625218913
 21
276.8236978507
  0
LINE
  5
363
100
AcDbEntity
  8
94529001000_BL5
100
AcDbLine
 62
7
  6
CONTINUOUS
 10
117.2625218913
 20
276.5236978507
 11
117.2625218913
 21
259.6736978507
  0
LINE
  5
364
100
AcDbEntity
  8
94529001000_BL5
100
AcDbLine
 62
7
  6
CONTINUOUS
 10
118.0625218913
 20
293.6736978507
 11
118.0625218913
 21
259.6736978507
  0
LINE
  5
365
100
AcDbEntity
  8
94529001000_BL5
100
AcDbLine
 62
9
  6
CONTINUOUS
 10
120.0625218913
 20
257.6736978507
 11
120.0625218913
 21
256.8736978507
  0
LINE
  5
366
100
AcDbEntity
  8
94529001000_BL5
100
AcDbLine
 62
9
  6
CONTINUOUS
 10
120.0625218913
 20
295.6736978507
 11
120.0625218913
 21
296.4736978507
  0
LINE
  5
367
100
AcDbEntity
  8
94529001000_BL5
100
AcDbLine
 62
7
  6
CENTER
 10
123.2625218913
 20
318.6871705162
 11
123.2625218913
 21
234.6602251853
  0
LINE
  5
368
100
AcDbEntity
  8
94529001000_BL5
100
AcDbLine
 62
9
  6
CONTINUOUS
 10
127.4625218913
 20
257.6736978507
 11
127.4625218913
 21
256.8736978507
  0
LINE
  5
369
100
AcDbEntity
  8
94529001000_BL5
100
AcDbLine
 62
9
  6
CONTINUOUS
 10
127.4625218913
 20
295.6736978507
 11
127.4625218913
 21
296.4736978507
  0
LINE
  5
36A
100
AcDbEntity
  8
94529001000_BL5
100
AcDbLine
 62
7
  6
CONTINUOUS
 10
129.4625218913
 20
259.6736978507
 11
129.4625218913
 21
293.6736978507
  0
LINE
  5
36B
100
AcDbEntity
  8
94529001000_BL5
100
AcDbLine
 62
7
  6
CONTINUOUS
 10
130.2625218913
 20
259.6736978507
 11
130.2625218913
 21
293.6736978507
  0
LINE
  5
36C
100
AcDbEntity
  8
94529001000_BL5
100
AcDbLine
 62
7
  6
CONTINUOUS
 10
130.9625218913
 20
254.4236978507
 11
130.9625218913
 21
298.9236978507
  0
LINE
  5
36D
100
AcDbEntity
  8
94529001000_BL5
100
AcDbLine
 62
7
  6
CONTINUOUS
 10
131.7625218913
 20
246.1736978507
 11
131.7625218913
 21
307.1736978507
  0
LINE
  5
36E
100
AcDbEntity
  8
94529001000_BL5
100
AcDbLine
 62
7
  6
CONTINUOUS
 10
115.5625218913
 20
276.8236978507
 11
115.4125218913
 21
276.6736978507
  0
LINE
  5
36F
100
AcDbEntity
  8
94529001000_BL5
100
AcDbLine
 62
7
  6
CONTINUOUS
 10
117.2625218913
 20
276.5236978507
 11
117.4125218913
 21
276.6736978507
  0
LINE
  5
370
100
AcDbEntity
  8
94529001000_BL5
100
AcDbLine
 62
7
  6
CONTINUOUS
 10
23.2911212248
 20
237.6736978507
 11
21.2911212248
 21
237.6736978507
  0
LINE
  5
371
100
AcDbEntity
  8
94529001000_BL5
100
AcDbLine
 62
9
  6
CONTINUOUS
 10
21.2911212248
 20
246.1736978507
 11
23.2911212248
 21
246.1736978507
  0
LINE
  5
372
100
AcDbEntity
  8
94529001000_BL5
100
AcDbLine
 62
7
  6
CONTINUOUS
 10
21.2911212248
 20
254.4236978507
 11
22.0911212248
 21
254.4236978507
  0
LINE
  5
373
100
AcDbEntity
  8
94529001000_BL5
100
AcDbLine
 62
7
  6
CONTINUOUS
 10
21.2911212248
 20
298.9236978507
 11
22.0911212248
 21
298.9236978507
  0
LINE
  5
374
100
AcDbEntity
  8
94529001000_BL5
100
AcDbLine
 62
9
  6
CONTINUOUS
 10
21.2911212248
 20
307.1736978507
 11
23.2911212248
 21
307.1736978507
  0
LINE
  5
375
100
AcDbEntity
  8
94529001000_BL5
100
AcDbLine
 62
7
  6
CONTINUOUS
 10
23.2911212248
 20
315.6736978507
 11
21.2911212248
 21
315.6736978507
  0
LINE
  5
376
100
AcDbEntity
  8
94529001000_BL5
100
AcDbLine
 62
7
  6
CONTINUOUS
 10
21.2911212248
 20
237.6736978507
 11
21.2911212248
 21
315.6736978507
  0
LINE
  5
377
100
AcDbEntity
  8
94529001000_BL5
100
AcDbLine
 62
7
  6
CONTINUOUS
 10
22.0911212248
 20
254.4236978507
 11
22.0911212248
 21
298.9236978507
  0
ARC
  5
378
100
AcDbEntity
  8
94529001000_BL5
100
AcDbCircle
 62
7
  6
CONTINUOUS
 10
120.0625218913
 20
259.6736978507
 40
2.7999942656
100
AcDbArc
 50
180.0
 51
270.0
  0
ARC
  5
379
100
AcDbEntity
  8
94529001000_BL5
100
AcDbCircle
 62
7
  6
CONTINUOUS
 10
120.0625218913
 20
259.6736978507
 40
2.0
100
AcDbArc
 50
180.0
 51
270.0
  0
ARC
  5
37A
100
AcDbEntity
  8
94529001000_BL5
100
AcDbCircle
 62
7
  6
CONTINUOUS
 10
120.0625218913
 20
293.6736978507
 40
2.7999942656
100
AcDbArc
 50
90.0
 51
180.0
  0
ARC
  5
37B
100
AcDbEntity
  8
94529001000_BL5
100
AcDbCircle
 62
7
  6
CONTINUOUS
 10
120.0625218913
 20
293.6736978507
 40
2.0
100
AcDbArc
 50
90.0
 51
180.0
  0
ARC
  5
37C
100
AcDbEntity
  8
94529001000_BL5
100
AcDbCircle
 62
7
  6
CONTINUOUS
 10
123.2625218913
 20
246.1736978507
 40
8.5
100
AcDbArc
 50
180.0
 51
360.0
  0
CIRCLE
  5
37D
100
AcDbEntity
  8
94529001000_BL5
100
AcDbCircle
 62
7
  6
CONTINUOUS
 10
123.2625218913
 20
246.5736978507
 40
5.65
  0
ARC
  5
37E
100
AcDbEntity
  8
94529001000_BL5
100
AcDbCircle
 62
7
  6
CONTINUOUS
 10
123.2625218913
 20
307.1736978507
 40
8.5
100
AcDbArc
 50
0.0
 51
180.0
  0
CIRCLE
  5
37F
100
AcDbEntity
  8
94529001000_BL5
100
AcDbCircle
 62
7
  6
CONTINUOUS
 10
123.2625218913
 20
306.7736978507
 40
5.65
  0
ARC
  5
380
100
AcDbEntity
  8
94529001000_BL5
100
AcDbCircle
 62
7
  6
CONTINUOUS
 10
127.4625218913
 20
259.6736978507
 40
2.7999942656
100
AcDbArc
 50
270.0
 51
360.0
  0
ARC
  5
381
100
AcDbEntity
  8
94529001000_BL5
100
AcDbCircle
 62
7
  6
CONTINUOUS
 10
127.4625218913
 20
293.6736978507
 40
2.7999942656
100
AcDbArc
 50
0.0
 51
90.0
  0
ARC
  5
382
100
AcDbEntity
  8
94529001000_BL5
100
AcDbCircle
 62
7
  6
CONTINUOUS
 10
127.4625218913
 20
259.6736978507
 40
2.0
100
AcDbArc
 50
270.0
 51
360.0
  0
ARC
  5
383
100
AcDbEntity
  8
94529001000_BL5
100
AcDbCircle
 62
7
  6
CONTINUOUS
 10
127.4625218913
 20
293.6736978507
 40
2.0
100
AcDbArc
 50
0.0
 51
90.0
  0
ENDBLK
  5
384
100
AcDbEntity
  8
0
  6
BYBLOCK
 62
0
100
AcDbBlockEnd
  0
BLOCK
  5
385
100
AcDbEntity
  8
94673901000_BL6
100
AcDbBlockBegin
  2
94673901000_BL6
 70
64
 10
75.6268215581
 20
201.1842975239
  3
94673901000_BL6
  1

  0
LINE
  5
386
100
AcDbEntity
  8
94673901000_BL6
100
AcDbLine
 62
9
  6
CONTINUOUS
 10
126.515371641
 20
258.3318043103
 11
120.0096721416
 21
258.3318043103
  0
LINE
  5
387
100
AcDbEntity
  8
94673901000_BL6
100
AcDbLine
 62
9
  6
CONTINUOUS
 10
129.1624839032
 20
259.6736978507
 11
129.4625218913
 21
259.6736978507
  0
LINE
  5
388
100
AcDbEntity
  8
94673901000_BL6
100
AcDbLine
 62
9
  6
CONTINUOUS
 10
118.0625218913
 20
260.320848101
 11
128.5044154318
 21
260.320848101
  0
LINE
  5
389
100
AcDbEntity
  8
94673901000_BL6
100
AcDbLine
 62
7
  6
CONTINUOUS
 10
123.2625218913
 20
276.2736978507
 11
124.7625218913
 21
276.2736978507
  0
LINE
  5
38A
100
AcDbEntity
  8
94673901000_BL6
100
AcDbLine
 62
7
  6
CONTINUOUS
 10
124.7625218913
 20
277.0736978507
 11
123.2625218913
 21
277.0736978507
  0
LINE
  5
38B
100
AcDbEntity
  8
94673901000_BL6
100
AcDbLine
 62
9
  6
CONTINUOUS
 10
118.0625218913
 20
293.0265476005
 11
128.5044154318
 21
293.0265476005
  0
LINE
  5
38C
100
AcDbEntity
  8
94673901000_BL6
100
AcDbLine
 62
9
  6
CONTINUOUS
 10
129.4625218913
 20
293.6736978507
 11
129.1624839032
 21
293.6736978507
  0
LINE
  5
38D
100
AcDbEntity
  8
94673901000_BL6
100
AcDbLine
 62
9
  6
CONTINUOUS
 10
120.0096721416
 20
295.0155913912
 11
126.515371641
 21
295.0155913912
  0
LINE
  5
38E
100
AcDbEntity
  8
94673901000_BL6
100
AcDbLine
 62
7
  6
CONTINUOUS
 10
121.2625218913
 20
276.6736978507
 11
123.2625218913
 21
275.5189973124
  0
LINE
  5
38F
100
AcDbEntity
  8
94673901000_BL6
100
AcDbLine
 62
9
  6
CONTINUOUS
 10
126.9600457186
 20
257.8871302327
 11
126.515371641
 21
258.3318043103
  0
LINE
  5
390
100
AcDbEntity
  8
94673901000_BL6
100
AcDbLine
 62
9
  6
CONTINUOUS
 10
128.9490895094
 20
259.8761740234
 11
128.5044154318
 21
260.320848101
  0
LINE
  5
391
100
AcDbEntity
  8
94673901000_BL6
100
AcDbLine
 62
9
  6
CONTINUOUS
 10
119.564998064
 20
295.4602654688
 11
120.0096721416
 21
295.0155913912
  0
LINE
  5
392
100
AcDbEntity
  8
94673901000_BL6
100
AcDbLine
 62
9
  6
CONTINUOUS
 10
120.0096721416
 20
258.3318043103
 11
120.0096721416
 21
295.0155913912
  0
LINE
  5
393
100
AcDbEntity
  8
94673901000_BL6
100
AcDbLine
 62
7
  6
CONTINUOUS
 10
123.2625218913
 20
275.5189973124
 11
123.2625218913
 21
276.2736978507
  0
LINE
  5
394
100
AcDbEntity
  8
94673901000_BL6
100
AcDbLine
 62
7
  6
CONTINUOUS
 10
123.2625218913
 20
277.0736978507
 11
123.2625218913
 21
277.8283983891
  0
LINE
  5
395
100
AcDbEntity
  8
94673901000_BL6
100
AcDbLine
 62
7
  6
CONTINUOUS
 10
124.7625218913
 20
276.2736978507
 11
124.7625218913
 21
277.0736978507
  0
LINE
  5
396
100
AcDbEntity
  8
94673901000_BL6
100
AcDbLine
 62
9
  6
CONTINUOUS
 10
126.515371641
 20
258.3318043103
 11
126.515371641
 21
295.0155913912
  0
LINE
  5
397
100
AcDbEntity
  8
94673901000_BL6
100
AcDbLine
 62
9
  6
CONTINUOUS
 10
128.5044154318
 20
293.0265476005
 11
128.5044154318
 21
260.320848101
  0
LINE
  5
398
100
AcDbEntity
  8
94673901000_BL6
100
AcDbLine
 62
7
  6
CONTINUOUS
 10
129.1570136117
 20
293.673640331
 11
129.1570136117
 21
259.6737553705
  0
LINE
  5
399
100
AcDbEntity
  8
94673901000_BL6
100
AcDbLine
 62
9
  6
CONTINUOUS
 10
126.515371641
 20
295.0155913912
 11
126.9600457186
 21
295.4602654688
  0
LINE
  5
39A
100
AcDbEntity
  8
94673901000_BL6
100
AcDbLine
 62
9
  6
CONTINUOUS
 10
128.5044154318
 20
293.0265476005
 11
128.9490895094
 21
293.4712216781
  0
LINE
  5
39B
100
AcDbEntity
  8
94673901000_BL6
100
AcDbLine
 62
9
  6
CONTINUOUS
 10
120.0096721416
 20
258.3318043103
 11
119.564998064
 21
257.8871302327
  0
LINE
  5
39C
100
AcDbEntity
  8
94673901000_BL6
100
AcDbLine
 62
7
  6
CONTINUOUS
 10
123.2625218913
 20
277.8283983891
 11
121.2625218913
 21
276.6736978507
  0
LINE
  5
39D
100
AcDbEntity
  8
94673901000_BL6
100
AcDbLine
 62
7
  6
CONTINUOUS
 10
31.2911212248
 20
256.6736978507
 11
37.6047066146
 21
257.3372824149
  0
LINE
  5
39E
100
AcDbEntity
  8
94673901000_BL6
100
AcDbLine
 62
9
  6
CONTINUOUS
 10
31.2915471816
 20
259.6573083067
 11
37.6047066146
 21
260.320848101
  0
LINE
  5
39F
100
AcDbEntity
  8
94673901000_BL6
100
AcDbLine
 62
7
  6
CONTINUOUS
 10
31.2911212248
 20
256.6736978507
 11
29.2911212248
 21
256.6736978507
  0
LINE
  5
3A0
100
AcDbEntity
  8
94673901000_BL6
100
AcDbLine
 62
9
  6
CONTINUOUS
 10
31.2911212248
 20
259.6736978507
 11
29.2911212248
 21
259.6736978507
  0
LINE
  5
3A1
100
AcDbEntity
  8
94673901000_BL6
100
AcDbLine
 62
9
  6
CONTINUOUS
 10
40.2911212248
 20
260.320848101
 11
37.6047066147
 21
260.3208481089
  0
LINE
  5
3A2
100
AcDbEntity
  8
94673901000_BL6
100
AcDbLine
 62
7
  6
CONTINUOUS
 10
40.2911212248
 20
275.5189973124
 11
40.4911212248
 21
275.5189973124
  0
LINE
  5
3A3
100
AcDbEntity
  8
94673901000_BL6
100
AcDbLine
 62
7
  6
CONTINUOUS
 10
40.2911212248
 20
276.2736978507
 11
40.4911212248
 21
276.2736978507
  0
LINE
  5
3A4
100
AcDbEntity
  8
94673901000_BL6
100
AcDbLine
 62
7
  6
CENTER
 10
21.7911212248
 20
276.6736978507
 11
43.4911212248
 21
276.6736978507
  0
LINE
  5
3A5
100
AcDbEntity
  8
94673901000_BL6
100
AcDbLine
 62
7
  6
CONTINUOUS
 10
40.2911212248
 20
277.0736978507
 11
40.4911212248
 21
277.0736978507
  0
LINE
  5
3A6
100
AcDbEntity
  8
94673901000_BL6
100
AcDbLine
 62
7
  6
CONTINUOUS
 10
40.2911212248
 20
277.8283983891
 11
40.4911212248
 21
277.8283983891
  0
LINE
  5
3A7
100
AcDbEntity
  8
94673901000_BL6
100
AcDbLine
 62
9
  6
CONTINUOUS
 10
40.2911212248
 20
293.0265476005
 11
37.6047066146
 21
293.0265476005
  0
LINE
  5
3A8
100
AcDbEntity
  8
94673901000_BL6
100
AcDbLine
 62
9
  6
CONTINUOUS
 10
29.2911212248
 20
293.6736978507
 11
31.2911212248
 21
293.6736978507
  0
LINE
  5
3A9
100
AcDbEntity
  8
94673901000_BL6
100
AcDbLine
 62
7
  6
CONTINUOUS
 10
29.2911212248
 20
296.6736978507
 11
31.2911212248
 21
296.6736978507
  0
LINE
  5
3AA
100
AcDbEntity
  8
94673901000_BL6
100
AcDbLine
 62
9
  6
CONTINUOUS
 10
37.6047066146
 20
293.0265476005
 11
31.2915471816
 21
293.6900873948
  0
LINE
  5
3AB
100
AcDbEntity
  8
94673901000_BL6
100
AcDbLine
 62
7
  6
CONTINUOUS
 10
37.6047066146
 20
296.0101132866
 11
31.2915471816
 21
296.6736530809
  0
LINE
  5
3AC
100
AcDbEntity
  8
94673901000_BL6
100
AcDbLine
 62
7
  6
CONTINUOUS
 10
31.2911212248
 20
293.6736978507
 11
31.2911212248
 21
259.6736978507
  0
LINE
  5
3AD
100
AcDbEntity
  8
94673901000_BL6
100
AcDbLine
 62
9
  6
CONTINUOUS
 10
37.6047066146
 20
293.0265476005
 11
37.6047066146
 21
260.320848101
  0
LINE
  5
3AE
100
AcDbEntity
  8
94673901000_BL6
100
AcDbLine
 62
7
  6
CONTINUOUS
 10
40.2911212248
 20
293.0265476005
 11
40.2911212248
 21
260.320848101
  0
LINE
  5
3AF
100
AcDbEntity
  8
94673901000_BL6
100
AcDbLine
 62
7
  6
CONTINUOUS
 10
40.4911212248
 20
277.8283983891
 11
40.4911212248
 21
275.5189973124
  0
LINE
  5
3B0
100
AcDbEntity
  8
94673901000_BL6
100
AcDbLine
 62
7
  6
CENTER
 10
21.7911212248
 20
105.6948971971
 11
43.4911212248
 21
105.6948971971
  0
ARC
  5
3B1
100
AcDbEntity
  8
94673901000_BL6
100
AcDbCircle
 62
9
  6
CONTINUOUS
 10
119.589582024
 20
259.8990077172
 40
2.0120276794
100
AcDbArc
 50
253.0166699288
 51
269.2999141101
  0
ARC
  5
3B2
100
AcDbEntity
  8
94673901000_BL6
100
AcDbCircle
 62
9
  6
CONTINUOUS
 10
120.030447023
 20
260.3449896865
 40
2.0099748627
100
AcDbArc
 50
191.2311602252
 51
198.407342546
  0
ARC
  5
3B3
100
AcDbEntity
  8
94673901000_BL6
100
AcDbCircle
 62
9
  6
CONTINUOUS
 10
120.0116390772
 20
260.3391688485
 40
1.9902912088
100
AcDbArc
 50
198.4193175977
 51
198.7088604117
  0
ARC
  5
3B4
100
AcDbEntity
  8
94673901000_BL6
100
AcDbCircle
 62
9
  6
CONTINUOUS
 10
119.5895812148
 20
293.4483928487
 40
2.0120228054
100
AcDbArc
 50
90.7000645416
 51
106.9806663763
  0
ARC
  5
3B5
100
AcDbEntity
  8
94673901000_BL6
100
AcDbCircle
 62
9
  6
CONTINUOUS
 10
120.030447023
 20
293.002406015
 40
2.0099748627
100
AcDbArc
 50
161.5926574539
 51
168.7688397749
  0
ARC
  5
3B6
100
AcDbEntity
  8
94673901000_BL6
100
AcDbCircle
 62
9
  6
CONTINUOUS
 10
120.0116390634
 20
293.0082268576
 40
1.9902911943
100
AcDbArc
 50
161.2911395864
 51
161.5806824025
  0
ARC
  5
3B7
100
AcDbEntity
  8
94673901000_BL6
100
AcDbCircle
 62
7
  6
CONTINUOUS
 10
127.1518785744
 20
259.7062769864
 40
2.0327511965
100
AcDbArc
 50
278.3271761057
 51
283.9682282896
  0
ARC
  5
3B8
100
AcDbEntity
  8
94673901000_BL6
100
AcDbCircle
 62
7
  6
CONTINUOUS
 10
127.1518918273
 20
293.6411935729
 40
2.0326753593
100
AcDbArc
 50
76.0316145018
 51
81.3540527655
  0
ARC
  5
3B9
100
AcDbEntity
  8
94673901000_BL6
100
AcDbCircle
 62
7
  6
CONTINUOUS
 10
127.1544560874
 20
293.6516825686
 40
2.0218775558
100
AcDbArc
 50
73.6053211144
 51
76.0303826764
  0
ARC
  5
3BA
100
AcDbEntity
  8
94673901000_BL6
100
AcDbCircle
 62
7
  6
CONTINUOUS
 10
127.1544562801
 20
259.6957122362
 40
2.021876633
100
AcDbArc
 50
283.9696077066
 51
286.3951342496
  0
ARC
  5
3BB
100
AcDbEntity
  8
94673901000_BL6
100
AcDbCircle
 62
7
  6
CONTINUOUS
 10
127.1632579632
 20
293.6726663669
 40
1.9992641942
100
AcDbArc
 50
0.029560712
 51
73.6775766837
  0
ARC
  5
3BC
100
AcDbEntity
  8
94673901000_BL6
100
AcDbCircle
 62
7
  6
CONTINUOUS
 10
127.1632580432
 20
259.6747293041
 40
1.9992641142
100
AcDbArc
 50
286.3228799203
 51
359.970440159
  0
ARC
  5
3BD
100
AcDbEntity
  8
94673901000_BL6
100
AcDbCircle
 62
7
  6
CONTINUOUS
 10
37.2911212248
 20
260.320848101
 40
3.0
100
AcDbArc
 50
276.0000000028
 51
360.0
  0
ARC
  5
3BE
100
AcDbEntity
  8
94673901000_BL6
100
AcDbCircle
 62
7
  6
CONTINUOUS
 10
37.2911212248
 20
293.0265476005
 40
3.0
100
AcDbArc
 50
0.0
 51
84.0
  0
SPLINE
  5
3BF
100
AcDbEntity
  8
94673901000_BL6
100
AcDbSpline
 62
9
  6
CONTINUOUS
 70
0
 71
3
 72
15
 73
11
 74
0
 42
0.0000001
 43
0.0000001
 44
0.0000000001
 40
0.0
 40
0.0
 40
0.0
 40
0.0
 40
0.0496003836
 40
0.098122615
 40
0.1682822838
 40
0.2520846427
 40
0.4081783296
 40
0.5242973605
 40
0.7764562012
 40
1.0
 40
1.0
 40
1.0
 40
1.0
 10
129.1570136117
 20
293.673640331
 30
0.0
 10
129.1539401093
 20
293.6776279225
 30
0.0
 10
129.1439378679
 20
293.6849747519
 30
0.0
 10
129.1282997796
 20
293.6730215207
 30
0.0
 10
129.1172109333
 20
293.6565041911
 30
0.0
 10
129.1012472697
 20
293.629097234
 30
0.0
 10
129.0838694397
 20
293.597160812
 30
0.0
 10
129.0412762266
 20
293.5624446253
 30
0.0
 10
129.0043014361
 20
293.5275787614
 30
0.0
 10
128.9695084237
 20
293.4613259551
 30
0.0
 10
128.9490895094
 20
293.4712216781
 30
0.0
  0
SPLINE
  5
3C0
100
AcDbEntity
  8
94673901000_BL6
100
AcDbSpline
 62
9
  6
CONTINUOUS
 70
0
 71
3
 72
15
 73
11
 74
0
 42
0.0000001
 43
0.0000001
 44
0.0000000001
 40
0.0
 40
0.0
 40
0.0
 40
0.0
 40
0.0496003836
 40
0.098122615
 40
0.1682822838
 40
0.2520846427
 40
0.4081783296
 40
0.5242973605
 40
0.7764562012
 40
1.0
 40
1.0
 40
1.0
 40
1.0
 10
129.1570136117
 20
259.6737553705
 30
0.0
 10
129.1539401093
 20
259.6697677789
 30
0.0
 10
129.1439378679
 20
259.6624209496
 30
0.0
 10
129.1282997796
 20
259.6743741808
 30
0.0
 10
129.1172109333
 20
259.6908915104
 30
0.0
 10
129.1012472697
 20
259.7182984675
 30
0.0
 10
129.0838694397
 20
259.7502348895
 30
0.0
 10
129.0412762266
 20
259.7849510762
 30
0.0
 10
129.0043014361
 20
259.8198169401
 30
0.0
 10
128.9695084237
 20
259.8860697464
 30
0.0
 10
128.9490895094
 20
259.8761740234
 30
0.0
  0
SPLINE
  5
3C1
100
AcDbEntity
  8
94673901000_BL6
100
AcDbSpline
 62
9
  6
CONTINUOUS
 70
0
 71
3
 72
9
 73
5
 74
0
 42
0.0000001
 43
0.0000001
 44
0.0000000001
 40
0.0
 40
0.0
 40
0.0
 40
0.0
 40
0.5071087384
 40
1.0
 40
1.0
 40
1.0
 40
1.0
 10
119.4565884419
 20
295.5764998044
 30
0.0
 10
119.4739697465
 20
295.5560079571
 30
0.0
 10
119.4983055958
 20
295.5179534742
 30
0.0
 10
119.5763977228
 20
295.4837634465
 30
0.0
 10
119.564998064
 20
295.4602654688
 30
0.0
  0
SPLINE
  5
3C2
100
AcDbEntity
  8
94673901000_BL6
100
AcDbSpline
 62
9
  6
CONTINUOUS
 70
0
 71
3
 72
16
 73
12
 74
0
 42
0.0000001
 43
0.0000001
 44
0.0000000001
 40
0.0
 40
0.0
 40
0.0
 40
0.0
 40
0.0518457162
 40
0.0996592902
 40
0.1687964974
 40
0.2518181064
 40
0.4066326948
 40
0.5218483669
 40
0.6336359316
 40
0.7750325309
 40
1.0
 40
1.0
 40
1.0
 40
1.0
 10
127.1555352934
 20
295.6681895712
 30
0.0
 10
127.1597538942
 20
295.6651385887
 30
0.0
 10
127.167889147
 20
295.6556595516
 30
0.0
 10
127.1569706246
 20
295.6393970173
 30
0.0
 10
127.1408379552
 20
295.628381948
 30
0.0
 10
127.1142703574
 20
295.6124505275
 30
0.0
 10
127.0829691256
 20
295.5946717392
 30
0.0
 10
127.058915412
 20
295.5646700183
 30
0.0
 10
127.0360209973
 20
295.5342466451
 30
0.0
 10
127.0009578711
 20
295.5093383473
 30
0.0
 10
126.9501852448
 20
295.4805907434
 30
0.0
 10
126.9600457186
 20
295.4602654688
 30
0.0
  0
SPLINE
  5
3C3
100
AcDbEntity
  8
94673901000_BL6
100
AcDbSpline
 62
9
  6
CONTINUOUS
 70
0
 71
3
 72
16
 73
12
 74
0
 42
0.0000001
 43
0.0000001
 44
0.0000000001
 40
0.0
 40
0.0
 40
0.0
 40
0.0
 40
0.0518457162
 40
0.0996592902
 40
0.1687964974
 40
0.2518181064
 40
0.4066326948
 40
0.5218483669
 40
0.6336359316
 40
0.7750325309
 40
1.0
 40
1.0
 40
1.0
 40
1.0
 10
127.1555352934
 20
257.6792061303
 30
0.0
 10
127.1597538942
 20
257.6822571128
 30
0.0
 10
127.167889147
 20
257.6917361499
 30
0.0
 10
127.1569706246
 20
257.7079986842
 30
0.0
 10
127.1408379552
 20
257.7190137535
 30
0.0
 10
127.1142703574
 20
257.734945174
 30
0.0
 10
127.0829691256
 20
257.7527239623
 30
0.0
 10
127.058915412
 20
257.7827256831
 30
0.0
 10
127.0360209973
 20
257.8131490564
 30
0.0
 10
127.0009578711
 20
257.8380573542
 30
0.0
 10
126.9501852448
 20
257.866804958
 30
0.0
 10
126.9600457186
 20
257.8871302327
 30
0.0
  0
SPLINE
  5
3C4
100
AcDbEntity
  8
94673901000_BL6
100
AcDbSpline
 62
9
  6
CONTINUOUS
 70
0
 71
3
 72
9
 73
5
 74
0
 42
0.0000001
 43
0.0000001
 44
0.0000000001
 40
0.0
 40
0.0
 40
0.0
 40
0.0
 40
0.507127267
 40
1.0
 40
1.0
 40
1.0
 40
1.0
 10
119.4566002502
 20
257.7709098201
 30
0.0
 10
119.4739779236
 20
257.7914020141
 30
0.0
 10
119.4983187774
 20
257.8294446747
 30
0.0
 10
119.5763959935
 20
257.8636358194
 30
0.0
 10
119.564998064
 20
257.8871302327
 30
0.0
  0
SPLINE
  5
3C5
100
AcDbEntity
  8
94673901000_BL6
100
AcDbSpline
 62
9
  6
CONTINUOUS
 70
0
 71
3
 72
9
 73
5
 74
0
 42
0.0000001
 43
0.0000001
 44
0.0000000001
 40
0.0
 40
0.0
 40
0.0
 40
0.0
 40
0.5004894952
 40
1.0
 40
1.0
 40
1.0
 40
1.0
 10
118.126513491
 20
293.6466315993
 30
0.0
 10
118.2572384446
 20
294.0326456798
 30
0.0
 10
118.7717561051
 20
294.7393046425
 30
0.0
 10
119.6029449831
 20
295.0111474104
 30
0.0
 10
120.0096721416
 20
295.0155913912
 30
0.0
  0
SPLINE
  5
3C6
100
AcDbEntity
  8
94673901000_BL6
100
AcDbSpline
 62
9
  6
CONTINUOUS
 70
0
 71
3
 72
11
 73
7
 74
0
 42
0.0000001
 43
0.0000001
 44
0.0000000001
 40
0.0
 40
0.0
 40
0.0
 40
0.0
 40
0.2496681654
 40
0.5
 40
0.7503318346
 40
1.0
 40
1.0
 40
1.0
 40
1.0
 10
126.515371641
 20
295.0155913912
 30
0.0
 10
126.7728674142
 20
295.0127779418
 30
0.0
 10
127.2928623209
 20
294.9045650179
 30
0.0
 10
127.9497145309
 20
294.4608904905
 30
0.0
 10
128.3933890584
 20
293.8040382804
 30
0.0
 10
128.5016019823
 20
293.2840433737
 30
0.0
 10
128.5044154318
 20
293.0265476005
 30
0.0
  0
SPLINE
  5
3C7
100
AcDbEntity
  8
94673901000_BL6
100
AcDbSpline
 62
9
  6
CONTINUOUS
 70
0
 71
3
 72
11
 73
7
 74
0
 42
0.0000001
 43
0.0000001
 44
0.0000000001
 40
0.0
 40
0.0
 40
0.0
 40
0.0
 40
0.2496374777
 40
0.5
 40
0.7503625223
 40
1.0
 40
1.0
 40
1.0
 40
1.0
 10
126.9600457184
 20
295.4602654686
 30
0.0
 10
127.2175117982
 20
295.4574523428
 30
0.0
 10
127.7374730243
 20
295.3491916859
 30
0.0
 10
128.3945155995
 20
294.9056915589
 30
0.0
 10
128.8380157265
 20
294.2486489837
 30
0.0
 10
128.9462763833
 20
293.7286877576
 30
0.0
 10
128.9490895091
 20
293.4712216778
 30
0.0
  0
SPLINE
  5
3C8
100
AcDbEntity
  8
94673901000_BL6
100
AcDbSpline
 62
9
  6
CONTINUOUS
 70
0
 71
3
 72
11
 73
7
 74
0
 42
0.0000001
 43
0.0000001
 44
0.0000000001
 40
0.0
 40
0.0
 40
0.0
 40
0.0
 40
0.2496681654
 40
0.5
 40
0.7503318346
 40
1.0
 40
1.0
 40
1.0
 40
1.0
 10
128.5044154318
 20
260.320848101
 30
0.0
 10
128.5016019823
 20
260.0633523278
 30
0.0
 10
128.3933890584
 20
259.5433574211
 30
0.0
 10
127.9497145309
 20
258.886505211
 30
0.0
 10
127.2928623209
 20
258.4428306836
 30
0.0
 10
126.7728674142
 20
258.3346177597
 30
0.0
 10
126.515371641
 20
258.3318043103
 30
0.0
  0
SPLINE
  5
3C9
100
AcDbEntity
  8
94673901000_BL6
100
AcDbSpline
 62
9
  6
CONTINUOUS
 70
0
 71
3
 72
11
 73
7
 74
0
 42
0.0000001
 43
0.0000001
 44
0.0000000001
 40
0.0
 40
0.0
 40
0.0
 40
0.0
 40
0.2496374777
 40
0.5
 40
0.7503625223
 40
1.0
 40
1.0
 40
1.0
 40
1.0
 10
128.9490895091
 20
259.8761740237
 30
0.0
 10
128.9462763833
 20
259.6187079439
 30
0.0
 10
128.8380157265
 20
259.0987467178
 30
0.0
 10
128.3945155995
 20
258.4417041426
 30
0.0
 10
127.7374730243
 20
257.9982040156
 30
0.0
 10
127.2175117982
 20
257.8899433587
 30
0.0
 10
126.9600457184
 20
257.8871302329
 30
0.0
  0
SPLINE
  5
3CA
100
AcDbEntity
  8
94673901000_BL6
100
AcDbSpline
 62
9
  6
CONTINUOUS
 70
0
 71
3
 72
9
 73
5
 74
0
 42
0.0000001
 43
0.0000001
 44
0.0000000001
 40
0.0
 40
0.0
 40
0.0
 40
0.0
 40
0.4995105048
 40
1.0
 40
1.0
 40
1.0
 40
1.0
 10
120.0096721416
 20
258.3318043103
 30
0.0
 10
119.6029449831
 20
258.3362482911
 30
0.0
 10
118.7717561051
 20
258.6080910589
 30
0.0
 10
118.2572384446
 20
259.3147500217
 30
0.0
 10
118.126513491
 20
259.7007641021
 30
0.0
  0
SPLINE
  5
3CB
100
AcDbEntity
  8
94673901000_BL6
100
AcDbSpline
 62
9
  6
CONTINUOUS
 70
0
 71
3
 72
14
 73
10
 74
0
 42
0.0000001
 43
0.0000001
 44
0.0000000001
 40
0.0
 40
0.0
 40
0.0
 40
0.0
 40
0.3776820376
 40
0.5481208497
 40
0.6976595954
 40
0.820892234
 40
0.9133709115
 40
0.9724701644
 40
1.0
 40
1.0
 40
1.0
 40
1.0
 10
37.6047066146
 20
260.320848101
 30
0.0
 10
37.643941038
 20
259.9434337947
 30
0.0
 10
37.6905347194
 20
259.3943332976
 30
0.0
 10
37.7255472996
 20
258.6946319871
 30
0.0
 10
37.7343333853
 20
258.2483747566
 30
0.0
 10
37.7296338724
 20
257.8841223434
 30
0.0
 10
37.7050252133
 20
257.6018251572
 30
0.0
 10
37.6796339777
 20
257.4374350738
 30
0.0
 10
37.6322136685
 20
257.3401735222
 30
0.0
 10
37.6047066146
 20
257.3372824149
 30
0.0
  0
SPLINE
  5
3CC
100
AcDbEntity
  8
94673901000_BL6
100
AcDbSpline
 62
7
  6
CONTINUOUS
 70
0
 71
3
 72
13
 73
9
 74
0
 42
0.0000001
 43
0.0000001
 44
0.0000000001
 40
0.0
 40
0.0
 40
0.0
 40
0.0
 40
0.023535275
 40
0.0753518635
 40
0.1578016021
 40
0.2707521577
 40
0.5831769056
 40
1.0
 40
1.0
 40
1.0
 40
1.0
 10
31.2915471816
 20
256.6737426206
 30
0.0
 10
31.299379908
 20
256.6745658733
 30
0.0
 10
31.3126943965
 20
256.7029489357
 30
0.0
 10
31.3226142498
 20
256.75037021
 30
0.0
 10
31.3339843996
 20
256.8346971158
 30
0.0
 10
31.3465063057
 20
257.0028874476
 30
0.0
 10
31.355359924
 20
257.2856416936
 30
0.0
 10
31.3560528895
 20
257.5293536737
 30
0.0
 10
31.3553157037
 20
257.6688378813
 30
0.0
  0
SPLINE
  5
3CD
100
AcDbEntity
  8
94673901000_BL6
100
AcDbSpline
 62
7
  6
CONTINUOUS
 70
0
 71
3
 72
9
 73
5
 74
0
 42
0.0000001
 43
0.0000001
 44
0.0000000001
 40
0.0
 40
0.0
 40
0.0
 40
0.0
 40
0.2192185014
 40
1.0
 40
1.0
 40
1.0
 40
1.0
 10
31.3553157037
 20
257.6688378813
 30
0.0
 10
31.3545473419
 20
257.814220939
 30
0.0
 10
31.344984366
 20
258.4773713225
 30
0.0
 10
31.3184264932
 20
259.1401943473
 30
0.0
 10
31.2915471816
 20
259.6573083067
 30
0.0
  0
SPLINE
  5
3CE
100
AcDbEntity
  8
94673901000_BL6
100
AcDbSpline
 62
9
  6
CONTINUOUS
 70
0
 71
3
 72
14
 73
10
 74
0
 42
0.0000001
 43
0.0000001
 44
0.0000000001
 40
0.0
 40
0.0
 40
0.0
 40
0.0
 40
0.0275298356
 40
0.0866290885
 40
0.179107766
 40
0.3023404046
 40
0.4518791503
 40
0.6223179624
 40
1.0
 40
1.0
 40
1.0
 40
1.0
 10
37.6047066146
 20
296.0101132866
 30
0.0
 10
37.6322136685
 20
296.0072221793
 30
0.0
 10
37.6796339777
 20
295.9099606277
 30
0.0
 10
37.7050252133
 20
295.7455705443
 30
0.0
 10
37.7296338724
 20
295.4632733581
 30
0.0
 10
37.7343333853
 20
295.0990209449
 30
0.0
 10
37.7255472996
 20
294.6527637144
 30
0.0
 10
37.6905347194
 20
293.9530624039
 30
0.0
 10
37.643941038
 20
293.4039619068
 30
0.0
 10
37.6047066146
 20
293.0265476005
 30
0.0
  0
SPLINE
  5
3CF
100
AcDbEntity
  8
94673901000_BL6
100
AcDbSpline
 62
7
  6
CONTINUOUS
 70
0
 71
3
 72
13
 73
9
 74
0
 42
0.0000001
 43
0.0000001
 44
0.0000000001
 40
0.0
 40
0.0
 40
0.0
 40
0.0
 40
0.0235352288
 40
0.0753518244
 40
0.1578016002
 40
0.2707522048
 40
0.5831770189
 40
1.0
 40
1.0
 40
1.0
 40
1.0
 10
31.2915471816
 20
296.6736530809
 30
0.0
 10
31.2993799733
 20
296.6728298213
 30
0.0
 10
31.3126945048
 20
296.6444464038
 30
0.0
 10
31.3226144039
 20
296.5970246719
 30
0.0
 10
31.3339845802
 20
296.5126968311
 30
0.0
 10
31.3465064929
 20
296.3445047209
 30
0.0
 10
31.3553600405
 20
296.0617475478
 30
0.0
 10
31.3560529031
 20
295.8180330764
 30
0.0
 10
31.355315649
 20
295.6785474704
 30
0.0
  0
SPLINE
  5
3D0
100
AcDbEntity
  8
94673901000_BL6
100
AcDbSpline
 62
7
  6
CONTINUOUS
 70
0
 71
3
 72
9
 73
5
 74
0
 42
0.0000001
 43
0.0000001
 44
0.0000000001
 40
0.0
 40
0.0
 40
0.0
 40
0.0
 40
0.2192189109
 40
1.0
 40
1.0
 40
1.0
 40
1.0
 10
31.355315649
 20
295.6785474704
 30
0.0
 10
31.3545472263
 20
295.5331648977
 30
0.0
 10
31.3449841003
 20
294.870017967
 30
0.0
 10
31.3184263393
 20
294.2071983933
 30
0.0
 10
31.2915471816
 20
293.6900873948
 30
0.0
  0
ELLIPSE
  5
3D1
100
AcDbEntity
  8
94673901000_BL6
100
AcDbEllipse
 62
7
  6
CONTINUOUS
 10
59.8342145875
 20
259.6736978507
 30
0.0
 11
28.5430933627
 21
-0.0
 31
0.0
 40
0.1051042353
 41
3.1415926536
 42
3.1470558621
  0
ELLIPSE
  5
3D2
100
AcDbEntity
  8
94673901000_BL6
100
AcDbEllipse
 62
7
  6
CONTINUOUS
 10
59.8342145875
 20
293.6736978507
 30
0.0
 11
28.5430933627
 21
0.0
 31
0.0
 40
0.1051042353
 41
3.1361294451
 42
3.1415926536
  0
ENDBLK
  5
3D3
100
AcDbEntity
  8
0
  6
BYBLOCK
 62
0
100
AcDbBlockEnd
  0
BLOCK
  5
3D4
100
AcDbEntity
  8
94528905000_M_BL7
100
AcDbBlockBegin
  2
94528905000_M_BL7
 70
64
 10
79.0282187326
 20
306.7736978507
  3
94528905000_M_BL7
  1

  0
LINE
  5
3D5
100
AcDbEntity
  8
94528905000_M_BL7
100
AcDbLine
 62
7
  6
CONTINUOUS
 10
122.3875218913
 20
306.2581533941
 11
124.1375218913
 21
306.2581533941
  0
LINE
  5
3D6
100
AcDbEntity
  8
94528905000_M_BL7
100
AcDbLine
 62
7
  6
CONTINUOUS
 10
124.1375218913
 20
309.2892423074
 11
122.3875218913
 21
309.2892423074
  0
LINE
  5
3D7
100
AcDbEntity
  8
94528905000_M_BL7
100
AcDbLine
 62
7
  6
CONTINUOUS
 10
121.5125218913
 20
307.7736978507
 11
122.3875218913
 21
306.2581533941
  0
LINE
  5
3D8
100
AcDbEntity
  8
94528905000_M_BL7
100
AcDbLine
 62
7
  6
CONTINUOUS
 10
125.0125218913
 20
307.7736978507
 11
124.1375218913
 21
309.2892423074
  0
LINE
  5
3D9
100
AcDbEntity
  8
94528905000_M_BL7
100
AcDbLine
 62
7
  6
CONTINUOUS
 10
122.3875218913
 20
309.2892423074
 11
121.5125218913
 21
307.7736978507
  0
LINE
  5
3DA
100
AcDbEntity
  8
94528905000_M_BL7
100
AcDbLine
 62
7
  6
CONTINUOUS
 10
124.1375218913
 20
306.2581533941
 11
125.0125218913
 21
307.7736978507
  0
CIRCLE
  5
3DB
100
AcDbEntity
  8
94528905000_M_BL7
100
AcDbCircle
 62
7
  6
CONTINUOUS
 10
123.2625218913
 20
306.7736978507
 40
5.5
  0
CIRCLE
  5
3DC
100
AcDbEntity
  8
94528905000_M_BL7
100
AcDbCircle
 62
7
  6
CONTINUOUS
 10
123.2625218913
 20
307.7736978507
 40
1.75
  0
CIRCLE
  5
3DD
100
AcDbEntity
  8
94528905000_M_BL7
100
AcDbCircle
 62
7
  6
CONTINUOUS
 10
123.2625218913
 20
307.7736978507
 40
1.515
  0
CIRCLE
  5
3DE
100
AcDbEntity
  8
94528905000_M_BL7
100
AcDbCircle
 62
7
  6
CONTINUOUS
 10
123.2625218913
 20
304.2736978507
 40
0.75
  0
ARC
  5
3DF
100
AcDbEntity
  8
94528905000_M_BL7
100
AcDbCircle
 62
7
  6
CONTINUOUS
 10
25.9453699138
 20
307.7736978507
 40
4.0
100
AcDbArc
 50
326.8389561101
 51
33.1610438899
  0
ENDBLK
  5
3E0
100
AcDbEntity
  8
0
  6
BYBLOCK
 62
0
100
AcDbBlockEnd
  0
BLOCK
  5
3E1
100
AcDbEntity
  8
94673901000_BL8
100
AcDbBlockBegin
  2
94673901000_BL8
 70
64
 10
77.9768215581
 20
942.7342975239
  3
94673901000_BL8
  1

  0
LINE
  5
3E2
100
AcDbEntity
  8
94673901000_BL8
100
AcDbLine
 62
7
  6
CONTINUOUS
 10
123.2625218913
 20
1767.8283983891
 11
121.2625218913
 21
1766.6736978507
  0
LINE
  5
3E3
100
AcDbEntity
  8
94673901000_BL8
100
AcDbLine
 62
9
  6
CONTINUOUS
 10
126.515371641
 20
1785.0155913912
 11
126.9600457186
 21
1785.4602654688
  0
LINE
  5
3E4
100
AcDbEntity
  8
94673901000_BL8
100
AcDbLine
 62
9
  6
CONTINUOUS
 10
128.5044154318
 20
1783.0265476005
 11
128.9490895094
 21
1783.4712216781
  0
LINE
  5
3E5
100
AcDbEntity
  8
94673901000_BL8
100
AcDbLine
 62
9
  6
CONTINUOUS
 10
120.0096721416
 20
1748.3318043103
 11
119.564998064
 21
1747.8871302327
  0
LINE
  5
3E6
100
AcDbEntity
  8
94673901000_BL8
100
AcDbLine
 62
9
  6
CONTINUOUS
 10
120.0096721416
 20
1748.3318043103
 11
120.0096721416
 21
1785.0155913912
  0
LINE
  5
3E7
100
AcDbEntity
  8
94673901000_BL8
100
AcDbLine
 62
7
  6
CONTINUOUS
 10
123.2625218913
 20
1767.0736978507
 11
123.2625218913
 21
1767.8283983891
  0
LINE
  5
3E8
100
AcDbEntity
  8
94673901000_BL8
100
AcDbLine
 62
7
  6
CONTINUOUS
 10
123.2625218913
 20
1765.5189973124
 11
123.2625218913
 21
1766.2736978507
  0
LINE
  5
3E9
100
AcDbEntity
  8
94673901000_BL8
100
AcDbLine
 62
7
  6
CONTINUOUS
 10
124.7625218913
 20
1766.2736978507
 11
124.7625218913
 21
1767.0736978507
  0
LINE
  5
3EA
100
AcDbEntity
  8
94673901000_BL8
100
AcDbLine
 62
9
  6
CONTINUOUS
 10
126.515371641
 20
1748.3318043103
 11
126.515371641
 21
1785.0155913912
  0
LINE
  5
3EB
100
AcDbEntity
  8
94673901000_BL8
100
AcDbLine
 62
9
  6
CONTINUOUS
 10
128.5044154318
 20
1783.0265476005
 11
128.5044154318
 21
1750.320848101
  0
LINE
  5
3EC
100
AcDbEntity
  8
94673901000_BL8
100
AcDbLine
 62
7
  6
CONTINUOUS
 10
129.1570136117
 20
1783.673640331
 11
129.1570136117
 21
1749.6737553705
  0
LINE
  5
3ED
100
AcDbEntity
  8
94673901000_BL8
100
AcDbLine
 62
9
  6
CONTINUOUS
 10
126.9600457186
 20
1747.8871302327
 11
126.515371641
 21
1748.3318043103
  0
LINE
  5
3EE
100
AcDbEntity
  8
94673901000_BL8
100
AcDbLine
 62
9
  6
CONTINUOUS
 10
128.9490895094
 20
1749.8761740234
 11
128.5044154318
 21
1750.320848101
  0
LINE
  5
3EF
100
AcDbEntity
  8
94673901000_BL8
100
AcDbLine
 62
9
  6
CONTINUOUS
 10
119.564998064
 20
1785.4602654688
 11
120.0096721416
 21
1785.0155913912
  0
LINE
  5
3F0
100
AcDbEntity
  8
94673901000_BL8
100
AcDbLine
 62
7
  6
CONTINUOUS
 10
121.2625218913
 20
1766.6736978507
 11
123.2625218913
 21
1765.5189973124
  0
LINE
  5
3F1
100
AcDbEntity
  8
94673901000_BL8
100
AcDbLine
 62
9
  6
CONTINUOUS
 10
126.515371641
 20
1748.3318043103
 11
120.0096721416
 21
1748.3318043103
  0
LINE
  5
3F2
100
AcDbEntity
  8
94673901000_BL8
100
AcDbLine
 62
9
  6
CONTINUOUS
 10
129.1624839032
 20
1749.6736978507
 11
129.4625218913
 21
1749.6736978507
  0
LINE
  5
3F3
100
AcDbEntity
  8
94673901000_BL8
100
AcDbLine
 62
9
  6
CONTINUOUS
 10
118.0625218913
 20
1750.320848101
 11
128.5044154318
 21
1750.320848101
  0
LINE
  5
3F4
100
AcDbEntity
  8
94673901000_BL8
100
AcDbLine
 62
7
  6
CONTINUOUS
 10
123.2625218913
 20
1766.2736978507
 11
124.7625218913
 21
1766.2736978507
  0
LINE
  5
3F5
100
AcDbEntity
  8
94673901000_BL8
100
AcDbLine
 62
7
  6
CENTER
 10
134.1625218915
 20
1766.6736978507
 11
112.3625218911
 21
1766.6736978507
  0
LINE
  5
3F6
100
AcDbEntity
  8
94673901000_BL8
100
AcDbLine
 62
7
  6
CONTINUOUS
 10
124.7625218913
 20
1767.0736978507
 11
123.2625218913
 21
1767.0736978507
  0
LINE
  5
3F7
100
AcDbEntity
  8
94673901000_BL8
100
AcDbLine
 62
9
  6
CONTINUOUS
 10
118.0625218913
 20
1783.0265476005
 11
128.5044154318
 21
1783.0265476005
  0
LINE
  5
3F8
100
AcDbEntity
  8
94673901000_BL8
100
AcDbLine
 62
9
  6
CONTINUOUS
 10
129.4625218913
 20
1783.6736978507
 11
129.1624839032
 21
1783.6736978507
  0
LINE
  5
3F9
100
AcDbEntity
  8
94673901000_BL8
100
AcDbLine
 62
9
  6
CONTINUOUS
 10
120.0096721416
 20
1785.0155913912
 11
126.515371641
 21
1785.0155913912
  0
LINE
  5
3FA
100
AcDbEntity
  8
94673901000_BL8
100
AcDbLine
 62
7
  6
CONTINUOUS
 10
31.2911212248
 20
1783.6736978507
 11
31.2911212248
 21
1749.6736978507
  0
LINE
  5
3FB
100
AcDbEntity
  8
94673901000_BL8
100
AcDbLine
 62
9
  6
CONTINUOUS
 10
37.6047066146
 20
1783.0265476005
 11
37.6047066146
 21
1750.320848101
  0
LINE
  5
3FC
100
AcDbEntity
  8
94673901000_BL8
100
AcDbLine
 62
7
  6
CONTINUOUS
 10
40.2911212248
 20
1783.0265476005
 11
40.2911212248
 21
1750.320848101
  0
LINE
  5
3FD
100
AcDbEntity
  8
94673901000_BL8
100
AcDbLine
 62
7
  6
CONTINUOUS
 10
40.4911212248
 20
1767.8283983891
 11
40.4911212248
 21
1765.5189973124
  0
LINE
  5
3FE
100
AcDbEntity
  8
94673901000_BL8
100
AcDbLine
 62
7
  6
CONTINUOUS
 10
31.2911212248
 20
1746.6736978507
 11
37.6047066146
 21
1747.3372824149
  0
LINE
  5
3FF
100
AcDbEntity
  8
94673901000_BL8
100
AcDbLine
 62
9
  6
CONTINUOUS
 10
31.2915471816
 20
1749.6573083067
 11
37.6047066146
 21
1750.320848101
  0
LINE
  5
400
100
AcDbEntity
  8
94673901000_BL8
100
AcDbLine
 62
7
  6
CONTINUOUS
 10
31.2911212248
 20
1746.6736978507
 11
29.2911212248
 21
1746.6736978507
  0
LINE
  5
401
100
AcDbEntity
  8
94673901000_BL8
100
AcDbLine
 62
9
  6
CONTINUOUS
 10
31.2911212248
 20
1749.6736978507
 11
29.2911212248
 21
1749.6736978507
  0
LINE
  5
402
100
AcDbEntity
  8
94673901000_BL8
100
AcDbLine
 62
9
  6
CONTINUOUS
 10
40.2911212248
 20
1750.320848101
 11
37.6047066147
 21
1750.3208481089
  0
LINE
  5
403
100
AcDbEntity
  8
94673901000_BL8
100
AcDbLine
 62
7
  6
CONTINUOUS
 10
40.2911212248
 20
1765.5189973124
 11
40.4911212248
 21
1765.5189973124
  0
LINE
  5
404
100
AcDbEntity
  8
94673901000_BL8
100
AcDbLine
 62
7
  6
CONTINUOUS
 10
40.2911212248
 20
1766.2736978507
 11
40.4911212248
 21
1766.2736978507
  0
LINE
  5
405
100
AcDbEntity
  8
94673901000_BL8
100
AcDbLine
 62
7
  6
CENTER
 10
21.7911212248
 20
1766.6736978507
 11
43.4911212248
 21
1766.6736978507
  0
LINE
  5
406
100
AcDbEntity
  8
94673901000_BL8
100
AcDbLine
 62
7
  6
CONTINUOUS
 10
40.2911212248
 20
1767.0736978507
 11
40.4911212248
 21
1767.0736978507
  0
LINE
  5
407
100
AcDbEntity
  8
94673901000_BL8
100
AcDbLine
 62
7
  6
CONTINUOUS
 10
40.2911212248
 20
1767.8283983891
 11
40.4911212248
 21
1767.8283983891
  0
LINE
  5
408
100
AcDbEntity
  8
94673901000_BL8
100
AcDbLine
 62
9
  6
CONTINUOUS
 10
40.2911212248
 20
1783.0265476005
 11
37.6047066146
 21
1783.0265476005
  0
LINE
  5
409
100
AcDbEntity
  8
94673901000_BL8
100
AcDbLine
 62
9
  6
CONTINUOUS
 10
29.2911212248
 20
1783.6736978507
 11
31.2911212248
 21
1783.6736978507
  0
LINE
  5
40A
100
AcDbEntity
  8
94673901000_BL8
100
AcDbLine
 62
7
  6
CONTINUOUS
 10
29.2911212248
 20
1786.6736978507
 11
31.2911212248
 21
1786.6736978507
  0
LINE
  5
40B
100
AcDbEntity
  8
94673901000_BL8
100
AcDbLine
 62
9
  6
CONTINUOUS
 10
37.6047066146
 20
1783.0265476005
 11
31.2915471816
 21
1783.6900873948
  0
LINE
  5
40C
100
AcDbEntity
  8
94673901000_BL8
100
AcDbLine
 62
7
  6
CONTINUOUS
 10
37.6047066146
 20
1786.0101132866
 11
31.2915471816
 21
1786.6736530809
  0
LINE
  5
40D
100
AcDbEntity
  8
94673901000_BL8
100
AcDbLine
 62
7
  6
CONTINUOUS
 10
37.6047066146
 20
99.4584817613
 11
31.2915471816
 21
98.7949419669
  0
LINE
  5
40E
100
AcDbEntity
  8
94673901000_BL8
100
AcDbLine
 62
7
  6
CONTINUOUS
 10
25.2911212248
 20
98.7948971971
 11
27.3911212248
 21
98.7948971971
  0
LINE
  5
40F
100
AcDbEntity
  8
94673901000_BL8
100
AcDbLine
 62
7
  6
CONTINUOUS
 10
27.3911212248
 20
98.7948971971
 11
31.2911212248
 21
98.7948971971
  0
LINE
  5
410
100
AcDbEntity
  8
94673901000_BL8
100
AcDbLine
 62
7
  6
CONTINUOUS
 10
27.3911212248
 20
112.5948971971
 11
27.3911212248
 21
98.7948971971
  0
LINE
  5
411
100
AcDbEntity
  8
94673901000_BL8
100
AcDbLine
 62
9
  6
CONTINUOUS
 10
37.6047066146
 20
102.4420474474
 11
31.2915471816
 21
101.778507653
  0
LINE
  5
412
100
AcDbEntity
  8
94673901000_BL8
100
AcDbLine
 62
9
  6
CONTINUOUS
 10
28.3911212248
 20
98.7948971971
 11
28.3911212248
 21
101.6948971971
  0
LINE
  5
413
100
AcDbEntity
  8
94673901000_BL8
100
AcDbLine
 62
9
  6
CONTINUOUS
 10
28.3911212248
 20
109.6948971971
 11
28.3911212248
 21
112.5948971971
  0
LINE
  5
414
100
AcDbEntity
  8
94673901000_BL8
100
AcDbLine
 62
9
  6
CONTINUOUS
 10
28.5911212248
 20
101.7948971971
 11
31.2911212248
 21
101.7948971971
  0
LINE
  5
415
100
AcDbEntity
  8
94673901000_BL8
100
AcDbLine
 62
9
  6
CONTINUOUS
 10
40.2911212248
 20
102.4420474474
 11
37.6047066148
 21
102.4420474613
  0
LINE
  5
416
100
AcDbEntity
  8
94673901000_BL8
100
AcDbLine
 62
7
  6
CONTINUOUS
 10
40.2911212248
 20
104.1948971971
 11
40.4911212248
 21
104.1948971971
  0
LINE
  5
417
100
AcDbEntity
  8
94673901000_BL8
100
AcDbLine
 62
7
  6
CONTINUOUS
 10
31.2911212248
 20
101.7948971971
 11
31.2911212248
 21
109.5948971971
  0
LINE
  5
418
100
AcDbEntity
  8
94673901000_BL8
100
AcDbLine
 62
7
  6
CONTINUOUS
 10
40.2911212248
 20
105.6948971971
 11
40.4911212248
 21
105.6948971971
  0
LINE
  5
419
100
AcDbEntity
  8
94673901000_BL8
100
AcDbLine
 62
7
  6
CONTINUOUS
 10
40.2911212248
 20
107.6948971971
 11
40.4911212248
 21
107.6948971971
  0
LINE
  5
41A
100
AcDbEntity
  8
94673901000_BL8
100
AcDbLine
 62
9
  6
CONTINUOUS
 10
40.2911212248
 20
108.9477469468
 11
37.6047066146
 21
108.9477469468
  0
LINE
  5
41B
100
AcDbEntity
  8
94673901000_BL8
100
AcDbLine
 62
9
  6
CONTINUOUS
 10
31.2911212248
 20
109.5948971971
 11
28.5911212248
 21
109.5948971971
  0
LINE
  5
41C
100
AcDbEntity
  8
94673901000_BL8
100
AcDbLine
 62
9
  6
CONTINUOUS
 10
31.2915471816
 20
109.6112867411
 11
37.6047066146
 21
108.9477469468
  0
LINE
  5
41D
100
AcDbEntity
  8
94673901000_BL8
100
AcDbLine
 62
9
  6
CONTINUOUS
 10
37.6047066146
 20
108.9477469468
 11
37.6047066146
 21
102.4420474474
  0
LINE
  5
41E
100
AcDbEntity
  8
94673901000_BL8
100
AcDbLine
 62
7
  6
CONTINUOUS
 10
25.2911212248
 20
112.5948971971
 11
27.3911212248
 21
112.5948971971
  0
LINE
  5
41F
100
AcDbEntity
  8
94673901000_BL8
100
AcDbLine
 62
7
  6
CONTINUOUS
 10
27.3911212248
 20
112.5948971971
 11
31.2911212248
 21
112.5948971971
  0
LINE
  5
420
100
AcDbEntity
  8
94673901000_BL8
100
AcDbLine
 62
7
  6
CONTINUOUS
 10
31.2915471816
 20
112.5948524272
 11
37.6047066146
 21
111.9313126329
  0
LINE
  5
421
100
AcDbEntity
  8
94673901000_BL8
100
AcDbLine
 62
7
  6
CONTINUOUS
 10
40.2911212248
 20
108.9477469468
 11
40.2911212248
 21
102.4420474474
  0
LINE
  5
422
100
AcDbEntity
  8
94673901000_BL8
100
AcDbLine
 62
7
  6
CONTINUOUS
 10
40.4911212248
 20
107.6948971971
 11
40.4911212248
 21
104.1948971971
  0
ARC
  5
423
100
AcDbEntity
  8
94673901000_BL8
100
AcDbCircle
 62
9
  6
CONTINUOUS
 10
119.589582024
 20
1749.8990077171
 40
2.0120276794
100
AcDbArc
 50
253.0166699288
 51
269.2999141102
  0
ARC
  5
424
100
AcDbEntity
  8
94673901000_BL8
100
AcDbCircle
 62
9
  6
CONTINUOUS
 10
120.030447023
 20
1750.3449896865
 40
2.0099748627
100
AcDbArc
 50
191.2311602252
 51
198.4073425461
  0
ARC
  5
425
100
AcDbEntity
  8
94673901000_BL8
100
AcDbCircle
 62
9
  6
CONTINUOUS
 10
120.0116390818
 20
1750.3391688501
 40
1.9902912137
100
AcDbArc
 50
198.419317598
 51
198.7088604113
  0
ARC
  5
426
100
AcDbEntity
  8
94673901000_BL8
100
AcDbCircle
 62
9
  6
CONTINUOUS
 10
119.5895812148
 20
1783.4483928488
 40
2.0120228054
100
AcDbArc
 50
90.7000645416
 51
106.9806663763
  0
ARC
  5
427
100
AcDbEntity
  8
94673901000_BL8
100
AcDbCircle
 62
9
  6
CONTINUOUS
 10
120.030447023
 20
1783.002406015
 40
2.0099748627
100
AcDbArc
 50
161.5926574539
 51
168.7688397748
  0
ARC
  5
428
100
AcDbEntity
  8
94673901000_BL8
100
AcDbCircle
 62
9
  6
CONTINUOUS
 10
120.0116390818
 20
1783.0082268514
 40
1.9902912137
100
AcDbArc
 50
161.2911395887
 51
161.580682402
  0
ARC
  5
429
100
AcDbEntity
  8
94673901000_BL8
100
AcDbCircle
 62
7
  6
CONTINUOUS
 10
127.1518785744
 20
1749.7062769865
 40
2.0327511966
100
AcDbArc
 50
278.3271761058
 51
283.9682282895
  0
ARC
  5
42A
100
AcDbEntity
  8
94673901000_BL8
100
AcDbCircle
 62
7
  6
CONTINUOUS
 10
127.1518918273
 20
1783.6411935728
 40
2.0326753594
100
AcDbArc
 50
76.0316145019
 51
81.3540527653
  0
ARC
  5
42B
100
AcDbEntity
  8
94673901000_BL8
100
AcDbCircle
 62
7
  6
CONTINUOUS
 10
127.1544560871
 20
1783.6516825677
 40
2.0218775567
100
AcDbArc
 50
73.6053211151
 51
76.0303826759
  0
ARC
  5
42C
100
AcDbEntity
  8
94673901000_BL8
100
AcDbCircle
 62
7
  6
CONTINUOUS
 10
127.1544562801
 20
1749.6957122361
 40
2.0218766329
100
AcDbArc
 50
283.9696077065
 51
286.3951342498
  0
ARC
  5
42D
100
AcDbEntity
  8
94673901000_BL8
100
AcDbCircle
 62
7
  6
CONTINUOUS
 10
127.1632579632
 20
1783.6726663669
 40
1.9992641942
100
AcDbArc
 50
0.029560712
 51
73.6775766837
  0
ARC
  5
42E
100
AcDbEntity
  8
94673901000_BL8
100
AcDbCircle
 62
7
  6
CONTINUOUS
 10
127.1632580432
 20
1749.6747293041
 40
1.9992641142
100
AcDbArc
 50
286.3228799202
 51
359.9704401591
  0
ARC
  5
42F
100
AcDbEntity
  8
94673901000_BL8
100
AcDbCircle
 62
7
  6
CONTINUOUS
 10
37.2911212248
 20
1750.320848101
 40
3.0
100
AcDbArc
 50
276.0
 51
360.0
  0
ARC
  5
430
100
AcDbEntity
  8
94673901000_BL8
100
AcDbCircle
 62
7
  6
CONTINUOUS
 10
37.2911212248
 20
1783.0265476005
 40
3.0
100
AcDbArc
 50
0.0
 51
84.0
  0
ARC
  5
431
100
AcDbEntity
  8
94673901000_BL8
100
AcDbCircle
 62
7
  6
CONTINUOUS
 10
9.2624904569
 20
99.6720740629
 40
22.093140514
100
AcDbArc
 50
0.0041115978
 51
0.3199885924
  0
ARC
  5
432
100
AcDbEntity
  8
94673901000_BL8
100
AcDbCircle
 62
7
  6
CONTINUOUS
 10
9.262629981
 20
111.7177200722
 40
22.0930009899
100
AcDbArc
 50
359.6800370647
 51
359.9958890481
  0
ARC
  5
433
100
AcDbEntity
  8
94673901000_BL8
100
AcDbCircle
 62
7
  6
CONTINUOUS
 10
37.2911212248
 20
102.4420474474
 40
3.0
100
AcDbArc
 50
276.0
 51
360.0
  0
ARC
  5
434
100
AcDbEntity
  8
94673901000_BL8
100
AcDbCircle
 62
7
  6
CONTINUOUS
 10
37.2911212248
 20
108.9477469468
 40
3.0
100
AcDbArc
 50
0.0
 51
83.9999999991
  0
SPLINE
  5
435
100
AcDbEntity
  8
94673901000_BL8
100
AcDbSpline
 62
9
  6
CONTINUOUS
 70
0
 71
3
 72
15
 73
11
 74
0
 42
0.0000001
 43
0.0000001
 44
0.0000000001
 40
0.0
 40
0.0
 40
0.0
 40
0.0
 40
0.0496003836
 40
0.098122615
 40
0.1682822838
 40
0.2520846427
 40
0.4081783296
 40
0.5242973605
 40
0.7764562012
 40
1.0
 40
1.0
 40
1.0
 40
1.0
 10
129.1570136117
 20
1783.673640331
 30
0.0
 10
129.1539401093
 20
1783.6776279225
 30
0.0
 10
129.1439378679
 20
1783.6849747519
 30
0.0
 10
129.1282997796
 20
1783.6730215207
 30
0.0
 10
129.1172109333
 20
1783.6565041911
 30
0.0
 10
129.1012472697
 20
1783.629097234
 30
0.0
 10
129.0838694397
 20
1783.597160812
 30
0.0
 10
129.0412762266
 20
1783.5624446253
 30
0.0
 10
129.0043014361
 20
1783.5275787614
 30
0.0
 10
128.9695084237
 20
1783.4613259551
 30
0.0
 10
128.9490895094
 20
1783.4712216781
 30
0.0
  0
SPLINE
  5
436
100
AcDbEntity
  8
94673901000_BL8
100
AcDbSpline
 62
9
  6
CONTINUOUS
 70
0
 71
3
 72
15
 73
11
 74
0
 42
0.0000001
 43
0.0000001
 44
0.0000000001
 40
0.0
 40
0.0
 40
0.0
 40
0.0
 40
0.0496003836
 40
0.098122615
 40
0.1682822838
 40
0.2520846427
 40
0.4081783296
 40
0.5242973605
 40
0.7764562012
 40
1.0
 40
1.0
 40
1.0
 40
1.0
 10
129.1570136117
 20
1749.6737553705
 30
0.0
 10
129.1539401093
 20
1749.6697677789
 30
0.0
 10
129.1439378679
 20
1749.6624209496
 30
0.0
 10
129.1282997796
 20
1749.6743741808
 30
0.0
 10
129.1172109333
 20
1749.6908915104
 30
0.0
 10
129.1012472697
 20
1749.7182984675
 30
0.0
 10
129.0838694397
 20
1749.7502348895
 30
0.0
 10
129.0412762266
 20
1749.7849510762
 30
0.0
 10
129.0043014361
 20
1749.8198169401
 30
0.0
 10
128.9695084237
 20
1749.8860697464
 30
0.0
 10
128.9490895094
 20
1749.8761740234
 30
0.0
  0
SPLINE
  5
437
100
AcDbEntity
  8
94673901000_BL8
100
AcDbSpline
 62
9
  6
CONTINUOUS
 70
0
 71
3
 72
9
 73
5
 74
0
 42
0.0000001
 43
0.0000001
 44
0.0000000001
 40
0.0
 40
0.0
 40
0.0
 40
0.0
 40
0.5071087384
 40
1.0
 40
1.0
 40
1.0
 40
1.0
 10
119.4565884419
 20
1785.5764998044
 30
0.0
 10
119.4739697465
 20
1785.5560079571
 30
0.0
 10
119.4983055958
 20
1785.5179534742
 30
0.0
 10
119.5763977228
 20
1785.4837634465
 30
0.0
 10
119.564998064
 20
1785.4602654688
 30
0.0
  0
SPLINE
  5
438
100
AcDbEntity
  8
94673901000_BL8
100
AcDbSpline
 62
9
  6
CONTINUOUS
 70
0
 71
3
 72
16
 73
12
 74
0
 42
0.0000001
 43
0.0000001
 44
0.0000000001
 40
0.0
 40
0.0
 40
0.0
 40
0.0
 40
0.0518457162
 40
0.0996592902
 40
0.1687964974
 40
0.2518181064
 40
0.4066326948
 40
0.5218483669
 40
0.6336359316
 40
0.7750325309
 40
1.0
 40
1.0
 40
1.0
 40
1.0
 10
127.1555352934
 20
1785.6681895712
 30
0.0
 10
127.1597538942
 20
1785.6651385887
 30
0.0
 10
127.167889147
 20
1785.6556595516
 30
0.0
 10
127.1569706246
 20
1785.6393970173
 30
0.0
 10
127.1408379552
 20
1785.628381948
 30
0.0
 10
127.1142703574
 20
1785.6124505275
 30
0.0
 10
127.0829691256
 20
1785.5946717392
 30
0.0
 10
127.058915412
 20
1785.5646700183
 30
0.0
 10
127.0360209973
 20
1785.5342466451
 30
0.0
 10
127.0009578711
 20
1785.5093383473
 30
0.0
 10
126.9501852448
 20
1785.4805907434
 30
0.0
 10
126.9600457186
 20
1785.4602654688
 30
0.0
  0
SPLINE
  5
439
100
AcDbEntity
  8
94673901000_BL8
100
AcDbSpline
 62
9
  6
CONTINUOUS
 70
0
 71
3
 72
16
 73
12
 74
0
 42
0.0000001
 43
0.0000001
 44
0.0000000001
 40
0.0
 40
0.0
 40
0.0
 40
0.0
 40
0.0518457162
 40
0.0996592902
 40
0.1687964974
 40
0.2518181064
 40
0.4066326948
 40
0.5218483669
 40
0.6336359316
 40
0.7750325309
 40
1.0
 40
1.0
 40
1.0
 40
1.0
 10
127.1555352934
 20
1747.6792061303
 30
0.0
 10
127.1597538942
 20
1747.6822571128
 30
0.0
 10
127.167889147
 20
1747.6917361499
 30
0.0
 10
127.1569706246
 20
1747.7079986842
 30
0.0
 10
127.1408379552
 20
1747.7190137535
 30
0.0
 10
127.1142703574
 20
1747.734945174
 30
0.0
 10
127.0829691256
 20
1747.7527239623
 30
0.0
 10
127.058915412
 20
1747.7827256831
 30
0.0
 10
127.0360209973
 20
1747.8131490564
 30
0.0
 10
127.0009578711
 20
1747.8380573542
 30
0.0
 10
126.9501852448
 20
1747.866804958
 30
0.0
 10
126.9600457186
 20
1747.8871302327
 30
0.0
  0
SPLINE
  5
43A
100
AcDbEntity
  8
94673901000_BL8
100
AcDbSpline
 62
9
  6
CONTINUOUS
 70
0
 71
3
 72
9
 73
5
 74
0
 42
0.0000001
 43
0.0000001
 44
0.0000000001
 40
0.0
 40
0.0
 40
0.0
 40
0.0
 40
0.507127267
 40
1.0
 40
1.0
 40
1.0
 40
1.0
 10
119.4566002502
 20
1747.7709098201
 30
0.0
 10
119.4739779236
 20
1747.7914020141
 30
0.0
 10
119.4983187774
 20
1747.8294446747
 30
0.0
 10
119.5763959935
 20
1747.8636358194
 30
0.0
 10
119.564998064
 20
1747.8871302327
 30
0.0
  0
SPLINE
  5
43B
100
AcDbEntity
  8
94673901000_BL8
100
AcDbSpline
 62
9
  6
CONTINUOUS
 70
0
 71
3
 72
9
 73
5
 74
0
 42
0.0000001
 43
0.0000001
 44
0.0000000001
 40
0.0
 40
0.0
 40
0.0
 40
0.0
 40
0.5004894952
 40
1.0
 40
1.0
 40
1.0
 40
1.0
 10
118.126513491
 20
1783.6466315993
 30
0.0
 10
118.2572384446
 20
1784.0326456798
 30
0.0
 10
118.7717561051
 20
1784.7393046425
 30
0.0
 10
119.6029449831
 20
1785.0111474104
 30
0.0
 10
120.0096721416
 20
1785.0155913912
 30
0.0
  0
SPLINE
  5
43C
100
AcDbEntity
  8
94673901000_BL8
100
AcDbSpline
 62
9
  6
CONTINUOUS
 70
0
 71
3
 72
11
 73
7
 74
0
 42
0.0000001
 43
0.0000001
 44
0.0000000001
 40
0.0
 40
0.0
 40
0.0
 40
0.0
 40
0.2496681654
 40
0.5
 40
0.7503318346
 40
1.0
 40
1.0
 40
1.0
 40
1.0
 10
126.515371641
 20
1785.0155913912
 30
0.0
 10
126.7728674142
 20
1785.0127779418
 30
0.0
 10
127.2928623209
 20
1784.9045650179
 30
0.0
 10
127.9497145309
 20
1784.4608904905
 30
0.0
 10
128.3933890584
 20
1783.8040382804
 30
0.0
 10
128.5016019823
 20
1783.2840433737
 30
0.0
 10
128.5044154318
 20
1783.0265476005
 30
0.0
  0
SPLINE
  5
43D
100
AcDbEntity
  8
94673901000_BL8
100
AcDbSpline
 62
9
  6
CONTINUOUS
 70
0
 71
3
 72
11
 73
7
 74
0
 42
0.0000001
 43
0.0000001
 44
0.0000000001
 40
0.0
 40
0.0
 40
0.0
 40
0.0
 40
0.2496374777
 40
0.5
 40
0.7503625223
 40
1.0
 40
1.0
 40
1.0
 40
1.0
 10
126.9600457184
 20
1785.4602654686
 30
0.0
 10
127.2175117982
 20
1785.4574523428
 30
0.0
 10
127.7374730243
 20
1785.3491916859
 30
0.0
 10
128.3945155995
 20
1784.9056915589
 30
0.0
 10
128.8380157265
 20
1784.2486489837
 30
0.0
 10
128.9462763833
 20
1783.7286877576
 30
0.0
 10
128.9490895091
 20
1783.4712216778
 30
0.0
  0
SPLINE
  5
43E
100
AcDbEntity
  8
94673901000_BL8
100
AcDbSpline
 62
9
  6
CONTINUOUS
 70
0
 71
3
 72
11
 73
7
 74
0
 42
0.0000001
 43
0.0000001
 44
0.0000000001
 40
0.0
 40
0.0
 40
0.0
 40
0.0
 40
0.2496681654
 40
0.5
 40
0.7503318346
 40
1.0
 40
1.0
 40
1.0
 40
1.0
 10
128.5044154318
 20
1750.320848101
 30
0.0
 10
128.5016019823
 20
1750.0633523278
 30
0.0
 10
128.3933890584
 20
1749.5433574211
 30
0.0
 10
127.9497145309
 20
1748.886505211
 30
0.0
 10
127.2928623209
 20
1748.4428306836
 30
0.0
 10
126.7728674142
 20
1748.3346177597
 30
0.0
 10
126.515371641
 20
1748.3318043103
 30
0.0
  0
SPLINE
  5
43F
100
AcDbEntity
  8
94673901000_BL8
100
AcDbSpline
 62
9
  6
CONTINUOUS
 70
0
 71
3
 72
11
 73
7
 74
0
 42
0.0000001
 43
0.0000001
 44
0.0000000001
 40
0.0
 40
0.0
 40
0.0
 40
0.0
 40
0.2496374777
 40
0.5
 40
0.7503625223
 40
1.0
 40
1.0
 40
1.0
 40
1.0
 10
128.9490895091
 20
1749.8761740237
 30
0.0
 10
128.9462763833
 20
1749.6187079439
 30
0.0
 10
128.8380157265
 20
1749.0987467178
 30
0.0
 10
128.3945155995
 20
1748.4417041426
 30
0.0
 10
127.7374730243
 20
1747.9982040156
 30
0.0
 10
127.2175117982
 20
1747.8899433587
 30
0.0
 10
126.9600457184
 20
1747.8871302329
 30
0.0
  0
SPLINE
  5
440
100
AcDbEntity
  8
94673901000_BL8
100
AcDbSpline
 62
9
  6
CONTINUOUS
 70
0
 71
3
 72
9
 73
5
 74
0
 42
0.0000001
 43
0.0000001
 44
0.0000000001
 40
0.0
 40
0.0
 40
0.0
 40
0.0
 40
0.4995105048
 40
1.0
 40
1.0
 40
1.0
 40
1.0
 10
120.0096721416
 20
1748.3318043103
 30
0.0
 10
119.6029449831
 20
1748.3362482911
 30
0.0
 10
118.7717561051
 20
1748.6080910589
 30
0.0
 10
118.2572384446
 20
1749.3147500217
 30
0.0
 10
118.126513491
 20
1749.7007641021
 30
0.0
  0
SPLINE
  5
441
100
AcDbEntity
  8
94673901000_BL8
100
AcDbSpline
 62
9
  6
CONTINUOUS
 70
0
 71
3
 72
14
 73
10
 74
0
 42
0.0000001
 43
0.0000001
 44
0.0000000001
 40
0.0
 40
0.0
 40
0.0
 40
0.0
 40
0.3776820376
 40
0.5481208497
 40
0.6976595954
 40
0.820892234
 40
0.9133709115
 40
0.9724701644
 40
1.0
 40
1.0
 40
1.0
 40
1.0
 10
37.6047066146
 20
1750.320848101
 30
0.0
 10
37.643941038
 20
1749.9434337947
 30
0.0
 10
37.6905347194
 20
1749.3943332976
 30
0.0
 10
37.7255472996
 20
1748.6946319871
 30
0.0
 10
37.7343333853
 20
1748.2483747566
 30
0.0
 10
37.7296338724
 20
1747.8841223434
 30
0.0
 10
37.7050252133
 20
1747.6018251572
 30
0.0
 10
37.6796339777
 20
1747.4374350738
 30
0.0
 10
37.6322136685
 20
1747.3401735222
 30
0.0
 10
37.6047066146
 20
1747.3372824149
 30
0.0
  0
SPLINE
  5
442
100
AcDbEntity
  8
94673901000_BL8
100
AcDbSpline
 62
7
  6
CONTINUOUS
 70
0
 71
3
 72
13
 73
9
 74
0
 42
0.0000001
 43
0.0000001
 44
0.0000000001
 40
0.0
 40
0.0
 40
0.0
 40
0.0
 40
0.023535275
 40
0.0753518635
 40
0.1578016021
 40
0.2707521577
 40
0.5831769056
 40
1.0
 40
1.0
 40
1.0
 40
1.0
 10
31.2915471816
 20
1746.6737426206
 30
0.0
 10
31.299379908
 20
1746.6745658733
 30
0.0
 10
31.3126943965
 20
1746.7029489357
 30
0.0
 10
31.3226142498
 20
1746.75037021
 30
0.0
 10
31.3339843996
 20
1746.8346971158
 30
0.0
 10
31.3465063057
 20
1747.0028874476
 30
0.0
 10
31.355359924
 20
1747.2856416936
 30
0.0
 10
31.3560528895
 20
1747.5293536737
 30
0.0
 10
31.3553157037
 20
1747.6688378813
 30
0.0
  0
SPLINE
  5
443
100
AcDbEntity
  8
94673901000_BL8
100
AcDbSpline
 62
7
  6
CONTINUOUS
 70
0
 71
3
 72
9
 73
5
 74
0
 42
0.0000001
 43
0.0000001
 44
0.0000000001
 40
0.0
 40
0.0
 40
0.0
 40
0.0
 40
0.2192185014
 40
1.0
 40
1.0
 40
1.0
 40
1.0
 10
31.3553157037
 20
1747.6688378813
 30
0.0
 10
31.3545473419
 20
1747.814220939
 30
0.0
 10
31.344984366
 20
1748.4773713225
 30
0.0
 10
31.3184264932
 20
1749.1401943473
 30
0.0
 10
31.2915471816
 20
1749.6573083067
 30
0.0
  0
SPLINE
  5
444
100
AcDbEntity
  8
94673901000_BL8
100
AcDbSpline
 62
9
  6
CONTINUOUS
 70
0
 71
3
 72
14
 73
10
 74
0
 42
0.0000001
 43
0.0000001
 44
0.0000000001
 40
0.0
 40
0.0
 40
0.0
 40
0.0
 40
0.0275298356
 40
0.0866290885
 40
0.179107766
 40
0.3023404046
 40
0.4518791503
 40
0.6223179624
 40
1.0
 40
1.0
 40
1.0
 40
1.0
 10
37.6047066146
 20
1786.0101132866
 30
0.0
 10
37.6322136685
 20
1786.0072221793
 30
0.0
 10
37.6796339777
 20
1785.9099606277
 30
0.0
 10
37.7050252133
 20
1785.7455705443
 30
0.0
 10
37.7296338724
 20
1785.4632733581
 30
0.0
 10
37.7343333853
 20
1785.0990209449
 30
0.0
 10
37.7255472996
 20
1784.6527637144
 30
0.0
 10
37.6905347194
 20
1783.9530624039
 30
0.0
 10
37.643941038
 20
1783.4039619068
 30
0.0
 10
37.6047066146
 20
1783.0265476005
 30
0.0
  0
SPLINE
  5
445
100
AcDbEntity
  8
94673901000_BL8
100
AcDbSpline
 62
7
  6
CONTINUOUS
 70
0
 71
3
 72
13
 73
9
 74
0
 42
0.0000001
 43
0.0000001
 44
0.0000000001
 40
0.0
 40
0.0
 40
0.0
 40
0.0
 40
0.0235352288
 40
0.0753518244
 40
0.1578016002
 40
0.2707522048
 40
0.5831770189
 40
1.0
 40
1.0
 40
1.0
 40
1.0
 10
31.2915471816
 20
1786.6736530809
 30
0.0
 10
31.2993799733
 20
1786.6728298213
 30
0.0
 10
31.3126945048
 20
1786.6444464038
 30
0.0
 10
31.3226144039
 20
1786.5970246719
 30
0.0
 10
31.3339845802
 20
1786.5126968311
 30
0.0
 10
31.3465064929
 20
1786.3445047209
 30
0.0
 10
31.3553600405
 20
1786.0617475478
 30
0.0
 10
31.3560529031
 20
1785.8180330764
 30
0.0
 10
31.355315649
 20
1785.6785474704
 30
0.0
  0
SPLINE
  5
446
100
AcDbEntity
  8
94673901000_BL8
100
AcDbSpline
 62
7
  6
CONTINUOUS
 70
0
 71
3
 72
9
 73
5
 74
0
 42
0.0000001
 43
0.0000001
 44
0.0000000001
 40
0.0
 40
0.0
 40
0.0
 40
0.0
 40
0.2192189109
 40
1.0
 40
1.0
 40
1.0
 40
1.0
 10
31.355315649
 20
1785.6785474704
 30
0.0
 10
31.3545472263
 20
1785.5331648977
 30
0.0
 10
31.3449841003
 20
1784.870017967
 30
0.0
 10
31.3184263393
 20
1784.2071983933
 30
0.0
 10
31.2915471816
 20
1783.6900873948
 30
0.0
  0
SPLINE
  5
447
100
AcDbEntity
  8
94673901000_BL8
100
AcDbSpline
 62
7
  6
CONTINUOUS
 70
0
 71
3
 72
9
 73
5
 74
0
 42
0.0000001
 43
0.0000001
 44
0.0000000001
 40
0.0
 40
0.0
 40
0.0
 40
0.0
 40
0.2719207816
 40
1.0
 40
1.0
 40
1.0
 40
1.0
 10
31.2915471816
 20
101.778507653
 30
0.0
 10
31.3008827936
 20
101.5989057594
 30
0.0
 10
31.3319199938
 20
100.938264937
 30
0.0
 10
31.3526316517
 20
100.2769938437
 30
0.0
 10
31.3552864227
 20
99.7954603969
 30
0.0
  0
SPLINE
  5
448
100
AcDbEntity
  8
94673901000_BL8
100
AcDbSpline
 62
7
  6
CONTINUOUS
 70
0
 71
3
 72
13
 73
9
 74
0
 42
0.0000001
 43
0.0000001
 44
0.0000000001
 40
0.0
 40
0.0
 40
0.0
 40
0.0
 40
0.4179847521
 40
0.7296530173
 40
0.8420473503
 40
0.9241002237
 40
0.9758734503
 40
1.0
 40
1.0
 40
1.0
 40
1.0
 10
31.355630914
 20
99.673659487
 30
0.0
 10
31.355630914
 20
99.5499835882
 30
0.0
 10
31.3538253604
 20
99.3343475127
 30
0.0
 10
31.3442622836
 20
99.0845386038
 30
0.0
 10
31.3318518589
 20
98.9362915689
 30
0.0
 10
31.3208322575
 20
98.8624012974
 30
0.0
 10
31.3114148324
 20
98.8201277826
 30
0.0
 10
31.2986467869
 20
98.7956881655
 30
0.0
 10
31.2915471816
 20
98.7949419669
 30
0.0
  0
SPLINE
  5
449
100
AcDbEntity
  8
94673901000_BL8
100
AcDbSpline
 62
9
  6
CONTINUOUS
 70
0
 71
3
 72
14
 73
10
 74
0
 42
0.0000001
 43
0.0000001
 44
0.0000000001
 40
0.0
 40
0.0
 40
0.0
 40
0.0
 40
0.3776820376
 40
0.5481208497
 40
0.6976595953
 40
0.820892234
 40
0.9133709115
 40
0.9724701644
 40
1.0
 40
1.0
 40
1.0
 40
1.0
 10
37.6047066146
 20
102.4420474474
 30
0.0
 10
37.643941038
 20
102.064633141
 30
0.0
 10
37.6905347193
 20
101.515532644
 30
0.0
 10
37.7255472996
 20
100.8158313336
 30
0.0
 10
37.7343333853
 20
100.3695741031
 30
0.0
 10
37.7296338724
 20
100.0053216898
 30
0.0
 10
37.7050252133
 20
99.7230245037
 30
0.0
 10
37.6796339776
 20
99.55863442
 30
0.0
 10
37.6322136685
 20
99.4613728688
 30
0.0
 10
37.6047066146
 20
99.4584817613
 30
0.0
  0
SPLINE
  5
44A
100
AcDbEntity
  8
94673901000_BL8
100
AcDbSpline
 62
7
  6
CONTINUOUS
 70
0
 71
3
 72
9
 73
5
 74
0
 42
0.0000001
 43
0.0000001
 44
0.0000000001
 40
0.0
 40
0.0
 40
0.0
 40
0.0
 40
0.2719210866
 40
1.0
 40
1.0
 40
1.0
 40
1.0
 10
31.2915471816
 20
109.6112867411
 30
0.0
 10
31.300882853
 20
109.7908897787
 30
0.0
 10
31.331920191
 20
110.4515340683
 30
0.0
 10
31.3526319065
 20
111.1128086375
 30
0.0
 10
31.3552864801
 20
111.5943444105
 30
0.0
  0
SPLINE
  5
44B
100
AcDbEntity
  8
94673901000_BL8
100
AcDbSpline
 62
7
  6
CONTINUOUS
 70
0
 71
3
 72
13
 73
9
 74
0
 42
0.0000001
 43
0.0000001
 44
0.0000000001
 40
0.0
 40
0.0
 40
0.0
 40
0.0
 40
0.4179847521
 40
0.7296530173
 40
0.8420473503
 40
0.9241002237
 40
0.9758734503
 40
1.0
 40
1.0
 40
1.0
 40
1.0
 10
31.355630914
 20
111.7161349072
 30
0.0
 10
31.355630914
 20
111.8398108059
 30
0.0
 10
31.3538253604
 20
112.0554468815
 30
0.0
 10
31.3442622836
 20
112.3052557904
 30
0.0
 10
31.3318518589
 20
112.4535028252
 30
0.0
 10
31.3208322575
 20
112.5273930968
 30
0.0
 10
31.3114148324
 20
112.5696666115
 30
0.0
 10
31.2986467869
 20
112.5941062286
 30
0.0
 10
31.2915471816
 20
112.5948524272
 30
0.0
  0
SPLINE
  5
44C
100
AcDbEntity
  8
94673901000_BL8
100
AcDbSpline
 62
9
  6
CONTINUOUS
 70
0
 71
3
 72
14
 73
10
 74
0
 42
0.0000001
 43
0.0000001
 44
0.0000000001
 40
0.0
 40
0.0
 40
0.0
 40
0.0
 40
0.0275298356
 40
0.0866290885
 40
0.179107766
 40
0.3023404047
 40
0.4518791503
 40
0.6223179624
 40
1.0
 40
1.0
 40
1.0
 40
1.0
 10
37.6047066146
 20
111.9313126329
 30
0.0
 10
37.6322136685
 20
111.9284215254
 30
0.0
 10
37.6796339776
 20
111.8311599742
 30
0.0
 10
37.7050252133
 20
111.6667698905
 30
0.0
 10
37.7296338724
 20
111.3844727044
 30
0.0
 10
37.7343333853
 20
111.0202202911
 30
0.0
 10
37.7255472996
 20
110.5739630606
 30
0.0
 10
37.6905347193
 20
109.8742617502
 30
0.0
 10
37.643941038
 20
109.3251612531
 30
0.0
 10
37.6047066146
 20
108.9477469468
 30
0.0
  0
ELLIPSE
  5
44D
100
AcDbEntity
  8
94673901000_BL8
100
AcDbEllipse
 62
7
  6
CONTINUOUS
 10
59.8342145875
 20
1749.6736978507
 30
0.0
 11
28.5430933627
 21
0.0
 31
0.0
 40
0.1051042353
 41
3.1415926536
 42
3.1470558621
  0
ELLIPSE
  5
44E
100
AcDbEntity
  8
94673901000_BL8
100
AcDbEllipse
 62
7
  6
CONTINUOUS
 10
59.8342145875
 20
1783.6736978507
 30
0.0
 11
28.5430933627
 21
-0.0
 31
0.0
 40
0.1051042353
 41
3.1361294451
 42
3.1415926536
  0
ELLIPSE
  5
44F
100
AcDbEntity
  8
94673901000_BL8
100
AcDbEllipse
 62
7
  6
CONTINUOUS
 10
59.8342145875
 20
101.7948971971
 30
0.0
 11
28.5430933627
 21
-0.0
 31
0.0
 40
0.1051042353
 41
3.1415926536
 42
3.1470558621
  0
ELLIPSE
  5
450
100
AcDbEntity
  8
94673901000_BL8
100
AcDbEllipse
 62
7
  6
CONTINUOUS
 10
59.8342145875
 20
109.5948971971
 30
0.0
 11
28.5430933627
 21
0.0
 31
0.0
 40
0.1051042353
 41
3.1361294451
 42
3.1415926536
  0
ENDBLK
  5
451
100
AcDbEntity
  8
0
  6
BYBLOCK
 62
0
100
AcDbBlockEnd
  0
BLOCK
  5
452
100
AcDbEntity
  8
94529001000_BL9
100
AcDbBlockBegin
  2
94529001000_BL9
 70
64
 10
76.5268215581
 20
952.9410338566
  3
94529001000_BL9
  1

  0
LINE
  5
453
100
AcDbEntity
  8
94529001000_BL9
100
AcDbLine
 62
7
  6
CONTINUOUS
 10
115.5625218913
 20
1766.8236978507
 11
115.4125218913
 21
1766.6736978507
  0
LINE
  5
454
100
AcDbEntity
  8
94529001000_BL9
100
AcDbLine
 62
7
  6
CONTINUOUS
 10
117.2625218913
 20
1766.5236978507
 11
117.4125218913
 21
1766.6736978507
  0
LINE
  5
455
100
AcDbEntity
  8
94529001000_BL9
100
AcDbLine
 62
7
  6
CONTINUOUS
 10
114.7625218913
 20
1736.1736978507
 11
114.7625218913
 21
1797.1736978507
  0
LINE
  5
456
100
AcDbEntity
  8
94529001000_BL9
100
AcDbLine
 62
7
  6
CONTINUOUS
 10
115.5625218913
 20
1744.4236978507
 11
115.5625218913
 21
1766.5236978507
  0
LINE
  5
457
100
AcDbEntity
  8
94529001000_BL9
100
AcDbLine
 62
7
  6
CONTINUOUS
 10
115.5625218913
 20
1766.8236978507
 11
115.5625218913
 21
1788.9236978507
  0
LINE
  5
458
100
AcDbEntity
  8
94529001000_BL9
100
AcDbLine
 62
7
  6
CONTINUOUS
 10
117.2625218913
 20
1783.6736978507
 11
117.2625218913
 21
1766.8236978507
  0
LINE
  5
459
100
AcDbEntity
  8
94529001000_BL9
100
AcDbLine
 62
7
  6
CONTINUOUS
 10
117.2625218913
 20
1766.5236978507
 11
117.2625218913
 21
1749.6736978507
  0
LINE
  5
45A
100
AcDbEntity
  8
94529001000_BL9
100
AcDbLine
 62
7
  6
CONTINUOUS
 10
118.0625218913
 20
1783.6736978507
 11
118.0625218913
 21
1749.6736978507
  0
LINE
  5
45B
100
AcDbEntity
  8
94529001000_BL9
100
AcDbLine
 62
9
  6
CONTINUOUS
 10
120.0625218913
 20
1747.6736978507
 11
120.0625218913
 21
1746.8736978507
  0
LINE
  5
45C
100
AcDbEntity
  8
94529001000_BL9
100
AcDbLine
 62
9
  6
CONTINUOUS
 10
120.0625218913
 20
1785.6736978507
 11
120.0625218913
 21
1786.4736978507
  0
LINE
  5
45D
100
AcDbEntity
  8
94529001000_BL9
100
AcDbLine
 62
7
  6
CENTER
 10
123.2625218913
 20
1808.6871705162
 11
123.2625218913
 21
1724.6602251853
  0
LINE
  5
45E
100
AcDbEntity
  8
94529001000_BL9
100
AcDbLine
 62
9
  6
CONTINUOUS
 10
127.4625218913
 20
1747.6736978507
 11
127.4625218913
 21
1746.8736978507
  0
LINE
  5
45F
100
AcDbEntity
  8
94529001000_BL9
100
AcDbLine
 62
9
  6
CONTINUOUS
 10
127.4625218913
 20
1785.6736978507
 11
127.4625218913
 21
1786.4736978507
  0
LINE
  5
460
100
AcDbEntity
  8
94529001000_BL9
100
AcDbLine
 62
7
  6
CONTINUOUS
 10
129.4625218913
 20
1749.6736978507
 11
129.4625218913
 21
1783.6736978507
  0
LINE
  5
461
100
AcDbEntity
  8
94529001000_BL9
100
AcDbLine
 62
7
  6
CONTINUOUS
 10
130.2625218913
 20
1749.6736978507
 11
130.2625218913
 21
1783.6736978507
  0
LINE
  5
462
100
AcDbEntity
  8
94529001000_BL9
100
AcDbLine
 62
7
  6
CONTINUOUS
 10
130.9625218913
 20
1744.4236978507
 11
130.9625218913
 21
1788.9236978507
  0
LINE
  5
463
100
AcDbEntity
  8
94529001000_BL9
100
AcDbLine
 62
7
  6
CONTINUOUS
 10
131.7625218913
 20
1736.1736978507
 11
131.7625218913
 21
1797.1736978507
  0
LINE
  5
464
100
AcDbEntity
  8
94529001000_BL9
100
AcDbLine
 62
7
  6
CONTINUOUS
 10
115.5625218913
 20
1766.5236978507
 11
115.4125218913
 21
1766.6736978507
  0
LINE
  5
465
100
AcDbEntity
  8
94529001000_BL9
100
AcDbLine
 62
7
  6
CONTINUOUS
 10
117.2625218913
 20
1766.8236978507
 11
117.4125218913
 21
1766.6736978507
  0
LINE
  5
466
100
AcDbEntity
  8
94529001000_BL9
100
AcDbLine
 62
7
  6
CONTINUOUS
 10
114.7625218913
 20
1744.4236978507
 11
115.5625218913
 21
1744.4236978507
  0
LINE
  5
467
100
AcDbEntity
  8
94529001000_BL9
100
AcDbLine
 62
7
  6
CONTINUOUS
 10
130.9625218913
 20
1744.4236978507
 11
131.7625218913
 21
1744.4236978507
  0
LINE
  5
468
100
AcDbEntity
  8
94529001000_BL9
100
AcDbLine
 62
7
  6
CONTINUOUS
 10
120.0625218913
 20
1746.8736978507
 11
127.4625218913
 21
1746.8736978507
  0
LINE
  5
469
100
AcDbEntity
  8
94529001000_BL9
100
AcDbLine
 62
7
  6
CONTINUOUS
 10
120.0625218913
 20
1747.6736978507
 11
127.4625218913
 21
1747.6736978507
  0
LINE
  5
46A
100
AcDbEntity
  8
94529001000_BL9
100
AcDbLine
 62
9
  6
CONTINUOUS
 10
118.0625218913
 20
1749.6736978507
 11
117.2625218913
 21
1749.6736978507
  0
LINE
  5
46B
100
AcDbEntity
  8
94529001000_BL9
100
AcDbLine
 62
9
  6
CONTINUOUS
 10
129.4625218913
 20
1749.6736978507
 11
130.2625218913
 21
1749.6736978507
  0
LINE
  5
46C
100
AcDbEntity
  8
94529001000_BL9
100
AcDbLine
 62
7
  6
CONTINUOUS
 10
115.5625218913
 20
1766.5236978507
 11
117.2625218913
 21
1766.5236978507
  0
LINE
  5
46D
100
AcDbEntity
  8
94529001000_BL9
100
AcDbLine
 62
7
  6
CONTINUOUS
 10
115.4125218913
 20
1766.6736978507
 11
117.4125218913
 21
1766.6736978507
  0
LINE
  5
46E
100
AcDbEntity
  8
94529001000_BL9
100
AcDbLine
 62
7
  6
CONTINUOUS
 10
115.5625218913
 20
1766.8236978507
 11
117.2625218913
 21
1766.8236978507
  0
LINE
  5
46F
100
AcDbEntity
  8
94529001000_BL9
100
AcDbLine
 62
9
  6
CONTINUOUS
 10
118.0625218913
 20
1783.6736978507
 11
117.2625218913
 21
1783.6736978507
  0
LINE
  5
470
100
AcDbEntity
  8
94529001000_BL9
100
AcDbLine
 62
9
  6
CONTINUOUS
 10
129.4625218913
 20
1783.6736978507
 11
130.2625218913
 21
1783.6736978507
  0
LINE
  5
471
100
AcDbEntity
  8
94529001000_BL9
100
AcDbLine
 62
7
  6
CONTINUOUS
 10
127.4625218913
 20
1785.6736978507
 11
120.0625218913
 21
1785.6736978507
  0
LINE
  5
472
100
AcDbEntity
  8
94529001000_BL9
100
AcDbLine
 62
7
  6
CONTINUOUS
 10
127.4625218913
 20
1786.4736978507
 11
120.0625218913
 21
1786.4736978507
  0
LINE
  5
473
100
AcDbEntity
  8
94529001000_BL9
100
AcDbLine
 62
7
  6
CONTINUOUS
 10
114.7625218913
 20
1788.9236978507
 11
115.5625218913
 21
1788.9236978507
  0
LINE
  5
474
100
AcDbEntity
  8
94529001000_BL9
100
AcDbLine
 62
7
  6
CONTINUOUS
 10
130.9625218913
 20
1788.9236978507
 11
131.7625218913
 21
1788.9236978507
  0
LINE
  5
475
100
AcDbEntity
  8
94529001000_BL9
100
AcDbLine
 62
7
  6
CONTINUOUS
 10
21.2911212248
 20
1727.6736978507
 11
21.2911212248
 21
1805.6736978507
  0
LINE
  5
476
100
AcDbEntity
  8
94529001000_BL9
100
AcDbLine
 62
7
  6
CONTINUOUS
 10
22.0911212248
 20
1744.4236978507
 11
22.0911212248
 21
1788.9236978507
  0
LINE
  5
477
100
AcDbEntity
  8
94529001000_BL9
100
AcDbLine
 62
7
  6
CONTINUOUS
 10
23.2911212248
 20
1727.6736978507
 11
21.2911212248
 21
1727.6736978507
  0
LINE
  5
478
100
AcDbEntity
  8
94529001000_BL9
100
AcDbLine
 62
9
  6
CONTINUOUS
 10
21.2911212248
 20
1736.1736978507
 11
23.2911212248
 21
1736.1736978507
  0
LINE
  5
479
100
AcDbEntity
  8
94529001000_BL9
100
AcDbLine
 62
7
  6
CONTINUOUS
 10
21.2911212248
 20
1744.4236978507
 11
22.0911212248
 21
1744.4236978507
  0
LINE
  5
47A
100
AcDbEntity
  8
94529001000_BL9
100
AcDbLine
 62
7
  6
CONTINUOUS
 10
21.2911212248
 20
1788.9236978507
 11
22.0911212248
 21
1788.9236978507
  0
LINE
  5
47B
100
AcDbEntity
  8
94529001000_BL9
100
AcDbLine
 62
9
  6
CONTINUOUS
 10
21.2911212248
 20
1797.1736978507
 11
23.2911212248
 21
1797.1736978507
  0
LINE
  5
47C
100
AcDbEntity
  8
94529001000_BL9
100
AcDbLine
 62
7
  6
CONTINUOUS
 10
23.2911212248
 20
1805.6736978507
 11
21.2911212248
 21
1805.6736978507
  0
LINE
  5
47D
100
AcDbEntity
  8
94529001000_BL9
100
AcDbLine
 62
7
  6
CONTINUOUS
 10
21.2911212248
 20
97.1948971971
 11
21.2911212248
 21
114.1948971971
  0
LINE
  5
47E
100
AcDbEntity
  8
94529001000_BL9
100
AcDbLine
 62
7
  6
CONTINUOUS
 10
23.2911212248
 20
114.1948971971
 11
23.2911212248
 21
113.7785143542
  0
LINE
  5
47F
100
AcDbEntity
  8
94529001000_BL9
100
AcDbLine
 62
7
  6
CONTINUOUS
 10
23.2911212248
 20
97.1948971971
 11
21.2911212248
 21
97.1948971971
  0
LINE
  5
480
100
AcDbEntity
  8
94529001000_BL9
100
AcDbLine
 62
7
  6
CONTINUOUS
 10
21.2911212248
 20
114.1948971971
 11
23.2911212248
 21
114.1948971971
  0
ARC
  5
481
100
AcDbEntity
  8
94529001000_BL9
100
AcDbCircle
 62
7
  6
CONTINUOUS
 10
120.0625218913
 20
1749.6736978507
 40
2.7999942656
100
AcDbArc
 50
180.0
 51
270.0
  0
ARC
  5
482
100
AcDbEntity
  8
94529001000_BL9
100
AcDbCircle
 62
7
  6
CONTINUOUS
 10
120.0625218913
 20
1749.6736978507
 40
2.0
100
AcDbArc
 50
180.0
 51
270.0
  0
ARC
  5
483
100
AcDbEntity
  8
94529001000_BL9
100
AcDbCircle
 62
7
  6
CONTINUOUS
 10
120.0625218913
 20
1783.6736978507
 40
2.7999942656
100
AcDbArc
 50
90.0
 51
180.0
  0
ARC
  5
484
100
AcDbEntity
  8
94529001000_BL9
100
AcDbCircle
 62
7
  6
CONTINUOUS
 10
120.0625218913
 20
1783.6736978507
 40
2.0
100
AcDbArc
 50
90.0
 51
180.0
  0
ARC
  5
485
100
AcDbEntity
  8
94529001000_BL9
100
AcDbCircle
 62
7
  6
CONTINUOUS
 10
123.2625218913
 20
1736.1736978507
 40
8.5
100
AcDbArc
 50
180.0
 51
360.0
  0
CIRCLE
  5
486
100
AcDbEntity
  8
94529001000_BL9
100
AcDbCircle
 62
7
  6
CONTINUOUS
 10
123.2625218913
 20
1736.5736978507
 40
5.65
  0
ARC
  5
487
100
AcDbEntity
  8
94529001000_BL9
100
AcDbCircle
 62
7
  6
CONTINUOUS
 10
123.2625218913
 20
1797.1736978507
 40
8.5
100
AcDbArc
 50
0.0
 51
180.0
  0
CIRCLE
  5
488
100
AcDbEntity
  8
94529001000_BL9
100
AcDbCircle
 62
7
  6
CONTINUOUS
 10
123.2625218913
 20
1796.7736978507
 40
5.65
  0
ARC
  5
489
100
AcDbEntity
  8
94529001000_BL9
100
AcDbCircle
 62
7
  6
CONTINUOUS
 10
127.4625218913
 20
1749.6736978507
 40
2.7999942656
100
AcDbArc
 50
270.0
 51
360.0
  0
ARC
  5
48A
100
AcDbEntity
  8
94529001000_BL9
100
AcDbCircle
 62
7
  6
CONTINUOUS
 10
127.4625218913
 20
1783.6736978507
 40
2.7999942656
100
AcDbArc
 50
0.0
 51
90.0
  0
ARC
  5
48B
100
AcDbEntity
  8
94529001000_BL9
100
AcDbCircle
 62
7
  6
CONTINUOUS
 10
127.4625218913
 20
1749.6736978507
 40
2.0
100
AcDbArc
 50
270.0
 51
360.0
  0
ARC
  5
48C
100
AcDbEntity
  8
94529001000_BL9
100
AcDbCircle
 62
7
  6
CONTINUOUS
 10
127.4625218913
 20
1783.6736978507
 40
2.0
100
AcDbArc
 50
0.0
 51
90.0
  0
ENDBLK
  5
48D
100
AcDbEntity
  8
0
  6
BYBLOCK
 62
0
100
AcDbBlockEnd
  0
BLOCK
  5
48E
100
AcDbEntity
  8
94528905000_M_BL10
100
AcDbBlockBegin
  2
94528905000_M_BL10
 70
64
 10
78.6768215581
 20
952.4842975239
  3
94528905000_M_BL10
  1

  0
LINE
  5
48F
100
AcDbEntity
  8
94528905000_M_BL10
100
AcDbLine
 62
7
  6
CONTINUOUS
 10
122.3875218913
 20
1799.2892423074
 11
121.5125218913
 21
1797.7736978507
  0
LINE
  5
490
100
AcDbEntity
  8
94528905000_M_BL10
100
AcDbLine
 62
7
  6
CONTINUOUS
 10
124.1375218913
 20
1796.2581533941
 11
125.0125218913
 21
1797.7736978507
  0
LINE
  5
491
100
AcDbEntity
  8
94528905000_M_BL10
100
AcDbLine
 62
7
  6
CONTINUOUS
 10
121.5125218913
 20
1797.7736978507
 11
122.3875218913
 21
1796.2581533941
  0
LINE
  5
492
100
AcDbEntity
  8
94528905000_M_BL10
100
AcDbLine
 62
7
  6
CONTINUOUS
 10
125.0125218913
 20
1797.7736978507
 11
124.1375218913
 21
1799.2892423074
  0
LINE
  5
493
100
AcDbEntity
  8
94528905000_M_BL10
100
AcDbLine
 62
7
  6
CONTINUOUS
 10
122.3875218913
 20
1796.2581533941
 11
124.1375218913
 21
1796.2581533941
  0
LINE
  5
494
100
AcDbEntity
  8
94528905000_M_BL10
100
AcDbLine
 62
7
  6
CONTINUOUS
 10
124.1375218913
 20
1799.2892423074
 11
122.3875218913
 21
1799.2892423074
  0
CIRCLE
  5
495
100
AcDbEntity
  8
94528905000_M_BL10
100
AcDbCircle
 62
7
  6
CONTINUOUS
 10
123.2625218913
 20
1796.7736978507
 40
5.5
  0
CIRCLE
  5
496
100
AcDbEntity
  8
94528905000_M_BL10
100
AcDbCircle
 62
7
  6
CONTINUOUS
 10
123.2625218913
 20
1797.7736978507
 40
1.75
  0
CIRCLE
  5
497
100
AcDbEntity
  8
94528905000_M_BL10
100
AcDbCircle
 62
7
  6
CONTINUOUS
 10
123.2625218913
 20
1797.7736978507
 40
1.515
  0
CIRCLE
  5
498
100
AcDbEntity
  8
94528905000_M_BL10
100
AcDbCircle
 62
7
  6
CONTINUOUS
 10
123.2625218913
 20
1794.2736978507
 40
0.75
  0
ARC
  5
499
100
AcDbEntity
  8
94528905000_M_BL10
100
AcDbCircle
 62
7
  6
CONTINUOUS
 10
25.9453699138
 20
1797.7736978507
 40
4.0
100
AcDbArc
 50
326.8389561101
 51
33.1610438899
  0
ARC
  5
49A
100
AcDbEntity
  8
94528905000_M_BL10
100
AcDbCircle
 62
7
  6
CONTINUOUS
 10
25.9453699138
 20
105.6948971971
 40
4.0
100
AcDbArc
 50
311.4096221093
 51
48.5903778907
  0
ENDBLK
  5
49B
100
AcDbEntity
  8
0
  6
BYBLOCK
 62
0
100
AcDbBlockEnd
  0
BLOCK
  5
49C
100
AcDbEntity
  8
94528905000_M_BL11
100
AcDbBlockBegin
  2
94528905000_M_BL11
 70
64
 10
79.0282187326
 20
1736.5736978507
  3
94528905000_M_BL11
  1

  0
LINE
  5
49D
100
AcDbEntity
  8
94528905000_M_BL11
100
AcDbLine
 62
7
  6
CONTINUOUS
 10
122.3875218913
 20
1737.0892423074
 11
121.5125218913
 21
1735.5736978507
  0
LINE
  5
49E
100
AcDbEntity
  8
94528905000_M_BL11
100
AcDbLine
 62
7
  6
CONTINUOUS
 10
124.1375218913
 20
1734.0581533941
 11
125.0125218913
 21
1735.5736978507
  0
LINE
  5
49F
100
AcDbEntity
  8
94528905000_M_BL11
100
AcDbLine
 62
7
  6
CONTINUOUS
 10
121.5125218913
 20
1735.5736978507
 11
122.3875218913
 21
1734.0581533941
  0
LINE
  5
4A0
100
AcDbEntity
  8
94528905000_M_BL11
100
AcDbLine
 62
7
  6
CONTINUOUS
 10
125.0125218913
 20
1735.5736978507
 11
124.1375218913
 21
1737.0892423074
  0
LINE
  5
4A1
100
AcDbEntity
  8
94528905000_M_BL11
100
AcDbLine
 62
7
  6
CONTINUOUS
 10
122.3875218913
 20
1734.0581533941
 11
124.1375218913
 21
1734.0581533941
  0
LINE
  5
4A2
100
AcDbEntity
  8
94528905000_M_BL11
100
AcDbLine
 62
7
  6
CONTINUOUS
 10
124.1375218913
 20
1737.0892423074
 11
122.3875218913
 21
1737.0892423074
  0
CIRCLE
  5
4A3
100
AcDbEntity
  8
94528905000_M_BL11
100
AcDbCircle
 62
7
  6
CONTINUOUS
 10
123.2625218913
 20
1736.5736978507
 40
5.5
  0
CIRCLE
  5
4A4
100
AcDbEntity
  8
94528905000_M_BL11
100
AcDbCircle
 62
7
  6
CONTINUOUS
 10
123.2625218913
 20
1735.5736978507
 40
1.75
  0
CIRCLE
  5
4A5
100
AcDbEntity
  8
94528905000_M_BL11
100
AcDbCircle
 62
7
  6
CONTINUOUS
 10
123.2625218913
 20
1735.5736978507
 40
1.515
  0
CIRCLE
  5
4A6
100
AcDbEntity
  8
94528905000_M_BL11
100
AcDbCircle
 62
7
  6
CONTINUOUS
 10
123.2625218913
 20
1739.0736978507
 40
0.75
  0
ARC
  5
4A7
100
AcDbEntity
  8
94528905000_M_BL11
100
AcDbCircle
 62
7
  6
CONTINUOUS
 10
25.9453699138
 20
1735.5736978507
 40
4.0
100
AcDbArc
 50
326.8389561101
 51
33.1610438899
  0
ENDBLK
  5
4A8
100
AcDbEntity
  8
0
  6
BYBLOCK
 62
0
100
AcDbBlockEnd
  0
BLOCK
  5
4A9
100
AcDbEntity
  8
93794908000_BL12
100
AcDbBlockBegin
  2
93794908000_BL12
 70
64
 10
78.2328875752
 20
619.4342990855
  3
93794908000_BL12
  1

  0
LINE
  5
4AA
100
AcDbEntity
  8
93794908000_BL12
100
AcDbLine
 62
7
  6
CONTINUOUS
 10
134.1746539257
 20
1127.9615658164
 11
133.2625218913
 21
1127.049433782
  0
LINE
  5
4AB
100
AcDbEntity
  8
93794908000_BL12
100
AcDbLine
 62
7
  6
CONTINUOUS
 10
134.1746539257
 20
1112.9615658164
 11
133.2625218913
 21
1112.049433782
  0
LINE
  5
4AC
100
AcDbEntity
  8
93794908000_BL12
100
AcDbLine
 62
7
  6
CONTINUOUS
 10
114.2625218913
 20
1110.1736978507
 11
114.2625218913
 21
1132.1736978507
  0
LINE
  5
4AD
100
AcDbEntity
  8
93794908000_BL12
100
AcDbLine
 62
7
  6
CONTINUOUS
 10
115.7625218913
 20
1110.1736978507
 11
115.7625218913
 21
1132.1736978507
  0
LINE
  5
4AE
100
AcDbEntity
  8
93794908000_BL12
100
AcDbLine
 62
7
  6
CONTINUOUS
 10
132.7625218913
 20
1110.1736978507
 11
132.7625218913
 21
1132.1736978507
  0
LINE
  5
4AF
100
AcDbEntity
  8
93794908000_BL12
100
AcDbLine
 62
7
  6
CONTINUOUS
 10
133.2625218913
 20
1132.1736978507
 11
133.2625218913
 21
1129.2979619195
  0
LINE
  5
4B0
100
AcDbEntity
  8
93794908000_BL12
100
AcDbLine
 62
7
  6
CONTINUOUS
 10
133.2625218913
 20
1127.049433782
 11
133.2625218913
 21
1114.2979619195
  0
LINE
  5
4B1
100
AcDbEntity
  8
93794908000_BL12
100
AcDbLine
 62
7
  6
CONTINUOUS
 10
133.2625218913
 20
1110.1736978507
 11
133.2625218913
 21
1112.049433782
  0
LINE
  5
4B2
100
AcDbEntity
  8
93794908000_BL12
100
AcDbLine
 62
7
  6
CONTINUOUS
 10
115.7625218913
 20
1110.1736978507
 11
114.2625218913
 21
1110.1736978507
  0
LINE
  5
4B3
100
AcDbEntity
  8
93794908000_BL12
100
AcDbLine
 62
7
  6
CONTINUOUS
 10
133.2625218913
 20
1110.1736978507
 11
115.7625218913
 21
1110.1736978507
  0
LINE
  5
4B4
100
AcDbEntity
  8
93794908000_BL12
100
AcDbLine
 62
7
  6
CONTINUOUS
 10
133.2625218913
 20
1114.2979619195
 11
134.1746539257
 21
1113.3858298851
  0
LINE
  5
4B5
100
AcDbEntity
  8
93794908000_BL12
100
AcDbLine
 62
7
  6
CONTINUOUS
 10
133.2625218913
 20
1129.2979619195
 11
134.1746539257
 21
1128.3858298851
  0
LINE
  5
4B6
100
AcDbEntity
  8
93794908000_BL12
100
AcDbLine
 62
7
  6
CONTINUOUS
 10
26.7032532592
 20
1127.9615658164
 11
25.7911212248
 21
1127.049433782
  0
LINE
  5
4B7
100
AcDbEntity
  8
93794908000_BL12
100
AcDbLine
 62
7
  6
CONTINUOUS
 10
26.7032532592
 20
1112.9615658164
 11
25.7911212248
 21
1112.049433782
  0
LINE
  5
4B8
100
AcDbEntity
  8
93794908000_BL12
100
AcDbLine
 62
7
  6
CONTINUOUS
 10
25.2911212248
 20
1110.1736978507
 11
25.2911212248
 21
1132.1736978507
  0
LINE
  5
4B9
100
AcDbEntity
  8
93794908000_BL12
100
AcDbLine
 62
7
  6
CONTINUOUS
 10
25.7911212248
 20
1132.1736978507
 11
25.7911212248
 21
1129.2979619195
  0
LINE
  5
4BA
100
AcDbEntity
  8
93794908000_BL12
100
AcDbLine
 62
7
  6
CONTINUOUS
 10
25.7911212248
 20
1127.049433782
 11
25.7911212248
 21
1114.2979619195
  0
LINE
  5
4BB
100
AcDbEntity
  8
93794908000_BL12
100
AcDbLine
 62
7
  6
CONTINUOUS
 10
25.7911212248
 20
1110.1736978507
 11
25.7911212248
 21
1112.049433782
  0
LINE
  5
4BC
100
AcDbEntity
  8
93794908000_BL12
100
AcDbLine
 62
7
  6
CONTINUOUS
 10
28.9911212248
 20
1110.1736978507
 11
28.9911212248
 21
1132.1736978507
  0
LINE
  5
4BD
100
AcDbEntity
  8
93794908000_BL12
100
AcDbLine
 62
7
  6
CONTINUOUS
 10
25.7911212248
 20
1114.2979619195
 11
26.7032532592
 21
1113.3858298851
  0
LINE
  5
4BE
100
AcDbEntity
  8
93794908000_BL12
100
AcDbLine
 62
7
  6
CONTINUOUS
 10
28.9911212248
 20
1110.1736978507
 11
25.2911212248
 21
1110.1736978507
  0
LINE
  5
4BF
100
AcDbEntity
  8
93794908000_BL12
100
AcDbLine
 62
7
  6
CONTINUOUS
 10
25.7911212248
 20
1112.049433782
 11
28.9911212248
 21
1112.049433782
  0
LINE
  5
4C0
100
AcDbEntity
  8
93794908000_BL12
100
AcDbLine
 62
9
  6
CONTINUOUS
 10
26.7032532592
 20
1112.9615658164
 11
28.9911212248
 21
1112.9615658164
  0
LINE
  5
4C1
100
AcDbEntity
  8
93794908000_BL12
100
AcDbLine
 62
9
  6
CONTINUOUS
 10
26.7032532592
 20
1113.3858298851
 11
28.9911212248
 21
1113.3858298851
  0
LINE
  5
4C2
100
AcDbEntity
  8
93794908000_BL12
100
AcDbLine
 62
7
  6
CONTINUOUS
 10
25.7911212248
 20
1114.2979619195
 11
28.9911212248
 21
1114.2979619195
  0
LINE
  5
4C3
100
AcDbEntity
  8
93794908000_BL12
100
AcDbLine
 62
7
  6
CONTINUOUS
 10
25.7911212248
 20
1127.049433782
 11
28.9911212248
 21
1127.049433782
  0
LINE
  5
4C4
100
AcDbEntity
  8
93794908000_BL12
100
AcDbLine
 62
9
  6
CONTINUOUS
 10
26.7032532592
 20
1127.9615658164
 11
28.9911212248
 21
1127.9615658164
  0
LINE
  5
4C5
100
AcDbEntity
  8
93794908000_BL12
100
AcDbLine
 62
9
  6
CONTINUOUS
 10
26.7032532592
 20
1128.3858298851
 11
28.9911212248
 21
1128.3858298851
  0
LINE
  5
4C6
100
AcDbEntity
  8
93794908000_BL12
100
AcDbLine
 62
7
  6
CONTINUOUS
 10
25.7911212248
 20
1129.2979619195
 11
28.9911212248
 21
1129.2979619195
  0
LINE
  5
4C7
100
AcDbEntity
  8
93794908000_BL12
100
AcDbLine
 62
7
  6
CENTER
 10
22.2911212248
 20
1144.1736978507
 11
31.9911212248
 21
1144.1736978507
  0
LINE
  5
4C8
100
AcDbEntity
  8
93794908000_BL12
100
AcDbLine
 62
7
  6
CONTINUOUS
 10
25.7911212248
 20
1129.2979619195
 11
26.7032532592
 21
1128.3858298851
  0
LINE
  5
4C9
100
AcDbEntity
  8
93794908000_BL12
100
AcDbLine
 62
7
  6
CONTINUOUS
 10
26.7911212248
 20
114.6948971971
 11
26.6911212248
 21
114.5948971971
  0
LINE
  5
4CA
100
AcDbEntity
  8
93794908000_BL12
100
AcDbLine
 62
9
  6
CONTINUOUS
 10
26.7032532592
 20
94.7827651627
 11
28.9911212248
 21
94.7827651627
  0
LINE
  5
4CB
100
AcDbEntity
  8
93794908000_BL12
100
AcDbLine
 62
7
  6
CONTINUOUS
 10
26.7032532592
 20
94.7827651627
 11
26.7911181017
 21
94.6949003202
  0
LINE
  5
4CC
100
AcDbEntity
  8
93794908000_BL12
100
AcDbLine
 62
7
  6
CONTINUOUS
 10
28.9911212248
 20
114.6948971971
 11
28.9911212248
 21
114.5948971971
  0
LINE
  5
4CD
100
AcDbEntity
  8
93794908000_BL12
100
AcDbLine
 62
7
  6
CONTINUOUS
 10
28.9911212248
 20
94.6954260462
 11
28.9911212248
 21
94.7827651627
  0
CIRCLE
  5
4CE
100
AcDbEntity
  8
93794908000_BL12
100
AcDbCircle
 62
7
  6
CONTINUOUS
 10
117.1625218913
 20
1128.1736978507
 40
0.75
  0
CIRCLE
  5
4CF
100
AcDbEntity
  8
93794908000_BL12
100
AcDbCircle
 62
7
  6
CONTINUOUS
 10
117.1625218913
 20
1113.1736978507
 40
0.75
  0
CIRCLE
  5
4D0
100
AcDbEntity
  8
93794908000_BL12
100
AcDbCircle
 62
7
  6
CONTINUOUS
 10
120.3625218913
 20
1129.8736978507
 40
2.0
  0
CIRCLE
  5
4D1
100
AcDbEntity
  8
93794908000_BL12
100
AcDbCircle
 62
7
  6
CONTINUOUS
 10
124.2625218913
 20
1120.1736978507
 40
6.0
  0
CIRCLE
  5
4D2
100
AcDbEntity
  8
93794908000_BL12
100
AcDbCircle
 62
7
  6
CONTINUOUS
 10
124.2625218913
 20
1120.1736978507
 40
3.5
  0
CIRCLE
  5
4D3
100
AcDbEntity
  8
93794908000_BL12
100
AcDbCircle
 62
7
  6
CONTINUOUS
 10
124.2625218913
 20
1120.1736978507
 40
3.3
  0
CIRCLE
  5
4D4
100
AcDbEntity
  8
93794908000_BL12
100
AcDbCircle
 62
7
  6
CONTINUOUS
 10
128.1625218913
 20
1129.8736978507
 40
2.0
  0
CIRCLE
  5
4D5
100
AcDbEntity
  8
93794908000_BL12
100
AcDbCircle
 62
7
  6
CONTINUOUS
 10
124.2625218913
 20
1112.1736978507
 40
2.0
  0
CIRCLE
  5
4D6
100
AcDbEntity
  8
93794908000_BL12
100
AcDbCircle
 62
7
  6
CONTINUOUS
 10
131.3625218913
 20
1128.1736978507
 40
0.75
  0
CIRCLE
  5
4D7
100
AcDbEntity
  8
93794908000_BL12
100
AcDbCircle
 62
7
  6
CONTINUOUS
 10
131.3625218913
 20
1113.1736978507
 40
0.75
  0
ARC
  5
4D8
100
AcDbEntity
  8
93794908000_BL12
100
AcDbCircle
 62
7
  6
CONTINUOUS
 10
133.9625218913
 20
1128.1736978507
 40
0.3
100
AcDbArc
 50
315.0
 51
45.0
  0
ARC
  5
4D9
100
AcDbEntity
  8
93794908000_BL12
100
AcDbCircle
 62
7
  6
CONTINUOUS
 10
133.9625218913
 20
1113.1736978507
 40
0.3
100
AcDbArc
 50
315.0
 51
45.0
  0
ARC
  5
4DA
100
AcDbEntity
  8
93794908000_BL12
100
AcDbCircle
 62
7
  6
CONTINUOUS
 10
26.2911212248
 20
1128.1736978507
 40
1.25
100
AcDbArc
 50
143.1301023542
 51
216.8698976458
  0
ARC
  5
4DB
100
AcDbEntity
  8
93794908000_BL12
100
AcDbCircle
 62
7
  6
CONTINUOUS
 10
26.2911212248
 20
1113.1736978507
 40
1.25
100
AcDbArc
 50
143.1301023542
 51
216.8698976458
  0
ELLIPSE
  5
4DC
100
AcDbEntity
  8
93794908000_BL12
100
AcDbEllipse
 62
7
  6
CONTINUOUS
 10
26.4911212248
 20
1128.1736978507
 30
0.0
 11
0.0
 21
0.3
 31
0.0
 40
1.0
 41
-2.3561944902
 42
-0.7853981634
  0
ELLIPSE
  5
4DD
100
AcDbEntity
  8
93794908000_BL12
100
AcDbEllipse
 62
7
  6
CONTINUOUS
 10
26.4911212248
 20
1113.1736978507
 30
0.0
 11
0.0
 21
0.3
 31
0.0
 40
1.0
 41
-2.3561944902
 42
-0.7853981634
  0
ENDBLK
  5
4DE
100
AcDbEntity
  8
0
  6
BYBLOCK
 62
0
100
AcDbBlockEnd
  0
BLOCK
  5
4DF
100
AcDbEntity
  8
93794908000_BL13
100
AcDbBlockBegin
  2
93794908000_BL13
 70
64
 10
78.2328875752
 20
920.6736978507
  3
93794908000_BL13
  1

  0
LINE
  5
4E0
100
AcDbEntity
  8
93794908000_BL13
100
AcDbLine
 62
7
  6
CONTINUOUS
 10
114.2625218913
 20
937.6736978507
 11
115.7625218913
 21
937.6736978507
  0
LINE
  5
4E1
100
AcDbEntity
  8
93794908000_BL13
100
AcDbLine
 62
7
  6
CONTINUOUS
 10
115.7625218913
 20
937.6736978507
 11
133.2625218913
 21
937.6736978507
  0
LINE
  5
4E2
100
AcDbEntity
  8
93794908000_BL13
100
AcDbLine
 62
7
  6
CONTINUOUS
 10
133.2625218913
 20
920.7979619195
 11
134.1746539257
 21
919.8858298851
  0
LINE
  5
4E3
100
AcDbEntity
  8
93794908000_BL13
100
AcDbLine
 62
7
  6
CONTINUOUS
 10
133.2625218913
 20
935.7979619195
 11
134.1746539257
 21
934.8858298851
  0
LINE
  5
4E4
100
AcDbEntity
  8
93794908000_BL13
100
AcDbLine
 62
7
  6
CONTINUOUS
 10
114.2625218913
 20
915.6736978507
 11
114.2625218913
 21
937.6736978507
  0
LINE
  5
4E5
100
AcDbEntity
  8
93794908000_BL13
100
AcDbLine
 62
7
  6
CONTINUOUS
 10
115.7625218913
 20
915.6736978507
 11
115.7625218913
 21
937.6736978507
  0
LINE
  5
4E6
100
AcDbEntity
  8
93794908000_BL13
100
AcDbLine
 62
7
  6
CONTINUOUS
 10
132.7625218913
 20
915.6736978507
 11
132.7625218913
 21
937.6736978507
  0
LINE
  5
4E7
100
AcDbEntity
  8
93794908000_BL13
100
AcDbLine
 62
7
  6
CONTINUOUS
 10
133.2625218913
 20
937.6736978507
 11
133.2625218913
 21
935.7979619195
  0
LINE
  5
4E8
100
AcDbEntity
  8
93794908000_BL13
100
AcDbLine
 62
7
  6
CONTINUOUS
 10
133.2625218913
 20
933.549433782
 11
133.2625218913
 21
920.7979619195
  0
LINE
  5
4E9
100
AcDbEntity
  8
93794908000_BL13
100
AcDbLine
 62
7
  6
CONTINUOUS
 10
133.2625218913
 20
918.549433782
 11
133.2625218913
 21
915.6736978507
  0
LINE
  5
4EA
100
AcDbEntity
  8
93794908000_BL13
100
AcDbLine
 62
7
  6
CONTINUOUS
 10
134.1746539257
 20
934.4615658164
 11
133.2625218913
 21
933.549433782
  0
LINE
  5
4EB
100
AcDbEntity
  8
93794908000_BL13
100
AcDbLine
 62
7
  6
CONTINUOUS
 10
134.1746539257
 20
919.4615658164
 11
133.2625218913
 21
918.549433782
  0
LINE
  5
4EC
100
AcDbEntity
  8
93794908000_BL13
100
AcDbLine
 62
7
  6
CENTER
 10
22.2911212248
 20
903.6736978507
 11
31.9911212248
 21
903.6736978507
  0
LINE
  5
4ED
100
AcDbEntity
  8
93794908000_BL13
100
AcDbLine
 62
7
  6
CONTINUOUS
 10
25.7911212248
 20
918.549433782
 11
28.9911212248
 21
918.549433782
  0
LINE
  5
4EE
100
AcDbEntity
  8
93794908000_BL13
100
AcDbLine
 62
9
  6
CONTINUOUS
 10
26.7032532592
 20
919.4615658164
 11
28.9911212248
 21
919.4615658164
  0
LINE
  5
4EF
100
AcDbEntity
  8
93794908000_BL13
100
AcDbLine
 62
9
  6
CONTINUOUS
 10
26.7032532592
 20
919.8858298851
 11
28.9911212248
 21
919.8858298851
  0
LINE
  5
4F0
100
AcDbEntity
  8
93794908000_BL13
100
AcDbLine
 62
7
  6
CONTINUOUS
 10
25.7911212248
 20
920.7979619195
 11
28.9911212248
 21
920.7979619195
  0
LINE
  5
4F1
100
AcDbEntity
  8
93794908000_BL13
100
AcDbLine
 62
7
  6
CONTINUOUS
 10
25.7911212248
 20
933.549433782
 11
28.9911212248
 21
933.549433782
  0
LINE
  5
4F2
100
AcDbEntity
  8
93794908000_BL13
100
AcDbLine
 62
9
  6
CONTINUOUS
 10
26.7032532592
 20
934.4615658164
 11
28.9911212248
 21
934.4615658164
  0
LINE
  5
4F3
100
AcDbEntity
  8
93794908000_BL13
100
AcDbLine
 62
9
  6
CONTINUOUS
 10
26.7032532592
 20
934.8858298851
 11
28.9911212248
 21
934.8858298851
  0
LINE
  5
4F4
100
AcDbEntity
  8
93794908000_BL13
100
AcDbLine
 62
7
  6
CONTINUOUS
 10
25.7911212248
 20
935.7979619195
 11
28.9911212248
 21
935.7979619195
  0
LINE
  5
4F5
100
AcDbEntity
  8
93794908000_BL13
100
AcDbLine
 62
7
  6
CONTINUOUS
 10
25.2911212248
 20
937.6736978507
 11
28.9911212248
 21
937.6736978507
  0
LINE
  5
4F6
100
AcDbEntity
  8
93794908000_BL13
100
AcDbLine
 62
7
  6
CONTINUOUS
 10
25.7911212248
 20
920.7979619195
 11
26.7032532592
 21
919.8858298851
  0
LINE
  5
4F7
100
AcDbEntity
  8
93794908000_BL13
100
AcDbLine
 62
7
  6
CONTINUOUS
 10
25.7911212248
 20
935.7979619195
 11
26.7032532592
 21
934.8858298851
  0
LINE
  5
4F8
100
AcDbEntity
  8
93794908000_BL13
100
AcDbLine
 62
7
  6
CONTINUOUS
 10
25.2911212248
 20
915.6736978507
 11
25.2911212248
 21
937.6736978507
  0
LINE
  5
4F9
100
AcDbEntity
  8
93794908000_BL13
100
AcDbLine
 62
7
  6
CONTINUOUS
 10
25.7911212248
 20
937.6736978507
 11
25.7911212248
 21
935.7979619195
  0
LINE
  5
4FA
100
AcDbEntity
  8
93794908000_BL13
100
AcDbLine
 62
7
  6
CONTINUOUS
 10
25.7911212248
 20
933.549433782
 11
25.7911212248
 21
920.7979619195
  0
LINE
  5
4FB
100
AcDbEntity
  8
93794908000_BL13
100
AcDbLine
 62
7
  6
CONTINUOUS
 10
25.7911212248
 20
918.549433782
 11
25.7911212248
 21
915.6736978507
  0
LINE
  5
4FC
100
AcDbEntity
  8
93794908000_BL13
100
AcDbLine
 62
7
  6
CONTINUOUS
 10
28.9911212248
 20
915.6736978507
 11
28.9911212248
 21
937.6736978507
  0
LINE
  5
4FD
100
AcDbEntity
  8
93794908000_BL13
100
AcDbLine
 62
7
  6
CONTINUOUS
 10
26.7032532592
 20
934.4615658164
 11
25.7911212248
 21
933.549433782
  0
LINE
  5
4FE
100
AcDbEntity
  8
93794908000_BL13
100
AcDbLine
 62
7
  6
CONTINUOUS
 10
26.7032532592
 20
919.4615658164
 11
25.7911212248
 21
918.549433782
  0
CIRCLE
  5
4FF
100
AcDbEntity
  8
93794908000_BL13
100
AcDbCircle
 62
7
  6
CONTINUOUS
 10
117.1625218913
 20
919.6736978507
 40
0.75
  0
CIRCLE
  5
500
100
AcDbEntity
  8
93794908000_BL13
100
AcDbCircle
 62
7
  6
CONTINUOUS
 10
117.1625218913
 20
934.6736978507
 40
0.75
  0
CIRCLE
  5
501
100
AcDbEntity
  8
93794908000_BL13
100
AcDbCircle
 62
7
  6
CONTINUOUS
 10
120.3625218913
 20
917.9736978507
 40
2.0
  0
CIRCLE
  5
502
100
AcDbEntity
  8
93794908000_BL13
100
AcDbCircle
 62
7
  6
CONTINUOUS
 10
124.2625218913
 20
927.6736978507
 40
6.0
  0
CIRCLE
  5
503
100
AcDbEntity
  8
93794908000_BL13
100
AcDbCircle
 62
7
  6
CONTINUOUS
 10
124.2625218913
 20
927.6736978507
 40
3.5
  0
CIRCLE
  5
504
100
AcDbEntity
  8
93794908000_BL13
100
AcDbCircle
 62
7
  6
CONTINUOUS
 10
124.2625218913
 20
927.6736978507
 40
3.3
  0
CIRCLE
  5
505
100
AcDbEntity
  8
93794908000_BL13
100
AcDbCircle
 62
7
  6
CONTINUOUS
 10
128.1625218913
 20
917.9736978507
 40
2.0
  0
CIRCLE
  5
506
100
AcDbEntity
  8
93794908000_BL13
100
AcDbCircle
 62
7
  6
CONTINUOUS
 10
124.2625218913
 20
935.6736978507
 40
2.0
  0
CIRCLE
  5
507
100
AcDbEntity
  8
93794908000_BL13
100
AcDbCircle
 62
7
  6
CONTINUOUS
 10
131.3625218913
 20
919.6736978507
 40
0.75
  0
CIRCLE
  5
508
100
AcDbEntity
  8
93794908000_BL13
100
AcDbCircle
 62
7
  6
CONTINUOUS
 10
131.3625218913
 20
934.6736978507
 40
0.75
  0
ARC
  5
509
100
AcDbEntity
  8
93794908000_BL13
100
AcDbCircle
 62
7
  6
CONTINUOUS
 10
133.9625218913
 20
934.6736978507
 40
0.3
100
AcDbArc
 50
315.0
 51
45.0
  0
ARC
  5
50A
100
AcDbEntity
  8
93794908000_BL13
100
AcDbCircle
 62
7
  6
CONTINUOUS
 10
133.9625218913
 20
919.6736978507
 40
0.3
100
AcDbArc
 50
315.0
 51
45.0
  0
ARC
  5
50B
100
AcDbEntity
  8
93794908000_BL13
100
AcDbCircle
 62
7
  6
CONTINUOUS
 10
26.2911212248
 20
919.6736978507
 40
1.25
100
AcDbArc
 50
143.1301023542
 51
216.8698976458
  0
ARC
  5
50C
100
AcDbEntity
  8
93794908000_BL13
100
AcDbCircle
 62
7
  6
CONTINUOUS
 10
26.2911212248
 20
934.6736978507
 40
1.25
100
AcDbArc
 50
143.1301023542
 51
216.8698976458
  0
ELLIPSE
  5
50D
100
AcDbEntity
  8
93794908000_BL13
100
AcDbEllipse
 62
7
  6
CONTINUOUS
 10
26.4911212248
 20
934.6736978507
 30
0.0
 11
0.3
 21
0.0
 31
0.0
 40
1.0
 41
-0.7853981634
 42
0.7853981634
  0
ELLIPSE
  5
50E
100
AcDbEntity
  8
93794908000_BL13
100
AcDbEllipse
 62
7
  6
CONTINUOUS
 10
26.4911212248
 20
919.6736978507
 30
0.0
 11
0.3
 21
0.0
 31
0.0
 40
1.0
 41
-0.7853981634
 42
0.7853981634
  0
ENDBLK
  5
50F
100
AcDbEntity
  8
0
  6
BYBLOCK
 62
0
100
AcDbBlockEnd
  0
BLOCK
  5
510
100
AcDbEntity
  8
93773508000_O_BL14
100
AcDbBlockBegin
  2
93773508000_O_BL14
 70
64
 10
79.7768215581
 20
1890.1736978507
  3
93773508000_O_BL14
  1

  0
LINE
  5
511
100
AcDbEntity
  8
93773508000_O_BL14
100
AcDbLine
 62
7
  6
CONTINUOUS
 10
112.2625218913
 20
1897.0736978507
 11
112.2625218913
 21
1904.6736978507
  0
LINE
  5
512
100
AcDbEntity
  8
93773508000_O_BL14
100
AcDbLine
 62
9
  6
CONTINUOUS
 10
114.7625218913
 20
1900.1736978507
 11
114.7625218913
 21
1896.6736978507
  0
LINE
  5
513
100
AcDbEntity
  8
93773508000_O_BL14
100
AcDbLine
 62
7
  6
CENTER
 10
124.2625218913
 20
1884.6736978507
 11
124.2625218913
 21
1875.6736978507
  0
LINE
  5
514
100
AcDbEntity
  8
93773508000_O_BL14
100
AcDbLine
 62
7
  6
CENTER
 10
124.2625218913
 20
1884.6736978507
 11
124.2625218913
 21
1893.6736978507
  0
LINE
  5
515
100
AcDbEntity
  8
93773508000_O_BL14
100
AcDbLine
 62
9
  6
CONTINUOUS
 10
133.7625218913
 20
1900.1736978507
 11
133.7625218913
 21
1896.6736978507
  0
LINE
  5
516
100
AcDbEntity
  8
93773508000_O_BL14
100
AcDbLine
 62
7
  6
CONTINUOUS
 10
136.2625218913
 20
1904.6736978507
 11
136.2625218913
 21
1897.0736978507
  0
LINE
  5
517
100
AcDbEntity
  8
93773508000_O_BL14
100
AcDbLine
 62
7
  6
CENTER
 10
124.2625218913
 20
1884.6736978507
 11
115.2625218913
 21
1884.6736978507
  0
LINE
  5
518
100
AcDbEntity
  8
93773508000_O_BL14
100
AcDbLine
 62
7
  6
CENTER
 10
124.2625218913
 20
1884.6736978507
 11
133.2625218913
 21
1884.6736978507
  0
LINE
  5
519
100
AcDbEntity
  8
93773508000_O_BL14
100
AcDbLine
 62
9
  6
CONTINUOUS
 10
112.2625218913
 20
1897.0736978507
 11
136.2625218913
 21
1897.0736978507
  0
LINE
  5
51A
100
AcDbEntity
  8
93773508000_O_BL14
100
AcDbLine
 62
9
  6
CONTINUOUS
 10
133.7625218913
 20
1900.1736978507
 11
114.7625218913
 21
1900.1736978507
  0
LINE
  5
51B
100
AcDbEntity
  8
93773508000_O_BL14
100
AcDbLine
 62
7
  6
CONTINUOUS
 10
136.2625218913
 20
1904.6736978507
 11
112.2625218913
 21
1904.6736978507
  0
LINE
  5
51C
100
AcDbEntity
  8
93773508000_O_BL14
100
AcDbLine
 62
7
  6
CONTINUOUS
 10
23.2911212248
 20
1900.1736978507
 11
23.2911212248
 21
1897.0736978507
  0
LINE
  5
51D
100
AcDbEntity
  8
93773508000_O_BL14
100
AcDbLine
 62
9
  6
CONTINUOUS
 10
25.7911212248
 20
1904.2048267249
 11
25.7911212248
 21
1896.6736978507
  0
LINE
  5
51E
100
AcDbEntity
  8
93773508000_O_BL14
100
AcDbLine
 62
7
  6
CONTINUOUS
 10
29.2911212248
 20
1904.6736978507
 11
29.2911212248
 21
1896.6736978507
  0
LINE
  5
51F
100
AcDbEntity
  8
93773508000_O_BL14
100
AcDbLine
 62
9
  6
CONTINUOUS
 10
23.2911212248
 20
1897.0736978507
 11
29.2911212248
 21
1897.0736978507
  0
LINE
  5
520
100
AcDbEntity
  8
93773508000_O_BL14
100
AcDbLine
 62
7
  6
CONTINUOUS
 10
29.2911212248
 20
1904.6736978507
 11
27.7911212248
 21
1904.6736978507
  0
ARC
  5
521
100
AcDbEntity
  8
93773508000_O_BL14
100
AcDbCircle
 62
7
  6
CONTINUOUS
 10
112.6625218913
 20
1897.0736978507
 40
0.4
100
AcDbArc
 50
180.0
 51
270.0
  0
ARC
  5
522
100
AcDbEntity
  8
93773508000_O_BL14
100
AcDbCircle
 62
7
  6
CONTINUOUS
 10
135.8625218913
 20
1897.0736978507
 40
0.4
100
AcDbArc
 50
270.0
 51
360.0
  0
ARC
  5
523
100
AcDbEntity
  8
93773508000_O_BL14
100
AcDbCircle
 62
7
  6
CONTINUOUS
 10
27.7911212248
 20
1900.1736978507
 40
4.5
100
AcDbArc
 50
90.0
 51
180.0
  0
ARC
  5
524
100
AcDbEntity
  8
93773508000_O_BL14
100
AcDbCircle
 62
7
  6
CONTINUOUS
 10
23.6911212248
 20
1897.0736978507
 40
0.4
100
AcDbArc
 50
180.0
 51
270.0
  0
SPLINE
  5
525
100
AcDbEntity
  8
93773508000_O_BL14
100
AcDbSpline
 62
7
  6
CONTINUOUS
 70
0
 71
3
 72
12
 73
8
 74
0
 42
0.0000001
 43
0.0000001
 44
0.0000000001
 40
0.0
 40
0.0
 40
0.0
 40
0.0
 40
0.0772200496
 40
0.1770414267
 40
0.4238050361
 40
0.7050572243
 40
1.0
 40
1.0
 40
1.0
 40
1.0
 10
136.2625218913
 20
1904.2048267249
 30
0.0
 10
136.2625218913
 20
1904.0818506521
 30
0.0
 10
136.1874824226
 20
1903.8032352694
 30
0.0
 10
135.8984274338
 20
1903.1944706548
 30
0.0
 10
135.3536541485
 20
1902.3513629402
 30
0.0
 10
134.5921635968
 20
1901.286001886
 30
0.0
 10
134.0432263371
 20
1900.5503023842
 30
0.0
 10
133.7625218913
 20
1900.1736978507
 30
0.0
  0
SPLINE
  5
526
100
AcDbEntity
  8
93773508000_O_BL14
100
AcDbSpline
 62
7
  6
CONTINUOUS
 70
0
 71
3
 72
12
 73
8
 74
0
 42
0.0000001
 43
0.0000001
 44
0.0000000001
 40
0.0
 40
0.0
 40
0.0
 40
0.0
 40
0.2950120828
 40
0.5762835698
 40
0.8230069521
 40
0.9228007747
 40
1.0
 40
1.0
 40
1.0
 40
1.0
 10
114.7625218913
 20
1900.1736978507
 30
0.0
 10
114.4817516661
 20
1900.5503906366
 30
0.0
 10
113.9327308082
 20
1901.2862038234
 30
0.0
 10
113.1712157355
 20
1902.3516387617
 30
0.0
 10
112.6264875241
 20
1903.1946872956
 30
0.0
 10
112.3375438531
 20
1903.8033468621
 30
0.0
 10
112.2625218913
 20
1904.0818838953
 30
0.0
 10
112.2625218913
 20
1904.2048267249
 30
0.0
  0
ENDBLK
  5
527
100
AcDbEntity
  8
0
  6
BYBLOCK
 62
0
100
AcDbBlockEnd
  0
BLOCK
  5
528
100
AcDbEntity
  8
93782708000_BL15
100
AcDbBlockBegin
  2
93782708000_BL15
 70
64
 10
27.2411212248
 20
104.6948971971
  3
93782708000_BL15
  1

  0
LINE
  5
529
100
AcDbEntity
  8
93782708000_BL15
100
AcDbLine
 62
7
  6
CONTINUOUS
 10
26.2911212248
 20
114.5948971971
 11
25.2911212248
 21
113.5948971971
  0
LINE
  5
52A
100
AcDbEntity
  8
93782708000_BL15
100
AcDbLine
 62
7
  6
CONTINUOUS
 10
25.2911212248
 20
95.7948971971
 11
26.2911212248
 21
94.7948971971
  0
LINE
  5
52B
100
AcDbEntity
  8
93782708000_BL15
100
AcDbLine
 62
7
  6
CONTINUOUS
 10
29.1911212248
 20
94.7948971971
 11
26.2911212248
 21
94.7948971971
  0
LINE
  5
52C
100
AcDbEntity
  8
93782708000_BL15
100
AcDbLine
 62
7
  6
CONTINUOUS
 10
29.1911212248
 20
114.5948971971
 11
29.1911212248
 21
112.5948971971
  0
LINE
  5
52D
100
AcDbEntity
  8
93782708000_BL15
100
AcDbLine
 62
7
  6
CONTINUOUS
 10
29.1911212248
 20
98.7948971971
 11
29.1911212248
 21
94.7948971971
  0
LINE
  5
52E
100
AcDbEntity
  8
93782708000_BL15
100
AcDbLine
 62
7
  6
CONTINUOUS
 10
26.2911212248
 20
114.5948971971
 11
29.1911212248
 21
114.5948971971
  0
ENDBLK
  5
52F
100
AcDbEntity
  8
0
  6
BYBLOCK
 62
0
100
AcDbBlockEnd
  0
BLOCK
  5
530
100
AcDbEntity
  8
91511100000_BL16
100
AcDbBlockBegin
  2
91511100000_BL16
 70
64
 10
27.9911212248
 20
105.6948971971
  3
91511100000_BL16
  1

  0
LINE
  5
531
100
AcDbEntity
  8
91511100000_BL16
100
AcDbLine
 62
7
  6
CONTINUOUS
 10
28.5911212248
 20
101.6948971971
 11
27.3911212248
 21
101.6948971971
  0
LINE
  5
532
100
AcDbEntity
  8
91511100000_BL16
100
AcDbLine
 62
7
  6
CONTINUOUS
 10
28.5911212248
 20
101.6948971971
 11
28.5911212248
 21
109.6948971971
  0
LINE
  5
533
100
AcDbEntity
  8
91511100000_BL16
100
AcDbLine
 62
7
  6
CONTINUOUS
 10
28.5911212248
 20
109.6948971971
 11
27.3911212248
 21
109.6948971971
  0
ENDBLK
  5
534
100
AcDbEntity
  8
0
  6
BYBLOCK
 62
0
100
AcDbBlockEnd
  0
BLOCK
  5
535
100
AcDbEntity
  8
0
100
AcDbBlockBegin
  2
_FILLED
 70
64
 10
0.0
 20
0.0
  3
_FILLED
  1

  0
SOLID
  5
536
100
AcDbEntity
  8
0
  6
BYBLOCK
 62
0
100
AcDbTrace
 10
0.0
 20
0.0
 11
-1.0
 21
0.1428571429
 12
-1.0
 22
-0.1428571429
 13
-1.0
 23
-0.1428571429
  0
ENDBLK
  5
537
100
AcDbEntity
  8
0
  6
BYBLOCK
 62
0
100
AcDbBlockEnd
  0
BLOCK
  5
538
100
AcDbEntity
  8
0
100
AcDbBlockBegin
  2
_NONE
 70
64
 10
0.0
 20
0.0
  3
_NONE
  1

  0
ENDBLK
  5
539
100
AcDbEntity
  8
0
  6
BYBLOCK
 62
0
100
AcDbBlockEnd
  0
BLOCK
  5
53A
100
AcDbEntity
  8
0
100
AcDbBlockBegin
 62
2
  6
CONTINUOUS
  2
*D0
 70
65
 10
0.0
 20
0.0
  3
*D0
  1

  0
TEXT
  5
53B
100
AcDbEntity
  8
0
100
AcDbText
 62
5
  6
CONTINUOUS
 10
127.8201427092
 20
129.2986978507
  7
STANDARD
 40
2.5
  1
13
 72
5
 11
131.7049010735
 21
129.2986978507
100
AcDbText
  0
LINE
  5
53C
100
AcDbEntity
  8
0
100
AcDbLine
 62
2
  6
CONTINUOUS
 10
123.2625218913
 20
234.6602251853
 11
123.2625218913
 21
127.6736978507
  0
LINE
  5
53D
100
AcDbEntity
  8
0
100
AcDbLine
 62
2
  6
CONTINUOUS
 10
136.2625218913
 20
146.6736978507
 11
136.2625218913
 21
127.6736978507
  0
LINE
  5
53E
100
AcDbEntity
  8
0
100
AcDbLine
 62
2
  6
CONTINUOUS
 10
123.2625218913
 20
128.6736978507
 11
116.2625218913
 21
128.6736978507
  0
LINE
  5
53F
100
AcDbEntity
  8
0
100
AcDbLine
 62
2
  6
CONTINUOUS
 10
116.2625218913
 20
128.6736978507
 11
129.7625218913
 21
128.6736978507
  0
LINE
  5
540
100
AcDbEntity
  8
0
100
AcDbLine
 62
2
  6
CONTINUOUS
 10
136.2625218913
 20
128.6736978507
 11
143.2625218913
 21
128.6736978507
  0
LINE
  5
541
100
AcDbEntity
  8
0
100
AcDbLine
 62
2
  6
CONTINUOUS
 10
143.2625218913
 20
128.6736978507
 11
129.7625218913
 21
128.6736978507
  0
INSERT
  5
542
100
AcDbEntity
  8
0
100
AcDbBlockReference
 62
2
  6
CONTINUOUS
  2
_FILLED
 10
123.2625218913
 20
128.6736978507
 41
3.5
 42
3.5
 43
3.5
  0
INSERT
  5
543
100
AcDbEntity
  8
0
100
AcDbBlockReference
 62
2
  6
CONTINUOUS
  2
_FILLED
 10
136.2625218913
 20
128.6736978507
 41
3.5
 42
3.5
 43
3.5
 50
180.0
  0
ENDBLK
  5
544
100
AcDbEntity
  8
0
  6
BYBLOCK
 62
0
100
AcDbBlockEnd
  0
BLOCK
  5
545
100
AcDbEntity
  8
0
100
AcDbBlockBegin
 62
2
  6
CONTINUOUS
  2
*D1
 70
65
 10
0.0
 20
0.0
  3
*D1
  1

  0
TEXT
  5
546
100
AcDbEntity
  8
0
100
AcDbText
 62
5
  6
CONTINUOUS
 10
122.3201427092
 20
1915.2986978507
  7
STANDARD
 40
2.5
  1
24
 72
5
 11
126.2049010735
 21
1915.2986978507
100
AcDbText
  0
LINE
  5
547
100
AcDbEntity
  8
0
100
AcDbLine
 62
2
  6
CONTINUOUS
 10
112.2625218913
 20
1896.6736978507
 11
112.2625218913
 21
1915.6736978507
  0
LINE
  5
548
100
AcDbEntity
  8
0
100
AcDbLine
 62
2
  6
CONTINUOUS
 10
136.2625218913
 20
1896.6736978507
 11
136.2625218913
 21
1915.6736978507
  0
LINE
  5
549
100
AcDbEntity
  8
0
100
AcDbLine
 62
2
  6
CONTINUOUS
 10
112.2625218913
 20
1914.6736978507
 11
124.2625218913
 21
1914.6736978507
  0
LINE
  5
54A
100
AcDbEntity
  8
0
100
AcDbLine
 62
2
  6
CONTINUOUS
 10
136.2625218913
 20
1914.6736978507
 11
124.2625218913
 21
1914.6736978507
  0
INSERT
  5
54B
100
AcDbEntity
  8
0
100
AcDbBlockReference
 62
2
  6
CONTINUOUS
  2
_FILLED
 10
112.2625218913
 20
1914.6736978507
 41
3.5
 42
3.5
 43
3.5
 50
180.0
  0
INSERT
  5
54C
100
AcDbEntity
  8
0
100
AcDbBlockReference
 62
2
  6
CONTINUOUS
  2
_FILLED
 10
136.2625218913
 20
1914.6736978507
 41
3.5
 42
3.5
 43
3.5
  0
ENDBLK
  5
54D
100
AcDbEntity
  8
0
  6
BYBLOCK
 62
0
100
AcDbBlockEnd
  0
BLOCK
  5
54E
100
AcDbEntity
  8
0
100
AcDbBlockBegin
 62
2
  6
CONTINUOUS
  2
*D2
 70
65
 10
0.0
 20
0.0
  3
*D2
  1

  0
TEXT
  5
54F
100
AcDbEntity
  8
0
100
AcDbText
 62
5
  6
CONTINUOUS
 10
25.3199316337
 20
1915.2986978507
  7
STANDARD
 40
2.5
  1
6
 72
5
 11
27.2623108159
 21
1915.2986978507
100
AcDbText
  0
LINE
  5
550
100
AcDbEntity
  8
0
100
AcDbLine
 62
2
  6
CONTINUOUS
 10
23.2911212248
 20
1896.6736978507
 11
23.2911212248
 21
1915.6736978507
  0
LINE
  5
551
100
AcDbEntity
  8
0
100
AcDbLine
 62
2
  6
CONTINUOUS
 10
29.2911212248
 20
1896.6736978507
 11
29.2911212248
 21
1915.6736978507
  0
LINE
  5
552
100
AcDbEntity
  8
0
100
AcDbLine
 62
2
  6
CONTINUOUS
 10
23.2911212248
 20
1914.6736978507
 11
16.2911212248
 21
1914.6736978507
  0
LINE
  5
553
100
AcDbEntity
  8
0
100
AcDbLine
 62
2
  6
CONTINUOUS
 10
16.2911212248
 20
1914.6736978507
 11
26.2911212248
 21
1914.6736978507
  0
LINE
  5
554
100
AcDbEntity
  8
0
100
AcDbLine
 62
2
  6
CONTINUOUS
 10
29.2911212248
 20
1914.6736978507
 11
36.2911212248
 21
1914.6736978507
  0
LINE
  5
555
100
AcDbEntity
  8
0
100
AcDbLine
 62
2
  6
CONTINUOUS
 10
36.2911212248
 20
1914.6736978507
 11
26.2911212248
 21
1914.6736978507
  0
INSERT
  5
556
100
AcDbEntity
  8
0
100
AcDbBlockReference
 62
2
  6
CONTINUOUS
  2
_FILLED
 10
23.2911212248
 20
1914.6736978507
 41
3.5
 42
3.5
 43
3.5
  0
INSERT
  5
557
100
AcDbEntity
  8
0
100
AcDbBlockReference
 62
2
  6
CONTINUOUS
  2
_FILLED
 10
29.2911212248
 20
1914.6736978507
 41
3.5
 42
3.5
 43
3.5
 50
180.0
  0
ENDBLK
  5
558
100
AcDbEntity
  8
0
  6
BYBLOCK
 62
0
100
AcDbBlockEnd
  0
BLOCK
  5
559
100
AcDbEntity
  8
0
100
AcDbBlockBegin
 62
2
  6
CONTINUOUS
  2
*D3
 70
65
 10
0.0
 20
0.0
  3
*D3
  1

  0
TEXT
  5
55A
100
AcDbEntity
  8
0
100
AcDbText
 62
5
  6
CONTINUOUS
 10
80.6375218913
 20
1017.7889394864
  7
STANDARD
 40
2.5
  1
1750
 50
90.0
 72
5
 11
80.6375218913
 21
1025.5584562151
100
AcDbText
  0
LINE
  5
55B
100
AcDbEntity
  8
0
100
AcDbLine
 62
2
  6
CONTINUOUS
 10
115.2625218913
 20
1896.6736978507
 11
80.2625218913
 21
1896.6736978507
  0
LINE
  5
55C
100
AcDbEntity
  8
0
100
AcDbLine
 62
2
  6
CONTINUOUS
 10
115.2625218913
 20
146.6736978507
 11
80.2625218913
 21
146.6736978507
  0
LINE
  5
55D
100
AcDbEntity
  8
0
100
AcDbLine
 62
2
  6
CONTINUOUS
 10
81.2625218913
 20
1896.6736978507
 11
81.2625218913
 21
1021.6736978507
  0
LINE
  5
55E
100
AcDbEntity
  8
0
100
AcDbLine
 62
2
  6
CONTINUOUS
 10
81.2625218913
 20
146.6736978507
 11
81.2625218913
 21
1021.6736978507
  0
INSERT
  5
55F
100
AcDbEntity
  8
0
100
AcDbBlockReference
 62
2
  6
CONTINUOUS
  2
_FILLED
 10
81.2625218913
 20
1896.6736978507
 41
3.5
 42
3.5
 43
3.5
 50
90.0
  0
INSERT
  5
560
100
AcDbEntity
  8
0
100
AcDbBlockReference
 62
2
  6
CONTINUOUS
  2
_FILLED
 10
81.2625218913
 20
146.6736978507
 41
3.5
 42
3.5
 43
3.5
 50
270.0
  0
ENDBLK
  5
561
100
AcDbEntity
  8
0
  6
BYBLOCK
 62
0
100
AcDbBlockEnd
  0
BLOCK
  5
562
100
AcDbEntity
  8
0
100
AcDbBlockBegin
 62
2
  6
CONTINUOUS
  2
*D4
 70
65
 10
0.0
 20
0.0
  3
*D4
  1

  0
TEXT
  5
563
100
AcDbEntity
  8
0
100
AcDbText
 62
5
  6
CONTINUOUS
 10
73.6375218913
 20
1017.7889394864
  7
STANDARD
 40
2.5
  1
1766
 50
90.0
 72
5
 11
73.6375218913
 21
1025.5584562151
100
AcDbText
  0
LINE
  5
564
100
AcDbEntity
  8
0
100
AcDbLine
 62
2
  6
CONTINUOUS
 10
112.2625218913
 20
1904.6736978507
 11
73.2625218913
 21
1904.6736978507
  0
LINE
  5
565
100
AcDbEntity
  8
0
100
AcDbLine
 62
2
  6
CONTINUOUS
 10
112.2625218913
 20
138.6736978507
 11
73.2625218913
 21
138.6736978507
  0
LINE
  5
566
100
AcDbEntity
  8
0
100
AcDbLine
 62
2
  6
CONTINUOUS
 10
74.2625218913
 20
1904.6736978507
 11
74.2625218913
 21
1021.6736978507
  0
LINE
  5
567
100
AcDbEntity
  8
0
100
AcDbLine
 62
2
  6
CONTINUOUS
 10
74.2625218913
 20
138.6736978507
 11
74.2625218913
 21
1021.6736978507
  0
INSERT
  5
568
100
AcDbEntity
  8
0
100
AcDbBlockReference
 62
2
  6
CONTINUOUS
  2
_FILLED
 10
74.2625218913
 20
1904.6736978507
 41
3.5
 42
3.5
 43
3.5
 50
90.0
  0
INSERT
  5
569
100
AcDbEntity
  8
0
100
AcDbBlockReference
 62
2
  6
CONTINUOUS
  2
_FILLED
 10
74.2625218913
 20
138.6736978507
 41
3.5
 42
3.5
 43
3.5
 50
270.0
  0
ENDBLK
  5
56A
100
AcDbEntity
  8
0
  6
BYBLOCK
 62
0
100
AcDbBlockEnd
  0
BLOCK
  5
56B
100
AcDbEntity
  8
0
100
AcDbBlockBegin
 62
2
  6
CONTINUOUS
  2
*D5
 70
65
 10
0.0
 20
0.0
  3
*D5
  1

  0
TEXT
  5
56C
100
AcDbEntity
  8
0
100
AcDbText
 62
5
  6
CONTINUOUS
 10
49.8661212248
 20
274.7313186686
  7
STANDARD
 40
2.5
  1
74
 50
90.0
 72
5
 11
49.8661212248
 21
278.6160770329
100
AcDbText
  0
LINE
  5
56D
100
AcDbEntity
  8
0
100
AcDbLine
 62
2
  6
CONTINUOUS
 10
29.2936180681
 20
313.6736978507
 11
51.4911212248
 21
313.6736978507
  0
LINE
  5
56E
100
AcDbEntity
  8
0
100
AcDbLine
 62
2
  6
CONTINUOUS
 10
29.2825853793
 20
239.6736978507
 11
51.4911212248
 21
239.6736978507
  0
LINE
  5
56F
100
AcDbEntity
  8
0
100
AcDbLine
 62
2
  6
CONTINUOUS
 10
50.4911212248
 20
313.6736978507
 11
50.4911212248
 21
276.6736978507
  0
LINE
  5
570
100
AcDbEntity
  8
0
100
AcDbLine
 62
2
  6
CONTINUOUS
 10
50.4911212248
 20
239.6736978507
 11
50.4911212248
 21
276.6736978507
  0
INSERT
  5
571
100
AcDbEntity
  8
0
100
AcDbBlockReference
 62
2
  6
CONTINUOUS
  2
_FILLED
 10
50.4911212248
 20
313.6736978507
 41
3.5
 42
3.5
 43
3.5
 50
90.0
  0
INSERT
  5
572
100
AcDbEntity
  8
0
100
AcDbBlockReference
 62
2
  6
CONTINUOUS
  2
_FILLED
 10
50.4911212248
 20
239.6736978507
 41
3.5
 42
3.5
 43
3.5
 50
270.0
  0
ENDBLK
  5
573
100
AcDbEntity
  8
0
  6
BYBLOCK
 62
0
100
AcDbBlockEnd
  0
BLOCK
  5
574
100
AcDbEntity
  8
0
100
AcDbBlockBegin
 62
2
  6
CONTINUOUS
  2
*D6
 70
65
 10
0.0
 20
0.0
  3
*D6
  1

  0
TEXT
  5
575
100
AcDbEntity
  8
0
100
AcDbText
 62
5
  6
CONTINUOUS
 10
49.8661212248
 20
1764.7313186686
  7
STANDARD
 40
2.5
  1
74
 50
90.0
 72
5
 11
49.8661212248
 21
1768.6160770329
100
AcDbText
  0
LINE
  5
576
100
AcDbEntity
  8
0
100
AcDbLine
 62
2
  6
CONTINUOUS
 10
29.3091212037
 20
1803.6736978507
 11
51.4911212248
 21
1803.6736978507
  0
LINE
  5
577
100
AcDbEntity
  8
0
100
AcDbLine
 62
2
  6
CONTINUOUS
 10
29.3156871647
 20
1729.6736978507
 11
51.4911212248
 21
1729.6736978507
  0
LINE
  5
578
100
AcDbEntity
  8
0
100
AcDbLine
 62
2
  6
CONTINUOUS
 10
50.4911212248
 20
1803.6736978507
 11
50.4911212248
 21
1766.6736978507
  0
LINE
  5
579
100
AcDbEntity
  8
0
100
AcDbLine
 62
2
  6
CONTINUOUS
 10
50.4911212248
 20
1729.6736978507
 11
50.4911212248
 21
1766.6736978507
  0
INSERT
  5
57A
100
AcDbEntity
  8
0
100
AcDbBlockReference
 62
2
  6
CONTINUOUS
  2
_FILLED
 10
50.4911212248
 20
1803.6736978507
 41
3.5
 42
3.5
 43
3.5
 50
90.0
  0
INSERT
  5
57B
100
AcDbEntity
  8
0
100
AcDbBlockReference
 62
2
  6
CONTINUOUS
  2
_FILLED
 10
50.4911212248
 20
1729.6736978507
 41
3.5
 42
3.5
 43
3.5
 50
270.0
  0
ENDBLK
  5
57C
100
AcDbEntity
  8
0
  6
BYBLOCK
 62
0
100
AcDbBlockEnd
  0
BLOCK
  5
57D
100
AcDbEntity
  8
0
100
AcDbBlockBegin
 62
2
  6
CONTINUOUS
  2
*D7
 70
65
 10
0.0
 20
0.0
  3
*D7
  1

  0
TEXT
  5
57E
100
AcDbEntity
  8
0
100
AcDbText
 62
5
  6
CONTINUOUS
 10
49.8661212248
 20
1848.2313186686
  7
STANDARD
 40
2.5
  1
93
 50
90.0
 72
5
 11
49.8661212248
 21
1852.1160770329
100
AcDbText
  0
LINE
  5
57F
100
AcDbEntity
  8
0
100
AcDbLine
 62
2
  6
CONTINUOUS
 10
29.2709463615
 20
1803.6736978507
 11
51.4911212248
 21
1803.6736978507
  0
LINE
  5
580
100
AcDbEntity
  8
0
100
AcDbLine
 62
2
  6
CONTINUOUS
 10
29.2911212248
 20
1896.6736978507
 11
51.4911212248
 21
1896.6736978507
  0
LINE
  5
581
100
AcDbEntity
  8
0
100
AcDbLine
 62
2
  6
CONTINUOUS
 10
50.4911212248
 20
1803.6736978507
 11
50.4911212248
 21
1850.1736978507
  0
LINE
  5
582
100
AcDbEntity
  8
0
100
AcDbLine
 62
2
  6
CONTINUOUS
 10
50.4911212248
 20
1896.6736978507
 11
50.4911212248
 21
1850.1736978507
  0
INSERT
  5
583
100
AcDbEntity
  8
0
100
AcDbBlockReference
 62
2
  6
CONTINUOUS
  2
_FILLED
 10
50.4911212248
 20
1803.6736978507
 41
3.5
 42
3.5
 43
3.5
 50
270.0
  0
INSERT
  5
584
100
AcDbEntity
  8
0
100
AcDbBlockReference
 62
2
  6
CONTINUOUS
  2
_FILLED
 10
50.4911212248
 20
1896.6736978507
 41
3.5
 42
3.5
 43
3.5
 50
90.0
  0
ENDBLK
  5
585
100
AcDbEntity
  8
0
  6
BYBLOCK
 62
0
100
AcDbBlockEnd
  0
BLOCK
  5
586
100
AcDbEntity
  8
0
100
AcDbBlockBegin
 62
2
  6
CONTINUOUS
  2
*D8
 70
65
 10
0.0
 20
0.0
  3
*D8
  1

  0
TEXT
  5
587
100
AcDbEntity
  8
0
100
AcDbText
 62
5
  6
CONTINUOUS
 10
49.8661212248
 20
191.2313186686
  7
STANDARD
 40
2.5
  1
93
 50
90.0
 72
5
 11
49.8661212248
 21
195.1160770329
100
AcDbText
  0
LINE
  5
588
100
AcDbEntity
  8
0
100
AcDbLine
 62
2
  6
CONTINUOUS
 10
29.3070113135
 20
239.6736978507
 11
51.4911212248
 21
239.6736978507
  0
LINE
  5
589
100
AcDbEntity
  8
0
100
AcDbLine
 62
2
  6
CONTINUOUS
 10
29.2911212248
 20
146.6736978507
 11
51.4911212248
 21
146.6736978507
  0
LINE
  5
58A
100
AcDbEntity
  8
0
100
AcDbLine
 62
2
  6
CONTINUOUS
 10
50.4911212248
 20
239.6736978507
 11
50.4911212248
 21
193.1736978507
  0
LINE
  5
58B
100
AcDbEntity
  8
0
100
AcDbLine
 62
2
  6
CONTINUOUS
 10
50.4911212248
 20
146.6736978507
 11
50.4911212248
 21
193.1736978507
  0
INSERT
  5
58C
100
AcDbEntity
  8
0
100
AcDbBlockReference
 62
2
  6
CONTINUOUS
  2
_FILLED
 10
50.4911212248
 20
239.6736978507
 41
3.5
 42
3.5
 43
3.5
 50
90.0
  0
INSERT
  5
58D
100
AcDbEntity
  8
0
100
AcDbBlockReference
 62
2
  6
CONTINUOUS
  2
_FILLED
 10
50.4911212248
 20
146.6736978507
 41
3.5
 42
3.5
 43
3.5
 50
270.0
  0
ENDBLK
  5
58E
100
AcDbEntity
  8
0
  6
BYBLOCK
 62
0
100
AcDbBlockEnd
  0
BLOCK
  5
58F
100
AcDbEntity
  8
0
100
AcDbBlockBegin
 62
2
  6
CONTINUOUS
  2
*D9
 70
65
 10
0.0
 20
0.0
  3
*D9
  1

  0
TEXT
  5
590
100
AcDbEntity
  8
0
100
AcDbText
 62
5
  6
CONTINUOUS
 10
56.8661212248
 20
102.2980570484
  7
STANDARD
 40
2.5
  1
13.8
 50
90.0
 72
5
 11
56.8661212248
 21
109.0917373458
100
AcDbText
  0
LINE
  5
591
100
AcDbEntity
  8
0
100
AcDbLine
 62
2
  6
CONTINUOUS
 10
31.2911212248
 20
98.7948971971
 11
58.4911212248
 21
98.7948971971
  0
LINE
  5
592
100
AcDbEntity
  8
0
100
AcDbLine
 62
2
  6
CONTINUOUS
 10
31.2911212248
 20
112.5948971971
 11
49.2955116913
 21
112.5948971971
  0
LINE
  5
593
100
AcDbEntity
  8
0
100
AcDbLine
 62
2
  6
CONTINUOUS
 10
51.7768764344
 20
112.5948971971
 11
58.4911212248
 21
112.5948971971
  0
LINE
  5
594
100
AcDbEntity
  8
0
100
AcDbLine
 62
2
  6
CONTINUOUS
 10
57.4911212248
 20
98.7948971971
 11
57.4911212248
 21
105.6948971971
  0
LINE
  5
595
100
AcDbEntity
  8
0
100
AcDbLine
 62
2
  6
CONTINUOUS
 10
57.4911212248
 20
112.5948971971
 11
57.4911212248
 21
105.6948971971
  0
INSERT
  5
596
100
AcDbEntity
  8
0
100
AcDbBlockReference
 62
2
  6
CONTINUOUS
  2
_FILLED
 10
57.4911212248
 20
98.7948971971
 41
3.5
 42
3.5
 43
3.5
 50
270.0
  0
INSERT
  5
597
100
AcDbEntity
  8
0
100
AcDbBlockReference
 62
2
  6
CONTINUOUS
  2
_FILLED
 10
57.4911212248
 20
112.5948971971
 41
3.5
 42
3.5
 43
3.5
 50
90.0
  0
ENDBLK
  5
598
100
AcDbEntity
  8
0
  6
BYBLOCK
 62
0
100
AcDbBlockEnd
  0
BLOCK
  5
599
100
AcDbEntity
  8
0
100
AcDbBlockBegin
 62
2
  6
CONTINUOUS
  2
*D10
 70
65
 10
0.0
 20
0.0
  3
*D10
  1

  0
TEXT
  5
59A
100
AcDbEntity
  8
0
100
AcDbText
 62
5
  6
CONTINUOUS
 10
49.8661212248
 20
121.245824652
  7
STANDARD
 40
2.5
  1
2
 50
90.0
 72
5
 11
49.8661212248
 21
123.1882038342
100
AcDbText
  0
LINE
  5
59B
100
AcDbEntity
  8
0
100
AcDbLine
 62
2
  6
CONTINUOUS
 10
29.2911212248
 20
114.6948971971
 11
51.4911212248
 21
114.6948971971
  0
LINE
  5
59C
100
AcDbEntity
  8
0
100
AcDbLine
 62
2
  6
CONTINUOUS
 10
29.2911212248
 20
116.6948971971
 11
51.4911212248
 21
116.6948971971
  0
LINE
  5
59D
100
AcDbEntity
  8
0
100
AcDbLine
 62
2
  6
CONTINUOUS
 10
50.4911212248
 20
114.6948971971
 11
50.4911212248
 21
107.6948971971
  0
LINE
  5
59E
100
AcDbEntity
  8
0
100
AcDbLine
 62
2
  6
CONTINUOUS
 10
50.4911212248
 20
107.6948971971
 11
50.4911212248
 21
115.6948971971
  0
LINE
  5
59F
100
AcDbEntity
  8
0
100
AcDbLine
 62
2
  6
CONTINUOUS
 10
50.4911212248
 20
116.6948971971
 11
50.4911212248
 21
123.1882038342
  0
LINE
  5
5A0
100
AcDbEntity
  8
0
100
AcDbLine
 62
2
  6
CONTINUOUS
 10
50.4911212248
 20
123.1882038342
 11
50.4911212248
 21
115.6948971971
  0
INSERT
  5
5A1
100
AcDbEntity
  8
0
100
AcDbBlockReference
 62
2
  6
CONTINUOUS
  2
_FILLED
 10
50.4911212248
 20
114.6948971971
 41
3.5
 42
3.5
 43
3.5
 50
90.0
  0
INSERT
  5
5A2
100
AcDbEntity
  8
0
100
AcDbBlockReference
 62
2
  6
CONTINUOUS
  2
_FILLED
 10
50.4911212248
 20
116.6948971971
 41
3.5
 42
3.5
 43
3.5
 50
270.0
  0
ENDBLK
  5
5A3
100
AcDbEntity
  8
0
  6
BYBLOCK
 62
0
100
AcDbBlockEnd
  0
BLOCK
  5
5A4
100
AcDbEntity
  8
0
100
AcDbBlockBegin
 62
2
  6
CONTINUOUS
  2
*D11
 70
65
 10
0.0
 20
0.0
  3
*D11
  1

  0
TEXT
  5
5A5
100
AcDbEntity
  8
0
100
AcDbText
 62
5
  6
CONTINUOUS
 10
27.6661390069
 20
127.3198971971
  7
STANDARD
 40
2.5
  1
2
 72
5
 11
29.6085181891
 21
127.3198971971
100
AcDbText
  0
LINE
  5
5A6
100
AcDbEntity
  8
0
100
AcDbLine
 62
2
  6
CONTINUOUS
 10
21.2911212248
 20
114.1948971971
 11
21.2911212248
 21
127.6948971971
  0
LINE
  5
5A7
100
AcDbEntity
  8
0
100
AcDbLine
 62
2
  6
CONTINUOUS
 10
23.2911212248
 20
113.6948971971
 11
23.2911212248
 21
127.6948971971
  0
LINE
  5
5A8
100
AcDbEntity
  8
0
100
AcDbLine
 62
2
  6
CONTINUOUS
 10
21.2911212248
 20
126.6948971971
 11
14.2911212248
 21
126.6948971971
  0
LINE
  5
5A9
100
AcDbEntity
  8
0
100
AcDbLine
 62
2
  6
CONTINUOUS
 10
14.2911212248
 20
126.6948971971
 11
22.2911212248
 21
126.6948971971
  0
LINE
  5
5AA
100
AcDbEntity
  8
0
100
AcDbLine
 62
2
  6
CONTINUOUS
 10
23.2911212248
 20
126.6948971971
 11
29.6085181891
 21
126.6948971971
  0
LINE
  5
5AB
100
AcDbEntity
  8
0
100
AcDbLine
 62
2
  6
CONTINUOUS
 10
29.6085181891
 20
126.6948971971
 11
22.2911212248
 21
126.6948971971
  0
INSERT
  5
5AC
100
AcDbEntity
  8
0
100
AcDbBlockReference
 62
2
  6
CONTINUOUS
  2
_FILLED
 10
21.2911212248
 20
126.6948971971
 41
3.5
 42
3.5
 43
3.5
  0
INSERT
  5
5AD
100
AcDbEntity
  8
0
100
AcDbBlockReference
 62
2
  6
CONTINUOUS
  2
_FILLED
 10
23.2911212248
 20
126.6948971971
 41
3.5
 42
3.5
 43
3.5
 50
180.0
  0
ENDBLK
  5
5AE
100
AcDbEntity
  8
0
  6
BYBLOCK
 62
0
100
AcDbBlockEnd
  0
BLOCK
  5
5AF
100
AcDbEntity
  8
0
100
AcDbBlockBegin
 62
2
  6
CONTINUOUS
  2
*D12
 70
65
 10
0.0
 20
0.0
  3
*D12
  1

  0
TEXT
  5
5B0
100
AcDbEntity
  8
0
100
AcDbText
 62
5
  6
CONTINUOUS
 10
87.6375218913
 20
528.2601290775
  7
STANDARD
 40
2.5
  1
769
 50
90.0
 72
5
 11
87.6375218913
 21
534.087266624
100
AcDbText
  0
LINE
  5
5B1
100
AcDbEntity
  8
0
100
AcDbLine
 62
2
  6
CONTINUOUS
 10
115.2625218913
 20
915.6736978507
 11
96.5782937463
 21
915.6736978507
  0
LINE
  5
5B2
100
AcDbEntity
  8
0
100
AcDbLine
 62
2
  6
CONTINUOUS
 10
93.8106176867
 20
915.6736978507
 11
87.2625218913
 21
915.6736978507
  0
LINE
  5
5B3
100
AcDbEntity
  8
0
100
AcDbLine
 62
2
  6
CONTINUOUS
 10
115.2625218913
 20
146.6736978507
 11
87.2625218913
 21
146.6736978507
  0
LINE
  5
5B4
100
AcDbEntity
  8
0
100
AcDbLine
 62
2
  6
CONTINUOUS
 10
88.2625218913
 20
915.6736978507
 11
88.2625218913
 21
531.1736978507
  0
LINE
  5
5B5
100
AcDbEntity
  8
0
100
AcDbLine
 62
2
  6
CONTINUOUS
 10
88.2625218913
 20
146.6736978507
 11
88.2625218913
 21
531.1736978507
  0
INSERT
  5
5B6
100
AcDbEntity
  8
0
100
AcDbBlockReference
 62
2
  6
CONTINUOUS
  2
_FILLED
 10
88.2625218913
 20
915.6736978507
 41
3.5
 42
3.5
 43
3.5
 50
90.0
  0
INSERT
  5
5B7
100
AcDbEntity
  8
0
100
AcDbBlockReference
 62
2
  6
CONTINUOUS
  2
_FILLED
 10
88.2625218913
 20
146.6736978507
 41
3.5
 42
3.5
 43
3.5
 50
270.0
  0
ENDBLK
  5
5B8
100
AcDbEntity
  8
0
  6
BYBLOCK
 62
0
100
AcDbBlockEnd
  0
BLOCK
  5
5B9
100
AcDbEntity
  8
0
100
AcDbBlockBegin
 62
2
  6
CONTINUOUS
  2
*D13
 70
65
 10
0.0
 20
0.0
  3
*D13
  1

  0
TEXT
  5
5BA
100
AcDbEntity
  8
0
100
AcDbText
 62
5
  6
CONTINUOUS
 10
94.6375218913
 20
581.619794505
  7
STANDARD
 40
2.5
  1
760 bis Kennkerbe
 50
90.0
 72
5
 11
94.6375218913
 21
610.7276011965
100
AcDbText
  0
LINE
  5
5BB
100
AcDbEntity
  8
0
100
AcDbLine
 62
2
  6
CONTINUOUS
 10
111.7625218913
 20
276.6736978507
 11
94.6375218913
 21
276.6736978507
  0
LINE
  5
5BC
100
AcDbEntity
  8
0
100
AcDbLine
 62
2
  6
CONTINUOUS
 10
94.6375218913
 20
276.6736978507
 11
94.2625218913
 21
276.6736978507
  0
LINE
  5
5BD
100
AcDbEntity
  8
0
100
AcDbLine
 62
2
  6
CONTINUOUS
 10
95.2625218913
 20
965.6690878428
 11
95.2625218913
 21
621.1713928468
  0
LINE
  5
5BE
100
AcDbEntity
  8
0
100
AcDbLine
 62
2
  6
CONTINUOUS
 10
95.2625218913
 20
276.6736978507
 11
95.2625218913
 21
621.1713928468
  0
INSERT
  5
5BF
100
AcDbEntity
  8
0
100
AcDbBlockReference
 62
2
  6
CONTINUOUS
  2
_NONE
 10
95.2625218913
 20
965.6690878428
 41
3.5
 42
3.5
 43
3.5
 50
90.0
  0
INSERT
  5
5C0
100
AcDbEntity
  8
0
100
AcDbBlockReference
 62
2
  6
CONTINUOUS
  2
_FILLED
 10
95.2625218913
 20
276.6736978507
 41
3.5
 42
3.5
 43
3.5
 50
270.0
  0
ENDBLK
  5
5C1
100
AcDbEntity
  8
0
  6
BYBLOCK
 62
0
100
AcDbBlockEnd
  0
BLOCK
  5
5C2
100
AcDbEntity
  8
0
100
AcDbBlockBegin
 62
2
  6
CONTINUOUS
  2
*D14
 70
65
 10
0.0
 20
0.0
  3
*D14
  1

  0
TEXT
  5
5C3
100
AcDbEntity
  8
0
100
AcDbText
 62
5
  6
CONTINUOUS
 10
101.6375218913
 20
593.2601290775
  7
STANDARD
 40
2.5
  1
639
 50
90.0
 72
5
 11
101.6375218913
 21
599.087266624
100
AcDbText
  0
LINE
  5
5C4
100
AcDbEntity
  8
0
100
AcDbLine
 62
2
  6
CONTINUOUS
 10
115.2625218913
 20
915.6736978507
 11
101.2625218913
 21
915.6736978507
  0
LINE
  5
5C5
100
AcDbEntity
  8
0
100
AcDbLine
 62
2
  6
CONTINUOUS
 10
111.7625218913
 20
276.6736978507
 11
101.2625218913
 21
276.6736978507
  0
LINE
  5
5C6
100
AcDbEntity
  8
0
100
AcDbLine
 62
2
  6
CONTINUOUS
 10
102.2625218913
 20
915.6736978507
 11
102.2625218913
 21
596.1736978507
  0
LINE
  5
5C7
100
AcDbEntity
  8
0
100
AcDbLine
 62
2
  6
CONTINUOUS
 10
102.2625218913
 20
276.6736978507
 11
102.2625218913
 21
596.1736978507
  0
INSERT
  5
5C8
100
AcDbEntity
  8
0
100
AcDbBlockReference
 62
2
  6
CONTINUOUS
  2
_FILLED
 10
102.2625218913
 20
915.6736978507
 41
3.5
 42
3.5
 43
3.5
 50
90.0
  0
INSERT
  5
5C9
100
AcDbEntity
  8
0
100
AcDbBlockReference
 62
2
  6
CONTINUOUS
  2
_FILLED
 10
102.2625218913
 20
276.6736978507
 41
3.5
 42
3.5
 43
3.5
 50
270.0
  0
ENDBLK
  5
5CA
100
AcDbEntity
  8
0
  6
BYBLOCK
 62
0
100
AcDbBlockEnd
  0
BLOCK
  5
5CB
100
AcDbEntity
  8
0
100
AcDbBlockBegin
 62
2
  6
CONTINUOUS
  2
*D15
 70
65
 10
0.0
 20
0.0
  3
*D15
  1

  0
TEXT
  5
5CC
100
AcDbEntity
  8
0
100
AcDbText
 62
5
  6
CONTINUOUS
 10
145.6375218913
 20
907.7313186686
  7
STANDARD
 40
2.5
  1
12
 50
90.0
 72
5
 11
145.6375218913
 21
911.6160770329
100
AcDbText
  0
LINE
  5
5CD
100
AcDbEntity
  8
0
100
AcDbLine
 62
2
  6
CONTINUOUS
 10
133.2625218913
 20
915.6736978507
 11
147.2625218913
 21
915.6736978507
  0
LINE
  5
5CE
100
AcDbEntity
  8
0
100
AcDbLine
 62
2
  6
CONTINUOUS
 10
132.6625218913
 20
903.6736978507
 11
147.2625218913
 21
903.6736978507
  0
LINE
  5
5CF
100
AcDbEntity
  8
0
100
AcDbLine
 62
2
  6
CONTINUOUS
 10
146.2625218913
 20
915.6736978507
 11
146.2625218913
 21
909.6736978507
  0
LINE
  5
5D0
100
AcDbEntity
  8
0
100
AcDbLine
 62
2
  6
CONTINUOUS
 10
146.2625218913
 20
903.6736978507
 11
146.2625218913
 21
909.6736978507
  0
INSERT
  5
5D1
100
AcDbEntity
  8
0
100
AcDbBlockReference
 62
2
  6
CONTINUOUS
  2
_FILLED
 10
146.2625218913
 20
915.6736978507
 41
3.5
 42
3.5
 43
3.5
 50
90.0
  0
INSERT
  5
5D2
100
AcDbEntity
  8
0
100
AcDbBlockReference
 62
2
  6
CONTINUOUS
  2
_FILLED
 10
146.2625218913
 20
903.6736978507
 41
3.5
 42
3.5
 43
3.5
 50
270.0
  0
ENDBLK
  5
5D3
100
AcDbEntity
  8
0
  6
BYBLOCK
 62
0
100
AcDbBlockEnd
  0
BLOCK
  5
5D4
100
AcDbEntity
  8
0
100
AcDbBlockBegin
 62
2
  6
CONTINUOUS
  2
*D16
 70
65
 10
0.0
 20
0.0
  3
*D16
  1

  0
TEXT
  5
5D5
100
AcDbEntity
  8
0
100
AcDbText
 62
5
  6
CONTINUOUS
 10
152.6375218913
 20
766.7601290775
  7
STANDARD
 40
2.5
  1
292
 50
90.0
 72
5
 11
152.6375218913
 21
772.587266624
100
AcDbText
  0
LINE
  5
5D6
100
AcDbEntity
  8
0
100
AcDbLine
 62
2
  6
CONTINUOUS
 10
133.2625218913
 20
915.6736978507
 11
154.2625218913
 21
915.6736978507
  0
LINE
  5
5D7
100
AcDbEntity
  8
0
100
AcDbLine
 62
2
  6
CONTINUOUS
 10
132.6625218913
 20
623.6736978507
 11
154.2625218913
 21
623.6736978507
  0
LINE
  5
5D8
100
AcDbEntity
  8
0
100
AcDbLine
 62
2
  6
CONTINUOUS
 10
153.2625218913
 20
915.6736978507
 11
153.2625218913
 21
769.6736978507
  0
LINE
  5
5D9
100
AcDbEntity
  8
0
100
AcDbLine
 62
2
  6
CONTINUOUS
 10
153.2625218913
 20
623.6736978507
 11
153.2625218913
 21
769.6736978507
  0
INSERT
  5
5DA
100
AcDbEntity
  8
0
100
AcDbBlockReference
 62
2
  6
CONTINUOUS
  2
_FILLED
 10
153.2625218913
 20
915.6736978507
 41
3.5
 42
3.5
 43
3.5
 50
90.0
  0
INSERT
  5
5DB
100
AcDbEntity
  8
0
100
AcDbBlockReference
 62
2
  6
CONTINUOUS
  2
_FILLED
 10
153.2625218913
 20
623.6736978507
 41
3.5
 42
3.5
 43
3.5
 50
270.0
  0
ENDBLK
  5
5DC
100
AcDbEntity
  8
0
  6
BYBLOCK
 62
0
100
AcDbBlockEnd
  0
BLOCK
  5
5DD
100
AcDbEntity
  8
0
100
AcDbBlockBegin
 62
2
  6
CONTINUOUS
  2
*D17
 70
65
 10
0.0
 20
0.0
  3
*D17
  1

  0
TEXT
  5
5DE
100
AcDbEntity
  8
0
100
AcDbText
 62
5
  6
CONTINUOUS
 10
159.6375218913
 20
617.2601290775
  7
STANDARD
 40
2.5
  1
591
 50
90.0
 72
5
 11
159.6375218913
 21
623.087266624
100
AcDbText
  0
LINE
  5
5DF
100
AcDbEntity
  8
0
100
AcDbLine
 62
2
  6
CONTINUOUS
 10
133.2625218913
 20
915.6736978507
 11
161.2625218913
 21
915.6736978507
  0
LINE
  5
5E0
100
AcDbEntity
  8
0
100
AcDbLine
 62
2
  6
CONTINUOUS
 10
132.6625218913
 20
324.6736978507
 11
161.2625218913
 21
324.6736978507
  0
LINE
  5
5E1
100
AcDbEntity
  8
0
100
AcDbLine
 62
2
  6
CONTINUOUS
 10
160.2625218913
 20
915.6736978507
 11
160.2625218913
 21
620.1736978507
  0
LINE
  5
5E2
100
AcDbEntity
  8
0
100
AcDbLine
 62
2
  6
CONTINUOUS
 10
160.2625218913
 20
324.6736978507
 11
160.2625218913
 21
620.1736978507
  0
INSERT
  5
5E3
100
AcDbEntity
  8
0
100
AcDbBlockReference
 62
2
  6
CONTINUOUS
  2
_FILLED
 10
160.2625218913
 20
915.6736978507
 41
3.5
 42
3.5
 43
3.5
 50
90.0
  0
INSERT
  5
5E4
100
AcDbEntity
  8
0
100
AcDbBlockReference
 62
2
  6
CONTINUOUS
  2
_FILLED
 10
160.2625218913
 20
324.6736978507
 41
3.5
 42
3.5
 43
3.5
 50
270.0
  0
ENDBLK
  5
5E5
100
AcDbEntity
  8
0
  6
BYBLOCK
 62
0
100
AcDbBlockEnd
  0
BLOCK
  5
5E6
100
AcDbEntity
  8
0
100
AcDbBlockBegin
 62
2
  6
CONTINUOUS
  2
*D18
 70
65
 10
0.0
 20
0.0
  3
*D18
  1

  0
TEXT
  5
5E7
100
AcDbEntity
  8
0
100
AcDbText
 62
5
  6
CONTINUOUS
 10
166.6375218913
 20
569.2601290775
  7
STANDARD
 40
2.5
  1
687
 50
90.0
 72
5
 11
166.6375218913
 21
575.087266624
100
AcDbText
  0
LINE
  5
5E8
100
AcDbEntity
  8
0
100
AcDbLine
 62
2
  6
CONTINUOUS
 10
133.2625218913
 20
915.6736978507
 11
168.2625218913
 21
915.6736978507
  0
LINE
  5
5E9
100
AcDbEntity
  8
0
100
AcDbLine
 62
2
  6
CONTINUOUS
 10
132.6625218913
 20
228.6736978507
 11
168.2625218913
 21
228.6736978507
  0
LINE
  5
5EA
100
AcDbEntity
  8
0
100
AcDbLine
 62
2
  6
CONTINUOUS
 10
167.2625218913
 20
915.6736978507
 11
167.2625218913
 21
572.1736978507
  0
LINE
  5
5EB
100
AcDbEntity
  8
0
100
AcDbLine
 62
2
  6
CONTINUOUS
 10
167.2625218913
 20
228.6736978507
 11
167.2625218913
 21
572.1736978507
  0
INSERT
  5
5EC
100
AcDbEntity
  8
0
100
AcDbBlockReference
 62
2
  6
CONTINUOUS
  2
_FILLED
 10
167.2625218913
 20
915.6736978507
 41
3.5
 42
3.5
 43
3.5
 50
90.0
  0
INSERT
  5
5ED
100
AcDbEntity
  8
0
100
AcDbBlockReference
 62
2
  6
CONTINUOUS
  2
_FILLED
 10
167.2625218913
 20
228.6736978507
 41
3.5
 42
3.5
 43
3.5
 50
270.0
  0
ENDBLK
  5
5EE
100
AcDbEntity
  8
0
  6
BYBLOCK
 62
0
100
AcDbBlockEnd
  0
BLOCK
  5
5EF
100
AcDbEntity
  8
0
100
AcDbBlockBegin
 62
2
  6
CONTINUOUS
  2
*D19
 70
65
 10
0.0
 20
0.0
  3
*D19
  1

  0
TEXT
  5
5F0
100
AcDbEntity
  8
0
100
AcDbText
 62
5
  6
CONTINUOUS
 10
173.6375218913
 20
534.2601290775
  7
STANDARD
 40
2.5
  1
757
 50
90.0
 72
5
 11
173.6375218913
 21
540.087266624
100
AcDbText
  0
LINE
  5
5F1
100
AcDbEntity
  8
0
100
AcDbLine
 62
2
  6
CONTINUOUS
 10
133.2625218913
 20
915.6736978507
 11
175.2625218913
 21
915.6736978507
  0
LINE
  5
5F2
100
AcDbEntity
  8
0
100
AcDbLine
 62
2
  6
CONTINUOUS
 10
133.2625218913
 20
158.6736978507
 11
175.2625218913
 21
158.6736978507
  0
LINE
  5
5F3
100
AcDbEntity
  8
0
100
AcDbLine
 62
2
  6
CONTINUOUS
 10
174.2625218913
 20
915.6736978507
 11
174.2625218913
 21
537.1736978507
  0
LINE
  5
5F4
100
AcDbEntity
  8
0
100
AcDbLine
 62
2
  6
CONTINUOUS
 10
174.2625218913
 20
158.6736978507
 11
174.2625218913
 21
537.1736978507
  0
INSERT
  5
5F5
100
AcDbEntity
  8
0
100
AcDbBlockReference
 62
2
  6
CONTINUOUS
  2
_FILLED
 10
174.2625218913
 20
915.6736978507
 41
3.5
 42
3.5
 43
3.5
 50
90.0
  0
INSERT
  5
5F6
100
AcDbEntity
  8
0
100
AcDbBlockReference
 62
2
  6
CONTINUOUS
  2
_FILLED
 10
174.2625218913
 20
158.6736978507
 41
3.5
 42
3.5
 43
3.5
 50
270.0
  0
ENDBLK
  5
5F7
100
AcDbEntity
  8
0
  6
BYBLOCK
 62
0
100
AcDbBlockEnd
  0
BLOCK
  5
5F8
100
AcDbEntity
  8
0
100
AcDbBlockBegin
 62
2
  6
CONTINUOUS
  2
*D20
 70
65
 10
0.0
 20
0.0
  3
*D20
  1

  0
TEXT
  5
5F9
100
AcDbEntity
  8
0
100
AcDbText
 62
5
  6
CONTINUOUS
 10
87.6375218913
 20
1510.055668111
  7
STANDARD
 40
2.5
  1
764.5
 50
90.0
 72
5
 11
87.6375218913
 21
1518.7917275905
100
AcDbText
  0
LINE
  5
5FA
100
AcDbEntity
  8
0
100
AcDbLine
 62
2
  6
CONTINUOUS
 10
115.2625218913
 20
1132.1736978507
 11
96.4867627891
 21
1132.1736978507
  0
LINE
  5
5FB
100
AcDbEntity
  8
0
100
AcDbLine
 62
2
  6
CONTINUOUS
 10
93.2037263597
 20
1132.1736978507
 11
87.2625218913
 21
1132.1736978507
  0
LINE
  5
5FC
100
AcDbEntity
  8
0
100
AcDbLine
 62
2
  6
CONTINUOUS
 10
115.2625218913
 20
1896.6736978507
 11
87.2625218913
 21
1896.6736978507
  0
LINE
  5
5FD
100
AcDbEntity
  8
0
100
AcDbLine
 62
2
  6
CONTINUOUS
 10
88.2625218913
 20
1132.1736978507
 11
88.2625218913
 21
1514.4236978507
  0
LINE
  5
5FE
100
AcDbEntity
  8
0
100
AcDbLine
 62
2
  6
CONTINUOUS
 10
88.2625218913
 20
1896.6736978507
 11
88.2625218913
 21
1514.4236978507
  0
INSERT
  5
5FF
100
AcDbEntity
  8
0
100
AcDbBlockReference
 62
2
  6
CONTINUOUS
  2
_FILLED
 10
88.2625218913
 20
1132.1736978507
 41
3.5
 42
3.5
 43
3.5
 50
270.0
  0
INSERT
  5
600
100
AcDbEntity
  8
0
100
AcDbBlockReference
 62
2
  6
CONTINUOUS
  2
_FILLED
 10
88.2625218913
 20
1896.6736978507
 41
3.5
 42
3.5
 43
3.5
 50
90.0
  0
ENDBLK
  5
601
100
AcDbEntity
  8
0
  6
BYBLOCK
 62
0
100
AcDbBlockEnd
  0
BLOCK
  5
602
100
AcDbEntity
  8
0
100
AcDbBlockBegin
 62
2
  6
CONTINUOUS
  2
*D21
 70
65
 10
0.0
 20
0.0
  3
*D21
  1

  0
TEXT
  5
603
100
AcDbEntity
  8
0
100
AcDbText
 62
5
  6
CONTINUOUS
 10
101.6375218913
 20
1445.055668111
  7
STANDARD
 40
2.5
  1
634.5
 50
90.0
 72
5
 11
101.6375218913
 21
1453.7917275905
100
AcDbText
  0
LINE
  5
604
100
AcDbEntity
  8
0
100
AcDbLine
 62
2
  6
CONTINUOUS
 10
115.2625218913
 20
1132.1736978507
 11
101.2625218913
 21
1132.1736978507
  0
LINE
  5
605
100
AcDbEntity
  8
0
100
AcDbLine
 62
2
  6
CONTINUOUS
 10
112.3625218911
 20
1766.6736978507
 11
101.2625218913
 21
1766.6736978507
  0
LINE
  5
606
100
AcDbEntity
  8
0
100
AcDbLine
 62
2
  6
CONTINUOUS
 10
102.2625218913
 20
1132.1736978507
 11
102.2625218913
 21
1449.4236978507
  0
LINE
  5
607
100
AcDbEntity
  8
0
100
AcDbLine
 62
2
  6
CONTINUOUS
 10
102.2625218913
 20
1766.6736978507
 11
102.2625218913
 21
1449.4236978507
  0
INSERT
  5
608
100
AcDbEntity
  8
0
100
AcDbBlockReference
 62
2
  6
CONTINUOUS
  2
_FILLED
 10
102.2625218913
 20
1132.1736978507
 41
3.5
 42
3.5
 43
3.5
 50
270.0
  0
INSERT
  5
609
100
AcDbEntity
  8
0
100
AcDbBlockReference
 62
2
  6
CONTINUOUS
  2
_FILLED
 10
102.2625218913
 20
1766.6736978507
 41
3.5
 42
3.5
 43
3.5
 50
90.0
  0
ENDBLK
  5
60A
100
AcDbEntity
  8
0
  6
BYBLOCK
 62
0
100
AcDbBlockEnd
  0
BLOCK
  5
60B
100
AcDbEntity
  8
0
100
AcDbBlockBegin
 62
2
  6
CONTINUOUS
  2
*D22
 70
65
 10
0.0
 20
0.0
  3
*D22
  1

  0
TEXT
  5
60C
100
AcDbEntity
  8
0
100
AcDbText
 62
5
  6
CONTINUOUS
 10
94.6375218913
 20
1434.869794505
  7
STANDARD
 40
2.5
  1
730 bis Kennkerbe
 50
90.0
 72
5
 11
94.6375218913
 21
1463.9776011965
100
AcDbText
  0
LINE
  5
60D
100
AcDbEntity
  8
0
100
AcDbLine
 62
2
  6
CONTINUOUS
 10
112.3625218911
 20
1766.6736978507
 11
94.6375218913
 21
1766.6736978507
  0
LINE
  5
60E
100
AcDbEntity
  8
0
100
AcDbLine
 62
2
  6
CONTINUOUS
 10
94.6375218913
 20
1766.6736978507
 11
94.2625218913
 21
1766.6736978507
  0
LINE
  5
60F
100
AcDbEntity
  8
0
100
AcDbLine
 62
2
  6
CONTINUOUS
 10
95.2625218913
 20
1082.0567503611
 11
95.2625218913
 21
1424.3652241059
  0
LINE
  5
610
100
AcDbEntity
  8
0
100
AcDbLine
 62
2
  6
CONTINUOUS
 10
95.2625218913
 20
1766.6736978507
 11
95.2625218913
 21
1424.3652241059
  0
INSERT
  5
611
100
AcDbEntity
  8
0
100
AcDbBlockReference
 62
2
  6
CONTINUOUS
  2
_NONE
 10
95.2625218913
 20
1082.0567503611
 41
3.5
 42
3.5
 43
3.5
 50
270.0
  0
INSERT
  5
612
100
AcDbEntity
  8
0
100
AcDbBlockReference
 62
2
  6
CONTINUOUS
  2
_FILLED
 10
95.2625218913
 20
1766.6736978507
 41
3.5
 42
3.5
 43
3.5
 50
90.0
  0
ENDBLK
  5
613
100
AcDbEntity
  8
0
  6
BYBLOCK
 62
0
100
AcDbBlockEnd
  0
BLOCK
  5
614
100
AcDbEntity
  8
0
100
AcDbBlockBegin
 62
2
  6
CONTINUOUS
  2
*D23
 70
65
 10
0.0
 20
0.0
  3
*D23
  1

  0
TEXT
  5
615
100
AcDbEntity
  8
0
100
AcDbText
 62
5
  6
CONTINUOUS
 10
145.6375218913
 20
1136.2313186686
  7
STANDARD
 40
2.5
  1
12
 50
90.0
 72
5
 11
145.6375218913
 21
1140.1160770329
100
AcDbText
  0
LINE
  5
616
100
AcDbEntity
  8
0
100
AcDbLine
 62
2
  6
CONTINUOUS
 10
133.2625218913
 20
1132.1736978507
 11
147.2625218913
 21
1132.1736978507
  0
LINE
  5
617
100
AcDbEntity
  8
0
100
AcDbLine
 62
2
  6
CONTINUOUS
 10
132.6625218913
 20
1144.1736978507
 11
147.2625218913
 21
1144.1736978507
  0
LINE
  5
618
100
AcDbEntity
  8
0
100
AcDbLine
 62
2
  6
CONTINUOUS
 10
146.2625218913
 20
1132.1736978507
 11
146.2625218913
 21
1138.1736978507
  0
LINE
  5
619
100
AcDbEntity
  8
0
100
AcDbLine
 62
2
  6
CONTINUOUS
 10
146.2625218913
 20
1144.1736978507
 11
146.2625218913
 21
1138.1736978507
  0
INSERT
  5
61A
100
AcDbEntity
  8
0
100
AcDbBlockReference
 62
2
  6
CONTINUOUS
  2
_FILLED
 10
146.2625218913
 20
1132.1736978507
 41
3.5
 42
3.5
 43
3.5
 50
270.0
  0
INSERT
  5
61B
100
AcDbEntity
  8
0
100
AcDbBlockReference
 62
2
  6
CONTINUOUS
  2
_FILLED
 10
146.2625218913
 20
1144.1736978507
 41
3.5
 42
3.5
 43
3.5
 50
90.0
  0
ENDBLK
  5
61C
100
AcDbEntity
  8
0
  6
BYBLOCK
 62
0
100
AcDbBlockEnd
  0
BLOCK
  5
61D
100
AcDbEntity
  8
0
100
AcDbBlockBegin
 62
2
  6
CONTINUOUS
  2
*D24
 70
65
 10
0.0
 20
0.0
  3
*D24
  1

  0
TEXT
  5
61E
100
AcDbEntity
  8
0
100
AcDbText
 62
5
  6
CONTINUOUS
 10
152.6375218913
 20
1276.7601290775
  7
STANDARD
 40
2.5
  1
295
 50
90.0
 72
5
 11
152.6375218913
 21
1282.587266624
100
AcDbText
  0
LINE
  5
61F
100
AcDbEntity
  8
0
100
AcDbLine
 62
2
  6
CONTINUOUS
 10
132.6625218913
 20
1427.1736978507
 11
154.2625218913
 21
1427.1736978507
  0
LINE
  5
620
100
AcDbEntity
  8
0
100
AcDbLine
 62
2
  6
CONTINUOUS
 10
133.2625218913
 20
1132.1736978507
 11
154.2625218913
 21
1132.1736978507
  0
LINE
  5
621
100
AcDbEntity
  8
0
100
AcDbLine
 62
2
  6
CONTINUOUS
 10
153.2625218913
 20
1427.1736978507
 11
153.2625218913
 21
1279.6736978507
  0
LINE
  5
622
100
AcDbEntity
  8
0
100
AcDbLine
 62
2
  6
CONTINUOUS
 10
153.2625218913
 20
1132.1736978507
 11
153.2625218913
 21
1279.6736978507
  0
INSERT
  5
623
100
AcDbEntity
  8
0
100
AcDbBlockReference
 62
2
  6
CONTINUOUS
  2
_FILLED
 10
153.2625218913
 20
1427.1736978507
 41
3.5
 42
3.5
 43
3.5
 50
90.0
  0
INSERT
  5
624
100
AcDbEntity
  8
0
100
AcDbBlockReference
 62
2
  6
CONTINUOUS
  2
_FILLED
 10
153.2625218913
 20
1132.1736978507
 41
3.5
 42
3.5
 43
3.5
 50
270.0
  0
ENDBLK
  5
625
100
AcDbEntity
  8
0
  6
BYBLOCK
 62
0
100
AcDbBlockEnd
  0
BLOCK
  5
626
100
AcDbEntity
  8
0
100
AcDbBlockBegin
 62
2
  6
CONTINUOUS
  2
*D25
 70
65
 10
0.0
 20
0.0
  3
*D25
  1

  0
TEXT
  5
627
100
AcDbEntity
  8
0
100
AcDbText
 62
5
  6
CONTINUOUS
 10
159.6375218913
 20
1406.055668111
  7
STANDARD
 40
2.5
  1
556.5
 50
90.0
 72
5
 11
159.6375218913
 21
1414.7917275905
100
AcDbText
  0
LINE
  5
628
100
AcDbEntity
  8
0
100
AcDbLine
 62
2
  6
CONTINUOUS
 10
133.2625218913
 20
1132.1736978507
 11
161.2625218913
 21
1132.1736978507
  0
LINE
  5
629
100
AcDbEntity
  8
0
100
AcDbLine
 62
2
  6
CONTINUOUS
 10
132.6625218913
 20
1688.6736978507
 11
161.2625218913
 21
1688.6736978507
  0
LINE
  5
62A
100
AcDbEntity
  8
0
100
AcDbLine
 62
2
  6
CONTINUOUS
 10
160.2625218913
 20
1132.1736978507
 11
160.2625218913
 21
1410.4236978507
  0
LINE
  5
62B
100
AcDbEntity
  8
0
100
AcDbLine
 62
2
  6
CONTINUOUS
 10
160.2625218913
 20
1688.6736978507
 11
160.2625218913
 21
1410.4236978507
  0
INSERT
  5
62C
100
AcDbEntity
  8
0
100
AcDbBlockReference
 62
2
  6
CONTINUOUS
  2
_FILLED
 10
160.2625218913
 20
1132.1736978507
 41
3.5
 42
3.5
 43
3.5
 50
270.0
  0
INSERT
  5
62D
100
AcDbEntity
  8
0
100
AcDbBlockReference
 62
2
  6
CONTINUOUS
  2
_FILLED
 10
160.2625218913
 20
1688.6736978507
 41
3.5
 42
3.5
 43
3.5
 50
90.0
  0
ENDBLK
  5
62E
100
AcDbEntity
  8
0
  6
BYBLOCK
 62
0
100
AcDbBlockEnd
  0
BLOCK
  5
62F
100
AcDbEntity
  8
0
100
AcDbBlockBegin
 62
2
  6
CONTINUOUS
  2
*D26
 70
65
 10
0.0
 20
0.0
  3
*D26
  1

  0
TEXT
  5
630
100
AcDbEntity
  8
0
100
AcDbText
 62
5
  6
CONTINUOUS
 10
166.6375218913
 20
1469.055668111
  7
STANDARD
 40
2.5
  1
682.5
 50
90.0
 72
5
 11
166.6375218913
 21
1477.7917275905
100
AcDbText
  0
LINE
  5
631
100
AcDbEntity
  8
0
100
AcDbLine
 62
2
  6
CONTINUOUS
 10
133.2625218913
 20
1132.1736978507
 11
168.2625218913
 21
1132.1736978507
  0
LINE
  5
632
100
AcDbEntity
  8
0
100
AcDbLine
 62
2
  6
CONTINUOUS
 10
132.6625218913
 20
1814.6736978507
 11
168.2625218913
 21
1814.6736978507
  0
LINE
  5
633
100
AcDbEntity
  8
0
100
AcDbLine
 62
2
  6
CONTINUOUS
 10
167.2625218913
 20
1132.1736978507
 11
167.2625218913
 21
1473.4236978507
  0
LINE
  5
634
100
AcDbEntity
  8
0
100
AcDbLine
 62
2
  6
CONTINUOUS
 10
167.2625218913
 20
1814.6736978507
 11
167.2625218913
 21
1473.4236978507
  0
INSERT
  5
635
100
AcDbEntity
  8
0
100
AcDbBlockReference
 62
2
  6
CONTINUOUS
  2
_FILLED
 10
167.2625218913
 20
1132.1736978507
 41
3.5
 42
3.5
 43
3.5
 50
270.0
  0
INSERT
  5
636
100
AcDbEntity
  8
0
100
AcDbBlockReference
 62
2
  6
CONTINUOUS
  2
_FILLED
 10
167.2625218913
 20
1814.6736978507
 41
3.5
 42
3.5
 43
3.5
 50
90.0
  0
ENDBLK
  5
637
100
AcDbEntity
  8
0
  6
BYBLOCK
 62
0
100
AcDbBlockEnd
  0
BLOCK
  5
638
100
AcDbEntity
  8
0
100
AcDbBlockBegin
 62
2
  6
CONTINUOUS
  2
*D27
 70
65
 10
0.0
 20
0.0
  3
*D27
  1

  0
TEXT
  5
639
100
AcDbEntity
  8
0
100
AcDbText
 62
5
  6
CONTINUOUS
 10
173.6375218913
 20
1504.055668111
  7
STANDARD
 40
2.5
  1
752.5
 50
90.0
 72
5
 11
173.6375218913
 21
1512.7917275905
100
AcDbText
  0
LINE
  5
63A
100
AcDbEntity
  8
0
100
AcDbLine
 62
2
  6
CONTINUOUS
 10
133.2625218913
 20
1884.6736978507
 11
175.2625218913
 21
1884.6736978507
  0
LINE
  5
63B
100
AcDbEntity
  8
0
100
AcDbLine
 62
2
  6
CONTINUOUS
 10
133.2625218913
 20
1132.1736978507
 11
175.2625218913
 21
1132.1736978507
  0
LINE
  5
63C
100
AcDbEntity
  8
0
100
AcDbLine
 62
2
  6
CONTINUOUS
 10
174.2625218913
 20
1884.6736978507
 11
174.2625218913
 21
1508.4236978507
  0
LINE
  5
63D
100
AcDbEntity
  8
0
100
AcDbLine
 62
2
  6
CONTINUOUS
 10
174.2625218913
 20
1132.1736978507
 11
174.2625218913
 21
1508.4236978507
  0
INSERT
  5
63E
100
AcDbEntity
  8
0
100
AcDbBlockReference
 62
2
  6
CONTINUOUS
  2
_FILLED
 10
174.2625218913
 20
1884.6736978507
 41
3.5
 42
3.5
 43
3.5
 50
90.0
  0
INSERT
  5
63F
100
AcDbEntity
  8
0
100
AcDbBlockReference
 62
2
  6
CONTINUOUS
  2
_FILLED
 10
174.2625218913
 20
1132.1736978507
 41
3.5
 42
3.5
 43
3.5
 50
270.0
  0
ENDBLK
  5
640
100
AcDbEntity
  8
0
  6
BYBLOCK
 62
0
100
AcDbBlockEnd
  0
BLOCK
  5
641
100
AcDbEntity
  8
0
100
AcDbBlockBegin
 62
2
  6
CONTINUOUS
  2
*D28
 70
65
 10
0.0
 20
0.0
  3
*D28
  1

  0
TEXT
  5
642
100
AcDbEntity
  8
0
100
AcDbText
 62
5
  6
CONTINUOUS
 10
31.120636633
 20
233.387434725
  7
STANDARD
 40
2.5
  1
17
 72
5
 11
35.0053949973
 21
233.387434725
100
AcDbText
  0
LINE
  5
643
100
AcDbEntity
  8
0
100
AcDbLine
 62
2
  6
CONTINUOUS
 10
40.2911212248
 20
260.320848101
 11
40.2911212248
 21
231.762434725
  0
LINE
  5
644
100
AcDbEntity
  8
0
100
AcDbLine
 62
2
  6
CONTINUOUS
 10
40.2911212248
 20
232.762434725
 11
31.7911212248
 21
232.762434725
  0
LINE
  5
645
100
AcDbEntity
  8
0
100
AcDbLine
 62
2
  6
CONTINUOUS
 10
23.2911212248
 20
232.762434725
 11
31.7911212248
 21
232.762434725
  0
INSERT
  5
646
100
AcDbEntity
  8
0
100
AcDbBlockReference
 62
2
  6
CONTINUOUS
  2
_FILLED
 10
40.2911212248
 20
232.762434725
 41
3.5
 42
3.5
 43
3.5
  0
INSERT
  5
647
100
AcDbEntity
  8
0
100
AcDbBlockReference
 62
2
  6
CONTINUOUS
  2
_FILLED
 10
23.2911212248
 20
232.762434725
 41
3.5
 42
3.5
 43
3.5
 50
180.0
  0
ENDBLK
  5
648
100
AcDbEntity
  8
0
  6
BYBLOCK
 62
0
100
AcDbBlockEnd
  0
ENDSEC
  0
SECTION
  2
ENTITIES
  0
DIMENSION
  5
649
100
AcDbEntity
  8
0
100
AcDbDimension
 62
2
  6
CONTINUOUS
  2
*D0
 10
136.2625218913
 20
128.6736978507
 11
129.7625218913
 21
128.6736978507
 70
160
 71
2
 42
13.0
  3
DIMSTYLE_1
100
AcDbAlignedDimension
 13
123.2625218913
 23
234.6602251853
 14
136.2625218913
 24
146.6736978507
100
AcDbRotatedDimension
  0
DIMENSION
  5
64A
100
AcDbEntity
  8
0
100
AcDbDimension
 62
2
  6
CONTINUOUS
  2
*D1
 10
136.2625218913
 20
1914.6736978507
 11
124.2625218913
 21
1914.6736978507
 70
160
 71
2
 42
24.0
  3
DIMSTYLE_1
100
AcDbAlignedDimension
 13
112.2625218913
 23
1896.6736978507
 14
136.2625218913
 24
1896.6736978507
100
AcDbRotatedDimension
  0
DIMENSION
  5
64B
100
AcDbEntity
  8
0
100
AcDbDimension
 62
2
  6
CONTINUOUS
  2
*D2
 10
29.2911212248
 20
1914.6736978507
 11
26.2911212248
 21
1914.6736978507
 70
160
 71
2
 42
6.0
  3
DIMSTYLE_2
100
AcDbAlignedDimension
 13
23.2911212248
 23
1896.6736978507
 14
29.2911212248
 24
1896.6736978507
100
AcDbRotatedDimension
  0
DIMENSION
  5
64C
100
AcDbEntity
  8
0
100
AcDbDimension
 62
2
  6
CONTINUOUS
  2
*D3
 10
81.2625218913
 20
146.6736978507
 11
81.2625218913
 21
1021.6736978507
 70
160
 71
2
 42
1750.0
  3
DIMSTYLE_3
100
AcDbAlignedDimension
 13
115.2625218913
 23
1896.6736978507
 14
115.2625218913
 24
146.6736978507
 50
270.0
100
AcDbRotatedDimension
  0
DIMENSION
  5
64D
100
AcDbEntity
  8
0
100
AcDbDimension
 62
2
  6
CONTINUOUS
  2
*D4
 10
74.2625218913
 20
138.6736978507
 11
74.2625218913
 21
1021.6736978507
 70
160
 71
2
 42
1766.0
  3
DIMSTYLE_3
100
AcDbAlignedDimension
 13
112.2625218913
 23
1904.6736978507
 14
112.2625218913
 24
138.6736978507
 50
270.0
100
AcDbRotatedDimension
  0
DIMENSION
  5
64E
100
AcDbEntity
  8
0
100
AcDbDimension
 62
2
  6
CONTINUOUS
  2
*D5
 10
50.4911212248
 20
239.6736978507
 11
50.4911212248
 21
276.6736978507
 70
160
 71
2
 42
74.0
  3
DIMSTYLE_4
100
AcDbAlignedDimension
 13
29.2936180681
 23
313.6736978507
 14
29.2825853793
 24
239.6736978507
 50
270.0
100
AcDbRotatedDimension
  0
DIMENSION
  5
64F
100
AcDbEntity
  8
0
100
AcDbDimension
 62
2
  6
CONTINUOUS
  2
*D6
 10
50.4911212248
 20
1729.6736978507
 11
50.4911212248
 21
1766.6736978507
 70
160
 71
2
 42
74.0
  3
DIMSTYLE_4
100
AcDbAlignedDimension
 13
29.3091212037
 23
1803.6736978507
 14
29.3156871647
 24
1729.6736978507
 50
270.0
100
AcDbRotatedDimension
  0
DIMENSION
  5
650
100
AcDbEntity
  8
0
100
AcDbDimension
 62
2
  6
CONTINUOUS
  2
*D7
 10
50.4911212248
 20
1896.6736978507
 11
50.4911212248
 21
1850.1736978507
 70
160
 71
2
 42
93.0
  3
DIMSTYLE_4
100
AcDbAlignedDimension
 13
29.2709463615
 23
1803.6736978507
 14
29.2911212248
 24
1896.6736978507
 50
90.0
100
AcDbRotatedDimension
  0
DIMENSION
  5
651
100
AcDbEntity
  8
0
100
AcDbDimension
 62
2
  6
CONTINUOUS
  2
*D8
 10
50.4911212248
 20
146.6736978507
 11
50.4911212248
 21
193.1736978507
 70
160
 71
2
 42
93.0
  3
DIMSTYLE_4
100
AcDbAlignedDimension
 13
29.3070113135
 23
239.6736978507
 14
29.2911212248
 24
146.6736978507
 50
270.0
100
AcDbRotatedDimension
  0
DIMENSION
  5
652
100
AcDbEntity
  8
0
100
AcDbDimension
 62
2
  6
CONTINUOUS
  2
*D9
 10
57.4911212248
 20
112.5948971971
 11
57.4911212248
 21
105.6948971971
 70
160
 71
2
 42
13.8
  3
DIMSTYLE_1
100
AcDbAlignedDimension
 13
31.2911212248
 23
98.7948971971
 14
31.2911212248
 24
112.5948971971
 50
90.0
100
AcDbRotatedDimension
  0
DIMENSION
  5
653
100
AcDbEntity
  8
0
100
AcDbDimension
 62
2
  6
CONTINUOUS
  2
*D10
 10
50.4911212248
 20
116.6948971971
 11
50.4911212248
 21
122.2170142431
 70
160
 71
1
 42
2.0
  3
DIMSTYLE_2
100
AcDbAlignedDimension
 13
29.2911212248
 23
114.6948971971
 14
29.2911212248
 24
116.6948971971
 50
90.0
100
AcDbRotatedDimension
  0
DIMENSION
  5
654
100
AcDbEntity
  8
0
100
AcDbDimension
 62
2
  6
CONTINUOUS
  2
*D11
 10
23.2911212248
 20
126.6948971971
 11
28.637328598
 21
126.6948971971
 70
160
 71
1
 42
2.0
  3
DIMSTYLE_2
100
AcDbAlignedDimension
 13
21.2911212248
 23
114.1948971971
 14
23.2911212248
 24
113.6948971971
100
AcDbRotatedDimension
  0
DIMENSION
  5
655
100
AcDbEntity
  8
0
100
AcDbDimension
 62
2
  6
CONTINUOUS
  2
*D12
 10
88.2625218913
 20
146.6736978507
 11
88.2625218913
 21
531.1736978507
 70
160
 71
2
 42
769.0
  3
DIMSTYLE_5
100
AcDbAlignedDimension
 13
115.2625218913
 23
915.6736978507
 14
115.2625218913
 24
146.6736978507
 50
270.0
100
AcDbRotatedDimension
  0
DIMENSION
  5
656
100
AcDbEntity
  8
0
100
AcDbDimension
 62
2
  6
CONTINUOUS
  2
*D13
 10
95.2625218913
 20
276.6736978507
 11
95.2625218913
 21
596.1736978507
 70
160
 71
2
 42
639.0
  1
760 bis Kennkerbe
  3
DIMSTYLE_5
100
AcDbAlignedDimension
 13
96.2625218913
 23
965.6690878428
 14
111.7625218913
 24
276.6736978507
 50
270.0
100
AcDbRotatedDimension
1001
ACAD
1000
DSTYLE
1002
{
1070
173
1070
1
1070
6
1000
_NONE
1002
}
  0
DIMENSION
  5
657
100
AcDbEntity
  8
0
100
AcDbDimension
 62
2
  6
CONTINUOUS
  2
*D14
 10
102.2625218913
 20
276.6736978507
 11
102.2625218913
 21
596.1736978507
 70
160
 71
2
 42
639.0
  3
DIMSTYLE_5
100
AcDbAlignedDimension
 13
115.2625218913
 23
915.6736978507
 14
111.7625218913
 24
276.6736978507
 50
270.0
100
AcDbRotatedDimension
  0
DIMENSION
  5
658
100
AcDbEntity
  8
0
100
AcDbDimension
 62
2
  6
CONTINUOUS
  2
*D15
 10
146.2625218913
 20
903.6736978507
 11
146.2625218913
 21
909.6736978507
 70
160
 71
2
 42
12.0
  3
DIMSTYLE_1
100
AcDbAlignedDimension
 13
133.2625218913
 23
915.6736978507
 14
132.6625218913
 24
903.6736978507
 50
270.0
100
AcDbRotatedDimension
  0
DIMENSION
  5
659
100
AcDbEntity
  8
0
100
AcDbDimension
 62
2
  6
CONTINUOUS
  2
*D16
 10
153.2625218913
 20
623.6736978507
 11
153.2625218913
 21
769.6736978507
 70
160
 71
2
 42
292.0
  3
DIMSTYLE_6
100
AcDbAlignedDimension
 13
133.2625218913
 23
915.6736978507
 14
132.6625218913
 24
623.6736978507
 50
270.0
100
AcDbRotatedDimension
  0
DIMENSION
  5
65A
100
AcDbEntity
  8
0
100
AcDbDimension
 62
2
  6
CONTINUOUS
  2
*D17
 10
160.2625218913
 20
324.6736978507
 11
160.2625218913
 21
620.1736978507
 70
160
 71
2
 42
591.0
  3
DIMSTYLE_5
100
AcDbAlignedDimension
 13
133.2625218913
 23
915.6736978507
 14
132.6625218913
 24
324.6736978507
 50
270.0
100
AcDbRotatedDimension
  0
DIMENSION
  5
65B
100
AcDbEntity
  8
0
100
AcDbDimension
 62
2
  6
CONTINUOUS
  2
*D18
 10
167.2625218913
 20
228.6736978507
 11
167.2625218913
 21
572.1736978507
 70
160
 71
2
 42
687.0
  3
DIMSTYLE_5
100
AcDbAlignedDimension
 13
133.2625218913
 23
915.6736978507
 14
132.6625218913
 24
228.6736978507
 50
270.0
100
AcDbRotatedDimension
  0
DIMENSION
  5
65C
100
AcDbEntity
  8
0
100
AcDbDimension
 62
2
  6
CONTINUOUS
  2
*D19
 10
174.2625218913
 20
158.6736978507
 11
174.2625218913
 21
537.1736978507
 70
160
 71
2
 42
757.0
  3
DIMSTYLE_5
100
AcDbAlignedDimension
 13
133.2625218913
 23
915.6736978507
 14
133.2625218913
 24
158.6736978507
 50
270.0
100
AcDbRotatedDimension
  0
DIMENSION
  5
65D
100
AcDbEntity
  8
0
100
AcDbDimension
 62
2
  6
CONTINUOUS
  2
*D20
 10
88.2625218913
 20
1896.6736978507
 11
88.2625218913
 21
1514.4236978507
 70
160
 71
2
 42
764.5
  3
DIMSTYLE_5
100
AcDbAlignedDimension
 13
115.2625218913
 23
1132.1736978507
 14
115.2625218913
 24
1896.6736978507
 50
90.0
100
AcDbRotatedDimension
  0
DIMENSION
  5
65E
100
AcDbEntity
  8
0
100
AcDbDimension
 62
2
  6
CONTINUOUS
  2
*D21
 10
102.2625218913
 20
1766.6736978507
 11
102.2625218913
 21
1449.4236978507
 70
160
 71
2
 42
634.5
  3
DIMSTYLE_5
100
AcDbAlignedDimension
 13
115.2625218913
 23
1132.1736978507
 14
112.3625218911
 24
1766.6736978507
 50
90.0
100
AcDbRotatedDimension
  0
DIMENSION
  5
65F
100
AcDbEntity
  8
0
100
AcDbDimension
 62
2
  6
CONTINUOUS
  2
*D22
 10
95.2625218913
 20
1766.6736978507
 11
95.2625218913
 21
1449.4236978507
 70
160
 71
2
 42
634.5
  1
730 bis Kennkerbe
  3
DIMSTYLE_5
100
AcDbAlignedDimension
 13
96.2625218913
 23
1082.0567503611
 14
112.3625218911
 24
1766.6736978507
 50
90.0
100
AcDbRotatedDimension
1001
ACAD
1000
DSTYLE
1002
{
1070
173
1070
1
1070
6
1000
_NONE
1002
}
  0
DIMENSION
  5
660
100
AcDbEntity
  8
0
100
AcDbDimension
 62
2
  6
CONTINUOUS
  2
*D23
 10
146.2625218913
 20
1144.1736978507
 11
146.2625218913
 21
1138.1736978507
 70
160
 71
2
 42
12.0
  3
DIMSTYLE_1
100
AcDbAlignedDimension
 13
133.2625218913
 23
1132.1736978507
 14
132.6625218913
 24
1144.1736978507
 50
90.0
100
AcDbRotatedDimension
  0
DIMENSION
  5
661
100
AcDbEntity
  8
0
100
AcDbDimension
 62
2
  6
CONTINUOUS
  2
*D24
 10
153.2625218913
 20
1132.1736978507
 11
153.2625218913
 21
1279.6736978507
 70
160
 71
2
 42
295.0
  3
DIMSTYLE_6
100
AcDbAlignedDimension
 13
132.6625218913
 23
1427.1736978507
 14
133.2625218913
 24
1132.1736978507
 50
270.0
100
AcDbRotatedDimension
  0
DIMENSION
  5
662
100
AcDbEntity
  8
0
100
AcDbDimension
 62
2
  6
CONTINUOUS
  2
*D25
 10
160.2625218913
 20
1688.6736978507
 11
160.2625218913
 21
1410.4236978507
 70
160
 71
2
 42
556.5
  3
DIMSTYLE_5
100
AcDbAlignedDimension
 13
133.2625218913
 23
1132.1736978507
 14
132.6625218913
 24
1688.6736978507
 50
90.0
100
AcDbRotatedDimension
  0
DIMENSION
  5
663
100
AcDbEntity
  8
0
100
AcDbDimension
 62
2
  6
CONTINUOUS
  2
*D26
 10
167.2625218913
 20
1814.6736978507
 11
167.2625218913
 21
1473.4236978507
 70
160
 71
2
 42
682.5
  3
DIMSTYLE_5
100
AcDbAlignedDimension
 13
133.2625218913
 23
1132.1736978507
 14
132.6625218913
 24
1814.6736978507
 50
90.0
100
AcDbRotatedDimension
  0
DIMENSION
  5
664
100
AcDbEntity
  8
0
100
AcDbDimension
 62
2
  6
CONTINUOUS
  2
*D27
 10
174.2625218913
 20
1132.1736978507
 11
174.2625218913
 21
1508.4236978507
 70
160
 71
2
 42
752.5
  3
DIMSTYLE_5
100
AcDbAlignedDimension
 13
133.2625218913
 23
1884.6736978507
 14
133.2625218913
 24
1132.1736978507
 50
270.0
100
AcDbRotatedDimension
  0
DIMENSION
  5
665
100
AcDbEntity
  8
0
100
AcDbDimension
 62
2
  6
CONTINUOUS
  2
*D28
 10
23.2911212248
 20
232.762434725
 11
33.0630158151
 21
232.762434725
 70
160
 71
2
 42
17.0
  3
DIMSTYLE_1
100
AcDbAlignedDimension
 13
40.2911212248
 23
260.320848101
 14
23.2911212248
 24
146.6736978507
 50
180.0
100
AcDbRotatedDimension
  0
TEXT
  5
666
100
AcDbEntity
  8
0
100
AcDbText
 62
5
  6
CONTINUOUS
 10
24.5864378588
 20
78.7823407977
  7
STANDARD
 40
5.0
  1
A-A
 72
5
 11
36.2035382305
 21
78.7823407977
100
AcDbText
  0
INSERT
  5
667
100
AcDbEntity
  8
0
100
AcDbBlockReference
 62
2
  6
CONTINUOUS
  2
SYMBOL_0_BL17
 10
31.0000000239
 20
34.9999999785
  0
LINE
  5
668
100
AcDbEntity
  8
S-AXIS
100
AcDbLine
 62
7
  6
CENTER
 10
43.4911212248
 20
104.6948971971
 11
18.2911212248
 21
104.6948971971
  0
INSERT
  5
669
100
AcDbEntity
  8
HATCHING_BL0
100
AcDbBlockReference
  2
HATCHING_BL0
 10
27.4491725978
 20
1818.3877863351
  0
INSERT
  5
66A
100
AcDbEntity
  8
94820009L00_BL1
100
AcDbBlockReference
  2
94820009L00_BL1
 10
79.2768215581
 20
994.6842975239
  0
INSERT
  5
66B
100
AcDbEntity
  8
93773508000_O_BL2
100
AcDbBlockReference
  2
93773508000_O_BL2
 10
79.7768215581
 20
130.1842975239
  0
INSERT
  5
66C
100
AcDbEntity
  8
94818605L00_BL3
100
AcDbBlockReference
  2
94818605L00_BL3
 10
79.2768215581
 20
531.1736978507
  0
INSERT
  5
66D
100
AcDbEntity
  8
94528905000_M_BL4
100
AcDbBlockReference
  2
94528905000_M_BL4
 10
79.0282187326
 20
246.5736978507
  0
INSERT
  5
66E
100
AcDbEntity
  8
94529001000_BL5
100
AcDbBlockReference
  2
94529001000_BL5
 10
78.0268215581
 20
276.6736978507
  0
INSERT
  5
66F
100
AcDbEntity
  8
94673901000_BL6
100
AcDbBlockReference
  2
94673901000_BL6
 10
75.6268215581
 20
201.1842975239
  0
INSERT
  5
670
100
AcDbEntity
  8
94528905000_M_BL7
100
AcDbBlockReference
  2
94528905000_M_BL7
 10
79.0282187326
 20
306.7736978507
  0
INSERT
  5
671
100
AcDbEntity
  8
94673901000_BL8
100
AcDbBlockReference
  2
94673901000_BL8
 10
77.9768215581
 20
942.7342975239
  0
INSERT
  5
672
100
AcDbEntity
  8
94529001000_BL9
100
AcDbBlockReference
  2
94529001000_BL9
 10
76.5268215581
 20
952.9410338566
  0
INSERT
  5
673
100
AcDbEntity
  8
94528905000_M_BL10
100
AcDbBlockReference
  2
94528905000_M_BL10
 10
78.6768215581
 20
952.4842975239
  0
INSERT
  5
674
100
AcDbEntity
  8
94528905000_M_BL11
100
AcDbBlockReference
  2
94528905000_M_BL11
 10
79.0282187326
 20
1736.5736978507
  0
INSERT
  5
675
100
AcDbEntity
  8
93794908000_BL12
100
AcDbBlockReference
  2
93794908000_BL12
 10
78.2328875752
 20
619.4342990855
  0
INSERT
  5
676
100
AcDbEntity
  8
93794908000_BL13
100
AcDbBlockReference
  2
93794908000_BL13
 10
78.2328875752
 20
920.6736978507
  0
INSERT
  5
677
100
AcDbEntity
  8
93773508000_O_BL14
100
AcDbBlockReference
  2
93773508000_O_BL14
 10
79.7768215581
 20
1890.1736978507
  0
INSERT
  5
678
100
AcDbEntity
  8
93782708000_BL15
100
AcDbBlockReference
  2
93782708000_BL15
 10
27.2411212248
 20
104.6948971971
  0
INSERT
  5
679
100
AcDbEntity
  8
91511100000_BL16
100
AcDbBlockReference
  2
91511100000_BL16
 10
27.9911212248
 20
105.6948971971
  0
ENDSEC
  0
SECTION
  2
OBJECTS
  0
DICTIONARY
  5
C
100
AcDbDictionary
280
0
281
1
  3
ACAD_GROUP
350
D
  3
ACAD_MLINESTYLE
350
17
  3
ACAD_LAYOUT
350
1A
  3
ACAD_PLOTSETTINGS
350
19
  3
ACAD_PLOTSTYLENAME
350
E
  0
DICTIONARY
  5
D
102
{ACAD_REACTORS
330
C
102
}
100
AcDbDictionary
280
0
281
1
  0
ACDBDICTIONARYWDFLT
  5
E
102
{ACAD_REACTORS
330
C
102
}
100
AcDbDictionary
281
1
  3
Normal
350
F
100
AcDbDictionaryWithDefault
340
F
  0
DICTIONARY
  5
17
102
{ACAD_REACTORS
330
C
102
}
100
AcDbDictionary
280
0
281
1
  3
Standard
350
18
  0
DICTIONARY
  5
19
102
{ACAD_REACTORS
330
C
102
}
100
AcDbDictionary
281
1
  0
DICTIONARY
  5
1A
102
{ACAD_REACTORS
330
C
102
}
100
AcDbDictionary
281
1
  3
Model
350
67A
  3
Layout1
350
67B
  0
ACDBPLACEHOLDER
  5
F
102
{ACAD_REACTORS
330
E
102
}
  0
MLINESTYLE
  5
18
102
{ACAD_REACTORS
330
17
102
}
100
AcDbMlineStyle
  2
STANDARD
 70
0
  3

 62
256
 51
90.0
 52
90.0
 71
2
 49
0.5
 62
256
  6
BYLAYER
 49
-0.5
 62
256
  6
BYLAYER
  0
LAYOUT
  5
67A
102
{ACAD_REACTORS
330
1A
102
}
100
AcDbPlotSettings
  1

  2
none_device
  4

  6

 40
0.0
 41
0.0
 42
0.0
 43
0.0
 44
200.0
 45
1935.0
 46
0.0
 47
0.0
 48
0.0
 49
0.0
140
0.0
141
0.0
142
1.0
143
1.0
 70
1024
 72
1
 73
0
 74
0
  7

 75
0
147
1.0
148
0.0
149
0.0
100
AcDbLayout
  1
Model
 70
0
 71
0
 10
0.0
 20
0.0
 11
200.0
 21
1935.0
 12
0.0
 22
0.0
 32
0.0
 14
0.0
 24
0.0
 34
0.0
 15
0.0
 25
0.0
 35
0.0
146
0.0
 13
0.0
 23
0.0
 33
0.0
 16
1.0
 26
0.0
 36
0.0
 17
0.0
 27
1.0
 37
0.0
 76
0
330
21C
345
0
346
0
  0
LAYOUT
  5
67B
102
{ACAD_REACTORS
330
1A
102
}
100
AcDbPlotSettings
  1

  2
none_device
  4

  6

 40
0.0
 41
0.0
 42
0.0
 43
0.0
 44
200.0
 45
1935.0
 46
0.0
 47
0.0
 48
0.0
 49
0.0
140
0.0
141
0.0
142
1.0
143
1.0
 70
0
 72
1
 73
0
 74
0
  7

 75
0
147
1.0
148
0.0
149
0.0
100
AcDbLayout
  1
Layout1
 70
0
 71
1
 10
0.0
 20
0.0
 11
200.0
 21
1935.0
 12
0.0
 22
0.0
 32
0.0
 14
0.0
 24
0.0
 34
0.0
 15
0.0
 25
0.0
 35
0.0
146
0.0
 13
0.0
 23
0.0
 33
0.0
 16
1.0
 26
0.0
 36
0.0
 17
0.0
 27
1.0
 37
0.0
 76
0
330
21D
345
0
346
0
  0
ENDSEC
  0
EOF
