  0
SECTION
  2
HEADER
  9
$ACADVER
  1
AC1021
  9
$DWGCODEPAGE
  3
ANSI_1252
  9
$EXTMAX
 10
200.0
 20
2480.0
 30
0.0
  9
$EXTMIN
 10
0.0
 20
0.0
 30
0.0
  9
$LIMMIN
 10
0.0
 20
0.0
  9
$LIMMAX
 10
200.0
 20
2480.0
  9
$VIEWCTR
 10
100.0
 20
1240.0
  9
$VIEWSIZE
 40
2480.0
  9
$CLAYER
  8
0
  9
$LTSCALE
 40
161.6592592593
  9
$CELTYPE
  6
BYLAYER
  9
$DIMSCALE
 40
1.0
  9
$DIMASZ
 40
3.5
  9
$DIMEXO
 40
0.0
  9
$DIMDLI
 40
111.6918518519
  9
$DIMEXE
 40
1.0
  9
$DIMCEN
 40
26.4533333333
  9
$DIMLFAC
 40
1.0
  9
$DIMBLK
  1
_FILLED
  9
$DIMTXT
 40
2.5
  9
$DIMTOL
 70
1
  9
$DIMLIM
 70
0
  9
$DIMTFAC
 40
1.0
  9
$DIMTP
 40
0.001
  9
$DIMTM
 40
0.001
  9
$DIMGAP
 40
0.625
  9
$DIMDSEP
 70
46
  9
$PDMODE
 70
3
  9
$PDSIZE
 40
2.0
  9
$HANDSEED
  5
8BB
  9
$TILEMODE
 70
1
  9
$MEASUREMENT
 70
1
  9
$INSUNITS
 70
4
  0
ENDSEC
  0
SECTION
  2
CLASSES
  0
CLASS
  1
ACDBDICTIONARYWDFLT
  2
AcDbDictionaryWithDefault
  3
AutoCAD 2000
 90
0
 91
1
280
0
281
0
  0
CLASS
  1
ACDBPLACEHOLDER
  2
AcDbPlaceHolder
  3
AutoCAD 2000
 90
0
 91
1
280
0
281
0
  0
CLASS
  1
LAYOUT
  2
AcDbLayout
  3
AutoCAD 2000
 90
0
 91
0
280
0
281
0
  0
ENDSEC
  0
SECTION
  2
TABLES
  0
TABLE
  2
VPORT
  5
8
100
AcDbSymbolTable
 70
2
  0
VPORT
  5
1F4
100
AcDbSymbolTableRecord
100
AcDbViewportTableRecord
  2
*ACTIVE
 70
0
 10
0.0
 20
0.0
 11
1.0
 21
1.0
 12
100.0
 22
1240.0
 13
0.0
 23
0.0
 14
1.0
 24
1.0
 15
0.0
 25
0.0
 16
0.0
 26
0.0
 36
1.0
 17
0.0
 27
0.0
 37
0.0
 40
2480.0
 41
0.0806451613
 42
50.0
 43
0.0
 44
0.0
 50
0.0
 51
0.0
 71
0
 72
100
 73
1
 74
1
 75
0
 76
0
 77
0
 78
0
  0
ENDTAB
  0
TABLE
  2
LTYPE
  5
5
100
AcDbSymbolTable
 70
6
  0
LTYPE
  5
14
100
AcDbSymbolTableRecord
100
AcDbLinetypeTableRecord
  2
BYBLOCK
 70
0
  3

 72
65
 73
0
 40
0.0
  0
LTYPE
  5
15
100
AcDbSymbolTableRecord
100
AcDbLinetypeTableRecord
  2
BYLAYER
 70
0
  3

 72
65
 73
0
 40
0.0
  0
LTYPE
  5
16
100
AcDbSymbolTableRecord
100
AcDbLinetypeTableRecord
  2
CONTINUOUS
 70
64
  3
Solid line
 72
65
 73
0
 40
0.0
  0
LTYPE
  5
1F5
100
AcDbSymbolTableRecord
100
AcDbLinetypeTableRecord
  2
CENTER
 70
64
  3
____ _ ____ _ ____ _ ____ _ ____ _ ____ _ ____
 72
65
 73
4
 40
0.6
 49
0.375
 74
0
 49
-0.075
 74
0
 49
0.075
 74
0
 49
-0.075
 74
0
  0
LTYPE
  5
1F6
100
AcDbSymbolTableRecord
100
AcDbLinetypeTableRecord
  2
HIDDEN
 70
64
  3
- - - - - - - - - - - - - - - - - - - -
 72
65
 73
2
 40
0.2
 49
0.1
 74
0
 49
-0.1
 74
0
  0
LTYPE
  5
1F7
100
AcDbSymbolTableRecord
100
AcDbLinetypeTableRecord
  2
PHANTOM
 70
64
  3
_____ _ _ _____ _ _ _____ _ _ _____
 72
65
 73
6
 40
0.8
 49
0.45
 74
0
 49
-0.05
 74
0
 49
0.1
 74
0
 49
-0.05
 74
0
 49
0.1
 74
0
 49
-0.05
 74
0
  0
LTYPE
  5
1F8
100
AcDbSymbolTableRecord
100
AcDbLinetypeTableRecord
  2
DOT
 70
64
  3
. . . . . . . . . . . . . . . . . . . .
 72
65
 73
2
 40
0.2
 49
0.1
 74
0
 49
-0.1
 74
0
  0
LTYPE
  5
1F9
100
AcDbSymbolTableRecord
100
AcDbLinetypeTableRecord
  2
DASHED
 70
64
  3
- - - - - - - - - - - - - - - - - - - -
 72
65
 73
2
 40
0.2
 49
0.1
 74
0
 49
-0.1
 74
0
  0
ENDTAB
  0
TABLE
  2
LAYER
  5
2
100
AcDbSymbolTable
 70
36
  0
LAYER
  5
10
100
AcDbSymbolTableRecord
100
AcDbLayerTableRecord
  2
0
 70
0
 62
7
  6
CONTINUOUS
370
-3
390
F
  0
LAYER
  5
1FA
100
AcDbSymbolTableRecord
100
AcDbLayerTableRecord
  2
DEFAULT_1
 70
0
 62
7
  6
CENTER
370
-3
390
F
  0
LAYER
  5
1FB
100
AcDbSymbolTableRecord
100
AcDbLayerTableRecord
  2
DEFAULT_2
 70
0
 62
8
  6
HIDDEN
370
-3
390
F
  0
LAYER
  5
1FC
100
AcDbSymbolTableRecord
100
AcDbLayerTableRecord
  2
DEFAULT_3
 70
0
 62
7
  6
PHANTOM
370
-3
390
F
  0
LAYER
  5
1FD
100
AcDbSymbolTableRecord
100
AcDbLayerTableRecord
  2
AXIS
 70
0
 62
7
  6
CONTINUOUS
370
-3
390
F
  0
LAYER
  5
1FE
100
AcDbSymbolTableRecord
100
AcDbLayerTableRecord
  2
COORDSYS
 70
0
 62
7
  6
CONTINUOUS
370
-3
390
F
  0
LAYER
  5
1FF
100
AcDbSymbolTableRecord
100
AcDbLayerTableRecord
  2
CURVES
 70
0
 62
7
  6
CONTINUOUS
370
-3
390
F
  0
LAYER
  5
200
100
AcDbSymbolTableRecord
100
AcDbLayerTableRecord
  2
EINBAUREFERENZ
 70
0
 62
7
  6
CONTINUOUS
370
-3
390
F
  0
LAYER
  5
201
100
AcDbSymbolTableRecord
100
AcDbLayerTableRecord
  2
KOSMETIK
 70
0
 62
7
  6
CONTINUOUS
370
-3
390
F
  0
LAYER
  5
202
100
AcDbSymbolTableRecord
100
AcDbLayerTableRecord
  2
KURVE
 70
0
 62
7
  6
CONTINUOUS
370
-3
390
F
  0
LAYER
  5
203
100
AcDbSymbolTableRecord
100
AcDbLayerTableRecord
  2
PLANES
 70
0
 62
7
  6
CONTINUOUS
370
-3
390
F
  0
LAYER
  5
204
100
AcDbSymbolTableRecord
100
AcDbLayerTableRecord
  2
POINTS
 70
0
 62
7
  6
CONTINUOUS
370
-3
390
F
  0
LAYER
  5
205
100
AcDbSymbolTableRecord
100
AcDbLayerTableRecord
  2
PROFIL-EINBAULAGE
 70
0
 62
7
  6
CONTINUOUS
370
-3
390
F
  0
LAYER
  5
206
100
AcDbSymbolTableRecord
100
AcDbLayerTableRecord
  2
S-AXIS
 70
0
 62
7
  6
CONTINUOUS
370
-3
390
F
  0
LAYER
  5
207
100
AcDbSymbolTableRecord
100
AcDbLayerTableRecord
  2
S-COORDSYS
 70
0
 62
7
  6
CONTINUOUS
370
-3
390
F
  0
LAYER
  5
208
100
AcDbSymbolTableRecord
100
AcDbLayerTableRecord
  2
S-PLANES
 70
0
 62
7
  6
CONTINUOUS
370
-3
390
F
  0
LAYER
  5
209
100
AcDbSymbolTableRecord
100
AcDbLayerTableRecord
  2
THREADS
 70
0
 62
7
  6
CONTINUOUS
370
-3
390
F
  0
LAYER
  5
20A
100
AcDbSymbolTableRecord
100
AcDbLayerTableRecord
  2
XSEC_DATUMS
 70
0
 62
7
  6
CONTINUOUS
370
-3
390
F
  0
LAYER
  5
20B
100
AcDbSymbolTableRecord
100
AcDbLayerTableRecord
  2
HATCHING_BL0
 70
0
 62
7
  6
CONTINUOUS
370
-3
390
F
  0
LAYER
  5
20C
100
AcDbSymbolTableRecord
100
AcDbLayerTableRecord
  2
94818813L00_BL1
 70
0
 62
7
  6
CONTINUOUS
370
-3
390
F
  0
LAYER
  5
20D
100
AcDbSymbolTableRecord
100
AcDbLayerTableRecord
  2
94528901000_M_BL2
 70
0
 62
7
  6
CONTINUOUS
370
-3
390
F
  0
LAYER
  5
20E
100
AcDbSymbolTableRecord
100
AcDbLayerTableRecord
  2
94529001000_BL3
 70
0
 62
7
  6
CONTINUOUS
370
-3
390
F
  0
LAYER
  5
20F
100
AcDbSymbolTableRecord
100
AcDbLayerTableRecord
  2
94663701000_BL4
 70
0
 62
7
  6
CONTINUOUS
370
-3
390
F
  0
LAYER
  5
210
100
AcDbSymbolTableRecord
100
AcDbLayerTableRecord
  2
94528901000_M_BL5
 70
0
 62
7
  6
CONTINUOUS
370
-3
390
F
  0
LAYER
  5
211
100
AcDbSymbolTableRecord
100
AcDbLayerTableRecord
  2
94663701000_BL6
 70
0
 62
7
  6
CONTINUOUS
370
-3
390
F
  0
LAYER
  5
212
100
AcDbSymbolTableRecord
100
AcDbLayerTableRecord
  2
94529001000_BL7
 70
0
 62
7
  6
CONTINUOUS
370
-3
390
F
  0
LAYER
  5
213
100
AcDbSymbolTableRecord
100
AcDbLayerTableRecord
  2
94528901000_M_BL8
 70
0
 62
7
  6
CONTINUOUS
370
-3
390
F
  0
LAYER
  5
214
100
AcDbSymbolTableRecord
100
AcDbLayerTableRecord
  2
94528901000_M_BL9
 70
0
 62
7
  6
CONTINUOUS
370
-3
390
F
  0
LAYER
  5
215
100
AcDbSymbolTableRecord
100
AcDbLayerTableRecord
  2
93894102000_BL10
 70
0
 62
7
  6
CONTINUOUS
370
-3
390
F
  0
LAYER
  5
216
100
AcDbSymbolTableRecord
100
AcDbLayerTableRecord
  2
93894203000_BL11
 70
0
 62
7
  6
CONTINUOUS
370
-3
390
F
  0
LAYER
  5
217
100
AcDbSymbolTableRecord
100
AcDbLayerTableRecord
  2
93780800R00_BL12
 70
0
 62
7
  6
CONTINUOUS
370
-3
390
F
  0
LAYER
  5
218
100
AcDbSymbolTableRecord
100
AcDbLayerTableRecord
  2
62890203000_STELLUNG_1_BL13
 70
0
 62
7
  6
CONTINUOUS
370
-3
390
F
  0
LAYER
  5
219
100
AcDbSymbolTableRecord
100
AcDbLayerTableRecord
  2
93780800R00_BL14
 70
0
 62
7
  6
CONTINUOUS
370
-3
390
F
  0
LAYER
  5
21A
100
AcDbSymbolTableRecord
100
AcDbLayerTableRecord
  2
93764299000_O3A_BL15
 70
0
 62
7
  6
CONTINUOUS
370
-3
390
F
  0
LAYER
  5
21B
100
AcDbSymbolTableRecord
100
AcDbLayerTableRecord
  2
93764299000_O3A_BL16
 70
0
 62
7
  6
CONTINUOUS
370
-3
390
F
  0
LAYER
  5
21C
100
AcDbSymbolTableRecord
100
AcDbLayerTableRecord
  2
93764299000_O3A_BL17
 70
0
 62
7
  6
CONTINUOUS
370
-3
390
F
  0
LAYER
  5
21D
100
AcDbSymbolTableRecord
100
AcDbLayerTableRecord
  2
93764299000_O3A_BL18
 70
0
 62
7
  6
CONTINUOUS
370
-3
390
F
  0
LAYER
  5
21E
100
AcDbSymbolTableRecord
100
AcDbLayerTableRecord
  2
93764299000_O3A_BL19
 70
0
 62
7
  6
CONTINUOUS
370
-3
390
F
  0
LAYER
  5
21F
100
AcDbSymbolTableRecord
100
AcDbLayerTableRecord
  2
93764299000_O3A_BL20
 70
0
 62
7
  6
CONTINUOUS
370
-3
390
F
  0
LAYER
  5
220
100
AcDbSymbolTableRecord
100
AcDbLayerTableRecord
  2
93764299000_O3A_BL21
 70
0
 62
7
  6
CONTINUOUS
370
-3
390
F
  0
LAYER
  5
221
100
AcDbSymbolTableRecord
100
AcDbLayerTableRecord
  2
93764299000_O3A_BL22
 70
0
 62
7
  6
CONTINUOUS
370
-3
390
F
  0
LAYER
  5
222
100
AcDbSymbolTableRecord
100
AcDbLayerTableRecord
  2
93764299000_O3A_BL23
 70
0
 62
7
  6
CONTINUOUS
370
-3
390
F
  0
LAYER
  5
223
100
AcDbSymbolTableRecord
100
AcDbLayerTableRecord
  2
93764299000_O3A_BL24
 70
0
 62
7
  6
CONTINUOUS
370
-3
390
F
  0
LAYER
  5
224
100
AcDbSymbolTableRecord
100
AcDbLayerTableRecord
  2
93764299000_O3A_BL25
 70
0
 62
7
  6
CONTINUOUS
370
-3
390
F
  0
LAYER
  5
225
100
AcDbSymbolTableRecord
100
AcDbLayerTableRecord
  2
93764299000_O3A_BL26
 70
0
 62
7
  6
CONTINUOUS
370
-3
390
F
  0
LAYER
  5
226
100
AcDbSymbolTableRecord
100
AcDbLayerTableRecord
  2
91511100099_BL27
 70
0
 62
7
  6
CONTINUOUS
370
-3
390
F
  0
LAYER
  5
227
100
AcDbSymbolTableRecord
100
AcDbLayerTableRecord
  2
91324206R00_BL28
 70
0
 62
7
  6
CONTINUOUS
370
-3
390
F
  0
LAYER
  5
228
100
AcDbSymbolTableRecord
100
AcDbLayerTableRecord
  2
91324206R00_BL29
 70
0
 62
7
  6
CONTINUOUS
370
-3
390
F
  0
ENDTAB
  0
TABLE
  2
STYLE
  5
3
100
AcDbSymbolTable
 70
1
  0
STYLE
  5
11
100
AcDbSymbolTableRecord
100
AcDbTextStyleTableRecord
  2
STANDARD
 70
0
 40
0.0
 41
1.0
 50
0.0
 71
0
 42
0.2
  3
arial.ttf
  4

  0
STYLE
  5
229
100
AcDbSymbolTableRecord
100
AcDbTextStyleTableRecord
  2
TEXTSTYLE_1
 70
0
 40
0.0
 41
0.8
 50
0.0
 71
0
 42
0.2
  3
gdt
  4

  0
STYLE
  5
22A
100
AcDbSymbolTableRecord
100
AcDbTextStyleTableRecord
  2
TEXTSTYLE_2
 70
0
 40
0.0
 41
1.0
 50
0.0
 71
0
 42
0.2
  3
arialbd.ttf
  4

  0
ENDTAB
  0
TABLE
  2
VIEW
  5
6
100
AcDbSymbolTable
 70
0
  0
ENDTAB
  0
TABLE
  2
UCS
  5
7
100
AcDbSymbolTable
 70
0
  0
ENDTAB
  0
TABLE
  2
APPID
  5
9
100
AcDbSymbolTable
 70
1
  0
APPID
  5
22B
100
AcDbSymbolTableRecord
100
AcDbRegAppTableRecord
  2
ACAD
 70
0
  0
ENDTAB
  0
TABLE
  2
BLOCK_RECORD
  5
1
100
AcDbSymbolTable
 70
0
  0
BLOCK_RECORD
  5
22C
100
AcDbSymbolTableRecord
100
AcDbBlockTableRecord
  2
*Model_Space
  0
BLOCK_RECORD
  5
22D
100
AcDbSymbolTableRecord
100
AcDbBlockTableRecord
  2
*Paper_Space
  0
BLOCK_RECORD
  5
22E
100
AcDbSymbolTableRecord
100
AcDbBlockTableRecord
  2
_FILLED
  0
BLOCK_RECORD
  5
22F
100
AcDbSymbolTableRecord
100
AcDbBlockTableRecord
  2
*D0
  0
BLOCK_RECORD
  5
230
100
AcDbSymbolTableRecord
100
AcDbBlockTableRecord
  2
*D1
  0
BLOCK_RECORD
  5
231
100
AcDbSymbolTableRecord
100
AcDbBlockTableRecord
  2
*D2
  0
BLOCK_RECORD
  5
232
100
AcDbSymbolTableRecord
100
AcDbBlockTableRecord
  2
*D3
  0
BLOCK_RECORD
  5
233
100
AcDbSymbolTableRecord
100
AcDbBlockTableRecord
  2
*D4
  0
BLOCK_RECORD
  5
234
100
AcDbSymbolTableRecord
100
AcDbBlockTableRecord
  2
*D5
  0
BLOCK_RECORD
  5
235
100
AcDbSymbolTableRecord
100
AcDbBlockTableRecord
  2
*D6
  0
BLOCK_RECORD
  5
236
100
AcDbSymbolTableRecord
100
AcDbBlockTableRecord
  2
*D7
  0
BLOCK_RECORD
  5
237
100
AcDbSymbolTableRecord
100
AcDbBlockTableRecord
  2
*D8
  0
BLOCK_RECORD
  5
238
100
AcDbSymbolTableRecord
100
AcDbBlockTableRecord
  2
*D9
  0
BLOCK_RECORD
  5
239
100
AcDbSymbolTableRecord
100
AcDbBlockTableRecord
  2
*D10
  0
BLOCK_RECORD
  5
23A
100
AcDbSymbolTableRecord
100
AcDbBlockTableRecord
  2
*D11
  0
BLOCK_RECORD
  5
23B
100
AcDbSymbolTableRecord
100
AcDbBlockTableRecord
  2
*D12
  0
BLOCK_RECORD
  5
23C
100
AcDbSymbolTableRecord
100
AcDbBlockTableRecord
  2
*D13
  0
BLOCK_RECORD
  5
23D
100
AcDbSymbolTableRecord
100
AcDbBlockTableRecord
  2
*D14
  0
BLOCK_RECORD
  5
23E
100
AcDbSymbolTableRecord
100
AcDbBlockTableRecord
  2
*D15
  0
BLOCK_RECORD
  5
23F
100
AcDbSymbolTableRecord
100
AcDbBlockTableRecord
  2
*D16
  0
BLOCK_RECORD
  5
240
100
AcDbSymbolTableRecord
100
AcDbBlockTableRecord
  2
*D17
  0
BLOCK_RECORD
  5
241
100
AcDbSymbolTableRecord
100
AcDbBlockTableRecord
  2
*D18
  0
BLOCK_RECORD
  5
242
100
AcDbSymbolTableRecord
100
AcDbBlockTableRecord
  2
*D19
  0
BLOCK_RECORD
  5
243
100
AcDbSymbolTableRecord
100
AcDbBlockTableRecord
  2
*D20
  0
BLOCK_RECORD
  5
244
100
AcDbSymbolTableRecord
100
AcDbBlockTableRecord
  2
*D21
  0
BLOCK_RECORD
  5
245
100
AcDbSymbolTableRecord
100
AcDbBlockTableRecord
  2
*D22
  0
BLOCK_RECORD
  5
246
100
AcDbSymbolTableRecord
100
AcDbBlockTableRecord
  2
*D23
  0
BLOCK_RECORD
  5
247
100
AcDbSymbolTableRecord
100
AcDbBlockTableRecord
  2
*D24
  0
BLOCK_RECORD
  5
248
100
AcDbSymbolTableRecord
100
AcDbBlockTableRecord
  2
*D25
  0
BLOCK_RECORD
  5
249
100
AcDbSymbolTableRecord
100
AcDbBlockTableRecord
  2
*D26
  0
BLOCK_RECORD
  5
24A
100
AcDbSymbolTableRecord
100
AcDbBlockTableRecord
  2
*D27
  0
BLOCK_RECORD
  5
24B
100
AcDbSymbolTableRecord
100
AcDbBlockTableRecord
  2
*D28
  0
BLOCK_RECORD
  5
24C
100
AcDbSymbolTableRecord
100
AcDbBlockTableRecord
  2
*D29
  0
BLOCK_RECORD
  5
24D
100
AcDbSymbolTableRecord
100
AcDbBlockTableRecord
  2
*D30
  0
BLOCK_RECORD
  5
24E
100
AcDbSymbolTableRecord
100
AcDbBlockTableRecord
  2
SYMBOL_3_BL30
  0
BLOCK_RECORD
  5
24F
100
AcDbSymbolTableRecord
100
AcDbBlockTableRecord
  2
HATCHING_BL0
  0
BLOCK_RECORD
  5
250
100
AcDbSymbolTableRecord
100
AcDbBlockTableRecord
  2
94818813L00_BL1
  0
BLOCK_RECORD
  5
251
100
AcDbSymbolTableRecord
100
AcDbBlockTableRecord
  2
94528901000_M_BL2
  0
BLOCK_RECORD
  5
252
100
AcDbSymbolTableRecord
100
AcDbBlockTableRecord
  2
94529001000_BL3
  0
BLOCK_RECORD
  5
253
100
AcDbSymbolTableRecord
100
AcDbBlockTableRecord
  2
94663701000_BL4
  0
BLOCK_RECORD
  5
254
100
AcDbSymbolTableRecord
100
AcDbBlockTableRecord
  2
94528901000_M_BL5
  0
BLOCK_RECORD
  5
255
100
AcDbSymbolTableRecord
100
AcDbBlockTableRecord
  2
94663701000_BL6
  0
BLOCK_RECORD
  5
256
100
AcDbSymbolTableRecord
100
AcDbBlockTableRecord
  2
94529001000_BL7
  0
BLOCK_RECORD
  5
257
100
AcDbSymbolTableRecord
100
AcDbBlockTableRecord
  2
94528901000_M_BL8
  0
BLOCK_RECORD
  5
258
100
AcDbSymbolTableRecord
100
AcDbBlockTableRecord
  2
94528901000_M_BL9
  0
BLOCK_RECORD
  5
259
100
AcDbSymbolTableRecord
100
AcDbBlockTableRecord
  2
93894102000_BL10
  0
BLOCK_RECORD
  5
25A
100
AcDbSymbolTableRecord
100
AcDbBlockTableRecord
  2
93894203000_BL11
  0
BLOCK_RECORD
  5
25B
100
AcDbSymbolTableRecord
100
AcDbBlockTableRecord
  2
93780800R00_BL12
  0
BLOCK_RECORD
  5
25C
100
AcDbSymbolTableRecord
100
AcDbBlockTableRecord
  2
62890203000_STELLUNG_1_BL13
  0
BLOCK_RECORD
  5
25D
100
AcDbSymbolTableRecord
100
AcDbBlockTableRecord
  2
93780800R00_BL14
  0
BLOCK_RECORD
  5
25E
100
AcDbSymbolTableRecord
100
AcDbBlockTableRecord
  2
93764299000_O3A_BL15
  0
BLOCK_RECORD
  5
25F
100
AcDbSymbolTableRecord
100
AcDbBlockTableRecord
  2
93764299000_O3A_BL16
  0
BLOCK_RECORD
  5
260
100
AcDbSymbolTableRecord
100
AcDbBlockTableRecord
  2
93764299000_O3A_BL17
  0
BLOCK_RECORD
  5
261
100
AcDbSymbolTableRecord
100
AcDbBlockTableRecord
  2
93764299000_O3A_BL18
  0
BLOCK_RECORD
  5
262
100
AcDbSymbolTableRecord
100
AcDbBlockTableRecord
  2
93764299000_O3A_BL19
  0
BLOCK_RECORD
  5
263
100
AcDbSymbolTableRecord
100
AcDbBlockTableRecord
  2
93764299000_O3A_BL20
  0
BLOCK_RECORD
  5
264
100
AcDbSymbolTableRecord
100
AcDbBlockTableRecord
  2
93764299000_O3A_BL21
  0
BLOCK_RECORD
  5
265
100
AcDbSymbolTableRecord
100
AcDbBlockTableRecord
  2
93764299000_O3A_BL22
  0
BLOCK_RECORD
  5
266
100
AcDbSymbolTableRecord
100
AcDbBlockTableRecord
  2
93764299000_O3A_BL23
  0
BLOCK_RECORD
  5
267
100
AcDbSymbolTableRecord
100
AcDbBlockTableRecord
  2
93764299000_O3A_BL24
  0
BLOCK_RECORD
  5
268
100
AcDbSymbolTableRecord
100
AcDbBlockTableRecord
  2
93764299000_O3A_BL25
  0
BLOCK_RECORD
  5
269
100
AcDbSymbolTableRecord
100
AcDbBlockTableRecord
  2
93764299000_O3A_BL26
  0
BLOCK_RECORD
  5
26A
100
AcDbSymbolTableRecord
100
AcDbBlockTableRecord
  2
91511100099_BL27
  0
BLOCK_RECORD
  5
26B
100
AcDbSymbolTableRecord
100
AcDbBlockTableRecord
  2
91324206R00_BL28
  0
BLOCK_RECORD
  5
26C
100
AcDbSymbolTableRecord
100
AcDbBlockTableRecord
  2
91324206R00_BL29
  0
ENDTAB
  0
TABLE
  2
DIMSTYLE
  5
A
100
AcDbSymbolTable
 70
1
100
AcDbDimStyleTable
 71
0
  0
DIMSTYLE
105
26D
100
AcDbSymbolTableRecord
100
AcDbDimStyleTableRecord
  2
STANDARD
 70
0
  3

  4

 40
1.0
 41
3.5
 42
0.0
 43
0.38
 44
1.0
 45
0.0
 46
0.0
 47
0.001
 48
0.001
140
2.5
141
0.09
142
0.0
143
25.4
144
1.0
145
0.0
146
1.0
147
0.625
 71
1.0
 72
0.0
 73
0
 74
0
 75
0
 76
0
 77
1
 78
8
170
0
171
2
172
0
173
0
174
0
175
0
176
0
177
0
178
5
270
2
271
3
272
3
273
2
274
2
275
0
280
0
281
0
282
0
283
1
284
8
285
0
286
0
287
3
288
0
340
11
278
46
341
22E
342
22E
343
22E
344
22E
  0
DIMSTYLE
105
26E
100
AcDbSymbolTableRecord
100
AcDbDimStyleTableRecord
  2
DIMSTYLE_1
 70
0
  3

  4

 40
1.0
 41
3.5
 42
0.0
 43
0.38
 44
1.0
 45
0.0
 46
0.0
 47
0.3
 48
0.3
140
2.5
141
0.09
142
0.0
143
25.4
144
1.0
145
0.0
146
1.0
147
0.625
 71
0.0
 72
0.0
 73
0
 74
0
 75
0
 76
0
 77
1
 78
8
170
0
171
2
172
0
173
0
174
0
175
0
176
0
177
0
178
5
270
2
271
3
272
3
273
2
274
2
275
0
280
0
281
0
282
0
283
1
284
8
285
0
286
0
287
3
288
0
340
11
278
46
341
22E
342
22E
343
22E
344
22E
  0
DIMSTYLE
105
26F
100
AcDbSymbolTableRecord
100
AcDbDimStyleTableRecord
  2
DIMSTYLE_2
 70
0
  3

  4

 40
1.0
 41
3.5
 42
0.0
 43
0.38
 44
1.0
 45
0.0
 46
0.0
 47
0.8
 48
0.8
140
2.5
141
0.09
142
0.0
143
25.4
144
1.0
145
0.0
146
1.0
147
0.625
 71
0.0
 72
0.0
 73
0
 74
0
 75
0
 76
0
 77
1
 78
8
170
0
171
2
172
0
173
0
174
0
175
0
176
0
177
0
178
5
270
2
271
3
272
3
273
2
274
2
275
0
280
0
281
0
282
0
283
1
284
8
285
0
286
0
287
3
288
0
340
11
278
46
341
22E
342
22E
343
22E
344
22E
  0
DIMSTYLE
105
270
100
AcDbSymbolTableRecord
100
AcDbDimStyleTableRecord
  2
DIMSTYLE_3
 70
0
  3

  4

 40
1.0
 41
3.5
 42
0.0
 43
0.38
 44
1.0
 45
0.0
 46
0.0
 47
0.1
 48
0.1
140
2.5
141
0.09
142
0.0
143
25.4
144
1.0
145
0.0
146
1.0
147
0.625
 71
0.0
 72
0.0
 73
0
 74
0
 75
0
 76
0
 77
1
 78
8
170
0
171
2
172
0
173
0
174
0
175
0
176
0
177
0
178
5
270
2
271
3
272
3
273
2
274
2
275
0
280
0
281
0
282
0
283
1
284
8
285
0
286
0
287
3
288
0
340
11
278
46
341
22E
342
22E
343
22E
344
22E
  0
DIMSTYLE
105
271
100
AcDbSymbolTableRecord
100
AcDbDimStyleTableRecord
  2
DIMSTYLE_4
 70
0
  3

  4

 40
1.0
 41
3.5
 42
0.0
 43
0.38
 44
1.0
 45
0.0
 46
0.0
 47
0.2
 48
0.2
140
2.5
141
0.09
142
0.0
143
25.4
144
1.0
145
0.0
146
1.0
147
0.625
 71
0.0
 72
0.0
 73
0
 74
0
 75
0
 76
0
 77
1
 78
8
170
0
171
2
172
0
173
0
174
0
175
0
176
0
177
0
178
5
270
2
271
3
272
3
273
2
274
2
275
0
280
0
281
0
282
0
283
1
284
8
285
0
286
0
287
3
288
0
340
11
278
46
341
22E
342
22E
343
22E
344
22E
  0
DIMSTYLE
105
272
100
AcDbSymbolTableRecord
100
AcDbDimStyleTableRecord
  2
DIMSTYLE_5
 70
0
  3

  4

 40
1.0
 41
3.5
 42
0.0
 43
0.38
 44
1.0
 45
0.0
 46
0.0
 47
0.5
 48
0.5
140
2.5
141
0.09
142
0.0
143
25.4
144
1.0
145
0.0
146
1.0
147
0.625
 71
0.0
 72
0.0
 73
0
 74
0
 75
0
 76
0
 77
1
 78
8
170
0
171
2
172
0
173
0
174
0
175
0
176
0
177
0
178
5
270
2
271
3
272
3
273
2
274
2
275
0
280
0
281
0
282
0
283
1
284
8
285
0
286
0
287
3
288
0
340
11
278
46
341
22E
342
22E
343
22E
344
22E
  0
DIMSTYLE
105
273
100
AcDbSymbolTableRecord
100
AcDbDimStyleTableRecord
  2
DIMSTYLE_6
 70
0
  3

  4

 40
1.0
 41
3.5
 42
0.0
 43
0.38
 44
1.0
 45
0.0
 46
0.0
 47
2.0
 48
2.0
140
2.5
141
0.09
142
0.0
143
25.4
144
1.0
145
0.0
146
1.0
147
0.625
 71
0.0
 72
0.0
 73
0
 74
0
 75
0
 76
0
 77
1
 78
8
170
0
171
2
172
0
173
0
174
0
175
0
176
0
177
0
178
5
270
2
271
3
272
3
273
2
274
2
275
0
280
0
281
0
282
0
283
1
284
8
285
0
286
0
287
3
288
0
340
11
278
46
341
22E
342
22E
343
22E
344
22E
  0
DIMSTYLE
105
274
100
AcDbSymbolTableRecord
100
AcDbDimStyleTableRecord
  2
DIMSTYLE_7
 70
0
  3

  4

 40
1.0
 41
3.5
 42
0.0
 43
0.38
 44
1.0
 45
0.0
 46
0.0
 47
1.2
 48
1.2
140
2.5
141
0.09
142
0.0
143
25.4
144
1.0
145
0.0
146
1.0
147
0.625
 71
0.0
 72
0.0
 73
0
 74
0
 75
0
 76
0
 77
1
 78
8
170
0
171
2
172
0
173
0
174
0
175
0
176
0
177
0
178
5
270
2
271
3
272
3
273
2
274
2
275
0
280
0
281
0
282
0
283
1
284
8
285
0
286
0
287
3
288
0
340
11
278
46
341
22E
342
22E
343
22E
344
22E
  0
DIMSTYLE
105
275
100
AcDbSymbolTableRecord
100
AcDbDimStyleTableRecord
  2
DIMSTYLE_8
 70
0
  3

  4

 40
1.0
 41
3.5
 42
0.0
 43
0.38
 44
1.0
 45
0.0
 46
0.0
 47
0.2
 48
0.2
140
2.5
141
0.09
142
0.0
143
25.4
144
1.0
145
0.0
146
1.0
147
0.625
 71
0.0
 72
0.0
 73
0
 74
0
 75
0
 76
0
 77
1
 78
8
170
0
171
2
172
0
173
0
174
0
175
0
176
0
177
0
178
5
270
2
271
1
272
1
273
2
274
2
275
0
280
0
281
0
282
0
283
1
284
8
285
0
286
0
287
3
288
0
340
11
278
46
341
22E
342
22E
343
22E
344
22E
  0
ENDTAB
  0
ENDSEC
  0
SECTION
  2
BLOCKS
  0
BLOCK
  5
20
100
AcDbEntity
  8
0
100
AcDbBlockBegin
  2
*Model_Space
 70
0
 10
0.0
 20
0.0
 30
0.0
  3
*Model_Space
  1

  0
ENDBLK
  5
21
100
AcDbEntity
  8
0
100
AcDbBlockEnd
  0
BLOCK
  5
1C
100
AcDbEntity
  8
0
100
AcDbBlockBegin
  2
*Paper_Space
 70
0
 10
0.0
 20
0.0
 30
0.0
  3
*Paper_Space
  1

  0
ENDBLK
  5
1D
100
AcDbEntity
  8
0
100
AcDbBlockEnd
  0
BLOCK
  5
276
100
AcDbEntity
  8
0
100
AcDbBlockBegin
 62
2
  6
CONTINUOUS
  2
SYMBOL_3_BL30
 70
64
 10
31.0000000239
 20
34.9999999785
  3
SYMBOL_3_BL30
  1

  0
TEXT
  5
277
100
AcDbEntity
  8
0
100
AcDbText
 62
5
  6
CONTINUOUS
 10
11.6434778505
 20
32.1908716548
  7
TEXTSTYLE_2
 40
4.0
  1
6-28992-88-L
 72
5
 11
45.4873440215
 21
32.1908716548
100
AcDbText
  0
TEXT
  5
278
100
AcDbEntity
  8
0
100
AcDbText
 62
5
  6
CONTINUOUS
 10
10.9089559916
 20
24.1776342906
  7
STANDARD
 40
2.5
  1
Scale
 72
5
 11
19.6357217908
 21
24.1776342906
100
AcDbText
  0
TEXT
  5
279
100
AcDbEntity
  8
0
100
AcDbText
 62
5
  6
CONTINUOUS
 10
10.9089559916
 20
20.4276342906
  7
STANDARD
 40
2.5
  1
1:1
 72
5
 11
15.7602571068
 21
20.4276342906
100
AcDbText
  0
TEXT
  5
27A
100
AcDbEntity
  8
0
100
AcDbText
 62
5
  6
CONTINUOUS
 10
10.9089559916
 20
13.0518233866
  7
STANDARD
 40
2.5
  1
Draft
 72
5
 11
18.4647180733
 21
13.0518233866
100
AcDbText
  0
TEXT
  5
27B
100
AcDbEntity
  8
0
100
AcDbText
 62
5
  6
CONTINUOUS
 10
23.3811982505
 20
13.113338109
  7
STANDARD
 40
2.5
  1
27.03.2018
 72
5
 11
40.8533172096
 21
13.113338109
100
AcDbText
  0
TEXT
  5
27C
100
AcDbEntity
  8
0
100
AcDbText
 62
5
  6
CONTINUOUS
 10
45.71759366
 20
13.1067461609
  7
STANDARD
 40
2.5
  1
Dr
 72
5
 11
49.435065779
 21
13.1067461609
100
AcDbText
  0
LINE
  5
27D
100
AcDbEntity
  8
0
100
AcDbLine
 62
2
  6
CONTINUOUS
 10
10.0000000239
 20
59.9999999785
 11
52.0000000239
 21
59.9999999785
  0
LINE
  5
27E
100
AcDbEntity
  8
0
100
AcDbLine
 62
2
  6
CONTINUOUS
 10
52.0000000239
 20
59.9999999785
 11
52.0000000239
 21
9.9999999785
  0
LINE
  5
27F
100
AcDbEntity
  8
0
100
AcDbLine
 62
2
  6
CONTINUOUS
 10
10.0000000239
 20
9.9999999785
 11
52.0000000239
 21
9.9999999785
  0
LINE
  5
280
100
AcDbEntity
  8
0
100
AcDbLine
 62
2
  6
CONTINUOUS
 10
10.0000000239
 20
39.9999999785
 11
21.0000000239
 21
39.9999999785
  0
LINE
  5
281
100
AcDbEntity
  8
0
100
AcDbLine
 62
2
  6
CONTINUOUS
 10
10.0000000239
 20
27.9999999785
 11
21.0000000239
 21
27.9999999785
  0
LINE
  5
282
100
AcDbEntity
  8
0
100
AcDbLine
 62
2
  6
CONTINUOUS
 10
10.0000000239
 20
18.9999999785
 11
21.0000000239
 21
18.9999999785
  0
LINE
  5
283
100
AcDbEntity
  8
0
100
AcDbLine
 62
2
  6
CONTINUOUS
 10
21.0000000239
 20
39.9999999785
 11
43.0000000239
 21
39.9999999785
  0
LINE
  5
284
100
AcDbEntity
  8
0
100
AcDbLine
 62
2
  6
CONTINUOUS
 10
43.0000000239
 20
39.9999999785
 11
52.0000000239
 21
39.9999999785
  0
LINE
  5
285
100
AcDbEntity
  8
0
100
AcDbLine
 62
2
  6
CONTINUOUS
 10
21.0000000239
 20
27.9999999785
 11
43.0000000239
 21
27.9999999785
  0
LINE
  5
286
100
AcDbEntity
  8
0
100
AcDbLine
 62
2
  6
CONTINUOUS
 10
43.0000000239
 20
27.9999999785
 11
52.0000000239
 21
27.9999999785
  0
LINE
  5
287
100
AcDbEntity
  8
0
100
AcDbLine
 62
2
  6
CONTINUOUS
 10
21.0000000239
 20
18.9999999785
 11
21.0000000239
 21
9.9999999785
  0
LINE
  5
288
100
AcDbEntity
  8
0
100
AcDbLine
 62
2
  6
CONTINUOUS
 10
21.0000000239
 20
18.9999999785
 11
43.0000000239
 21
18.9999999785
  0
LINE
  5
289
100
AcDbEntity
  8
0
100
AcDbLine
 62
2
  6
CONTINUOUS
 10
43.0000000239
 20
18.9999999785
 11
43.0000000239
 21
9.9999999785
  0
LINE
  5
28A
100
AcDbEntity
  8
0
100
AcDbLine
 62
2
  6
CONTINUOUS
 10
43.0000000239
 20
18.9999999785
 11
52.0000000239
 21
18.9999999785
  0
LINE
  5
28B
100
AcDbEntity
  8
0
100
AcDbLine
 62
2
  6
CONTINUOUS
 10
10.0000000239
 20
9.9999999785
 11
10.0000000239
 21
59.9999999785
  0
ARC
  5
28C
100
AcDbEntity
  8
0
100
AcDbCircle
 62
2
  6
CONTINUOUS
 10
17.6290122978
 20
56.1308274644
 40
1.2679261569
100
AcDbArc
 50
90.0
 51
180.0
  0
LINE
  5
28D
100
AcDbEntity
  8
0
100
AcDbLine
 62
2
  6
CONTINUOUS
 10
17.6290122978
 20
57.3987536213
 11
44.0849627663
 21
57.3987536213
  0
ARC
  5
28E
100
AcDbEntity
  8
0
100
AcDbCircle
 62
2
  6
CONTINUOUS
 10
44.0849627663
 20
56.1308274644
 40
1.2679261569
100
AcDbArc
 50
0.0
 51
90.0
  0
LINE
  5
28F
100
AcDbEntity
  8
0
100
AcDbLine
 62
2
  6
CONTINUOUS
 10
45.3528889231
 20
56.1308274644
 11
45.3528889231
 21
43.6666783678
  0
ARC
  5
290
100
AcDbEntity
  8
0
100
AcDbCircle
 62
2
  6
CONTINUOUS
 10
44.0849627663
 20
43.6666783678
 40
1.2679261569
100
AcDbArc
 50
270.0
 51
360.0
  0
LINE
  5
291
100
AcDbEntity
  8
0
100
AcDbLine
 62
2
  6
CONTINUOUS
 10
44.0849627663
 20
42.3987522109
 11
17.6290122978
 21
42.3987522109
  0
ARC
  5
292
100
AcDbEntity
  8
0
100
AcDbCircle
 62
2
  6
CONTINUOUS
 10
17.6290122978
 20
43.6666783678
 40
1.2679261569
100
AcDbArc
 50
180.0
 51
270.0
  0
LINE
  5
293
100
AcDbEntity
  8
0
100
AcDbLine
 62
2
  6
CONTINUOUS
 10
16.3610861409
 20
43.6666783678
 11
16.3610861409
 21
56.1308274644
  0
ARC
  5
294
100
AcDbEntity
  8
0
100
AcDbCircle
 62
2
  6
CONTINUOUS
 10
25.0981141224
 20
49.7181091975
 40
2.8108394023
100
AcDbArc
 50
35.2282226131
 51
336.934010569
  0
LINE
  5
295
100
AcDbEntity
  8
0
100
AcDbLine
 62
2
  6
CONTINUOUS
 10
27.3941788183
 20
51.3394990511
 11
29.5865173301
 21
52.961744213
  0
ARC
  5
296
100
AcDbEntity
  8
0
100
AcDbCircle
 62
2
  6
CONTINUOUS
 10
25.0981141224
 20
49.7181091975
 40
5.5377731507
100
AcDbArc
 50
35.8545159817
 51
11.4705154501
  0
LINE
  5
297
100
AcDbEntity
  8
0
100
AcDbLine
 62
2
  6
CONTINUOUS
 10
30.5252822719
 20
50.8193709036
 11
25.2029961896
 21
50.8193709036
  0
ARC
  5
298
100
AcDbEntity
  8
0
100
AcDbCircle
 62
2
  6
CONTINUOUS
 10
25.2029961896
 20
49.7181091975
 40
1.1012617061
100
AcDbArc
 50
90.0
 51
270.0
  0
LINE
  5
299
100
AcDbEntity
  8
0
100
AcDbLine
 62
2
  6
CONTINUOUS
 10
25.2029961896
 20
48.6168474914
 11
27.6842387906
 21
48.6168474914
  0
ARC
  5
29A
100
AcDbEntity
  8
0
100
AcDbCircle
 62
2
  6
CONTINUOUS
 10
25.2029961896
 20
49.7181091975
 40
5.9153485927
100
AcDbArc
 50
349.2706340045
 51
10.7293659955
  0
LINE
  5
29B
100
AcDbEntity
  8
0
100
AcDbLine
 62
2
  6
CONTINUOUS
 10
31.014929743
 20
48.6168474914
 11
32.8593870987
 21
48.6168474914
  0
LINE
  5
29C
100
AcDbEntity
  8
0
100
AcDbLine
 62
2
  6
CONTINUOUS
 10
32.8593870987
 20
48.6168474914
 11
32.8593870987
 21
48.0399961216
  0
ARC
  5
29D
100
AcDbEntity
  8
0
100
AcDbCircle
 62
2
  6
CONTINUOUS
 10
36.7610000003
 20
48.0399961216
 40
3.9016129016
100
AcDbArc
 50
180.0
 51
360.0
  0
LINE
  5
29E
100
AcDbEntity
  8
0
100
AcDbLine
 62
2
  6
CONTINUOUS
 10
40.6626129019
 20
48.0399961216
 11
40.6626129019
 21
54.9622125599
  0
LINE
  5
29F
100
AcDbEntity
  8
0
100
AcDbLine
 62
2
  6
CONTINUOUS
 10
40.6626129019
 20
54.9622125599
 11
37.9356791535
 21
54.9622125599
  0
LINE
  5
2A0
100
AcDbEntity
  8
0
100
AcDbLine
 62
2
  6
CONTINUOUS
 10
37.9356791535
 20
54.9622125599
 11
37.9356791535
 21
48.0399961216
  0
ARC
  5
2A1
100
AcDbEntity
  8
0
100
AcDbCircle
 62
2
  6
CONTINUOUS
 10
36.7610000003
 20
48.0399961216
 40
1.1746791532
100
AcDbArc
 50
180.0
 51
360.0
  0
LINE
  5
2A2
100
AcDbEntity
  8
0
100
AcDbLine
 62
2
  6
CONTINUOUS
 10
35.5863208471
 20
48.0399961216
 11
35.5863208471
 21
54.9622125599
  0
LINE
  5
2A3
100
AcDbEntity
  8
0
100
AcDbLine
 62
2
  6
CONTINUOUS
 10
35.5863208471
 20
54.9622125599
 11
32.8593870987
 21
54.9622125599
  0
LINE
  5
2A4
100
AcDbEntity
  8
0
100
AcDbLine
 62
2
  6
CONTINUOUS
 10
32.8593870987
 20
54.9622125599
 11
32.8593870987
 21
50.8193709036
  0
LINE
  5
2A5
100
AcDbEntity
  8
0
100
AcDbLine
 62
2
  6
CONTINUOUS
 10
32.8593870987
 20
50.8193709036
 11
31.014929743
 21
50.8193709036
  0
LINE
  5
2A6
100
AcDbEntity
  8
0
100
AcDbLine
 62
2
  6
CONTINUOUS
 10
45.1996126437
 20
56.7334185992
 11
45.2185459944
 21
56.6972621935
  0
LWPOLYLINE
  5
2A7
100
AcDbEntity
  8
0
100
AcDbPolyline
 62
2
  6
CONTINUOUS
 90
42
 70
0
 10
17.4964779251
 20
57.3918123624
 10
17.6290122978
 20
57.398757363
 10
44.0849627663
 20
57.398757363
 10
44.217497139
 20
57.3918123624
 10
44.3485794374
 20
57.3710523604
 10
44.4767734964
 20
57.3367023572
 10
44.600674795
 20
57.2891373527
 10
44.7189258447
 20
57.2288823471
 10
44.8302310623
 20
57.1565973403
 10
44.9333709645
 20
57.0730773324
 10
45.0272155289
 20
56.9792373236
 10
45.1107365748
 20
56.8760973139
 10
45.1830190283
 20
56.7647973034
 10
45.2432709475
 20
56.6465372923
 10
45.2908322
 20
56.5226372807
 10
45.3251816945
 20
56.3944472686
 10
45.345943091
 20
56.2633622563
 10
45.3528889232
 20
56.1308222438
 10
24.5102931399
 20
55.2245960958
 10
23.6929701738
 20
55.0746474408
 10
22.9072856488
 20
54.8040901322
 10
22.1709301607
 20
54.4190160805
 10
21.5004836049
 20
53.9280956735
 10
20.9110418611
 20
53.3423825519
 10
20.4158768919
 20
52.6750647241
 10
20.0261379092
 20
51.9411676226
 10
16.3610861409
 20
43.6666760719
 10
16.3610861409
 20
56.1308222438
 10
16.368031973
 20
56.2633622563
 10
16.3887933695
 20
56.3944472686
 10
16.4231428641
 20
56.5226372807
 10
16.4707041165
 20
56.6465372923
 10
16.5309560358
 20
56.7647973034
 10
16.6032384892
 20
56.8760973139
 10
16.6867595352
 20
56.9792373236
 10
16.7806040996
 20
57.0730773324
 10
16.8837440018
 20
57.1565973403
 10
16.9950492193
 20
57.2288823471
 10
17.113300269
 20
57.2891373527
 10
17.2372015677
 20
57.3367023572
 10
17.3653956267
 20
57.3710523604
 10
17.4964779251
 20
57.3918123624
  0
HATCH
  5
2A8
100
AcDbEntity
  8
0
100
AcDbHatch
 62
2
  6
CONTINUOUS
 10
0.0
 20
0.0
 30
0.0
210
0.0
220
0.0
230
1.0
  2
SOLID
 70
1
 71
1
 91
1
 92
1
 93
41
 72
1
 10
17.4964779251
 20
57.3918123624
 11
17.6290122978
 21
57.398757363
 72
1
 10
17.6290122978
 20
57.398757363
 11
44.0849627663
 21
57.398757363
 72
1
 10
44.0849627663
 20
57.398757363
 11
44.217497139
 21
57.3918123624
 72
1
 10
44.217497139
 20
57.3918123624
 11
44.3485794374
 21
57.3710523604
 72
1
 10
44.3485794374
 20
57.3710523604
 11
44.4767734964
 21
57.3367023572
 72
1
 10
44.4767734964
 20
57.3367023572
 11
44.600674795
 21
57.2891373527
 72
1
 10
44.600674795
 20
57.2891373527
 11
44.7189258447
 21
57.2288823471
 72
1
 10
44.7189258447
 20
57.2288823471
 11
44.8302310623
 21
57.1565973403
 72
1
 10
44.8302310623
 20
57.1565973403
 11
44.9333709645
 21
57.0730773324
 72
1
 10
44.9333709645
 20
57.0730773324
 11
45.0272155289
 21
56.9792373236
 72
1
 10
45.0272155289
 20
56.9792373236
 11
45.1107365748
 21
56.8760973139
 72
1
 10
45.1107365748
 20
56.8760973139
 11
45.1830190283
 21
56.7647973034
 72
1
 10
45.1830190283
 20
56.7647973034
 11
45.2432709475
 21
56.6465372923
 72
1
 10
45.2432709475
 20
56.6465372923
 11
45.2908322
 21
56.5226372807
 72
1
 10
45.2908322
 20
56.5226372807
 11
45.3251816945
 21
56.3944472686
 72
1
 10
45.3251816945
 20
56.3944472686
 11
45.345943091
 21
56.2633622563
 72
1
 10
45.345943091
 20
56.2633622563
 11
45.3528889232
 21
56.1308222438
 72
1
 10
45.3528889232
 20
56.1308222438
 11
24.5102931399
 21
55.2245960958
 72
1
 10
24.5102931399
 20
55.2245960958
 11
23.6929701738
 21
55.0746474408
 72
1
 10
23.6929701738
 20
55.0746474408
 11
22.9072856488
 21
54.8040901322
 72
1
 10
22.9072856488
 20
54.8040901322
 11
22.1709301607
 21
54.4190160805
 72
1
 10
22.1709301607
 20
54.4190160805
 11
21.5004836049
 21
53.9280956735
 72
1
 10
21.5004836049
 20
53.9280956735
 11
20.9110418611
 21
53.3423825519
 72
1
 10
20.9110418611
 20
53.3423825519
 11
20.4158768919
 21
52.6750647241
 72
1
 10
20.4158768919
 20
52.6750647241
 11
20.0261379092
 21
51.9411676226
 72
1
 10
20.0261379092
 20
51.9411676226
 11
16.3610861409
 21
43.6666760719
 72
1
 10
16.3610861409
 20
43.6666760719
 11
16.3610861409
 21
56.1308222438
 72
1
 10
16.3610861409
 20
56.1308222438
 11
16.368031973
 21
56.2633622563
 72
1
 10
16.368031973
 20
56.2633622563
 11
16.3887933695
 21
56.3944472686
 72
1
 10
16.3887933695
 20
56.3944472686
 11
16.4231428641
 21
56.5226372807
 72
1
 10
16.4231428641
 20
56.5226372807
 11
16.4707041165
 21
56.6465372923
 72
1
 10
16.4707041165
 20
56.6465372923
 11
16.5309560358
 21
56.7647973034
 72
1
 10
16.5309560358
 20
56.7647973034
 11
16.6032384892
 21
56.8760973139
 72
1
 10
16.6032384892
 20
56.8760973139
 11
16.6867595352
 21
56.9792373236
 72
1
 10
16.6867595352
 20
56.9792373236
 11
16.7806040996
 21
57.0730773324
 72
1
 10
16.7806040996
 20
57.0730773324
 11
16.8837440018
 21
57.1565973403
 72
1
 10
16.8837440018
 20
57.1565973403
 11
16.9950492193
 21
57.2288823471
 72
1
 10
16.9950492193
 20
57.2288823471
 11
17.113300269
 21
57.2891373527
 72
1
 10
17.113300269
 20
57.2891373527
 11
17.2372015677
 21
57.3367023572
 72
1
 10
17.2372015677
 20
57.3367023572
 11
17.3653956267
 21
57.3710523604
 72
1
 10
17.3653956267
 20
57.3710523604
 11
17.4964779251
 21
57.3918123624
 97
1
330
2A7
 75
0
 76
1
 98
1
 10
0.0
 20
0.0
  0
LWPOLYLINE
  5
2A9
100
AcDbEntity
  8
0
100
AcDbPolyline
 62
2
  6
CONTINUOUS
 90
23
 70
0
 10
26.9669939813
 20
54.9309989471
 10
26.1659444963
 20
55.151954039
 10
45.3528889232
 20
56.1308222438
 10
45.3528889231
 20
43.6666760719
 10
40.1398958888
 20
46.0891912997
 10
40.3656203039
 20
46.5469163427
 10
40.5296686661
 20
47.0301863881
 10
40.6292340626
 20
47.5307364352
 10
40.6626129019
 20
48.0400014831
 10
40.6626129019
 20
54.9622171339
 10
37.9356791535
 20
54.9622171339
 10
35.5863208471
 20
54.9622171339
 10
32.8593870987
 20
54.9622171339
 10
32.8593870987
 20
50.8193667444
 10
31.0149297429
 20
50.8193667444
 10
30.6289655903
 20
49.9949006497
 10
30.5252822719
 20
50.8193667444
 10
27.3941788183
 20
51.3394990511
 10
29.5865173301
 20
52.961744213
 10
29.0506384437
 20
53.5968310176
 10
28.425763901
 20
54.1445839144
 10
27.7259634749
 20
54.5926696135
 10
26.9669939813
 20
54.9309989471
  0
HATCH
  5
2AA
100
AcDbEntity
  8
0
100
AcDbHatch
 62
2
  6
CONTINUOUS
 10
0.0
 20
0.0
 30
0.0
210
0.0
220
0.0
230
1.0
  2
SOLID
 70
1
 71
1
 91
1
 92
1
 93
22
 72
1
 10
26.9669939813
 20
54.9309989471
 11
26.1659444963
 21
55.151954039
 72
1
 10
26.1659444963
 20
55.151954039
 11
45.3528889232
 21
56.1308222438
 72
1
 10
45.3528889232
 20
56.1308222438
 11
45.3528889231
 21
43.6666760719
 72
1
 10
45.3528889231
 20
43.6666760719
 11
40.1398958888
 21
46.0891912997
 72
1
 10
40.1398958888
 20
46.0891912997
 11
40.3656203039
 21
46.5469163427
 72
1
 10
40.3656203039
 20
46.5469163427
 11
40.5296686661
 21
47.0301863881
 72
1
 10
40.5296686661
 20
47.0301863881
 11
40.6292340626
 21
47.5307364352
 72
1
 10
40.6292340626
 20
47.5307364352
 11
40.6626129019
 21
48.0400014831
 72
1
 10
40.6626129019
 20
48.0400014831
 11
40.6626129019
 21
54.9622171339
 72
1
 10
40.6626129019
 20
54.9622171339
 11
37.9356791535
 21
54.9622171339
 72
1
 10
37.9356791535
 20
54.9622171339
 11
35.5863208471
 21
54.9622171339
 72
1
 10
35.5863208471
 20
54.9622171339
 11
32.8593870987
 21
54.9622171339
 72
1
 10
32.8593870987
 20
54.9622171339
 11
32.8593870987
 21
50.8193667444
 72
1
 10
32.8593870987
 20
50.8193667444
 11
31.0149297429
 21
50.8193667444
 72
1
 10
31.0149297429
 20
50.8193667444
 11
30.6289655903
 21
49.9949006497
 72
1
 10
30.6289655903
 20
49.9949006497
 11
30.5252822719
 21
50.8193667444
 72
1
 10
30.5252822719
 20
50.8193667444
 11
27.3941788183
 21
51.3394990511
 72
1
 10
27.3941788183
 20
51.3394990511
 11
29.5865173301
 21
52.961744213
 72
1
 10
29.5865173301
 20
52.961744213
 11
29.0506384437
 21
53.5968310176
 72
1
 10
29.0506384437
 20
53.5968310176
 11
28.425763901
 21
54.1445839144
 72
1
 10
28.425763901
 20
54.1445839144
 11
27.7259634749
 21
54.5926696135
 72
1
 10
27.7259634749
 20
54.5926696135
 11
26.9669939813
 21
54.9309989471
 97
1
330
2A9
 75
0
 76
1
 98
1
 10
0.0
 20
0.0
  0
LWPOLYLINE
  5
2AB
100
AcDbEntity
  8
0
100
AcDbPolyline
 62
2
  6
CONTINUOUS
 90
20
 70
0
 10
24.5005684601
 20
52.4646993247
 10
24.9072650814
 20
52.5224620264
 10
25.3180376874
 20
52.5203318459
 10
25.7241133608
 20
52.4583542776
 10
26.1168194973
 20
52.3378529835
 10
26.4877690273
 20
52.1614015236
 10
26.8290395394
 20
51.9327683916
 10
27.1333424806
 20
51.6568365314
 10
27.3941788183
 20
51.3394990511
 10
30.5252822719
 20
50.8193667444
 10
25.2029961896
 20
50.8193667444
 10
25.0592526925
 20
50.8099494571
 10
22.4413895628
 20
50.6360595011
 10
22.6035508656
 20
51.0134749
 10
22.8189888395
 20
51.3632250264
 10
23.0831023513
 20
51.6778402269
 10
23.3902506985
 20
51.9506012291
 10
23.7338740791
 20
52.175682645
 10
24.1066336894
 20
52.3482773854
 10
24.5005684601
 20
52.4646993247
  0
HATCH
  5
2AC
100
AcDbEntity
  8
0
100
AcDbHatch
 62
2
  6
CONTINUOUS
 10
0.0
 20
0.0
 30
0.0
210
0.0
220
0.0
230
1.0
  2
SOLID
 70
1
 71
1
 91
1
 92
1
 93
19
 72
1
 10
24.5005684601
 20
52.4646993247
 11
24.9072650814
 21
52.5224620264
 72
1
 10
24.9072650814
 20
52.5224620264
 11
25.3180376874
 21
52.5203318459
 72
1
 10
25.3180376874
 20
52.5203318459
 11
25.7241133608
 21
52.4583542776
 72
1
 10
25.7241133608
 20
52.4583542776
 11
26.1168194973
 21
52.3378529835
 72
1
 10
26.1168194973
 20
52.3378529835
 11
26.4877690273
 21
52.1614015236
 72
1
 10
26.4877690273
 20
52.1614015236
 11
26.8290395394
 21
51.9327683916
 72
1
 10
26.8290395394
 20
51.9327683916
 11
27.1333424806
 21
51.6568365314
 72
1
 10
27.1333424806
 20
51.6568365314
 11
27.3941788183
 21
51.3394990511
 72
1
 10
27.3941788183
 20
51.3394990511
 11
30.5252822719
 21
50.8193667444
 72
1
 10
30.5252822719
 20
50.8193667444
 11
25.2029961896
 21
50.8193667444
 72
1
 10
25.2029961896
 20
50.8193667444
 11
25.0592526925
 21
50.8099494571
 72
1
 10
25.0592526925
 20
50.8099494571
 11
22.4413895628
 21
50.6360595011
 72
1
 10
22.4413895628
 20
50.6360595011
 11
22.6035508656
 21
51.0134749
 72
1
 10
22.6035508656
 20
51.0134749
 11
22.8189888395
 21
51.3632250264
 72
1
 10
22.8189888395
 20
51.3632250264
 11
23.0831023513
 21
51.6778402269
 72
1
 10
23.0831023513
 20
51.6778402269
 11
23.3902506985
 21
51.9506012291
 72
1
 10
23.3902506985
 20
51.9506012291
 11
23.7338740791
 21
52.175682645
 72
1
 10
23.7338740791
 20
52.175682645
 11
24.1066336894
 21
52.3482773854
 72
1
 10
24.1066336894
 20
52.3482773854
 11
24.5005684601
 21
52.4646993247
 97
1
330
2AB
 75
0
 76
1
 98
1
 10
0.0
 20
0.0
  0
LWPOLYLINE
  5
2AD
100
AcDbEntity
  8
0
100
AcDbPolyline
 62
2
  6
CONTINUOUS
 90
8
 70
0
 10
24.6523653366
 20
50.6718298112
 10
24.5325905397
 20
50.5917988506
 10
22.3359682285
 20
50.2390393331
 10
22.4413895628
 20
50.6360595011
 10
25.0592526925
 20
50.8099494571
 10
24.9179686864
 20
50.7818463209
 10
24.78156158
 20
50.7355423477
 10
24.6523653366
 20
50.6718298112
  0
HATCH
  5
2AE
100
AcDbEntity
  8
0
100
AcDbHatch
 62
2
  6
CONTINUOUS
 10
0.0
 20
0.0
 30
0.0
210
0.0
220
0.0
230
1.0
  2
SOLID
 70
1
 71
1
 91
1
 92
1
 93
7
 72
1
 10
24.6523653366
 20
50.6718298112
 11
24.5325905397
 21
50.5917988506
 72
1
 10
24.5325905397
 20
50.5917988506
 11
22.3359682285
 21
50.2390393331
 72
1
 10
22.3359682285
 20
50.2390393331
 11
22.4413895628
 21
50.6360595011
 72
1
 10
22.4413895628
 20
50.6360595011
 11
25.0592526925
 21
50.8099494571
 72
1
 10
25.0592526925
 20
50.8099494571
 11
24.9179686864
 21
50.7818463209
 72
1
 10
24.9179686864
 20
50.7818463209
 11
24.78156158
 21
50.7355423477
 72
1
 10
24.78156158
 20
50.7355423477
 11
24.6523653366
 21
50.6718298112
 97
1
330
2AD
 75
0
 76
1
 98
1
 10
0.0
 20
0.0
  0
LWPOLYLINE
  5
2AF
100
AcDbEntity
  8
0
100
AcDbPolyline
 62
2
  6
CONTINUOUS
 90
8
 70
0
 10
24.2492755759
 20
50.2687400506
 10
24.1855630394
 20
50.1395438071
 10
22.2895383581
 20
49.830893601
 10
22.3359682285
 20
50.2390393331
 10
24.5325905397
 20
50.5917988506
 10
24.4242865694
 20
50.4968188178
 10
24.3293065366
 20
50.3885148474
 10
24.2492755759
 20
50.2687400506
  0
HATCH
  5
2B0
100
AcDbEntity
  8
0
100
AcDbHatch
 62
2
  6
CONTINUOUS
 10
0.0
 20
0.0
 30
0.0
210
0.0
220
0.0
230
1.0
  2
SOLID
 70
1
 71
1
 91
1
 92
1
 93
7
 72
1
 10
24.2492755759
 20
50.2687400506
 11
24.1855630394
 21
50.1395438071
 72
1
 10
24.1855630394
 20
50.1395438071
 11
22.2895383581
 21
49.830893601
 72
1
 10
22.2895383581
 20
49.830893601
 11
22.3359682285
 21
50.2390393331
 72
1
 10
22.3359682285
 20
50.2390393331
 11
24.5325905397
 21
50.5917988506
 72
1
 10
24.5325905397
 20
50.5917988506
 11
24.4242865694
 21
50.4968188178
 72
1
 10
24.4242865694
 20
50.4968188178
 11
24.3293065366
 21
50.3885148474
 72
1
 10
24.3293065366
 20
50.3885148474
 11
24.2492755759
 21
50.2687400506
 97
1
330
2AF
 75
0
 76
1
 98
1
 10
0.0
 20
0.0
  0
LWPOLYLINE
  5
2B1
100
AcDbEntity
  8
0
100
AcDbPolyline
 62
2
  6
CONTINUOUS
 90
7
 70
0
 10
31.0993048012
 20
50.1923388153
 10
31.1162282192
 20
49.8763366836
 10
30.6081153911
 20
49.1641981161
 10
30.6289655903
 20
49.9949006497
 10
31.0149297429
 20
50.8193667444
 10
31.0655063992
 20
50.5069837221
 10
31.0993048012
 20
50.1923388153
  0
HATCH
  5
2B2
100
AcDbEntity
  8
0
100
AcDbHatch
 62
2
  6
CONTINUOUS
 10
0.0
 20
0.0
 30
0.0
210
0.0
220
0.0
230
1.0
  2
SOLID
 70
1
 71
1
 91
1
 92
1
 93
6
 72
1
 10
31.0993048012
 20
50.1923388153
 11
31.1162282192
 21
49.8763366836
 72
1
 10
31.1162282192
 20
49.8763366836
 11
30.6081153911
 21
49.1641981161
 72
1
 10
30.6081153911
 20
49.1641981161
 11
30.6289655903
 21
49.9949006497
 72
1
 10
30.6289655903
 20
49.9949006497
 11
31.0149297429
 21
50.8193667444
 72
1
 10
31.0149297429
 20
50.8193667444
 11
31.0655063992
 21
50.5069837221
 72
1
 10
31.0655063992
 20
50.5069837221
 11
31.0993048012
 21
50.1923388153
 97
1
330
2B1
 75
0
 76
1
 98
1
 10
0.0
 20
0.0
  0
LWPOLYLINE
  5
2B3
100
AcDbEntity
  8
0
100
AcDbPolyline
 62
2
  6
CONTINUOUS
 90
7
 70
0
 10
24.1111559301
 20
49.8618526947
 10
24.1017344835
 20
49.7181091975
 10
22.3030915597
 20
49.4203391196
 10
22.2895383581
 20
49.830893601
 10
24.1855630394
 20
50.1395438071
 10
24.1392590662
 20
50.0031367007
 10
24.1111559301
 20
49.8618526947
  0
HATCH
  5
2B4
100
AcDbEntity
  8
0
100
AcDbHatch
 62
2
  6
CONTINUOUS
 10
0.0
 20
0.0
 30
0.0
210
0.0
220
0.0
230
1.0
  2
SOLID
 70
1
 71
1
 91
1
 92
1
 93
6
 72
1
 10
24.1111559301
 20
49.8618526947
 11
24.1017344835
 21
49.7181091975
 72
1
 10
24.1017344835
 20
49.7181091975
 11
22.3030915597
 21
49.4203391196
 72
1
 10
22.3030915597
 20
49.4203391196
 11
22.2895383581
 21
49.830893601
 72
1
 10
22.2895383581
 20
49.830893601
 11
24.1855630394
 21
50.1395438071
 72
1
 10
24.1855630394
 20
50.1395438071
 11
24.1392590662
 21
50.0031367007
 72
1
 10
24.1392590662
 20
50.0031367007
 11
24.1111559301
 21
49.8618526947
 97
1
330
2B3
 75
0
 76
1
 98
1
 10
0.0
 20
0.0
  0
LWPOLYLINE
  5
2B5
100
AcDbEntity
  8
0
100
AcDbPolyline
 62
2
  6
CONTINUOUS
 90
7
 70
0
 10
24.1392590662
 20
49.4330816944
 10
24.1855630394
 20
49.2966745879
 10
22.3763383759
 20
49.0161441476
 10
22.3030915597
 20
49.4203391196
 10
24.1017344835
 20
49.7181091975
 10
24.1111559301
 20
49.5743657004
 10
24.1392590662
 20
49.4330816944
  0
HATCH
  5
2B6
100
AcDbEntity
  8
0
100
AcDbHatch
 62
2
  6
CONTINUOUS
 10
0.0
 20
0.0
 30
0.0
210
0.0
220
0.0
230
1.0
  2
SOLID
 70
1
 71
1
 91
1
 92
1
 93
6
 72
1
 10
24.1392590662
 20
49.4330816944
 11
24.1855630394
 21
49.2966745879
 72
1
 10
24.1855630394
 20
49.2966745879
 11
22.3763383759
 21
49.0161441476
 72
1
 10
22.3763383759
 20
49.0161441476
 11
22.3030915597
 21
49.4203391196
 72
1
 10
22.3030915597
 20
49.4203391196
 11
24.1017344835
 21
49.7181091975
 72
1
 10
24.1017344835
 20
49.7181091975
 11
24.1111559301
 21
49.5743657004
 72
1
 10
24.1111559301
 20
49.5743657004
 11
24.1392590662
 21
49.4330816944
 97
1
330
2B5
 75
0
 76
1
 98
1
 10
0.0
 20
0.0
  0
LWPOLYLINE
  5
2B7
100
AcDbEntity
  8
0
100
AcDbPolyline
 62
2
  6
CONTINUOUS
 90
7
 70
0
 10
31.0993048012
 20
49.2438795798
 10
31.0655063992
 20
48.929234673
 10
30.4632011408
 20
48.3459675312
 10
30.6081153911
 20
49.1641981161
 10
31.1162282192
 20
49.8763366836
 10
31.1162282192
 20
49.5598817115
 10
31.0993048012
 20
49.2438795798
  0
HATCH
  5
2B8
100
AcDbEntity
  8
0
100
AcDbHatch
 62
2
  6
CONTINUOUS
 10
0.0
 20
0.0
 30
0.0
210
0.0
220
0.0
230
1.0
  2
SOLID
 70
1
 71
1
 91
1
 92
1
 93
6
 72
1
 10
31.0993048012
 20
49.2438795798
 11
31.0655063992
 21
48.929234673
 72
1
 10
31.0655063992
 20
48.929234673
 11
30.4632011408
 21
48.3459675312
 72
1
 10
30.4632011408
 20
48.3459675312
 11
30.6081153911
 21
49.1641981161
 72
1
 10
30.6081153911
 20
49.1641981161
 11
31.1162282192
 21
49.8763366836
 72
1
 10
31.1162282192
 20
49.8763366836
 11
31.1162282192
 21
49.5598817115
 72
1
 10
31.1162282192
 20
49.5598817115
 11
31.0993048012
 21
49.2438795798
 97
1
330
2B7
 75
0
 76
1
 98
1
 10
0.0
 20
0.0
  0
LWPOLYLINE
  5
2B9
100
AcDbEntity
  8
0
100
AcDbPolyline
 62
2
  6
CONTINUOUS
 90
7
 70
0
 10
24.3293065366
 20
49.0477035476
 10
24.4242865694
 20
48.9393995773
 10
22.5077144663
 20
48.6269411229
 10
22.3763383759
 20
49.0161441476
 10
24.1855630394
 20
49.2966745879
 10
24.2492755759
 20
49.1674783445
 10
24.3293065366
 20
49.0477035476
  0
HATCH
  5
2BA
100
AcDbEntity
  8
0
100
AcDbHatch
 62
2
  6
CONTINUOUS
 10
0.0
 20
0.0
 30
0.0
210
0.0
220
0.0
230
1.0
  2
SOLID
 70
1
 71
1
 91
1
 92
1
 93
6
 72
1
 10
24.3293065366
 20
49.0477035476
 11
24.4242865694
 21
48.9393995773
 72
1
 10
24.4242865694
 20
48.9393995773
 11
22.5077144663
 21
48.6269411229
 72
1
 10
22.5077144663
 20
48.6269411229
 11
22.3763383759
 21
49.0161441476
 72
1
 10
22.3763383759
 20
49.0161441476
 11
24.1855630394
 21
49.2966745879
 72
1
 10
24.1855630394
 20
49.2966745879
 11
24.2492755759
 21
49.1674783445
 72
1
 10
24.2492755759
 20
49.1674783445
 11
24.3293065366
 21
49.0477035476
 97
1
330
2B9
 75
0
 76
1
 98
1
 10
0.0
 20
0.0
  0
LWPOLYLINE
  5
2BB
100
AcDbEntity
  8
0
100
AcDbPolyline
 62
2
  6
CONTINUOUS
 90
9
 70
0
 10
24.9179686864
 20
48.6543720741
 10
25.0592526925
 20
48.626268938
 10
22.6944140166
 20
48.2610422989
 10
22.5077144663
 20
48.6269411229
 10
24.4242865694
 20
48.9393995773
 10
24.5325905397
 20
48.8444195445
 10
24.6523653366
 20
48.7643885839
 10
24.78156158
 20
48.7006760474
 10
24.9179686864
 20
48.6543720741
  0
HATCH
  5
2BC
100
AcDbEntity
  8
0
100
AcDbHatch
 62
2
  6
CONTINUOUS
 10
0.0
 20
0.0
 30
0.0
210
0.0
220
0.0
230
1.0
  2
SOLID
 70
1
 71
1
 91
1
 92
1
 93
8
 72
1
 10
24.9179686864
 20
48.6543720741
 11
25.0592526925
 21
48.626268938
 72
1
 10
25.0592526925
 20
48.626268938
 11
22.6944140166
 21
48.2610422989
 72
1
 10
22.6944140166
 20
48.2610422989
 11
22.5077144663
 21
48.6269411229
 72
1
 10
22.5077144663
 20
48.6269411229
 11
24.4242865694
 21
48.9393995773
 72
1
 10
24.4242865694
 20
48.9393995773
 11
24.5325905397
 21
48.8444195445
 72
1
 10
24.5325905397
 20
48.8444195445
 11
24.6523653366
 21
48.7643885839
 72
1
 10
24.6523653366
 20
48.7643885839
 11
24.78156158
 21
48.7006760474
 72
1
 10
24.78156158
 20
48.7006760474
 11
24.9179686864
 21
48.6543720741
 97
1
330
2BB
 75
0
 76
1
 98
1
 10
0.0
 20
0.0
  0
LWPOLYLINE
  5
2BD
100
AcDbEntity
  8
0
100
AcDbPolyline
 62
2
  6
CONTINUOUS
 90
9
 70
0
 10
32.8593870987
 20
48.6168415373
 10
32.8593870987
 20
48.0400014831
 10
32.8927659379
 20
47.5307364352
 10
29.8169521117
 20
46.8199201942
 10
30.1974857512
 20
47.5586323028
 10
30.4632011408
 20
48.3459675312
 10
31.0655063992
 20
48.929234673
 10
31.0149297429
 20
48.6168415373
 10
32.8593870987
 20
48.6168415373
  0
HATCH
  5
2BE
100
AcDbEntity
  8
0
100
AcDbHatch
 62
2
  6
CONTINUOUS
 10
0.0
 20
0.0
 30
0.0
210
0.0
220
0.0
230
1.0
  2
SOLID
 70
1
 71
1
 91
1
 92
1
 93
8
 72
1
 10
32.8593870987
 20
48.6168415373
 11
32.8593870987
 21
48.0400014831
 72
1
 10
32.8593870987
 20
48.0400014831
 11
32.8927659379
 21
47.5307364352
 72
1
 10
32.8927659379
 20
47.5307364352
 11
29.8169521117
 21
46.8199201942
 72
1
 10
29.8169521117
 20
46.8199201942
 11
30.1974857512
 21
47.5586323028
 72
1
 10
30.1974857512
 20
47.5586323028
 11
30.4632011408
 21
48.3459675312
 72
1
 10
30.4632011408
 20
48.3459675312
 11
31.0655063992
 21
48.929234673
 72
1
 10
31.0655063992
 20
48.929234673
 11
31.0149297429
 21
48.6168415373
 72
1
 10
31.0149297429
 20
48.6168415373
 11
32.8593870987
 21
48.6168415373
 97
1
330
2BD
 75
0
 76
1
 98
1
 10
0.0
 20
0.0
  0
LWPOLYLINE
  5
2BF
100
AcDbEntity
  8
0
100
AcDbPolyline
 62
2
  6
CONTINUOUS
 90
19
 70
0
 10
27.6842387906
 20
48.6168415373
 10
27.4961137435
 20
48.2516795326
 10
27.2567743458
 20
47.9178302789
 10
26.9713321963
 20
47.6224297867
 10
26.6458835153
 20
47.3717869581
 10
26.2873789475
 20
47.1712548002
 10
25.9034751155
 20
47.0251161014
 10
25.5023710973
 20
46.9364919623
 10
25.0926333168
 20
46.9072751387
 10
24.6830125906
 20
46.9380896178
 10
24.2822572349
 20
47.0282772912
 10
23.8989262276
 20
47.1759120104
 10
23.5412064125
 20
47.377840724
 10
23.2167376524
 20
47.6297508175
 10
22.9324496635
 20
47.9262622184
 10
22.6944140166
 20
48.2610422989
 10
25.0592526925
 20
48.626268938
 10
25.2029961896
 20
48.6168415373
 10
27.6842387906
 20
48.6168415373
  0
HATCH
  5
2C0
100
AcDbEntity
  8
0
100
AcDbHatch
 62
2
  6
CONTINUOUS
 10
0.0
 20
0.0
 30
0.0
210
0.0
220
0.0
230
1.0
  2
SOLID
 70
1
 71
1
 91
1
 92
1
 93
18
 72
1
 10
27.6842387906
 20
48.6168415373
 11
27.4961137435
 21
48.2516795326
 72
1
 10
27.4961137435
 20
48.2516795326
 11
27.2567743458
 21
47.9178302789
 72
1
 10
27.2567743458
 20
47.9178302789
 11
26.9713321963
 21
47.6224297867
 72
1
 10
26.9713321963
 20
47.6224297867
 11
26.6458835153
 21
47.3717869581
 72
1
 10
26.6458835153
 20
47.3717869581
 11
26.2873789475
 21
47.1712548002
 72
1
 10
26.2873789475
 20
47.1712548002
 11
25.9034751155
 21
47.0251161014
 72
1
 10
25.9034751155
 20
47.0251161014
 11
25.5023710973
 21
46.9364919623
 72
1
 10
25.5023710973
 20
46.9364919623
 11
25.0926333168
 21
46.9072751387
 72
1
 10
25.0926333168
 20
46.9072751387
 11
24.6830125906
 21
46.9380896178
 72
1
 10
24.6830125906
 20
46.9380896178
 11
24.2822572349
 21
47.0282772912
 72
1
 10
24.2822572349
 20
47.0282772912
 11
23.8989262276
 21
47.1759120104
 72
1
 10
23.8989262276
 20
47.1759120104
 11
23.5412064125
 21
47.377840724
 72
1
 10
23.5412064125
 20
47.377840724
 11
23.2167376524
 21
47.6297508175
 72
1
 10
23.2167376524
 20
47.6297508175
 11
22.9324496635
 21
47.9262622184
 72
1
 10
22.9324496635
 20
47.9262622184
 11
22.6944140166
 21
48.2610422989
 72
1
 10
22.6944140166
 20
48.2610422989
 11
25.0592526925
 21
48.626268938
 72
1
 10
25.0592526925
 20
48.626268938
 11
25.2029961896
 21
48.6168415373
 72
1
 10
25.2029961896
 20
48.6168415373
 11
27.6842387906
 21
48.6168415373
 97
1
330
2BF
 75
0
 76
1
 98
1
 10
0.0
 20
0.0
  0
LWPOLYLINE
  5
2C1
100
AcDbEntity
  8
0
100
AcDbPolyline
 62
2
  6
CONTINUOUS
 90
28
 70
0
 10
35.5863208471
 20
48.0400014831
 10
35.5863208471
 20
54.9622171339
 10
37.9356791535
 20
54.9622171339
 10
37.9356791535
 20
48.0400014831
 10
37.9256296104
 20
47.8866714687
 10
37.8956529319
 20
47.7359664545
 10
37.8462620271
 20
47.5904664408
 10
37.7783019882
 20
47.4526614279
 10
37.6929356302
 20
47.3248914159
 10
37.5916235952
 20
47.209376405
 10
37.4760993602
 20
47.1080663955
 10
37.3483395768
 20
47.0227013874
 10
37.2105302505
 20
46.9547363811
 10
37.065029337
 20
46.9053413764
 10
36.9143263972
 20
46.8753713736
 10
36.7610000003
 20
46.8653169684
 10
36.6076736033
 20
46.8753713736
 10
36.4569706635
 20
46.9053413764
 10
36.31146975
 20
46.9547363811
 10
36.1736604237
 20
47.0227013874
 10
36.0459006404
 20
47.1080663955
 10
35.9303764053
 20
47.209376405
 10
35.8290643703
 20
47.3248914159
 10
35.7436980123
 20
47.4526614279
 10
35.6757379734
 20
47.5904664408
 10
35.6263470686
 20
47.7359664545
 10
35.5963703901
 20
47.8866714687
 10
35.5863208471
 20
48.0400014831
  0
HATCH
  5
2C2
100
AcDbEntity
  8
0
100
AcDbHatch
 62
2
  6
CONTINUOUS
 10
0.0
 20
0.0
 30
0.0
210
0.0
220
0.0
230
1.0
  2
SOLID
 70
1
 71
1
 91
1
 92
1
 93
27
 72
1
 10
35.5863208471
 20
48.0400014831
 11
35.5863208471
 21
54.9622171339
 72
1
 10
35.5863208471
 20
54.9622171339
 11
37.9356791535
 21
54.9622171339
 72
1
 10
37.9356791535
 20
54.9622171339
 11
37.9356791535
 21
48.0400014831
 72
1
 10
37.9356791535
 20
48.0400014831
 11
37.9256296104
 21
47.8866714687
 72
1
 10
37.9256296104
 20
47.8866714687
 11
37.8956529319
 21
47.7359664545
 72
1
 10
37.8956529319
 20
47.7359664545
 11
37.8462620271
 21
47.5904664408
 72
1
 10
37.8462620271
 20
47.5904664408
 11
37.7783019882
 21
47.4526614279
 72
1
 10
37.7783019882
 20
47.4526614279
 11
37.6929356302
 21
47.3248914159
 72
1
 10
37.6929356302
 20
47.3248914159
 11
37.5916235952
 21
47.209376405
 72
1
 10
37.5916235952
 20
47.209376405
 11
37.4760993602
 21
47.1080663955
 72
1
 10
37.4760993602
 20
47.1080663955
 11
37.3483395768
 21
47.0227013874
 72
1
 10
37.3483395768
 20
47.0227013874
 11
37.2105302505
 21
46.9547363811
 72
1
 10
37.2105302505
 20
46.9547363811
 11
37.065029337
 21
46.9053413764
 72
1
 10
37.065029337
 20
46.9053413764
 11
36.9143263972
 21
46.8753713736
 72
1
 10
36.9143263972
 20
46.8753713736
 11
36.7610000003
 21
46.8653169684
 72
1
 10
36.7610000003
 20
46.8653169684
 11
36.6076736033
 21
46.8753713736
 72
1
 10
36.6076736033
 20
46.8753713736
 11
36.4569706635
 21
46.9053413764
 72
1
 10
36.4569706635
 20
46.9053413764
 11
36.31146975
 21
46.9547363811
 72
1
 10
36.31146975
 20
46.9547363811
 11
36.1736604237
 21
47.0227013874
 72
1
 10
36.1736604237
 20
47.0227013874
 11
36.0459006404
 21
47.1080663955
 72
1
 10
36.0459006404
 20
47.1080663955
 11
35.9303764053
 21
47.209376405
 72
1
 10
35.9303764053
 20
47.209376405
 11
35.8290643703
 21
47.3248914159
 72
1
 10
35.8290643703
 20
47.3248914159
 11
35.7436980123
 21
47.4526614279
 72
1
 10
35.7436980123
 20
47.4526614279
 11
35.6757379734
 21
47.5904664408
 72
1
 10
35.6757379734
 20
47.5904664408
 11
35.6263470686
 21
47.7359664545
 72
1
 10
35.6263470686
 20
47.7359664545
 11
35.5963703901
 21
47.8866714687
 72
1
 10
35.5963703901
 20
47.8866714687
 11
35.5863208471
 21
48.0400014831
 97
1
330
2C1
 75
0
 76
1
 98
1
 10
0.0
 20
0.0
  0
LWPOLYLINE
  5
2C3
100
AcDbEntity
  8
0
100
AcDbPolyline
 62
2
  6
CONTINUOUS
 90
8
 70
0
 10
32.9923313344
 20
47.0301863881
 10
33.1563796967
 20
46.5469163427
 10
33.3821041117
 20
46.0891912997
 10
28.7480950465
 20
45.5534278506
 10
29.3301683772
 20
46.146464163
 10
29.8169521117
 20
46.8199201942
 10
32.8927659379
 20
47.5307364352
 10
32.9923313344
 20
47.0301863881
  0
HATCH
  5
2C4
100
AcDbEntity
  8
0
100
AcDbHatch
 62
2
  6
CONTINUOUS
 10
0.0
 20
0.0
 30
0.0
210
0.0
220
0.0
230
1.0
  2
SOLID
 70
1
 71
1
 91
1
 92
1
 93
7
 72
1
 10
32.9923313344
 20
47.0301863881
 11
33.1563796967
 21
46.5469163427
 72
1
 10
33.1563796967
 20
46.5469163427
 11
33.3821041117
 21
46.0891912997
 72
1
 10
33.3821041117
 20
46.0891912997
 11
28.7480950465
 21
45.5534278506
 72
1
 10
28.7480950465
 20
45.5534278506
 11
29.3301683772
 21
46.146464163
 72
1
 10
29.3301683772
 20
46.146464163
 11
29.8169521117
 21
46.8199201942
 72
1
 10
29.8169521117
 20
46.8199201942
 11
32.8927659379
 21
47.5307364352
 72
1
 10
32.8927659379
 20
47.5307364352
 11
32.9923313344
 21
47.0301863881
 97
1
330
2C3
 75
0
 76
1
 98
1
 10
0.0
 20
0.0
  0
LWPOLYLINE
  5
2C5
100
AcDbEntity
  8
0
100
AcDbPolyline
 62
2
  6
CONTINUOUS
 90
8
 70
0
 10
33.6656423722
 20
45.6648412598
 10
34.00214306
 20
45.2811412237
 10
34.3858485548
 20
44.9446311921
 10
27.3523542712
 20
44.659914577
 10
28.0838381739
 20
45.0541641554
 10
28.7480950465
 20
45.5534278506
 10
33.3821041117
 20
46.0891912997
 10
33.6656423722
 20
45.6648412598
  0
HATCH
  5
2C6
100
AcDbEntity
  8
0
100
AcDbHatch
 62
2
  6
CONTINUOUS
 10
0.0
 20
0.0
 30
0.0
210
0.0
220
0.0
230
1.0
  2
SOLID
 70
1
 71
1
 91
1
 92
1
 93
7
 72
1
 10
33.6656423722
 20
45.6648412598
 11
34.00214306
 21
45.2811412237
 72
1
 10
34.00214306
 20
45.2811412237
 11
34.3858485548
 21
44.9446311921
 72
1
 10
34.3858485548
 20
44.9446311921
 11
27.3523542712
 21
44.659914577
 72
1
 10
27.3523542712
 20
44.659914577
 11
28.0838381739
 21
45.0541641554
 72
1
 10
28.0838381739
 20
45.0541641554
 11
28.7480950465
 21
45.5534278506
 72
1
 10
28.7480950465
 20
45.5534278506
 11
33.3821041117
 21
46.0891912997
 72
1
 10
33.3821041117
 20
46.0891912997
 11
33.6656423722
 21
45.6648412598
 97
1
330
2C5
 75
0
 76
1
 98
1
 10
0.0
 20
0.0
  0
LWPOLYLINE
  5
2C7
100
AcDbEntity
  8
0
100
AcDbPolyline
 62
2
  6
CONTINUOUS
 90
24
 70
0
 10
34.8101935494
 20
44.6611011654
 10
35.2679173833
 20
44.4353811442
 10
35.7511882747
 20
44.2713261287
 10
36.2517373247
 20
44.1717561194
 10
16.3610861409
 20
43.6666760719
 10
20.0261379092
 20
51.9411676226
 10
19.750600337
 20
51.1572157897
 10
19.5954682224
 20
50.3408608074
 10
19.5642345443
 20
49.5104838523
 10
19.6576025652
 20
48.684781822
 10
19.8734699961
 20
47.8823463527
 10
20.2069763321
 20
47.121245207
 10
20.6506122924
 20
46.4186154575
 10
21.1943889001
 20
45.7902776256
 10
21.8260623961
 20
45.2503794643
 10
22.5314099211
 20
44.8110774052
 10
23.2945497596
 20
44.4822628421
 10
24.0982989358
 20
44.2713261287
 10
24.9245601072
 20
44.1830563096
 10
25.754729048
 20
44.2194013213
 10
26.5701135443
 20
44.3795561005
 10
27.3523542712
 20
44.659914577
 10
34.3858485548
 20
44.9446311921
 10
34.8101935494
 20
44.6611011654
  0
HATCH
  5
2C8
100
AcDbEntity
  8
0
100
AcDbHatch
 62
2
  6
CONTINUOUS
 10
0.0
 20
0.0
 30
0.0
210
0.0
220
0.0
230
1.0
  2
SOLID
 70
1
 71
1
 91
1
 92
1
 93
23
 72
1
 10
34.8101935494
 20
44.6611011654
 11
35.2679173833
 21
44.4353811442
 72
1
 10
35.2679173833
 20
44.4353811442
 11
35.7511882747
 21
44.2713261287
 72
1
 10
35.7511882747
 20
44.2713261287
 11
36.2517373247
 21
44.1717561194
 72
1
 10
36.2517373247
 20
44.1717561194
 11
16.3610861409
 21
43.6666760719
 72
1
 10
16.3610861409
 20
43.6666760719
 11
20.0261379092
 21
51.9411676226
 72
1
 10
20.0261379092
 20
51.9411676226
 11
19.750600337
 21
51.1572157897
 72
1
 10
19.750600337
 20
51.1572157897
 11
19.5954682224
 21
50.3408608074
 72
1
 10
19.5954682224
 20
50.3408608074
 11
19.5642345443
 21
49.5104838523
 72
1
 10
19.5642345443
 20
49.5104838523
 11
19.6576025652
 21
48.684781822
 72
1
 10
19.6576025652
 20
48.684781822
 11
19.8734699961
 21
47.8823463527
 72
1
 10
19.8734699961
 20
47.8823463527
 11
20.2069763321
 21
47.121245207
 72
1
 10
20.2069763321
 20
47.121245207
 11
20.6506122924
 21
46.4186154575
 72
1
 10
20.6506122924
 20
46.4186154575
 11
21.1943889001
 21
45.7902776256
 72
1
 10
21.1943889001
 20
45.7902776256
 11
21.8260623961
 21
45.2503794643
 72
1
 10
21.8260623961
 20
45.2503794643
 11
22.5314099211
 21
44.8110774052
 72
1
 10
22.5314099211
 20
44.8110774052
 11
23.2945497596
 21
44.4822628421
 72
1
 10
23.2945497596
 20
44.4822628421
 11
24.0982989358
 21
44.2713261287
 72
1
 10
24.0982989358
 20
44.2713261287
 11
24.9245601072
 21
44.1830563096
 72
1
 10
24.9245601072
 20
44.1830563096
 11
25.754729048
 21
44.2194013213
 72
1
 10
25.754729048
 20
44.2194013213
 11
26.5701135443
 21
44.3795561005
 72
1
 10
26.5701135443
 20
44.3795561005
 11
27.3523542712
 21
44.659914577
 72
1
 10
27.3523542712
 20
44.659914577
 11
34.3858485548
 21
44.9446311921
 72
1
 10
34.3858485548
 20
44.9446311921
 11
34.8101935494
 21
44.6611011654
 97
1
330
2C7
 75
0
 76
1
 98
1
 10
0.0
 20
0.0
  0
LWPOLYLINE
  5
2C9
100
AcDbEntity
  8
0
100
AcDbPolyline
 62
2
  6
CONTINUOUS
 90
43
 70
0
 10
36.7610000003
 20
44.13838322
 10
37.2702626758
 20
44.1717561194
 10
37.7708117258
 20
44.2713261287
 10
38.2540826172
 20
44.4353811442
 10
38.7118064511
 20
44.6611011654
 10
39.1361514457
 20
44.9446311921
 10
39.5198569406
 20
45.2811412237
 10
39.8563576283
 20
45.6648412598
 10
40.1398958888
 20
46.0891912997
 10
45.3528889231
 20
43.6666760719
 10
45.345943091
 20
43.5341510594
 10
45.3251816945
 20
43.4030660471
 10
45.2908322
 20
43.2748610351
 10
45.2432709475
 20
43.1509610234
 10
45.1830190283
 20
43.0327160123
 10
45.1107365748
 20
42.9214160018
 10
45.0272155289
 20
42.8182759921
 10
44.9333709645
 20
42.7244209833
 10
44.8302310623
 20
42.6409009754
 10
44.7189258447
 20
42.5686159687
 10
44.600674795
 20
42.508375963
 10
44.4767734964
 20
42.4608109585
 10
44.3485794374
 20
42.4264609553
 10
44.217497139
 20
42.4057009533
 10
44.0849627663
 20
42.3987559527
 10
17.6290122978
 20
42.3987559527
 10
17.4964779251
 20
42.4057009533
 10
17.3653956267
 20
42.4264609553
 10
17.2372015677
 20
42.4608109585
 10
17.113300269
 20
42.508375963
 10
16.9950492193
 20
42.5686159687
 10
16.8837440018
 20
42.6409009754
 10
16.7806040996
 20
42.7244209833
 10
16.6867595352
 20
42.8182759921
 10
16.6032384892
 20
42.9214160018
 10
16.5309560358
 20
43.0327160123
 10
16.4707041165
 20
43.1509610234
 10
16.4231428641
 20
43.2748610351
 10
16.3887933695
 20
43.4030660471
 10
16.368031973
 20
43.5341510594
 10
16.3610861409
 20
43.6666760719
 10
36.2517373247
 20
44.1717561194
 10
36.7610000003
 20
44.13838322
  0
HATCH
  5
2CA
100
AcDbEntity
  8
0
100
AcDbHatch
 62
2
  6
CONTINUOUS
 10
0.0
 20
0.0
 30
0.0
210
0.0
220
0.0
230
1.0
  2
SOLID
 70
1
 71
1
 91
1
 92
1
 93
42
 72
1
 10
36.7610000003
 20
44.13838322
 11
37.2702626758
 21
44.1717561194
 72
1
 10
37.2702626758
 20
44.1717561194
 11
37.7708117258
 21
44.2713261287
 72
1
 10
37.7708117258
 20
44.2713261287
 11
38.2540826172
 21
44.4353811442
 72
1
 10
38.2540826172
 20
44.4353811442
 11
38.7118064511
 21
44.6611011654
 72
1
 10
38.7118064511
 20
44.6611011654
 11
39.1361514457
 21
44.9446311921
 72
1
 10
39.1361514457
 20
44.9446311921
 11
39.5198569406
 21
45.2811412237
 72
1
 10
39.5198569406
 20
45.2811412237
 11
39.8563576283
 21
45.6648412598
 72
1
 10
39.8563576283
 20
45.6648412598
 11
40.1398958888
 21
46.0891912997
 72
1
 10
40.1398958888
 20
46.0891912997
 11
45.3528889231
 21
43.6666760719
 72
1
 10
45.3528889231
 20
43.6666760719
 11
45.345943091
 21
43.5341510594
 72
1
 10
45.345943091
 20
43.5341510594
 11
45.3251816945
 21
43.4030660471
 72
1
 10
45.3251816945
 20
43.4030660471
 11
45.2908322
 21
43.2748610351
 72
1
 10
45.2908322
 20
43.2748610351
 11
45.2432709475
 21
43.1509610234
 72
1
 10
45.2432709475
 20
43.1509610234
 11
45.1830190283
 21
43.0327160123
 72
1
 10
45.1830190283
 20
43.0327160123
 11
45.1107365748
 21
42.9214160018
 72
1
 10
45.1107365748
 20
42.9214160018
 11
45.0272155289
 21
42.8182759921
 72
1
 10
45.0272155289
 20
42.8182759921
 11
44.9333709645
 21
42.7244209833
 72
1
 10
44.9333709645
 20
42.7244209833
 11
44.8302310623
 21
42.6409009754
 72
1
 10
44.8302310623
 20
42.6409009754
 11
44.7189258447
 21
42.5686159687
 72
1
 10
44.7189258447
 20
42.5686159687
 11
44.600674795
 21
42.508375963
 72
1
 10
44.600674795
 20
42.508375963
 11
44.4767734964
 21
42.4608109585
 72
1
 10
44.4767734964
 20
42.4608109585
 11
44.3485794374
 21
42.4264609553
 72
1
 10
44.3485794374
 20
42.4264609553
 11
44.217497139
 21
42.4057009533
 72
1
 10
44.217497139
 20
42.4057009533
 11
44.0849627663
 21
42.3987559527
 72
1
 10
44.0849627663
 20
42.3987559527
 11
17.6290122978
 21
42.3987559527
 72
1
 10
17.6290122978
 20
42.3987559527
 11
17.4964779251
 21
42.4057009533
 72
1
 10
17.4964779251
 20
42.4057009533
 11
17.3653956267
 21
42.4264609553
 72
1
 10
17.3653956267
 20
42.4264609553
 11
17.2372015677
 21
42.4608109585
 72
1
 10
17.2372015677
 20
42.4608109585
 11
17.113300269
 21
42.508375963
 72
1
 10
17.113300269
 20
42.508375963
 11
16.9950492193
 21
42.5686159687
 72
1
 10
16.9950492193
 20
42.5686159687
 11
16.8837440018
 21
42.6409009754
 72
1
 10
16.8837440018
 20
42.6409009754
 11
16.7806040996
 21
42.7244209833
 72
1
 10
16.7806040996
 20
42.7244209833
 11
16.6867595352
 21
42.8182759921
 72
1
 10
16.6867595352
 20
42.8182759921
 11
16.6032384892
 21
42.9214160018
 72
1
 10
16.6032384892
 20
42.9214160018
 11
16.5309560358
 21
43.0327160123
 72
1
 10
16.5309560358
 20
43.0327160123
 11
16.4707041165
 21
43.1509610234
 72
1
 10
16.4707041165
 20
43.1509610234
 11
16.4231428641
 21
43.2748610351
 72
1
 10
16.4231428641
 20
43.2748610351
 11
16.3887933695
 21
43.4030660471
 72
1
 10
16.3887933695
 20
43.4030660471
 11
16.368031973
 21
43.5341510594
 72
1
 10
16.368031973
 20
43.5341510594
 11
16.3610861409
 21
43.6666760719
 72
1
 10
16.3610861409
 20
43.6666760719
 11
36.2517373247
 21
44.1717561194
 72
1
 10
36.2517373247
 20
44.1717561194
 11
36.7610000003
 21
44.13838322
 97
1
330
2C9
 75
0
 76
1
 98
1
 10
0.0
 20
0.0
  0
SOLID
  5
2CB
100
AcDbEntity
  8
0
100
AcDbTrace
 62
2
  6
CONTINUOUS
 10
25.3408515753
 20
55.2505598297
 11
24.5102931399
 21
55.2245960958
 12
26.1659444963
 22
55.151954039
 13
45.3528889232
 23
56.1308222438
  0
ENDBLK
  5
2CC
100
AcDbEntity
  8
0
  6
BYBLOCK
 62
0
100
AcDbBlockEnd
  0
BLOCK
  5
2CD
100
AcDbEntity
  8
HATCHING_BL0
100
AcDbBlockBegin
  2
HATCHING_BL0
 70
64
 10
24.8018627332
 20
1953.0413167839
  3
HATCHING_BL0
  1

  0
TEXT
  5
2CE
100
AcDbEntity
  8
HATCHING_BL0
100
AcDbText
 62
7
  6
CONTINUOUS
 10
5.6062920107
 20
1955.7260265895
  7
STANDARD
 40
5.0
  1
A
 72
5
 11
10.2531321594
 21
1955.7260265895
100
AcDbText
  0
LEADER
  5
2CF
100
AcDbEntity
  8
HATCHING_BL0
100
AcDbLeader
 62
7
  6
CONTINUOUS
  3
STANDARD
 71
1
 72
0
 73
3
 75
0
 76
2
 10
11.2196749104
 20
1942.8566069783
 30
0.0
 10
11.2196749104
 20
1963.2260265895
 30
0.0
1001
ACAD
1000
DSTYLE
1002
{
1070
77
1070
0
1002
}
  0
TEXT
  5
2D0
100
AcDbEntity
  8
HATCHING_BL0
100
AcDbText
 62
7
  6
CONTINUOUS
 10
39.350593307
 20
1955.7260265895
  7
STANDARD
 40
5.0
  1
A
 72
5
 11
43.9974334557
 21
1955.7260265895
100
AcDbText
  0
LEADER
  5
2D1
100
AcDbEntity
  8
HATCHING_BL0
100
AcDbLeader
 62
7
  6
CONTINUOUS
  3
STANDARD
 71
1
 72
0
 73
3
 75
0
 76
2
 10
38.3840505561
 20
1942.8566069783
 30
0.0
 10
38.3840505561
 20
1963.2260265895
 30
0.0
1001
ACAD
1000
DSTYLE
1002
{
1070
77
1070
0
1002
}
  0
LINE
  5
2D2
100
AcDbEntity
  8
HATCHING_BL0
100
AcDbLine
 62
7
  6
CENTER
 10
11.2196749104
 20
1942.8566069783
 11
38.3840505561
 21
1942.8566069783
  0
ENDBLK
  5
2D3
100
AcDbEntity
  8
0
  6
BYBLOCK
 62
0
100
AcDbBlockEnd
  0
BLOCK
  5
2D4
100
AcDbEntity
  8
94818813L00_BL1
100
AcDbBlockBegin
  2
94818813L00_BL1
 70
64
 10
77.2016706582
 20
1266.3971861113
  3
94818813L00_BL1
  1

  0
LINE
  5
2D5
100
AcDbEntity
  8
94818813L00_BL1
100
AcDbLine
 62
7
  6
CONTINUOUS
 10
137.7532989129
 20
141.8566069783
 11
107.7532989129
 21
141.8566069783
  0
LINE
  5
2D6
100
AcDbEntity
  8
94818813L00_BL1
100
AcDbLine
 62
7
  6
CENTER
 10
119.7532989129
 20
189.8566069783
 11
111.3532989129
 21
189.8566069783
  0
LINE
  5
2D7
100
AcDbEntity
  8
94818813L00_BL1
100
AcDbLine
 62
7
  6
CENTER
 10
119.7532989129
 20
189.8566069783
 11
128.1532989129
 21
189.8566069783
  0
LINE
  5
2D8
100
AcDbEntity
  8
94818813L00_BL1
100
AcDbLine
 62
7
  6
CENTER
 10
119.7532989129
 20
364.8566069783
 11
111.3532989129
 21
364.8566069783
  0
LINE
  5
2D9
100
AcDbEntity
  8
94818813L00_BL1
100
AcDbLine
 62
7
  6
CENTER
 10
119.7532989129
 20
364.8566069783
 11
128.1532989129
 21
364.8566069783
  0
LINE
  5
2DA
100
AcDbEntity
  8
94818813L00_BL1
100
AcDbLine
 62
7
  6
CENTER
 10
119.7532989129
 20
460.8566069783
 11
111.3532989129
 21
460.8566069783
  0
LINE
  5
2DB
100
AcDbEntity
  8
94818813L00_BL1
100
AcDbLine
 62
7
  6
CENTER
 10
119.7532989129
 20
460.8566069783
 11
128.1532989129
 21
460.8566069783
  0
LINE
  5
2DC
100
AcDbEntity
  8
94818813L00_BL1
100
AcDbLine
 62
7
  6
CENTER
 10
119.7532989129
 20
759.8566069783
 11
111.3532989129
 21
759.8566069783
  0
LINE
  5
2DD
100
AcDbEntity
  8
94818813L00_BL1
100
AcDbLine
 62
7
  6
CENTER
 10
119.7532989129
 20
759.8566069783
 11
128.1532989129
 21
759.8566069783
  0
LINE
  5
2DE
100
AcDbEntity
  8
94818813L00_BL1
100
AcDbLine
 62
7
  6
CENTER
 10
119.7532989129
 20
1063.8566069783
 11
111.3532989129
 21
1063.8566069783
  0
LINE
  5
2DF
100
AcDbEntity
  8
94818813L00_BL1
100
AcDbLine
 62
7
  6
CENTER
 10
119.7532989129
 20
1063.8566069783
 11
128.1532989129
 21
1063.8566069783
  0
LINE
  5
2E0
100
AcDbEntity
  8
94818813L00_BL1
100
AcDbLine
 62
7
  6
CONTINUOUS
 10
123.1282989129
 20
1075.8566069783
 11
132.3782989129
 21
1075.8566069783
  0
LINE
  5
2E1
100
AcDbEntity
  8
94818813L00_BL1
100
AcDbLine
 62
7
  6
CENTER
 10
127.7532989129
 20
1106.8566069783
 11
118.8697770277
 21
1106.8566069783
  0
LINE
  5
2E2
100
AcDbEntity
  8
94818813L00_BL1
100
AcDbLine
 62
7
  6
CENTER
 10
127.7532989129
 20
1106.8566069783
 11
136.636820798
 21
1106.8566069783
  0
LINE
  5
2E3
100
AcDbEntity
  8
94818813L00_BL1
100
AcDbLine
 62
7
  6
CONTINUOUS
 10
132.3782989129
 20
1137.8566069783
 11
123.1282989129
 21
1137.8566069783
  0
LINE
  5
2E4
100
AcDbEntity
  8
94818813L00_BL1
100
AcDbLine
 62
7
  6
CENTER
 10
119.7532989129
 20
1154.8566069783
 11
111.3532989129
 21
1154.8566069783
  0
LINE
  5
2E5
100
AcDbEntity
  8
94818813L00_BL1
100
AcDbLine
 62
7
  6
CENTER
 10
119.7532989129
 20
1154.8566069783
 11
128.1532989129
 21
1154.8566069783
  0
LINE
  5
2E6
100
AcDbEntity
  8
94818813L00_BL1
100
AcDbLine
 62
7
  6
CONTINUOUS
 10
114.7532989129
 20
1172.5566069783
 11
121.9707733016
 21
1172.5566069783
  0
LINE
  5
2E7
100
AcDbEntity
  8
94818813L00_BL1
100
AcDbLine
 62
7
  6
CONTINUOUS
 10
129.5358245241
 20
1172.5566069783
 11
130.7532989129
 21
1172.5566069783
  0
LINE
  5
2E8
100
AcDbEntity
  8
94818813L00_BL1
100
AcDbLine
 62
7
  6
CONTINUOUS
 10
130.7532989129
 20
1172.8566069783
 11
129.4475512053
 21
1172.8566069783
  0
LINE
  5
2E9
100
AcDbEntity
  8
94818813L00_BL1
100
AcDbLine
 62
7
  6
CONTINUOUS
 10
122.0590466204
 20
1172.8566069783
 11
114.7532989129
 21
1172.8566069783
  0
LINE
  5
2EA
100
AcDbEntity
  8
94818813L00_BL1
100
AcDbLine
 62
7
  6
CONTINUOUS
 10
114.7532989129
 20
1173.1566069783
 11
122.1745421455
 21
1173.1566069783
  0
LINE
  5
2EB
100
AcDbEntity
  8
94818813L00_BL1
100
AcDbLine
 62
7
  6
CONTINUOUS
 10
129.3320556802
 20
1173.1566069783
 11
130.7532989129
 21
1173.1566069783
  0
LINE
  5
2EC
100
AcDbEntity
  8
94818813L00_BL1
100
AcDbLine
 62
7
  6
CONTINUOUS
 10
137.7532989129
 20
1173.7066069783
 11
131.7532989129
 21
1173.7066069783
  0
LINE
  5
2ED
100
AcDbEntity
  8
94818813L00_BL1
100
AcDbLine
 62
7
  6
CONTINUOUS
 10
117.7532989129
 20
1175.8566069783
 11
129.6032989129
 21
1175.8566069783
  0
LINE
  5
2EE
100
AcDbEntity
  8
94818813L00_BL1
100
AcDbLine
 62
7
  6
CONTINUOUS
 10
129.6032989129
 20
1219.8566069783
 11
117.7532989129
 21
1219.8566069783
  0
LINE
  5
2EF
100
AcDbEntity
  8
94818813L00_BL1
100
AcDbLine
 62
7
  6
CONTINUOUS
 10
137.7532989129
 20
1222.0066069783
 11
131.7532989129
 21
1222.0066069783
  0
LINE
  5
2F0
100
AcDbEntity
  8
94818813L00_BL1
100
AcDbLine
 62
7
  6
CONTINUOUS
 10
129.6032989129
 20
1175.8566069783
 11
131.7532989129
 21
1173.7066069783
  0
LINE
  5
2F1
100
AcDbEntity
  8
94818813L00_BL1
100
AcDbLine
 62
7
  6
CONTINUOUS
 10
107.7532989129
 20
2451.8566069783
 11
107.7532989129
 21
141.8566069783
  0
LINE
  5
2F2
100
AcDbEntity
  8
94818813L00_BL1
100
AcDbLine
 62
9
  6
CONTINUOUS
 10
110.7532989129
 20
2451.8566069783
 11
110.7532989129
 21
141.8566069783
  0
LINE
  5
2F3
100
AcDbEntity
  8
94818813L00_BL1
100
AcDbLine
 62
7
  6
CONTINUOUS
 10
114.7532989129
 20
1172.5566069783
 11
114.7532989129
 21
1173.1566069783
  0
LINE
  5
2F4
100
AcDbEntity
  8
94818813L00_BL1
100
AcDbLine
 62
7
  6
CONTINUOUS
 10
117.7532989129
 20
1219.8566069783
 11
117.7532989129
 21
1175.8566069783
  0
LINE
  5
2F5
100
AcDbEntity
  8
94818813L00_BL1
100
AcDbLine
 62
7
  6
CENTER
 10
119.7532989129
 20
2393.8566069783
 11
119.7532989129
 21
2385.4566069783
  0
LINE
  5
2F6
100
AcDbEntity
  8
94818813L00_BL1
100
AcDbLine
 62
7
  6
CENTER
 10
119.7532989129
 20
2091.8566069783
 11
119.7532989129
 21
2083.4566069783
  0
LINE
  5
2F7
100
AcDbEntity
  8
94818813L00_BL1
100
AcDbLine
 62
7
  6
CENTER
 10
119.7532989129
 20
1950.8566069783
 11
119.7532989129
 21
1942.4566069783
  0
LINE
  5
2F8
100
AcDbEntity
  8
94818813L00_BL1
100
AcDbLine
 62
7
  6
CENTER
 10
119.7532989129
 20
1854.8566069783
 11
119.7532989129
 21
1846.4566069783
  0
LINE
  5
2F9
100
AcDbEntity
  8
94818813L00_BL1
100
AcDbLine
 62
7
  6
CENTER
 10
119.7532989129
 20
1573.8566069783
 11
119.7532989129
 21
1565.4566069783
  0
LINE
  5
2FA
100
AcDbEntity
  8
94818813L00_BL1
100
AcDbLine
 62
7
  6
CENTER
 10
119.7532989129
 20
1266.8566069783
 11
119.7532989129
 21
1258.4566069783
  0
LINE
  5
2FB
100
AcDbEntity
  8
94818813L00_BL1
100
AcDbLine
 62
7
  6
CENTER
 10
119.7532989129
 20
1154.8566069783
 11
119.7532989129
 21
1146.4566069783
  0
LINE
  5
2FC
100
AcDbEntity
  8
94818813L00_BL1
100
AcDbLine
 62
7
  6
CENTER
 10
119.7532989129
 20
1063.8566069783
 11
119.7532989129
 21
1055.4566069783
  0
LINE
  5
2FD
100
AcDbEntity
  8
94818813L00_BL1
100
AcDbLine
 62
7
  6
CENTER
 10
119.7532989129
 20
759.8566069783
 11
119.7532989129
 21
751.4566069783
  0
LINE
  5
2FE
100
AcDbEntity
  8
94818813L00_BL1
100
AcDbLine
 62
7
  6
CENTER
 10
119.7532989129
 20
460.8566069783
 11
119.7532989129
 21
452.4566069783
  0
LINE
  5
2FF
100
AcDbEntity
  8
94818813L00_BL1
100
AcDbLine
 62
7
  6
CENTER
 10
119.7532989129
 20
364.8566069783
 11
119.7532989129
 21
356.4566069783
  0
LINE
  5
300
100
AcDbEntity
  8
94818813L00_BL1
100
AcDbLine
 62
7
  6
CENTER
 10
119.7532989129
 20
189.8566069783
 11
119.7532989129
 21
181.4566069783
  0
LINE
  5
301
100
AcDbEntity
  8
94818813L00_BL1
100
AcDbLine
 62
7
  6
CENTER
 10
119.7532989129
 20
189.8566069783
 11
119.7532989129
 21
198.2566069783
  0
LINE
  5
302
100
AcDbEntity
  8
94818813L00_BL1
100
AcDbLine
 62
7
  6
CENTER
 10
119.7532989129
 20
364.8566069783
 11
119.7532989129
 21
373.2566069783
  0
LINE
  5
303
100
AcDbEntity
  8
94818813L00_BL1
100
AcDbLine
 62
7
  6
CENTER
 10
119.7532989129
 20
460.8566069783
 11
119.7532989129
 21
469.2566069783
  0
LINE
  5
304
100
AcDbEntity
  8
94818813L00_BL1
100
AcDbLine
 62
7
  6
CENTER
 10
119.7532989129
 20
759.8566069783
 11
119.7532989129
 21
768.2566069783
  0
LINE
  5
305
100
AcDbEntity
  8
94818813L00_BL1
100
AcDbLine
 62
7
  6
CENTER
 10
119.7532989129
 20
1063.8566069783
 11
119.7532989129
 21
1069.0463722935
  0
LINE
  5
306
100
AcDbEntity
  8
94818813L00_BL1
100
AcDbLine
 62
7
  6
CENTER
 10
119.7532989129
 20
1154.8566069783
 11
119.7532989129
 21
1163.2566069783
  0
LINE
  5
307
100
AcDbEntity
  8
94818813L00_BL1
100
AcDbLine
 62
7
  6
CENTER
 10
119.7532989129
 20
1266.8566069783
 11
119.7532989129
 21
1275.2566069783
  0
LINE
  5
308
100
AcDbEntity
  8
94818813L00_BL1
100
AcDbLine
 62
7
  6
CENTER
 10
119.7532989129
 20
1573.8566069783
 11
119.7532989129
 21
1582.2566069783
  0
LINE
  5
309
100
AcDbEntity
  8
94818813L00_BL1
100
AcDbLine
 62
7
  6
CENTER
 10
119.7532989129
 20
1854.8566069783
 11
119.7532989129
 21
1863.2566069783
  0
LINE
  5
30A
100
AcDbEntity
  8
94818813L00_BL1
100
AcDbLine
 62
7
  6
CENTER
 10
119.7532989129
 20
1950.8566069783
 11
119.7532989129
 21
1959.2566069783
  0
LINE
  5
30B
100
AcDbEntity
  8
94818813L00_BL1
100
AcDbLine
 62
7
  6
CENTER
 10
119.7532989129
 20
2091.8566069783
 11
119.7532989129
 21
2100.2566069783
  0
LINE
  5
30C
100
AcDbEntity
  8
94818813L00_BL1
100
AcDbLine
 62
7
  6
CENTER
 10
119.7532989129
 20
2393.8566069783
 11
119.7532989129
 21
2402.2566069783
  0
LINE
  5
30D
100
AcDbEntity
  8
94818813L00_BL1
100
AcDbLine
 62
7
  6
CONTINUOUS
 10
121.6282989129
 20
1136.3566069783
 11
121.6282989129
 21
1077.3566069783
  0
LINE
  5
30E
100
AcDbEntity
  8
94818813L00_BL1
100
AcDbLine
 62
7
  6
CONTINUOUS
 10
124.3012161019
 20
1245.7546864458
 11
124.3012161019
 21
1243.4581214094
  0
LINE
  5
30F
100
AcDbEntity
  8
94818813L00_BL1
100
AcDbLine
 62
7
  6
CONTINUOUS
 10
124.3012161019
 20
1242.2371627825
 11
124.3012161019
 21
1241.9173879039
  0
LINE
  5
310
100
AcDbEntity
  8
94818813L00_BL1
100
AcDbLine
 62
7
  6
CONTINUOUS
 10
124.5012161018
 20
1241.9173879039
 11
124.5012161018
 21
1242.4371627824
  0
LINE
  5
311
100
AcDbEntity
  8
94818813L00_BL1
100
AcDbLine
 62
7
  6
CONTINUOUS
 10
124.5012161018
 20
1243.2581214094
 11
124.5012161018
 21
1245.5546864458
  0
LINE
  5
312
100
AcDbEntity
  8
94818813L00_BL1
100
AcDbLine
 62
7
  6
CONTINUOUS
 10
125.6128791638
 20
1245.5546864458
 11
125.6128791638
 21
1241.9173879039
  0
LINE
  5
313
100
AcDbEntity
  8
94818813L00_BL1
100
AcDbLine
 62
7
  6
CONTINUOUS
 10
125.8128791637
 20
1241.9173879039
 11
125.8128791639
 21
1245.7546864458
  0
LINE
  5
314
100
AcDbEntity
  8
94818813L00_BL1
100
AcDbLine
 62
7
  6
CONTINUOUS
 10
127.1152350325
 20
1245.7546864458
 11
127.1152350325
 21
1241.9173879039
  0
LINE
  5
315
100
AcDbEntity
  8
94818813L00_BL1
100
AcDbLine
 62
7
  6
CONTINUOUS
 10
127.3152350326
 20
1241.9173879039
 11
127.3152350326
 21
1245.5546864458
  0
LINE
  5
316
100
AcDbEntity
  8
94818813L00_BL1
100
AcDbLine
 62
7
  6
CENTER
 10
127.7532989129
 20
1106.8566069783
 11
127.7532989129
 21
1074.4295409203
  0
LINE
  5
317
100
AcDbEntity
  8
94818813L00_BL1
100
AcDbLine
 62
7
  6
CENTER
 10
127.7532989129
 20
1106.8566069783
 11
127.7532989129
 21
1138.9167165406
  0
LINE
  5
318
100
AcDbEntity
  8
94818813L00_BL1
100
AcDbLine
 62
7
  6
CONTINUOUS
 10
128.4268980946
 20
1245.5546864458
 11
128.4268980944
 21
1241.9173879039
  0
LINE
  5
319
100
AcDbEntity
  8
94818813L00_BL1
100
AcDbLine
 62
7
  6
CONTINUOUS
 10
128.6268980945
 20
1241.9173879039
 11
128.6268980945
 21
1245.7546864458
  0
LINE
  5
31A
100
AcDbEntity
  8
94818813L00_BL1
100
AcDbLine
 62
7
  6
CONTINUOUS
 10
130.7532989129
 20
1172.5566069783
 11
130.7532989129
 21
1173.1566069783
  0
LINE
  5
31B
100
AcDbEntity
  8
94818813L00_BL1
100
AcDbLine
 62
7
  6
CONTINUOUS
 10
133.8782989129
 20
1077.3566069783
 11
133.8782989129
 21
1136.3566069783
  0
LINE
  5
31C
100
AcDbEntity
  8
94818813L00_BL1
100
AcDbLine
 62
9
  6
CONTINUOUS
 10
134.7532987055
 20
377.5436127879
 11
134.7532989129
 21
141.8566069783
  0
LINE
  5
31D
100
AcDbEntity
  8
94818813L00_BL1
100
AcDbLine
 62
9
  6
CONTINUOUS
 10
134.7532989129
 20
2451.8566069783
 11
134.7532986975
 21
1938.1696011794
  0
LINE
  5
31E
100
AcDbEntity
  8
94818813L00_BL1
100
AcDbLine
 62
9
  6
CONTINUOUS
 10
134.7532986961
 20
1867.5436127752
 11
134.7532989129
 21
1222.0066069783
  0
LINE
  5
31F
100
AcDbEntity
  8
94818813L00_BL1
100
AcDbLine
 62
9
  6
CONTINUOUS
 10
134.7532989129
 20
1173.7066069783
 11
134.7532986954
 21
448.1696011822
  0
LINE
  5
320
100
AcDbEntity
  8
94818813L00_BL1
100
AcDbLine
 62
7
  6
CONTINUOUS
 10
137.7532989129
 20
2451.8566069783
 11
137.7532989129
 21
1222.0066069783
  0
LINE
  5
321
100
AcDbEntity
  8
94818813L00_BL1
100
AcDbLine
 62
7
  6
CONTINUOUS
 10
137.7532989129
 20
1173.7066069783
 11
137.7532989129
 21
141.8566069783
  0
LINE
  5
322
100
AcDbEntity
  8
94818813L00_BL1
100
AcDbLine
 62
7
  6
CONTINUOUS
 10
120.056931351
 20
1242.2371627824
 11
121.4323966661
 21
1242.2371627824
  0
LINE
  5
323
100
AcDbEntity
  8
94818813L00_BL1
100
AcDbLine
 62
7
  6
CONTINUOUS
 10
123.2787497309
 20
1242.2371627825
 11
124.3012161019
 21
1242.2371627825
  0
LINE
  5
324
100
AcDbEntity
  8
94818813L00_BL1
100
AcDbLine
 62
7
  6
CONTINUOUS
 10
124.5012161018
 20
1242.4371627824
 11
123.5117777743
 21
1242.4371627824
  0
LINE
  5
325
100
AcDbEntity
  8
94818813L00_BL1
100
AcDbLine
 62
7
  6
CONTINUOUS
 10
121.7083777759
 20
1242.4371627824
 11
120.056931351
 21
1242.4371627824
  0
LINE
  5
326
100
AcDbEntity
  8
94818813L00_BL1
100
AcDbLine
 62
7
  6
CONTINUOUS
 10
120.056931351
 20
1243.2581214094
 11
122.8391217234
 21
1243.2581214093
  0
LINE
  5
327
100
AcDbEntity
  8
94818813L00_BL1
100
AcDbLine
 62
7
  6
CONTINUOUS
 10
123.5117777743
 20
1243.2581214094
 11
124.5012161018
 21
1243.2581214094
  0
LINE
  5
328
100
AcDbEntity
  8
94818813L00_BL1
100
AcDbLine
 62
7
  6
CONTINUOUS
 10
124.3012161019
 20
1243.4581214094
 11
123.2787497309
 21
1243.4581214094
  0
LINE
  5
329
100
AcDbEntity
  8
94818813L00_BL1
100
AcDbLine
 62
7
  6
CONTINUOUS
 10
123.0073159286
 20
1243.4581214094
 11
120.056931351
 21
1243.4581214094
  0
LINE
  5
32A
100
AcDbEntity
  8
94818813L00_BL1
100
AcDbLine
 62
7
  6
CONTINUOUS
 10
124.5012161018
 20
1245.5546864458
 11
125.6128791638
 21
1245.5546864458
  0
LINE
  5
32B
100
AcDbEntity
  8
94818813L00_BL1
100
AcDbLine
 62
7
  6
CONTINUOUS
 10
127.3152350326
 20
1245.5546864458
 11
128.4268980946
 21
1245.5546864458
  0
LINE
  5
32C
100
AcDbEntity
  8
94818813L00_BL1
100
AcDbLine
 62
7
  6
CONTINUOUS
 10
128.6268980945
 20
1245.7546864458
 11
127.1152350325
 21
1245.7546864458
  0
LINE
  5
32D
100
AcDbEntity
  8
94818813L00_BL1
100
AcDbLine
 62
7
  6
CONTINUOUS
 10
125.8128791639
 20
1245.7546864458
 11
124.3012161019
 21
1245.7546864458
  0
LINE
  5
32E
100
AcDbEntity
  8
94818813L00_BL1
100
AcDbLine
 62
7
  6
CENTER
 10
119.7532989129
 20
1266.8566069783
 11
111.3532989129
 21
1266.8566069783
  0
LINE
  5
32F
100
AcDbEntity
  8
94818813L00_BL1
100
AcDbLine
 62
7
  6
CENTER
 10
119.7532989129
 20
1266.8566069783
 11
128.1532989129
 21
1266.8566069783
  0
LINE
  5
330
100
AcDbEntity
  8
94818813L00_BL1
100
AcDbLine
 62
7
  6
CONTINUOUS
 10
131.7532989129
 20
1222.0066069783
 11
129.6032989129
 21
1219.8566069783
  0
LINE
  5
331
100
AcDbEntity
  8
94818813L00_BL1
100
AcDbLine
 62
7
  6
CONTINUOUS
 10
122.2035012168
 20
1244.6848207552
 11
121.3074494871
 21
1244.0217773541
  0
LINE
  5
332
100
AcDbEntity
  8
94818813L00_BL1
100
AcDbLine
 62
7
  6
CONTINUOUS
 10
121.2716032672
 20
1243.7464520328
 11
122.486915942
 21
1244.6457361061
  0
LINE
  5
333
100
AcDbEntity
  8
94818813L00_BL1
100
AcDbLine
 62
7
  6
CENTER
 10
119.7532989129
 20
1573.8566069783
 11
111.3532989129
 21
1573.8566069783
  0
LINE
  5
334
100
AcDbEntity
  8
94818813L00_BL1
100
AcDbLine
 62
7
  6
CENTER
 10
119.7532989129
 20
1573.8566069783
 11
128.1532989129
 21
1573.8566069783
  0
LINE
  5
335
100
AcDbEntity
  8
94818813L00_BL1
100
AcDbLine
 62
7
  6
CENTER
 10
119.7532989129
 20
1854.8566069783
 11
111.3532989129
 21
1854.8566069783
  0
LINE
  5
336
100
AcDbEntity
  8
94818813L00_BL1
100
AcDbLine
 62
7
  6
CENTER
 10
119.7532989129
 20
1854.8566069783
 11
128.1532989129
 21
1854.8566069783
  0
LINE
  5
337
100
AcDbEntity
  8
94818813L00_BL1
100
AcDbLine
 62
7
  6
CENTER
 10
119.7532989129
 20
1950.8566069783
 11
111.3532989129
 21
1950.8566069783
  0
LINE
  5
338
100
AcDbEntity
  8
94818813L00_BL1
100
AcDbLine
 62
7
  6
CENTER
 10
119.7532989129
 20
1950.8566069783
 11
128.1532989129
 21
1950.8566069783
  0
LINE
  5
339
100
AcDbEntity
  8
94818813L00_BL1
100
AcDbLine
 62
7
  6
CENTER
 10
119.7532989129
 20
2091.8566069783
 11
111.3532989129
 21
2091.8566069783
  0
LINE
  5
33A
100
AcDbEntity
  8
94818813L00_BL1
100
AcDbLine
 62
7
  6
CENTER
 10
119.7532989129
 20
2091.8566069783
 11
128.1532989129
 21
2091.8566069783
  0
LINE
  5
33B
100
AcDbEntity
  8
94818813L00_BL1
100
AcDbLine
 62
7
  6
CENTER
 10
119.7532989129
 20
2393.8566069783
 11
111.3532989129
 21
2393.8566069783
  0
LINE
  5
33C
100
AcDbEntity
  8
94818813L00_BL1
100
AcDbLine
 62
7
  6
CENTER
 10
119.7532989129
 20
2393.8566069783
 11
128.1532989129
 21
2393.8566069783
  0
LINE
  5
33D
100
AcDbEntity
  8
94818813L00_BL1
100
AcDbLine
 62
7
  6
CONTINUOUS
 10
137.7532989129
 20
2451.8566069783
 11
107.7532989129
 21
2451.8566069783
  0
LINE
  5
33E
100
AcDbEntity
  8
94818813L00_BL1
100
AcDbLine
 62
7
  6
CONTINUOUS
 10
25.6500424036
 20
141.8566069783
 11
19.6500424036
 21
141.8566069783
  0
LINE
  5
33F
100
AcDbEntity
  8
94818813L00_BL1
100
AcDbLine
 62
7
  6
CENTER
 10
26.960396489
 20
189.8566069783
 11
18.6500424036
 21
189.8566069783
  0
LINE
  5
340
100
AcDbEntity
  8
94818813L00_BL1
100
AcDbLine
 62
7
  6
CENTER
 10
26.960396489
 20
364.8566069783
 11
18.6500424036
 21
364.8566069783
  0
LINE
  5
341
100
AcDbEntity
  8
94818813L00_BL1
100
AcDbLine
 62
7
  6
CENTER
 10
26.960396489
 20
460.8566069783
 11
18.6500424036
 21
460.8566069783
  0
LINE
  5
342
100
AcDbEntity
  8
94818813L00_BL1
100
AcDbLine
 62
7
  6
CENTER
 10
26.960396489
 20
759.8566069783
 11
18.6500424036
 21
759.8566069783
  0
LINE
  5
343
100
AcDbEntity
  8
94818813L00_BL1
100
AcDbLine
 62
7
  6
CENTER
 10
26.960396489
 20
1063.8566069783
 11
18.6500424036
 21
1063.8566069783
  0
LINE
  5
344
100
AcDbEntity
  8
94818813L00_BL1
100
AcDbLine
 62
7
  6
CENTER
 10
28.6500424036
 20
1106.8566069783
 11
16.6500424036
 21
1106.8566069783
  0
LINE
  5
345
100
AcDbEntity
  8
94818813L00_BL1
100
AcDbLine
 62
7
  6
CENTER
 10
26.960396489
 20
1154.8566069783
 11
18.6500424036
 21
1154.8566069783
  0
LINE
  5
346
100
AcDbEntity
  8
94818813L00_BL1
100
AcDbLine
 62
7
  6
CONTINUOUS
 10
25.6500424036
 20
1173.7066069783
 11
19.6500424036
 21
1173.7066069783
  0
LINE
  5
347
100
AcDbEntity
  8
94818813L00_BL1
100
AcDbLine
 62
7
  6
CONTINUOUS
 10
25.6500424036
 20
1222.0066069783
 11
19.6500424036
 21
1222.0066069783
  0
LINE
  5
348
100
AcDbEntity
  8
94818813L00_BL1
100
AcDbLine
 62
7
  6
CONTINUOUS
 10
19.6500424036
 20
2451.8566069783
 11
19.6500424036
 21
1938.1626526787
  0
LINE
  5
349
100
AcDbEntity
  8
94818813L00_BL1
100
AcDbLine
 62
7
  6
CONTINUOUS
 10
19.6500424036
 20
1867.5505616098
 11
19.6500424036
 21
1221.8566069783
  0
LINE
  5
34A
100
AcDbEntity
  8
94818813L00_BL1
100
AcDbLine
 62
7
  6
CONTINUOUS
 10
19.6500424036
 20
1173.8566069783
 11
19.6500424036
 21
448.1626526819
  0
LINE
  5
34B
100
AcDbEntity
  8
94818813L00_BL1
100
AcDbLine
 62
7
  6
CONTINUOUS
 10
19.6500424036
 20
377.5505616098
 11
19.6500424036
 21
141.8566069783
  0
LINE
  5
34C
100
AcDbEntity
  8
94818813L00_BL1
100
AcDbLine
 62
9
  6
CONTINUOUS
 10
22.6500424036
 20
2451.8566069783
 11
22.6500424036
 21
1222.0066069783
  0
LINE
  5
34D
100
AcDbEntity
  8
94818813L00_BL1
100
AcDbLine
 62
9
  6
CONTINUOUS
 10
22.6500424036
 20
1173.7066069783
 11
22.6500424036
 21
141.8566069783
  0
LINE
  5
34E
100
AcDbEntity
  8
94818813L00_BL1
100
AcDbLine
 62
7
  6
CONTINUOUS
 10
25.6500424036
 20
2451.8566069783
 11
25.6500424036
 21
1222.0066069783
  0
LINE
  5
34F
100
AcDbEntity
  8
94818813L00_BL1
100
AcDbLine
 62
7
  6
CONTINUOUS
 10
25.6500424036
 20
1173.7066069783
 11
25.6500424036
 21
141.8566069783
  0
LINE
  5
350
100
AcDbEntity
  8
94818813L00_BL1
100
AcDbLine
 62
7
  6
CENTER
 10
26.960396489
 20
1266.8566069783
 11
18.6500424036
 21
1266.8566069783
  0
LINE
  5
351
100
AcDbEntity
  8
94818813L00_BL1
100
AcDbLine
 62
7
  6
CENTER
 10
26.960396489
 20
1573.8566069783
 11
18.6500424036
 21
1573.8566069783
  0
LINE
  5
352
100
AcDbEntity
  8
94818813L00_BL1
100
AcDbLine
 62
7
  6
CENTER
 10
26.960396489
 20
1854.8566069783
 11
18.6500424036
 21
1854.8566069783
  0
LINE
  5
353
100
AcDbEntity
  8
94818813L00_BL1
100
AcDbLine
 62
7
  6
CENTER
 10
26.960396489
 20
1950.8566069783
 11
18.6500424036
 21
1950.8566069783
  0
LINE
  5
354
100
AcDbEntity
  8
94818813L00_BL1
100
AcDbLine
 62
7
  6
CENTER
 10
26.960396489
 20
2091.8566069783
 11
18.6500424036
 21
2091.8566069783
  0
LINE
  5
355
100
AcDbEntity
  8
94818813L00_BL1
100
AcDbLine
 62
7
  6
CENTER
 10
26.960396489
 20
2393.8566069783
 11
18.6500424036
 21
2393.8566069783
  0
LINE
  5
356
100
AcDbEntity
  8
94818813L00_BL1
100
AcDbLine
 62
7
  6
CONTINUOUS
 10
25.6500424036
 20
2451.8566069783
 11
19.6500424036
 21
2451.8566069783
  0
LINE
  5
357
100
AcDbEntity
  8
94818813L00_BL1
100
AcDbLine
 62
7
  6
CONTINUOUS
 10
25.6500424036
 20
80.9377652444
 11
22.6500424036
 21
80.9377652444
  0
LINE
  5
358
100
AcDbEntity
  8
94818813L00_BL1
100
AcDbLine
 62
7
  6
CONTINUOUS
 10
19.6500424036
 20
83.9377652444
 11
19.6500424036
 21
107.9377652444
  0
LINE
  5
359
100
AcDbEntity
  8
94818813L00_BL1
100
AcDbLine
 62
7
  6
CONTINUOUS
 10
22.1500424036
 20
82.9377652444
 11
25.6500424036
 21
82.9377652444
  0
LINE
  5
35A
100
AcDbEntity
  8
94818813L00_BL1
100
AcDbLine
 62
7
  6
CONTINUOUS
 10
21.6500424036
 20
108.4377652444
 11
21.6500424036
 21
83.4377652444
  0
LINE
  5
35B
100
AcDbEntity
  8
94818813L00_BL1
100
AcDbLine
 62
7
  6
CONTINUOUS
 10
25.6500424036
 20
110.9377652444
 11
25.6500424036
 21
108.9377652444
  0
LINE
  5
35C
100
AcDbEntity
  8
94818813L00_BL1
100
AcDbLine
 62
7
  6
CONTINUOUS
 10
25.6500424036
 20
82.9377652444
 11
25.6500424036
 21
80.9377652444
  0
LINE
  5
35D
100
AcDbEntity
  8
94818813L00_BL1
100
AcDbLine
 62
7
  6
CONTINUOUS
 10
25.6500424036
 20
108.9377652444
 11
22.1500424036
 21
108.9377652444
  0
LINE
  5
35E
100
AcDbEntity
  8
94818813L00_BL1
100
AcDbLine
 62
7
  6
CONTINUOUS
 10
22.6500424036
 20
110.9377652444
 11
25.6500424036
 21
110.9377652444
  0
CIRCLE
  5
35F
100
AcDbEntity
  8
94818813L00_BL1
100
AcDbCircle
 62
7
  6
CONTINUOUS
 10
119.7532989129
 20
189.8566069783
 40
4.15
  0
CIRCLE
  5
360
100
AcDbEntity
  8
94818813L00_BL1
100
AcDbCircle
 62
7
  6
CONTINUOUS
 10
119.7532989129
 20
189.8566069783
 40
2.6
  0
CIRCLE
  5
361
100
AcDbEntity
  8
94818813L00_BL1
100
AcDbCircle
 62
7
  6
CONTINUOUS
 10
119.7532989129
 20
460.8566069783
 40
4.15
  0
CIRCLE
  5
362
100
AcDbEntity
  8
94818813L00_BL1
100
AcDbCircle
 62
7
  6
CONTINUOUS
 10
119.7532989129
 20
364.8566069783
 40
4.15
  0
CIRCLE
  5
363
100
AcDbEntity
  8
94818813L00_BL1
100
AcDbCircle
 62
7
  6
CONTINUOUS
 10
119.7532989129
 20
460.8566069783
 40
2.6
  0
CIRCLE
  5
364
100
AcDbEntity
  8
94818813L00_BL1
100
AcDbCircle
 62
7
  6
CONTINUOUS
 10
119.7532989129
 20
364.8566069783
 40
2.6
  0
CIRCLE
  5
365
100
AcDbEntity
  8
94818813L00_BL1
100
AcDbCircle
 62
7
  6
CONTINUOUS
 10
119.7532989129
 20
759.8566069783
 40
4.15
  0
CIRCLE
  5
366
100
AcDbEntity
  8
94818813L00_BL1
100
AcDbCircle
 62
7
  6
CONTINUOUS
 10
119.7532989129
 20
759.8566069783
 40
2.6
  0
CIRCLE
  5
367
100
AcDbEntity
  8
94818813L00_BL1
100
AcDbCircle
 62
7
  6
CONTINUOUS
 10
119.7532989129
 20
1154.8566069783
 40
4.15
  0
CIRCLE
  5
368
100
AcDbEntity
  8
94818813L00_BL1
100
AcDbCircle
 62
7
  6
CONTINUOUS
 10
119.7532989129
 20
1063.8566069783
 40
4.15
  0
CIRCLE
  5
369
100
AcDbEntity
  8
94818813L00_BL1
100
AcDbCircle
 62
7
  6
CONTINUOUS
 10
119.7532989129
 20
1063.8566069783
 40
2.6
  0
CIRCLE
  5
36A
100
AcDbEntity
  8
94818813L00_BL1
100
AcDbCircle
 62
7
  6
CONTINUOUS
 10
119.7532989129
 20
1154.8566069783
 40
2.6
  0
CIRCLE
  5
36B
100
AcDbEntity
  8
94818813L00_BL1
100
AcDbCircle
 62
7
  6
CONTINUOUS
 10
119.7532989129
 20
1266.8566069783
 40
4.15
  0
CIRCLE
  5
36C
100
AcDbEntity
  8
94818813L00_BL1
100
AcDbCircle
 62
7
  6
CONTINUOUS
 10
119.7532989129
 20
1266.8566069783
 40
2.6
  0
ARC
  5
36D
100
AcDbEntity
  8
94818813L00_BL1
100
AcDbCircle
 62
7
  6
CONTINUOUS
 10
120.056931351
 20
1242.8476420959
 40
3.4791460267
100
AcDbArc
 50
353.2243027717
 51
6.7756972283
  0
ARC
  5
36E
100
AcDbEntity
  8
94818813L00_BL1
100
AcDbCircle
 62
7
  6
CONTINUOUS
 10
120.0569313511
 20
1242.8476420959
 40
3.2791460267
100
AcDbArc
 50
349.270634005
 51
10.729365995
  0
ARC
  5
36F
100
AcDbEntity
  8
94818813L00_BL1
100
AcDbCircle
 62
7
  6
CONTINUOUS
 10
119.998790464
 20
1242.8476420959
 40
3.0698388335
100
AcDbArc
 50
35.854515981
 51
11.4705154501
  0
ARC
  5
370
100
AcDbEntity
  8
94818813L00_BL1
100
AcDbCircle
 62
7
  6
CONTINUOUS
 10
119.9987904639
 20
1242.8476420959
 40
2.8698388335
100
AcDbArc
 50
39.8043394786
 51
8.2233438267
  0
ARC
  5
371
100
AcDbEntity
  8
94818813L00_BL1
100
AcDbCircle
 62
7
  6
CONTINUOUS
 10
119.998790464
 20
1242.8476420958
 40
1.7581757715
100
AcDbArc
 50
41.898609461
 51
346.4986148308
  0
ARC
  5
372
100
AcDbEntity
  8
94818813L00_BL1
100
AcDbCircle
 62
7
  6
CONTINUOUS
 10
119.998790464
 20
1242.8476420959
 40
1.5581757715
100
AcDbArc
 50
35.2282226131
 51
336.934010569
  0
ARC
  5
373
100
AcDbEntity
  8
94818813L00_BL1
100
AcDbCircle
 62
7
  6
CONTINUOUS
 10
120.056931351
 20
1242.8476420959
 40
0.6104793135
100
AcDbArc
 50
90.0
 51
270.0
  0
ARC
  5
374
100
AcDbEntity
  8
94818813L00_BL1
100
AcDbCircle
 62
7
  6
CONTINUOUS
 10
120.056931351
 20
1242.8476420959
 40
0.4104793135
100
AcDbArc
 50
90.0
 51
270.0
  0
ARC
  5
375
100
AcDbEntity
  8
94818813L00_BL1
100
AcDbCircle
 62
7
  6
CONTINUOUS
 10
123.1282989129
 20
1136.3566069783
 40
1.5
100
AcDbArc
 50
90.0
 51
180.0
  0
ARC
  5
376
100
AcDbEntity
  8
94818813L00_BL1
100
AcDbCircle
 62
7
  6
CONTINUOUS
 10
123.1282989129
 20
1077.3566069783
 40
1.5
100
AcDbArc
 50
180.0
 51
270.0
  0
ARC
  5
377
100
AcDbEntity
  8
94818813L00_BL1
100
AcDbCircle
 62
7
  6
CONTINUOUS
 10
122.9387163506
 20
1173.2316069783
 40
0.6
100
AcDbArc
 50
110.3674416215
 51
187.998795519
  0
ARC
  5
378
100
AcDbEntity
  8
94818813L00_BL1
100
AcDbCircle
 62
7
  6
CONTINUOUS
 10
122.9387163506
 20
1169.9816069783
 40
0.6
100
AcDbArc
 50
172.0283249939
 51
249.5948330118
  0
ARC
  5
379
100
AcDbEntity
  8
94818813L00_BL1
100
AcDbCircle
 62
7
  6
CONTINUOUS
 10
122.9387163506
 20
1225.7316069783
 40
0.6
100
AcDbArc
 50
110.3674416215
 51
187.9987955189
  0
ARC
  5
37A
100
AcDbEntity
  8
94818813L00_BL1
100
AcDbCircle
 62
7
  6
CONTINUOUS
 10
122.9387163506
 20
1222.4816069783
 40
0.6
100
AcDbArc
 50
172.0283249938
 51
249.5948330118
  0
ARC
  5
37B
100
AcDbEntity
  8
94818813L00_BL1
100
AcDbCircle
 62
7
  6
CONTINUOUS
 10
125.7532989129
 20
1168.3566069783
 40
0.6
100
AcDbArc
 50
229.1954322484
 51
310.8243396638
  0
CIRCLE
  5
37C
100
AcDbEntity
  8
94818813L00_BL1
100
AcDbCircle
 62
7
  6
CONTINUOUS
 10
125.7532989129
 20
1171.6066069783
 40
3.9
  0
ARC
  5
37D
100
AcDbEntity
  8
94818813L00_BL1
100
AcDbCircle
 62
7
  6
CONTINUOUS
 10
125.7532989129
 20
1174.8566069783
 40
0.6
100
AcDbArc
 50
49.1954322484
 51
130.8243396639
  0
CIRCLE
  5
37E
100
AcDbEntity
  8
94818813L00_BL1
100
AcDbCircle
 62
7
  6
CONTINUOUS
 10
125.7532989129
 20
1224.1066069783
 40
3.9
  0
ARC
  5
37F
100
AcDbEntity
  8
94818813L00_BL1
100
AcDbCircle
 62
7
  6
CONTINUOUS
 10
125.7532989129
 20
1227.3566069783
 40
0.6
100
AcDbArc
 50
49.1954322485
 51
130.8243396639
  0
ARC
  5
380
100
AcDbEntity
  8
94818813L00_BL1
100
AcDbCircle
 62
7
  6
CONTINUOUS
 10
125.7532989129
 20
1220.8566069783
 40
0.6
100
AcDbArc
 50
229.1954322484
 51
310.8243396639
  0
ARC
  5
381
100
AcDbEntity
  8
94818813L00_BL1
100
AcDbCircle
 62
7
  6
CONTINUOUS
 10
126.4640570982
 20
1241.9173879039
 40
2.1628409963
100
AcDbArc
 50
180.0
 51
360.0
  0
ARC
  5
382
100
AcDbEntity
  8
94818813L00_BL1
100
AcDbCircle
 62
7
  6
CONTINUOUS
 10
126.4640570981
 20
1241.9173879039
 40
1.9628409963
100
AcDbArc
 50
180.0
 51
360.0
  0
ARC
  5
383
100
AcDbEntity
  8
94818813L00_BL1
100
AcDbCircle
 62
7
  6
CONTINUOUS
 10
126.4640570982
 20
1241.9173879039
 40
0.8511779344
100
AcDbArc
 50
180.0
 51
360.0
  0
ARC
  5
384
100
AcDbEntity
  8
94818813L00_BL1
100
AcDbCircle
 62
7
  6
CONTINUOUS
 10
126.4640570981
 20
1241.9173879039
 40
0.6511779344
100
AcDbArc
 50
180.0
 51
360.0
  0
ARC
  5
385
100
AcDbEntity
  8
94818813L00_BL1
100
AcDbCircle
 62
7
  6
CONTINUOUS
 10
128.5678814752
 20
1173.2316069783
 40
0.6
100
AcDbArc
 50
352.0283249938
 51
69.5948330118
  0
ARC
  5
386
100
AcDbEntity
  8
94818813L00_BL1
100
AcDbCircle
 62
7
  6
CONTINUOUS
 10
128.5678814752
 20
1169.9816069783
 40
0.6
100
AcDbArc
 50
290.3674416214
 51
7.9987955189
  0
ARC
  5
387
100
AcDbEntity
  8
94818813L00_BL1
100
AcDbCircle
 62
7
  6
CONTINUOUS
 10
128.5678814752
 20
1225.7316069783
 40
0.6
100
AcDbArc
 50
352.0283249938
 51
69.5948330118
  0
ARC
  5
388
100
AcDbEntity
  8
94818813L00_BL1
100
AcDbCircle
 62
7
  6
CONTINUOUS
 10
128.5678814752
 20
1222.4816069783
 40
0.6
100
AcDbArc
 50
290.3674416214
 51
7.9987955189
  0
ARC
  5
389
100
AcDbEntity
  8
94818813L00_BL1
100
AcDbCircle
 62
7
  6
CONTINUOUS
 10
132.3782989129
 20
1077.3566069783
 40
1.5
100
AcDbArc
 50
270.0
 51
360.0
  0
ARC
  5
38A
100
AcDbEntity
  8
94818813L00_BL1
100
AcDbCircle
 62
7
  6
CONTINUOUS
 10
132.3782989129
 20
1136.3566069783
 40
1.5
100
AcDbArc
 50
0.0
 51
90.0
  0
CIRCLE
  5
38B
100
AcDbEntity
  8
94818813L00_BL1
100
AcDbCircle
 62
7
  6
CONTINUOUS
 10
119.7532989129
 20
1573.8566069783
 40
4.15
  0
CIRCLE
  5
38C
100
AcDbEntity
  8
94818813L00_BL1
100
AcDbCircle
 62
7
  6
CONTINUOUS
 10
119.7532989129
 20
1854.8566069783
 40
4.15
  0
CIRCLE
  5
38D
100
AcDbEntity
  8
94818813L00_BL1
100
AcDbCircle
 62
7
  6
CONTINUOUS
 10
119.7532989129
 20
1573.8566069783
 40
2.6
  0
CIRCLE
  5
38E
100
AcDbEntity
  8
94818813L00_BL1
100
AcDbCircle
 62
7
  6
CONTINUOUS
 10
119.7532989129
 20
1854.8566069783
 40
2.6
  0
CIRCLE
  5
38F
100
AcDbEntity
  8
94818813L00_BL1
100
AcDbCircle
 62
7
  6
CONTINUOUS
 10
119.7532989129
 20
2091.8566069783
 40
4.15
  0
CIRCLE
  5
390
100
AcDbEntity
  8
94818813L00_BL1
100
AcDbCircle
 62
7
  6
CONTINUOUS
 10
119.7532989129
 20
1950.8566069783
 40
4.15
  0
CIRCLE
  5
391
100
AcDbEntity
  8
94818813L00_BL1
100
AcDbCircle
 62
7
  6
CONTINUOUS
 10
119.7532989129
 20
2091.8566069783
 40
2.6
  0
CIRCLE
  5
392
100
AcDbEntity
  8
94818813L00_BL1
100
AcDbCircle
 62
7
  6
CONTINUOUS
 10
119.7532989129
 20
1950.8566069783
 40
2.6
  0
CIRCLE
  5
393
100
AcDbEntity
  8
94818813L00_BL1
100
AcDbCircle
 62
7
  6
CONTINUOUS
 10
119.7532989129
 20
2393.8566069783
 40
4.15
  0
CIRCLE
  5
394
100
AcDbEntity
  8
94818813L00_BL1
100
AcDbCircle
 62
7
  6
CONTINUOUS
 10
119.7532989129
 20
2393.8566069783
 40
2.6
  0
ARC
  5
395
100
AcDbEntity
  8
94818813L00_BL1
100
AcDbCircle
 62
7
  6
CONTINUOUS
 10
22.6500424036
 20
83.9377652444
 40
3.0
100
AcDbArc
 50
180.0
 51
270.0
  0
ARC
  5
396
100
AcDbEntity
  8
94818813L00_BL1
100
AcDbCircle
 62
7
  6
CONTINUOUS
 10
22.1500424036
 20
83.4377652444
 40
0.5
100
AcDbArc
 50
180.0
 51
270.0
  0
ARC
  5
397
100
AcDbEntity
  8
94818813L00_BL1
100
AcDbCircle
 62
7
  6
CONTINUOUS
 10
22.6500424036
 20
107.9377652444
 40
3.0
100
AcDbArc
 50
90.0
 51
180.0
  0
ARC
  5
398
100
AcDbEntity
  8
94818813L00_BL1
100
AcDbCircle
 62
7
  6
CONTINUOUS
 10
22.1500424036
 20
108.4377652444
 40
0.5
100
AcDbArc
 50
90.0
 51
180.0
  0
ENDBLK
  5
399
100
AcDbEntity
  8
0
  6
BYBLOCK
 62
0
100
AcDbBlockEnd
  0
BLOCK
  5
39A
100
AcDbEntity
  8
94528901000_M_BL2
100
AcDbBlockBegin
  2
94528901000_M_BL2
 70
64
 10
79.4530678328
 20
382.7566069783
  3
94528901000_M_BL2
  1

  0
LINE
  5
39B
100
AcDbEntity
  8
94528901000_M_BL2
100
AcDbLine
 62
7
  6
CONTINUOUS
 10
126.8782989129
 20
379.7410625217
 11
128.6282989129
 21
379.7410625217
  0
LINE
  5
39C
100
AcDbEntity
  8
94528901000_M_BL2
100
AcDbLine
 62
7
  6
CONTINUOUS
 10
128.6282989129
 20
382.7721514349
 11
126.8782989129
 21
382.7721514349
  0
LINE
  5
39D
100
AcDbEntity
  8
94528901000_M_BL2
100
AcDbLine
 62
7
  6
CONTINUOUS
 10
126.0032989129
 20
381.2566069783
 11
126.8782989129
 21
379.7410625217
  0
LINE
  5
39E
100
AcDbEntity
  8
94528901000_M_BL2
100
AcDbLine
 62
7
  6
CONTINUOUS
 10
129.5032989129
 20
381.2566069783
 11
128.6282989129
 21
382.7721514349
  0
LINE
  5
39F
100
AcDbEntity
  8
94528901000_M_BL2
100
AcDbLine
 62
7
  6
CONTINUOUS
 10
126.8782989129
 20
382.7721514349
 11
126.0032989129
 21
381.2566069783
  0
LINE
  5
3A0
100
AcDbEntity
  8
94528901000_M_BL2
100
AcDbLine
 62
7
  6
CONTINUOUS
 10
128.6282989129
 20
379.7410625217
 11
129.5032989129
 21
381.2566069783
  0
CIRCLE
  5
3A1
100
AcDbEntity
  8
94528901000_M_BL2
100
AcDbCircle
 62
7
  6
CONTINUOUS
 10
127.7532989129
 20
382.7566069783
 40
5.5
  0
CIRCLE
  5
3A2
100
AcDbEntity
  8
94528901000_M_BL2
100
AcDbCircle
 62
7
  6
CONTINUOUS
 10
127.7532989129
 20
381.2566069783
 40
1.75
  0
CIRCLE
  5
3A3
100
AcDbEntity
  8
94528901000_M_BL2
100
AcDbCircle
 62
7
  6
CONTINUOUS
 10
127.7532989129
 20
381.2566069783
 40
1.515
  0
CIRCLE
  5
3A4
100
AcDbEntity
  8
94528901000_M_BL2
100
AcDbCircle
 62
7
  6
CONTINUOUS
 10
127.7532989129
 20
385.2566069783
 40
0.75
  0
ARC
  5
3A5
100
AcDbEntity
  8
94528901000_M_BL2
100
AcDbCircle
 62
7
  6
CONTINUOUS
 10
22.3042910925
 20
381.2566069783
 40
4.0
100
AcDbArc
 50
326.8389561101
 51
33.1610438899
  0
ENDBLK
  5
3A6
100
AcDbEntity
  8
0
  6
BYBLOCK
 62
0
100
AcDbBlockEnd
  0
BLOCK
  5
3A7
100
AcDbEntity
  8
94529001000_BL3
100
AcDbBlockBegin
  2
94529001000_BL3
 70
64
 10
76.9516706582
 20
412.8566069783
  3
94529001000_BL3
  1

  0
LINE
  5
3A8
100
AcDbEntity
  8
94529001000_BL3
100
AcDbLine
 62
7
  6
CONTINUOUS
 10
119.2532989129
 20
390.6066069783
 11
120.0532989129
 21
390.6066069783
  0
LINE
  5
3A9
100
AcDbEntity
  8
94529001000_BL3
100
AcDbLine
 62
7
  6
CONTINUOUS
 10
135.4532989129
 20
390.6066069783
 11
136.2532989129
 21
390.6066069783
  0
LINE
  5
3AA
100
AcDbEntity
  8
94529001000_BL3
100
AcDbLine
 62
7
  6
CONTINUOUS
 10
124.5532989129
 20
393.0566069783
 11
131.9532989129
 21
393.0566069783
  0
LINE
  5
3AB
100
AcDbEntity
  8
94529001000_BL3
100
AcDbLine
 62
7
  6
CONTINUOUS
 10
124.5532989129
 20
393.8566069783
 11
131.9532989129
 21
393.8566069783
  0
LINE
  5
3AC
100
AcDbEntity
  8
94529001000_BL3
100
AcDbLine
 62
9
  6
CONTINUOUS
 10
122.5532989129
 20
395.8566069783
 11
121.7532989129
 21
395.8566069783
  0
LINE
  5
3AD
100
AcDbEntity
  8
94529001000_BL3
100
AcDbLine
 62
9
  6
CONTINUOUS
 10
133.9532989129
 20
395.8566069783
 11
134.7532989129
 21
395.8566069783
  0
LINE
  5
3AE
100
AcDbEntity
  8
94529001000_BL3
100
AcDbLine
 62
7
  6
CONTINUOUS
 10
120.0532989129
 20
412.7066069783
 11
121.7532989129
 21
412.7066069783
  0
LINE
  5
3AF
100
AcDbEntity
  8
94529001000_BL3
100
AcDbLine
 62
7
  6
CONTINUOUS
 10
119.9032989129
 20
412.8566069783
 11
121.9032989129
 21
412.8566069783
  0
LINE
  5
3B0
100
AcDbEntity
  8
94529001000_BL3
100
AcDbLine
 62
7
  6
CONTINUOUS
 10
120.0532989129
 20
413.0066069783
 11
121.7532989129
 21
413.0066069783
  0
LINE
  5
3B1
100
AcDbEntity
  8
94529001000_BL3
100
AcDbLine
 62
9
  6
CONTINUOUS
 10
122.5532989129
 20
429.8566069783
 11
121.7532989129
 21
429.8566069783
  0
LINE
  5
3B2
100
AcDbEntity
  8
94529001000_BL3
100
AcDbLine
 62
9
  6
CONTINUOUS
 10
133.9532989129
 20
429.8566069783
 11
134.7532989129
 21
429.8566069783
  0
LINE
  5
3B3
100
AcDbEntity
  8
94529001000_BL3
100
AcDbLine
 62
7
  6
CONTINUOUS
 10
131.9532989129
 20
431.8566069783
 11
124.5532989129
 21
431.8566069783
  0
LINE
  5
3B4
100
AcDbEntity
  8
94529001000_BL3
100
AcDbLine
 62
7
  6
CONTINUOUS
 10
131.9532989129
 20
432.6566069783
 11
124.5532989129
 21
432.6566069783
  0
LINE
  5
3B5
100
AcDbEntity
  8
94529001000_BL3
100
AcDbLine
 62
7
  6
CONTINUOUS
 10
119.2532989129
 20
435.1066069783
 11
120.0532989129
 21
435.1066069783
  0
LINE
  5
3B6
100
AcDbEntity
  8
94529001000_BL3
100
AcDbLine
 62
7
  6
CONTINUOUS
 10
135.4532989129
 20
435.1066069783
 11
136.2532989129
 21
435.1066069783
  0
LINE
  5
3B7
100
AcDbEntity
  8
94529001000_BL3
100
AcDbLine
 62
7
  6
CONTINUOUS
 10
120.0532989129
 20
412.7066069783
 11
119.9032989129
 21
412.8566069783
  0
LINE
  5
3B8
100
AcDbEntity
  8
94529001000_BL3
100
AcDbLine
 62
7
  6
CONTINUOUS
 10
121.7532989129
 20
413.0066069783
 11
121.9032989129
 21
412.8566069783
  0
LINE
  5
3B9
100
AcDbEntity
  8
94529001000_BL3
100
AcDbLine
 62
7
  6
CONTINUOUS
 10
119.2532989129
 20
382.3566069783
 11
119.2532989129
 21
443.3566069783
  0
LINE
  5
3BA
100
AcDbEntity
  8
94529001000_BL3
100
AcDbLine
 62
7
  6
CONTINUOUS
 10
120.0532989129
 20
390.6066069783
 11
120.0532989129
 21
412.7066069783
  0
LINE
  5
3BB
100
AcDbEntity
  8
94529001000_BL3
100
AcDbLine
 62
7
  6
CONTINUOUS
 10
120.0532989129
 20
413.0066069783
 11
120.0532989129
 21
435.1066069783
  0
LINE
  5
3BC
100
AcDbEntity
  8
94529001000_BL3
100
AcDbLine
 62
7
  6
CONTINUOUS
 10
121.7532989129
 20
429.8566069783
 11
121.7532989129
 21
413.0066069783
  0
LINE
  5
3BD
100
AcDbEntity
  8
94529001000_BL3
100
AcDbLine
 62
7
  6
CONTINUOUS
 10
121.7532989129
 20
412.7066069783
 11
121.7532989129
 21
395.8566069783
  0
LINE
  5
3BE
100
AcDbEntity
  8
94529001000_BL3
100
AcDbLine
 62
7
  6
CONTINUOUS
 10
122.5532989129
 20
429.8566069783
 11
122.5532989129
 21
395.8566069783
  0
LINE
  5
3BF
100
AcDbEntity
  8
94529001000_BL3
100
AcDbLine
 62
9
  6
CONTINUOUS
 10
124.5532989129
 20
393.8566069783
 11
124.5532989129
 21
393.0566069783
  0
LINE
  5
3C0
100
AcDbEntity
  8
94529001000_BL3
100
AcDbLine
 62
9
  6
CONTINUOUS
 10
124.5532989129
 20
431.8566069783
 11
124.5532989129
 21
432.6566069783
  0
LINE
  5
3C1
100
AcDbEntity
  8
94529001000_BL3
100
AcDbLine
 62
7
  6
CENTER
 10
127.7532989129
 20
454.8700796438
 11
127.7532989129
 21
370.8431343128
  0
LINE
  5
3C2
100
AcDbEntity
  8
94529001000_BL3
100
AcDbLine
 62
9
  6
CONTINUOUS
 10
131.9532989129
 20
393.8566069783
 11
131.9532989129
 21
393.0566069783
  0
LINE
  5
3C3
100
AcDbEntity
  8
94529001000_BL3
100
AcDbLine
 62
9
  6
CONTINUOUS
 10
131.9532989129
 20
431.8566069783
 11
131.9532989129
 21
432.6566069783
  0
LINE
  5
3C4
100
AcDbEntity
  8
94529001000_BL3
100
AcDbLine
 62
7
  6
CONTINUOUS
 10
133.9532989129
 20
395.8566069783
 11
133.9532989129
 21
429.8566069783
  0
LINE
  5
3C5
100
AcDbEntity
  8
94529001000_BL3
100
AcDbLine
 62
7
  6
CONTINUOUS
 10
134.7532989129
 20
395.8566069783
 11
134.7532989129
 21
429.8566069783
  0
LINE
  5
3C6
100
AcDbEntity
  8
94529001000_BL3
100
AcDbLine
 62
7
  6
CONTINUOUS
 10
135.4532989129
 20
390.6066069783
 11
135.4532989129
 21
435.1066069783
  0
LINE
  5
3C7
100
AcDbEntity
  8
94529001000_BL3
100
AcDbLine
 62
7
  6
CONTINUOUS
 10
136.2532989129
 20
382.3566069783
 11
136.2532989129
 21
443.3566069783
  0
LINE
  5
3C8
100
AcDbEntity
  8
94529001000_BL3
100
AcDbLine
 62
7
  6
CONTINUOUS
 10
120.0532989129
 20
413.0066069783
 11
119.9032989129
 21
412.8566069783
  0
LINE
  5
3C9
100
AcDbEntity
  8
94529001000_BL3
100
AcDbLine
 62
7
  6
CONTINUOUS
 10
121.7532989129
 20
412.7066069783
 11
121.9032989129
 21
412.8566069783
  0
LINE
  5
3CA
100
AcDbEntity
  8
94529001000_BL3
100
AcDbLine
 62
7
  6
CONTINUOUS
 10
19.6500424036
 20
373.8566069783
 11
17.6500424036
 21
373.8566069783
  0
LINE
  5
3CB
100
AcDbEntity
  8
94529001000_BL3
100
AcDbLine
 62
9
  6
CONTINUOUS
 10
17.6500424036
 20
382.3566069783
 11
19.6500424036
 21
382.3566069783
  0
LINE
  5
3CC
100
AcDbEntity
  8
94529001000_BL3
100
AcDbLine
 62
7
  6
CONTINUOUS
 10
17.6500424036
 20
390.6066069783
 11
18.4500424036
 21
390.6066069783
  0
LINE
  5
3CD
100
AcDbEntity
  8
94529001000_BL3
100
AcDbLine
 62
7
  6
CONTINUOUS
 10
17.6500424036
 20
435.1066069783
 11
18.4500424036
 21
435.1066069783
  0
LINE
  5
3CE
100
AcDbEntity
  8
94529001000_BL3
100
AcDbLine
 62
9
  6
CONTINUOUS
 10
17.6500424036
 20
443.3566069783
 11
19.6500424036
 21
443.3566069783
  0
LINE
  5
3CF
100
AcDbEntity
  8
94529001000_BL3
100
AcDbLine
 62
7
  6
CONTINUOUS
 10
19.6500424036
 20
451.8566069783
 11
17.6500424036
 21
451.8566069783
  0
LINE
  5
3D0
100
AcDbEntity
  8
94529001000_BL3
100
AcDbLine
 62
7
  6
CONTINUOUS
 10
17.6500424036
 20
373.8566069783
 11
17.6500424036
 21
451.8566069783
  0
LINE
  5
3D1
100
AcDbEntity
  8
94529001000_BL3
100
AcDbLine
 62
7
  6
CONTINUOUS
 10
18.4500424036
 20
390.6066069783
 11
18.4500424036
 21
435.1066069783
  0
LINE
  5
3D2
100
AcDbEntity
  8
94529001000_BL3
100
AcDbLine
 62
7
  6
CONTINUOUS
 10
19.6500424036
 20
448.1626526819
 11
19.6500424036
 21
377.5505616098
  0
ARC
  5
3D3
100
AcDbEntity
  8
94529001000_BL3
100
AcDbCircle
 62
7
  6
CONTINUOUS
 10
124.5532989129
 20
395.8566069783
 40
2.7999942656
100
AcDbArc
 50
180.0
 51
270.0
  0
ARC
  5
3D4
100
AcDbEntity
  8
94529001000_BL3
100
AcDbCircle
 62
7
  6
CONTINUOUS
 10
124.5532989129
 20
429.8566069783
 40
2.7999942656
100
AcDbArc
 50
90.0
 51
180.0
  0
ARC
  5
3D5
100
AcDbEntity
  8
94529001000_BL3
100
AcDbCircle
 62
7
  6
CONTINUOUS
 10
124.5532989129
 20
395.8566069783
 40
2.0
100
AcDbArc
 50
180.0
 51
270.0
  0
ARC
  5
3D6
100
AcDbEntity
  8
94529001000_BL3
100
AcDbCircle
 62
7
  6
CONTINUOUS
 10
124.5532989129
 20
429.8566069783
 40
2.0
100
AcDbArc
 50
90.0
 51
180.0
  0
ARC
  5
3D7
100
AcDbEntity
  8
94529001000_BL3
100
AcDbCircle
 62
7
  6
CONTINUOUS
 10
127.7532989129
 20
382.3566069783
 40
8.5
100
AcDbArc
 50
180.0
 51
360.0
  0
CIRCLE
  5
3D8
100
AcDbEntity
  8
94529001000_BL3
100
AcDbCircle
 62
7
  6
CONTINUOUS
 10
127.7532989129
 20
382.7566069783
 40
5.65
  0
ARC
  5
3D9
100
AcDbEntity
  8
94529001000_BL3
100
AcDbCircle
 62
7
  6
CONTINUOUS
 10
127.7532989129
 20
443.3566069783
 40
8.5
100
AcDbArc
 50
0.0
 51
180.0
  0
CIRCLE
  5
3DA
100
AcDbEntity
  8
94529001000_BL3
100
AcDbCircle
 62
7
  6
CONTINUOUS
 10
127.7532989129
 20
442.9566069783
 40
5.65
  0
ARC
  5
3DB
100
AcDbEntity
  8
94529001000_BL3
100
AcDbCircle
 62
7
  6
CONTINUOUS
 10
131.9532989129
 20
395.8566069783
 40
2.7999942656
100
AcDbArc
 50
270.0
 51
360.0
  0
ARC
  5
3DC
100
AcDbEntity
  8
94529001000_BL3
100
AcDbCircle
 62
7
  6
CONTINUOUS
 10
131.9532989129
 20
395.8566069783
 40
2.0
100
AcDbArc
 50
270.0
 51
360.0
  0
ARC
  5
3DD
100
AcDbEntity
  8
94529001000_BL3
100
AcDbCircle
 62
7
  6
CONTINUOUS
 10
131.9532989129
 20
429.8566069783
 40
2.7999942656
100
AcDbArc
 50
0.0
 51
90.0
  0
ARC
  5
3DE
100
AcDbEntity
  8
94529001000_BL3
100
AcDbCircle
 62
7
  6
CONTINUOUS
 10
131.9532989129
 20
429.8566069783
 40
2.0
100
AcDbArc
 50
0.0
 51
90.0
  0
ENDBLK
  5
3DF
100
AcDbEntity
  8
0
  6
BYBLOCK
 62
0
100
AcDbBlockEnd
  0
BLOCK
  5
3E0
100
AcDbEntity
  8
94663701000_BL4
100
AcDbBlockBegin
  2
94663701000_BL4
 70
64
 10
79.4516706582
 20
412.8566069783
  3
94663701000_BL4
  1

  0
LINE
  5
3E1
100
AcDbEntity
  8
94663701000_BL4
100
AcDbLine
 62
9
  6
CONTINUOUS
 10
132.1061486626
 20
394.5147134378
 11
123.4004491631
 21
394.5147134378
  0
LINE
  5
3E2
100
AcDbEntity
  8
94663701000_BL4
100
AcDbLine
 62
9
  6
CONTINUOUS
 10
122.5532989129
 20
396.5037572286
 11
133.9532989129
 21
396.5037572286
  0
LINE
  5
3E3
100
AcDbEntity
  8
94663701000_BL4
100
AcDbLine
 62
7
  6
CONTINUOUS
 10
127.7532989129
 20
412.4566069783
 11
129.2532989129
 21
412.4566069783
  0
LINE
  5
3E4
100
AcDbEntity
  8
94663701000_BL4
100
AcDbLine
 62
7
  6
CENTER
 10
140.7532989129
 20
412.8566069783
 11
114.7532989129
 21
412.8566069783
  0
LINE
  5
3E5
100
AcDbEntity
  8
94663701000_BL4
100
AcDbLine
 62
7
  6
CONTINUOUS
 10
129.2532989129
 20
413.2566069783
 11
127.7532989129
 21
413.2566069783
  0
LINE
  5
3E6
100
AcDbEntity
  8
94663701000_BL4
100
AcDbLine
 62
9
  6
CONTINUOUS
 10
122.5532989129
 20
429.209456728
 11
133.9532989129
 21
429.209456728
  0
LINE
  5
3E7
100
AcDbEntity
  8
94663701000_BL4
100
AcDbLine
 62
9
  6
CONTINUOUS
 10
123.4004491631
 20
431.1985005187
 11
132.1061486626
 21
431.1985005187
  0
LINE
  5
3E8
100
AcDbEntity
  8
94663701000_BL4
100
AcDbLine
 62
7
  6
CONTINUOUS
 10
125.7532989129
 20
412.8566069783
 11
127.7532989129
 21
411.7019064399
  0
LINE
  5
3E9
100
AcDbEntity
  8
94663701000_BL4
100
AcDbLine
 62
9
  6
CONTINUOUS
 10
132.6405213068
 20
393.9803407936
 11
132.1061486626
 21
394.5147134378
  0
LINE
  5
3EA
100
AcDbEntity
  8
94663701000_BL4
100
AcDbLine
 62
9
  6
CONTINUOUS
 10
123.2390037042
 20
431.3599459777
 11
123.4004491631
 21
431.1985005187
  0
LINE
  5
3EB
100
AcDbEntity
  8
94663701000_BL4
100
AcDbLine
 62
9
  6
CONTINUOUS
 10
123.4004491631
 20
394.5147134378
 11
123.4004491631
 21
431.1985005187
  0
LINE
  5
3EC
100
AcDbEntity
  8
94663701000_BL4
100
AcDbLine
 62
7
  6
CONTINUOUS
 10
127.7532989129
 20
413.2566069783
 11
127.7532989129
 21
414.0113075167
  0
LINE
  5
3ED
100
AcDbEntity
  8
94663701000_BL4
100
AcDbLine
 62
7
  6
CONTINUOUS
 10
127.7532989129
 20
411.7019064399
 11
127.7532989129
 21
412.4566069783
  0
LINE
  5
3EE
100
AcDbEntity
  8
94663701000_BL4
100
AcDbLine
 62
7
  6
CONTINUOUS
 10
129.2532989129
 20
412.4566069783
 11
129.2532989129
 21
413.2566069783
  0
LINE
  5
3EF
100
AcDbEntity
  8
94663701000_BL4
100
AcDbLine
 62
9
  6
CONTINUOUS
 10
132.1061486626
 20
394.5147134378
 11
132.1061486626
 21
431.1985005187
  0
LINE
  5
3F0
100
AcDbEntity
  8
94663701000_BL4
100
AcDbLine
 62
9
  6
CONTINUOUS
 10
132.1061486626
 20
431.1985005187
 11
132.6405332172
 21
431.7328850734
  0
LINE
  5
3F1
100
AcDbEntity
  8
94663701000_BL4
100
AcDbLine
 62
9
  6
CONTINUOUS
 10
123.4004491631
 20
394.5147134378
 11
123.2389993557
 21
394.3532636304
  0
LINE
  5
3F2
100
AcDbEntity
  8
94663701000_BL4
100
AcDbLine
 62
7
  6
CONTINUOUS
 10
127.7532989129
 20
414.0113075167
 11
125.7532989129
 21
412.8566069783
  0
LINE
  5
3F3
100
AcDbEntity
  8
94663701000_BL4
100
AcDbLine
 62
7
  6
CONTINUOUS
 10
27.6500424036
 20
392.8566069783
 11
33.9636277934
 21
393.5201915425
  0
LINE
  5
3F4
100
AcDbEntity
  8
94663701000_BL4
100
AcDbLine
 62
9
  6
CONTINUOUS
 10
27.6504683603
 20
395.8402174343
 11
33.9636277934
 21
396.5037572286
  0
LINE
  5
3F5
100
AcDbEntity
  8
94663701000_BL4
100
AcDbLine
 62
7
  6
CONTINUOUS
 10
27.6500424036
 20
392.8566069783
 11
25.7500424036
 21
392.8566069783
  0
LINE
  5
3F6
100
AcDbEntity
  8
94663701000_BL4
100
AcDbLine
 62
9
  6
CONTINUOUS
 10
27.6500424036
 20
395.8566069783
 11
25.7500424036
 21
395.8566069783
  0
LINE
  5
3F7
100
AcDbEntity
  8
94663701000_BL4
100
AcDbLine
 62
9
  6
CONTINUOUS
 10
36.6500424036
 20
396.5037572286
 11
33.9636277934
 21
396.5037572321
  0
LINE
  5
3F8
100
AcDbEntity
  8
94663701000_BL4
100
AcDbLine
 62
7
  6
CONTINUOUS
 10
36.6500424036
 20
411.7019064399
 11
36.8500424036
 21
411.7019064399
  0
LINE
  5
3F9
100
AcDbEntity
  8
94663701000_BL4
100
AcDbLine
 62
7
  6
CONTINUOUS
 10
36.6500424036
 20
412.4566069783
 11
36.8500424036
 21
412.4566069783
  0
LINE
  5
3FA
100
AcDbEntity
  8
94663701000_BL4
100
AcDbLine
 62
7
  6
CENTER
 10
39.8500424036
 20
412.8566069783
 11
18.1500424036
 21
412.8566069783
  0
LINE
  5
3FB
100
AcDbEntity
  8
94663701000_BL4
100
AcDbLine
 62
7
  6
CONTINUOUS
 10
36.6500424036
 20
413.2566069783
 11
36.8500424036
 21
413.2566069783
  0
LINE
  5
3FC
100
AcDbEntity
  8
94663701000_BL4
100
AcDbLine
 62
7
  6
CONTINUOUS
 10
36.6500424036
 20
414.0113075167
 11
36.8500424036
 21
414.0113075167
  0
LINE
  5
3FD
100
AcDbEntity
  8
94663701000_BL4
100
AcDbLine
 62
9
  6
CONTINUOUS
 10
36.6500424036
 20
429.209456728
 11
33.9636277934
 21
429.209456728
  0
LINE
  5
3FE
100
AcDbEntity
  8
94663701000_BL4
100
AcDbLine
 62
9
  6
CONTINUOUS
 10
25.7500424036
 20
429.8566069783
 11
27.6500424036
 21
429.8566069783
  0
LINE
  5
3FF
100
AcDbEntity
  8
94663701000_BL4
100
AcDbLine
 62
7
  6
CONTINUOUS
 10
25.7500424036
 20
432.8566069783
 11
27.6500424036
 21
432.8566069783
  0
LINE
  5
400
100
AcDbEntity
  8
94663701000_BL4
100
AcDbLine
 62
9
  6
CONTINUOUS
 10
33.9636277934
 20
429.209456728
 11
27.6504683603
 21
429.8729965223
  0
LINE
  5
401
100
AcDbEntity
  8
94663701000_BL4
100
AcDbLine
 62
7
  6
CONTINUOUS
 10
33.9636277934
 20
432.1930224141
 11
27.6504683603
 21
432.8565622084
  0
LINE
  5
402
100
AcDbEntity
  8
94663701000_BL4
100
AcDbLine
 62
9
  6
CONTINUOUS
 10
25.7500424036
 20
392.8566069783
 11
25.7500424036
 21
395.8566069783
  0
LINE
  5
403
100
AcDbEntity
  8
94663701000_BL4
100
AcDbLine
 62
9
  6
CONTINUOUS
 10
25.7500424036
 20
429.8566069783
 11
25.7500424036
 21
432.8566069783
  0
LINE
  5
404
100
AcDbEntity
  8
94663701000_BL4
100
AcDbLine
 62
7
  6
CONTINUOUS
 10
27.6500424036
 20
395.8566069783
 11
27.6500424036
 21
429.8566069783
  0
LINE
  5
405
100
AcDbEntity
  8
94663701000_BL4
100
AcDbLine
 62
9
  6
CONTINUOUS
 10
33.9636277934
 20
429.209456728
 11
33.9636277934
 21
396.5037572286
  0
LINE
  5
406
100
AcDbEntity
  8
94663701000_BL4
100
AcDbLine
 62
7
  6
CONTINUOUS
 10
36.6500424036
 20
429.209456728
 11
36.6500424036
 21
396.5037572286
  0
LINE
  5
407
100
AcDbEntity
  8
94663701000_BL4
100
AcDbLine
 62
7
  6
CONTINUOUS
 10
36.8500424036
 20
414.0113075167
 11
36.8500424036
 21
411.7019064399
  0
ARC
  5
408
100
AcDbEntity
  8
94663701000_BL4
100
AcDbCircle
 62
9
  6
CONTINUOUS
 10
123.4233550495
 20
429.1964503455
 40
2.0021812046
100
AcDbArc
 50
90.6555047274
 51
101.1313899638
  0
ARC
  5
409
100
AcDbEntity
  8
94663701000_BL4
100
AcDbCircle
 62
9
  6
CONTINUOUS
 10
123.4233549515
 20
396.5167625177
 40
2.0021801101
100
AcDbArc
 50
258.8691944185
 51
269.3444977193
  0
ARC
  5
40A
100
AcDbEntity
  8
94663701000_BL4
100
AcDbCircle
 62
9
  6
CONTINUOUS
 10
132.081490094
 20
396.5307446588
 40
2.014568408
100
AcDbArc
 50
337.1348139675
 51
338.1207683036
  0
ARC
  5
40B
100
AcDbEntity
  8
94663701000_BL4
100
AcDbCircle
 62
9
  6
CONTINUOUS
 10
132.0814903063
 20
429.1824693861
 40
2.0145681781
100
AcDbArc
 50
21.8788901344
 51
22.8651860656
  0
ARC
  5
40C
100
AcDbEntity
  8
94663701000_BL4
100
AcDbCircle
 62
7
  6
CONTINUOUS
 10
25.7500424036
 20
434.8566069783
 40
2.0
100
AcDbArc
 50
267.1270134092
 51
270.0
  0
ARC
  5
40D
100
AcDbEntity
  8
94663701000_BL4
100
AcDbCircle
 62
7
  6
CONTINUOUS
 10
25.7500424036
 20
390.8566069783
 40
2.0
100
AcDbArc
 50
90.0
 51
92.8729865908
  0
ARC
  5
40E
100
AcDbEntity
  8
94663701000_BL4
100
AcDbCircle
 62
7
  6
CONTINUOUS
 10
33.6500424036
 20
429.209456728
 40
3.0
100
AcDbArc
 50
0.0
 51
83.9999999988
  0
ARC
  5
40F
100
AcDbEntity
  8
94663701000_BL4
100
AcDbCircle
 62
7
  6
CONTINUOUS
 10
33.6500424036
 20
396.5037572286
 40
3.0
100
AcDbArc
 50
276.0
 51
360.0
  0
SPLINE
  5
410
100
AcDbEntity
  8
94663701000_BL4
100
AcDbSpline
 62
9
  6
CONTINUOUS
 70
0
 71
3
 72
9
 73
5
 74
0
 42
0.0000001
 43
0.0000001
 44
0.0000000001
 40
0.0
 40
0.0
 40
0.0
 40
0.0
 40
0.4994359183
 40
1.0
 40
1.0
 40
1.0
 40
1.0
 10
132.1061486626
 20
431.1985005187
 30
0.0
 10
132.4897137135
 20
431.1943096117
 30
0.0
 10
133.2717310288
 20
430.9534181125
 30
0.0
 10
133.7883721794
 20
430.3195031198
 30
0.0
 10
133.9377570896
 20
429.9652583572
 30
0.0
  0
SPLINE
  5
411
100
AcDbEntity
  8
94663701000_BL4
100
AcDbSpline
 62
9
  6
CONTINUOUS
 70
0
 71
3
 72
9
 73
5
 74
0
 42
0.0000001
 43
0.0000001
 44
0.0000000001
 40
0.0
 40
0.0
 40
0.0
 40
0.0
 40
0.5005640817
 40
1.0
 40
1.0
 40
1.0
 40
1.0
 10
133.9377570896
 20
395.7479555994
 30
0.0
 10
133.7883721794
 20
395.3937108367
 30
0.0
 10
133.2717310288
 20
394.7597958441
 30
0.0
 10
132.4897137135
 20
394.5189043449
 30
0.0
 10
132.1061486626
 20
394.5147134378
 30
0.0
  0
LINE
  5
412
100
AcDbEntity
  8
94663701000_BL4
100
AcDbLine
 62
7
  6
CONTINUOUS
 10
25.6503294176
 20
429.9787931358
 11
25.7500424036
 21
429.8566069783
  0
LINE
  5
413
100
AcDbEntity
  8
94663701000_BL4
100
AcDbLine
 62
7
  6
CONTINUOUS
 10
25.7500424036
 20
395.8566069783
 11
25.6503306392
 21
395.7344223185
  0
SPLINE
  5
414
100
AcDbEntity
  8
94663701000_BL4
100
AcDbSpline
 62
9
  6
CONTINUOUS
 70
0
 71
3
 72
14
 73
10
 74
0
 42
0.0000001
 43
0.0000001
 44
0.0000000001
 40
0.0
 40
0.0
 40
0.0
 40
0.0
 40
0.3776418975
 40
0.5480936276
 40
0.6976778606
 40
0.8208774404
 40
0.9133634034
 40
0.9724713905
 40
1.0
 40
1.0
 40
1.0
 40
1.0
 10
33.9636277934
 20
396.5037572286
 30
0.0
 10
34.0028586353
 20
396.1263773735
 30
0.0
 10
34.0494901492
 20
395.577299988
 30
0.0
 10
34.0844615076
 20
394.8775644596
 30
0.0
 10
34.0932686592
 20
394.4312834814
 30
0.0
 10
34.0885794643
 20
394.0669829871
 30
0.0
 10
34.0638989117
 20
393.7847535928
 30
0.0
 10
34.0387001595
 20
393.6202366607
 30
0.0
 10
33.9911340346
 20
393.5230825647
 30
0.0
 10
33.9636277934
 20
393.5201915425
 30
0.0
  0
SPLINE
  5
415
100
AcDbEntity
  8
94663701000_BL4
100
AcDbSpline
 62
7
  6
CONTINUOUS
 70
0
 71
3
 72
13
 73
9
 74
0
 42
0.0000001
 43
0.0000001
 44
0.0000000001
 40
0.0
 40
0.0
 40
0.0
 40
0.0
 40
0.0228689703
 40
0.0748647054
 40
0.1580222898
 40
0.2717288016
 40
0.5852609458
 40
1.0
 40
1.0
 40
1.0
 40
1.0
 10
27.6504683603
 20
392.8566517481
 30
0.0
 10
27.659414841
 20
392.8575920612
 30
0.0
 10
27.6733737663
 20
392.8920947008
 30
0.0
 10
27.6840770382
 20
392.9473518064
 30
0.0
 10
27.6957659095
 20
393.0477570145
 30
0.0
 10
27.7083441017
 20
393.2463612122
 30
0.0
 10
27.7158086241
 20
393.5788904975
 30
0.0
 10
27.7146591147
 20
393.8649204337
 30
0.0
 10
27.7126881487
 20
394.0280506855
 30
0.0
  0
SPLINE
  5
416
100
AcDbEntity
  8
94663701000_BL4
100
AcDbSpline
 62
7
  6
CONTINUOUS
 70
0
 71
3
 72
9
 73
5
 74
0
 42
0.0000001
 43
0.0000001
 44
0.0000000001
 40
0.0
 40
0.0
 40
0.0
 40
0.0
 40
0.2255926768
 40
1.0
 40
1.0
 40
1.0
 40
1.0
 10
27.7126881487
 20
394.0280506855
 30
0.0
 10
27.711040796
 20
394.1643965532
 30
0.0
 10
27.6994447078
 20
394.7687314401
 30
0.0
 10
27.6747660007
 20
395.3727706044
 30
0.0
 10
27.6504683603
 20
395.8402174343
 30
0.0
  0
SPLINE
  5
417
100
AcDbEntity
  8
94663701000_BL4
100
AcDbSpline
 62
9
  6
CONTINUOUS
 70
0
 71
3
 72
14
 73
10
 74
0
 42
0.0000001
 43
0.0000001
 44
0.0000000001
 40
0.0
 40
0.0
 40
0.0
 40
0.0
 40
0.0275286095
 40
0.0866365966
 40
0.1791225596
 40
0.3023221394
 40
0.4519063724
 40
0.6223581025
 40
1.0
 40
1.0
 40
1.0
 40
1.0
 10
33.9636277934
 20
432.1930224141
 30
0.0
 10
33.9911340346
 20
432.1901313919
 30
0.0
 10
34.0387001595
 20
432.0929772959
 30
0.0
 10
34.0638989117
 20
431.9284603637
 30
0.0
 10
34.0885794643
 20
431.6462309695
 30
0.0
 10
34.0932686592
 20
431.2819304752
 30
0.0
 10
34.0844615076
 20
430.835649497
 30
0.0
 10
34.0494901492
 20
430.1359139685
 30
0.0
 10
34.0028586353
 20
429.5868365831
 30
0.0
 10
33.9636277934
 20
429.209456728
 30
0.0
  0
SPLINE
  5
418
100
AcDbEntity
  8
94663701000_BL4
100
AcDbSpline
 62
7
  6
CONTINUOUS
 70
0
 71
3
 72
13
 73
9
 74
0
 42
0.0000001
 43
0.0000001
 44
0.0000000001
 40
0.0
 40
0.0
 40
0.0
 40
0.0
 40
0.0228689703
 40
0.0748647054
 40
0.1580222898
 40
0.2717288016
 40
0.5852609458
 40
1.0
 40
1.0
 40
1.0
 40
1.0
 10
27.6504683603
 20
432.8565622084
 30
0.0
 10
27.659414841
 20
432.8556218954
 30
0.0
 10
27.6733737663
 20
432.8211192558
 30
0.0
 10
27.6840770382
 20
432.7658621502
 30
0.0
 10
27.6957659095
 20
432.6654569421
 30
0.0
 10
27.7083441017
 20
432.4668527444
 30
0.0
 10
27.7158086241
 20
432.1343234591
 30
0.0
 10
27.7146591147
 20
431.8482935229
 30
0.0
 10
27.7126881487
 20
431.6851632711
 30
0.0
  0
SPLINE
  5
419
100
AcDbEntity
  8
94663701000_BL4
100
AcDbSpline
 62
7
  6
CONTINUOUS
 70
0
 71
3
 72
9
 73
5
 74
0
 42
0.0000001
 43
0.0000001
 44
0.0000000001
 40
0.0
 40
0.0
 40
0.0
 40
0.0
 40
0.2255926768
 40
1.0
 40
1.0
 40
1.0
 40
1.0
 10
27.7126881487
 20
431.6851632711
 30
0.0
 10
27.711040796
 20
431.5488174034
 30
0.0
 10
27.6994447078
 20
430.9444825165
 30
0.0
 10
27.6747660007
 20
430.3404433522
 30
0.0
 10
27.6504683603
 20
429.8729965223
 30
0.0
  0
ELLIPSE
  5
41A
100
AcDbEntity
  8
94663701000_BL4
100
AcDbEllipse
 62
7
  6
CONTINUOUS
 10
56.1931357662
 20
395.8566069783
 30
0.0
 11
28.5430933627
 21
0.0
 31
0.0
 40
0.1051042353
 41
-3.1415926536
 42
-3.1361294451
  0
ELLIPSE
  5
41B
100
AcDbEntity
  8
94663701000_BL4
100
AcDbEllipse
 62
7
  6
CONTINUOUS
 10
56.1931357662
 20
429.8566069783
 30
0.0
 11
28.5430933627
 21
0.0
 31
0.0
 40
0.1051042353
 41
3.1361294451
 42
3.1415926536
  0
ENDBLK
  5
41C
100
AcDbEntity
  8
0
  6
BYBLOCK
 62
0
100
AcDbBlockEnd
  0
BLOCK
  5
41D
100
AcDbEntity
  8
94528901000_M_BL5
100
AcDbBlockBegin
  2
94528901000_M_BL5
 70
64
 10
79.4530678328
 20
442.9566069783
  3
94528901000_M_BL5
  1

  0
LINE
  5
41E
100
AcDbEntity
  8
94528901000_M_BL5
100
AcDbLine
 62
7
  6
CONTINUOUS
 10
126.8782989129
 20
439.9410625217
 11
128.6282989129
 21
439.9410625217
  0
LINE
  5
41F
100
AcDbEntity
  8
94528901000_M_BL5
100
AcDbLine
 62
7
  6
CONTINUOUS
 10
128.6282989129
 20
442.9721514349
 11
126.8782989129
 21
442.9721514349
  0
LINE
  5
420
100
AcDbEntity
  8
94528901000_M_BL5
100
AcDbLine
 62
7
  6
CONTINUOUS
 10
126.0032989129
 20
441.4566069783
 11
126.8782989129
 21
439.9410625217
  0
LINE
  5
421
100
AcDbEntity
  8
94528901000_M_BL5
100
AcDbLine
 62
7
  6
CONTINUOUS
 10
129.5032989129
 20
441.4566069783
 11
128.6282989129
 21
442.9721514349
  0
LINE
  5
422
100
AcDbEntity
  8
94528901000_M_BL5
100
AcDbLine
 62
7
  6
CONTINUOUS
 10
126.8782989129
 20
442.9721514349
 11
126.0032989129
 21
441.4566069783
  0
LINE
  5
423
100
AcDbEntity
  8
94528901000_M_BL5
100
AcDbLine
 62
7
  6
CONTINUOUS
 10
128.6282989129
 20
439.9410625217
 11
129.5032989129
 21
441.4566069783
  0
CIRCLE
  5
424
100
AcDbEntity
  8
94528901000_M_BL5
100
AcDbCircle
 62
7
  6
CONTINUOUS
 10
127.7532989129
 20
442.9566069783
 40
5.5
  0
CIRCLE
  5
425
100
AcDbEntity
  8
94528901000_M_BL5
100
AcDbCircle
 62
7
  6
CONTINUOUS
 10
127.7532989129
 20
441.4566069783
 40
1.75
  0
CIRCLE
  5
426
100
AcDbEntity
  8
94528901000_M_BL5
100
AcDbCircle
 62
7
  6
CONTINUOUS
 10
127.7532989129
 20
441.4566069783
 40
1.515
  0
CIRCLE
  5
427
100
AcDbEntity
  8
94528901000_M_BL5
100
AcDbCircle
 62
7
  6
CONTINUOUS
 10
127.7532989129
 20
445.4566069783
 40
0.75
  0
ARC
  5
428
100
AcDbEntity
  8
94528901000_M_BL5
100
AcDbCircle
 62
7
  6
CONTINUOUS
 10
22.3042910925
 20
441.4566069783
 40
4.0
100
AcDbArc
 50
326.8389561101
 51
33.1610438899
  0
ENDBLK
  5
429
100
AcDbEntity
  8
0
  6
BYBLOCK
 62
0
100
AcDbBlockEnd
  0
BLOCK
  5
42A
100
AcDbEntity
  8
94663701000_BL6
100
AcDbBlockBegin
  2
94663701000_BL6
 70
64
 10
79.4516706582
 20
1002.8984430119
  3
94663701000_BL6
  1

  0
LINE
  5
42B
100
AcDbEntity
  8
94663701000_BL6
100
AcDbLine
 62
7
  6
CONTINUOUS
 10
127.7532989129
 20
1904.0113075167
 11
125.7532989129
 21
1902.8566069783
  0
LINE
  5
42C
100
AcDbEntity
  8
94663701000_BL6
100
AcDbLine
 62
9
  6
CONTINUOUS
 10
132.1061486626
 20
1921.1985005187
 11
132.6405332172
 21
1921.7328850734
  0
LINE
  5
42D
100
AcDbEntity
  8
94663701000_BL6
100
AcDbLine
 62
9
  6
CONTINUOUS
 10
123.4004491631
 20
1884.5147134378
 11
123.2389993557
 21
1884.3532636304
  0
LINE
  5
42E
100
AcDbEntity
  8
94663701000_BL6
100
AcDbLine
 62
9
  6
CONTINUOUS
 10
123.4004491631
 20
1884.5147134378
 11
123.4004491631
 21
1921.1985005187
  0
LINE
  5
42F
100
AcDbEntity
  8
94663701000_BL6
100
AcDbLine
 62
7
  6
CONTINUOUS
 10
127.7532989129
 20
1903.2566069783
 11
127.7532989129
 21
1904.0113075167
  0
LINE
  5
430
100
AcDbEntity
  8
94663701000_BL6
100
AcDbLine
 62
7
  6
CONTINUOUS
 10
127.7532989129
 20
1901.7019064399
 11
127.7532989129
 21
1902.4566069783
  0
LINE
  5
431
100
AcDbEntity
  8
94663701000_BL6
100
AcDbLine
 62
7
  6
CONTINUOUS
 10
129.2532989129
 20
1902.4566069783
 11
129.2532989129
 21
1903.2566069783
  0
LINE
  5
432
100
AcDbEntity
  8
94663701000_BL6
100
AcDbLine
 62
9
  6
CONTINUOUS
 10
132.1061486626
 20
1884.5147134378
 11
132.1061486626
 21
1921.1985005187
  0
LINE
  5
433
100
AcDbEntity
  8
94663701000_BL6
100
AcDbLine
 62
9
  6
CONTINUOUS
 10
132.6405213068
 20
1883.9803407936
 11
132.1061486626
 21
1884.5147134378
  0
LINE
  5
434
100
AcDbEntity
  8
94663701000_BL6
100
AcDbLine
 62
9
  6
CONTINUOUS
 10
123.2390037042
 20
1921.3599459777
 11
123.4004491631
 21
1921.1985005187
  0
LINE
  5
435
100
AcDbEntity
  8
94663701000_BL6
100
AcDbLine
 62
7
  6
CONTINUOUS
 10
125.7532989129
 20
1902.8566069783
 11
127.7532989129
 21
1901.7019064399
  0
LINE
  5
436
100
AcDbEntity
  8
94663701000_BL6
100
AcDbLine
 62
9
  6
CONTINUOUS
 10
132.1061486626
 20
1884.5147134378
 11
123.4004491631
 21
1884.5147134378
  0
LINE
  5
437
100
AcDbEntity
  8
94663701000_BL6
100
AcDbLine
 62
9
  6
CONTINUOUS
 10
122.5532989129
 20
1886.5037572286
 11
133.9532989129
 21
1886.5037572286
  0
LINE
  5
438
100
AcDbEntity
  8
94663701000_BL6
100
AcDbLine
 62
7
  6
CONTINUOUS
 10
127.7532989129
 20
1902.4566069783
 11
129.2532989129
 21
1902.4566069783
  0
LINE
  5
439
100
AcDbEntity
  8
94663701000_BL6
100
AcDbLine
 62
7
  6
CENTER
 10
140.7532989129
 20
1902.8566069783
 11
114.7532989129
 21
1902.8566069783
  0
LINE
  5
43A
100
AcDbEntity
  8
94663701000_BL6
100
AcDbLine
 62
7
  6
CONTINUOUS
 10
129.2532989129
 20
1903.2566069783
 11
127.7532989129
 21
1903.2566069783
  0
LINE
  5
43B
100
AcDbEntity
  8
94663701000_BL6
100
AcDbLine
 62
9
  6
CONTINUOUS
 10
122.5532989129
 20
1919.209456728
 11
133.9532989129
 21
1919.209456728
  0
LINE
  5
43C
100
AcDbEntity
  8
94663701000_BL6
100
AcDbLine
 62
9
  6
CONTINUOUS
 10
123.4004491631
 20
1921.1985005187
 11
132.1061486626
 21
1921.1985005187
  0
LINE
  5
43D
100
AcDbEntity
  8
94663701000_BL6
100
AcDbLine
 62
9
  6
CONTINUOUS
 10
25.7500424036
 20
1882.8566069783
 11
25.7500424036
 21
1885.8566069783
  0
LINE
  5
43E
100
AcDbEntity
  8
94663701000_BL6
100
AcDbLine
 62
9
  6
CONTINUOUS
 10
25.7500424036
 20
1919.8566069783
 11
25.7500424036
 21
1922.8566069783
  0
LINE
  5
43F
100
AcDbEntity
  8
94663701000_BL6
100
AcDbLine
 62
7
  6
CONTINUOUS
 10
27.6500424036
 20
1885.8566069783
 11
27.6500424036
 21
1919.8566069783
  0
LINE
  5
440
100
AcDbEntity
  8
94663701000_BL6
100
AcDbLine
 62
9
  6
CONTINUOUS
 10
33.9636277934
 20
1919.209456728
 11
33.9636277934
 21
1886.5037572286
  0
LINE
  5
441
100
AcDbEntity
  8
94663701000_BL6
100
AcDbLine
 62
7
  6
CONTINUOUS
 10
36.6500424036
 20
1919.209456728
 11
36.6500424036
 21
1886.5037572286
  0
LINE
  5
442
100
AcDbEntity
  8
94663701000_BL6
100
AcDbLine
 62
7
  6
CONTINUOUS
 10
36.8500424036
 20
1904.0113075167
 11
36.8500424036
 21
1901.7019064399
  0
LINE
  5
443
100
AcDbEntity
  8
94663701000_BL6
100
AcDbLine
 62
7
  6
CONTINUOUS
 10
27.6500424036
 20
1882.8566069783
 11
33.9636277934
 21
1883.5201915425
  0
LINE
  5
444
100
AcDbEntity
  8
94663701000_BL6
100
AcDbLine
 62
9
  6
CONTINUOUS
 10
27.6504683603
 20
1885.8402174343
 11
33.9636277934
 21
1886.5037572286
  0
LINE
  5
445
100
AcDbEntity
  8
94663701000_BL6
100
AcDbLine
 62
7
  6
CONTINUOUS
 10
27.6500424036
 20
1882.8566069783
 11
25.7500424036
 21
1882.8566069783
  0
LINE
  5
446
100
AcDbEntity
  8
94663701000_BL6
100
AcDbLine
 62
9
  6
CONTINUOUS
 10
27.6500424036
 20
1885.8566069783
 11
25.7500424036
 21
1885.8566069783
  0
LINE
  5
447
100
AcDbEntity
  8
94663701000_BL6
100
AcDbLine
 62
9
  6
CONTINUOUS
 10
36.6500424036
 20
1886.5037572286
 11
33.9636277934
 21
1886.5037572321
  0
LINE
  5
448
100
AcDbEntity
  8
94663701000_BL6
100
AcDbLine
 62
7
  6
CONTINUOUS
 10
36.6500424036
 20
1901.7019064399
 11
36.8500424036
 21
1901.7019064399
  0
LINE
  5
449
100
AcDbEntity
  8
94663701000_BL6
100
AcDbLine
 62
7
  6
CONTINUOUS
 10
36.6500424036
 20
1902.4566069783
 11
36.8500424036
 21
1902.4566069783
  0
LINE
  5
44A
100
AcDbEntity
  8
94663701000_BL6
100
AcDbLine
 62
7
  6
CENTER
 10
39.8500424036
 20
1902.8566069783
 11
18.1500424036
 21
1902.8566069783
  0
LINE
  5
44B
100
AcDbEntity
  8
94663701000_BL6
100
AcDbLine
 62
7
  6
CONTINUOUS
 10
36.6500424036
 20
1903.2566069783
 11
36.8500424036
 21
1903.2566069783
  0
LINE
  5
44C
100
AcDbEntity
  8
94663701000_BL6
100
AcDbLine
 62
7
  6
CONTINUOUS
 10
36.6500424036
 20
1904.0113075167
 11
36.8500424036
 21
1904.0113075167
  0
LINE
  5
44D
100
AcDbEntity
  8
94663701000_BL6
100
AcDbLine
 62
9
  6
CONTINUOUS
 10
36.6500424036
 20
1919.209456728
 11
33.9636277934
 21
1919.209456728
  0
LINE
  5
44E
100
AcDbEntity
  8
94663701000_BL6
100
AcDbLine
 62
9
  6
CONTINUOUS
 10
25.7500424036
 20
1919.8566069783
 11
27.6500424036
 21
1919.8566069783
  0
LINE
  5
44F
100
AcDbEntity
  8
94663701000_BL6
100
AcDbLine
 62
7
  6
CONTINUOUS
 10
25.7500424036
 20
1922.8566069783
 11
27.6500424036
 21
1922.8566069783
  0
LINE
  5
450
100
AcDbEntity
  8
94663701000_BL6
100
AcDbLine
 62
9
  6
CONTINUOUS
 10
33.9636277934
 20
1919.209456728
 11
27.6504683603
 21
1919.8729965223
  0
LINE
  5
451
100
AcDbEntity
  8
94663701000_BL6
100
AcDbLine
 62
7
  6
CONTINUOUS
 10
33.9636277934
 20
1922.1930224141
 11
27.6504683603
 21
1922.8565622084
  0
LINE
  5
452
100
AcDbEntity
  8
94663701000_BL6
100
AcDbLine
 62
7
  6
CONTINUOUS
 10
33.9636277934
 20
83.6013498085
 11
27.6504683603
 21
82.9378100142
  0
LINE
  5
453
100
AcDbEntity
  8
94663701000_BL6
100
AcDbLine
 62
7
  6
CONTINUOUS
 10
25.6500424036
 20
82.9377652444
 11
27.6500424036
 21
82.9377652444
  0
LINE
  5
454
100
AcDbEntity
  8
94663701000_BL6
100
AcDbLine
 62
9
  6
CONTINUOUS
 10
33.9636277934
 20
86.5849154946
 11
27.6504683603
 21
85.9213757003
  0
LINE
  5
455
100
AcDbEntity
  8
94663701000_BL6
100
AcDbLine
 62
9
  6
CONTINUOUS
 10
23.7500424036
 20
85.9377652444
 11
27.6500424036
 21
85.9377652444
  0
LINE
  5
456
100
AcDbEntity
  8
94663701000_BL6
100
AcDbLine
 62
9
  6
CONTINUOUS
 10
36.6500424036
 20
86.5849154946
 11
33.9636277934
 21
86.5849155
  0
LINE
  5
457
100
AcDbEntity
  8
94663701000_BL6
100
AcDbLine
 62
7
  6
CONTINUOUS
 10
23.7500424036
 20
82.9377652444
 11
23.7500424036
 21
98.9377652444
  0
LINE
  5
458
100
AcDbEntity
  8
94663701000_BL6
100
AcDbLine
 62
9
  6
CONTINUOUS
 10
25.7500424036
 20
82.9377652444
 11
25.7500424036
 21
88.921261994
  0
LINE
  5
459
100
AcDbEntity
  8
94663701000_BL6
100
AcDbLine
 62
9
  6
CONTINUOUS
 10
25.7500424036
 20
92.9542684947
 11
25.7500424036
 21
98.9377652444
  0
LINE
  5
45A
100
AcDbEntity
  8
94663701000_BL6
100
AcDbLine
 62
7
  6
CONTINUOUS
 10
36.6500424036
 20
89.4377652444
 11
36.8500424036
 21
89.4377652444
  0
LINE
  5
45B
100
AcDbEntity
  8
94663701000_BL6
100
AcDbLine
 62
7
  6
CONTINUOUS
 10
36.6500424036
 20
90.9377652444
 11
36.8500424036
 21
90.9377652444
  0
LINE
  5
45C
100
AcDbEntity
  8
94663701000_BL6
100
AcDbLine
 62
7
  6
CONTINUOUS
 10
27.6500424036
 20
95.9377652444
 11
27.6500424036
 21
85.9377652444
  0
LINE
  5
45D
100
AcDbEntity
  8
94663701000_BL6
100
AcDbLine
 62
7
  6
CONTINUOUS
 10
36.6500424036
 20
92.9377652444
 11
36.8500424036
 21
92.9377652444
  0
LINE
  5
45E
100
AcDbEntity
  8
94663701000_BL6
100
AcDbLine
 62
9
  6
CONTINUOUS
 10
36.6500424036
 20
95.2906149941
 11
33.9636277934
 21
95.2906149941
  0
LINE
  5
45F
100
AcDbEntity
  8
94663701000_BL6
100
AcDbLine
 62
9
  6
CONTINUOUS
 10
27.6500424036
 20
95.9377652444
 11
23.7500424036
 21
95.9377652444
  0
LINE
  5
460
100
AcDbEntity
  8
94663701000_BL6
100
AcDbLine
 62
9
  6
CONTINUOUS
 10
27.6504683603
 20
95.9541547884
 11
33.9636277934
 21
95.2906149941
  0
LINE
  5
461
100
AcDbEntity
  8
94663701000_BL6
100
AcDbLine
 62
9
  6
CONTINUOUS
 10
33.9636277934
 20
95.2906149941
 11
33.9636277934
 21
86.5849154946
  0
LINE
  5
462
100
AcDbEntity
  8
94663701000_BL6
100
AcDbLine
 62
7
  6
CONTINUOUS
 10
27.6500424036
 20
98.9377652444
 11
23.7500424036
 21
98.9377652444
  0
LINE
  5
463
100
AcDbEntity
  8
94663701000_BL6
100
AcDbLine
 62
7
  6
CONTINUOUS
 10
21.6500424036
 20
98.9377652444
 11
23.7500424036
 21
98.9377652444
  0
LINE
  5
464
100
AcDbEntity
  8
94663701000_BL6
100
AcDbLine
 62
7
  6
CONTINUOUS
 10
27.6504683603
 20
98.9377204745
 11
33.9636277934
 21
98.2741806802
  0
LINE
  5
465
100
AcDbEntity
  8
94663701000_BL6
100
AcDbLine
 62
7
  6
CONTINUOUS
 10
36.6500424036
 20
95.2906149941
 11
36.6500424036
 21
86.5849154946
  0
LINE
  5
466
100
AcDbEntity
  8
94663701000_BL6
100
AcDbLine
 62
7
  6
CONTINUOUS
 10
36.8500424036
 20
92.9377652444
 11
36.8500424036
 21
89.4377652444
  0
ARC
  5
467
100
AcDbEntity
  8
94663701000_BL6
100
AcDbCircle
 62
9
  6
CONTINUOUS
 10
123.4233550495
 20
1919.1964503455
 40
2.0021812046
100
AcDbArc
 50
90.6555047273
 51
101.1313899638
  0
ARC
  5
468
100
AcDbEntity
  8
94663701000_BL6
100
AcDbCircle
 62
9
  6
CONTINUOUS
 10
123.4233549515
 20
1886.5167625176
 40
2.0021801101
100
AcDbArc
 50
258.8691944184
 51
269.3444977194
  0
ARC
  5
469
100
AcDbEntity
  8
94663701000_BL6
100
AcDbCircle
 62
9
  6
CONTINUOUS
 10
132.0814900939
 20
1886.5307446588
 40
2.014568408
100
AcDbArc
 50
337.1348139678
 51
338.1207683039
  0
ARC
  5
46A
100
AcDbEntity
  8
94663701000_BL6
100
AcDbCircle
 62
9
  6
CONTINUOUS
 10
132.0814903061
 20
1919.182469386
 40
2.0145681783
100
AcDbArc
 50
21.8788901343
 51
22.8651860654
  0
ARC
  5
46B
100
AcDbEntity
  8
94663701000_BL6
100
AcDbCircle
 62
7
  6
CONTINUOUS
 10
25.7500424036
 20
1924.8566069783
 40
2.0
100
AcDbArc
 50
267.1270134092
 51
270.0
  0
ARC
  5
46C
100
AcDbEntity
  8
94663701000_BL6
100
AcDbCircle
 62
7
  6
CONTINUOUS
 10
25.7500424036
 20
1880.8566069783
 40
2.0
100
AcDbArc
 50
90.0
 51
92.8729865908
  0
ARC
  5
46D
100
AcDbEntity
  8
94663701000_BL6
100
AcDbCircle
 62
7
  6
CONTINUOUS
 10
33.6500424036
 20
1919.209456728
 40
3.0
100
AcDbArc
 50
0.0
 51
83.9999999988
  0
ARC
  5
46E
100
AcDbEntity
  8
94663701000_BL6
100
AcDbCircle
 62
7
  6
CONTINUOUS
 10
33.6500424036
 20
1886.5037572286
 40
3.0
100
AcDbArc
 50
276.0
 51
360.0
  0
ARC
  5
46F
100
AcDbEntity
  8
94663701000_BL6
100
AcDbCircle
 62
7
  6
CONTINUOUS
 10
33.6500424036
 20
86.5849154946
 40
3.0
100
AcDbArc
 50
276.0
 51
360.0
  0
ARC
  5
470
100
AcDbEntity
  8
94663701000_BL6
100
AcDbCircle
 62
7
  6
CONTINUOUS
 10
33.6500424036
 20
95.2906149941
 40
3.0
100
AcDbArc
 50
0.0
 51
83.9999999996
  0
SPLINE
  5
471
100
AcDbEntity
  8
94663701000_BL6
100
AcDbSpline
 62
9
  6
CONTINUOUS
 70
0
 71
3
 72
9
 73
5
 74
0
 42
0.0000001
 43
0.0000001
 44
0.0000000001
 40
0.0
 40
0.0
 40
0.0
 40
0.0
 40
0.4994359183
 40
1.0
 40
1.0
 40
1.0
 40
1.0
 10
132.1061486626
 20
1921.1985005187
 30
0.0
 10
132.4897137135
 20
1921.1943096117
 30
0.0
 10
133.2717310288
 20
1920.9534181125
 30
0.0
 10
133.7883721794
 20
1920.3195031198
 30
0.0
 10
133.9377570896
 20
1919.9652583572
 30
0.0
  0
SPLINE
  5
472
100
AcDbEntity
  8
94663701000_BL6
100
AcDbSpline
 62
9
  6
CONTINUOUS
 70
0
 71
3
 72
9
 73
5
 74
0
 42
0.0000001
 43
0.0000001
 44
0.0000000001
 40
0.0
 40
0.0
 40
0.0
 40
0.0
 40
0.5005640817
 40
1.0
 40
1.0
 40
1.0
 40
1.0
 10
133.9377570896
 20
1885.7479555994
 30
0.0
 10
133.7883721794
 20
1885.3937108367
 30
0.0
 10
133.2717310288
 20
1884.7597958441
 30
0.0
 10
132.4897137135
 20
1884.5189043449
 30
0.0
 10
132.1061486626
 20
1884.5147134378
 30
0.0
  0
LINE
  5
473
100
AcDbEntity
  8
94663701000_BL6
100
AcDbLine
 62
7
  6
CONTINUOUS
 10
25.6503294176
 20
1919.9787931358
 11
25.7500424036
 21
1919.8566069783
  0
LINE
  5
474
100
AcDbEntity
  8
94663701000_BL6
100
AcDbLine
 62
7
  6
CONTINUOUS
 10
25.7500424036
 20
1885.8566069783
 11
25.6503306392
 21
1885.7344223185
  0
SPLINE
  5
475
100
AcDbEntity
  8
94663701000_BL6
100
AcDbSpline
 62
9
  6
CONTINUOUS
 70
0
 71
3
 72
14
 73
10
 74
0
 42
0.0000001
 43
0.0000001
 44
0.0000000001
 40
0.0
 40
0.0
 40
0.0
 40
0.0
 40
0.3776418975
 40
0.5480936276
 40
0.6976778606
 40
0.8208774404
 40
0.9133634034
 40
0.9724713905
 40
1.0
 40
1.0
 40
1.0
 40
1.0
 10
33.9636277934
 20
1886.5037572286
 30
0.0
 10
34.0028586353
 20
1886.1263773735
 30
0.0
 10
34.0494901492
 20
1885.577299988
 30
0.0
 10
34.0844615076
 20
1884.8775644596
 30
0.0
 10
34.0932686592
 20
1884.4312834814
 30
0.0
 10
34.0885794643
 20
1884.0669829871
 30
0.0
 10
34.0638989117
 20
1883.7847535928
 30
0.0
 10
34.0387001595
 20
1883.6202366607
 30
0.0
 10
33.9911340346
 20
1883.5230825647
 30
0.0
 10
33.9636277934
 20
1883.5201915425
 30
0.0
  0
SPLINE
  5
476
100
AcDbEntity
  8
94663701000_BL6
100
AcDbSpline
 62
7
  6
CONTINUOUS
 70
0
 71
3
 72
13
 73
9
 74
0
 42
0.0000001
 43
0.0000001
 44
0.0000000001
 40
0.0
 40
0.0
 40
0.0
 40
0.0
 40
0.0228689703
 40
0.0748647054
 40
0.1580222898
 40
0.2717288016
 40
0.5852609458
 40
1.0
 40
1.0
 40
1.0
 40
1.0
 10
27.6504683603
 20
1882.8566517481
 30
0.0
 10
27.659414841
 20
1882.8575920612
 30
0.0
 10
27.6733737663
 20
1882.8920947008
 30
0.0
 10
27.6840770382
 20
1882.9473518064
 30
0.0
 10
27.6957659095
 20
1883.0477570145
 30
0.0
 10
27.7083441017
 20
1883.2463612122
 30
0.0
 10
27.7158086241
 20
1883.5788904975
 30
0.0
 10
27.7146591147
 20
1883.8649204337
 30
0.0
 10
27.7126881487
 20
1884.0280506855
 30
0.0
  0
SPLINE
  5
477
100
AcDbEntity
  8
94663701000_BL6
100
AcDbSpline
 62
7
  6
CONTINUOUS
 70
0
 71
3
 72
9
 73
5
 74
0
 42
0.0000001
 43
0.0000001
 44
0.0000000001
 40
0.0
 40
0.0
 40
0.0
 40
0.0
 40
0.2255926768
 40
1.0
 40
1.0
 40
1.0
 40
1.0
 10
27.7126881487
 20
1884.0280506855
 30
0.0
 10
27.711040796
 20
1884.1643965532
 30
0.0
 10
27.6994447078
 20
1884.7687314401
 30
0.0
 10
27.6747660007
 20
1885.3727706044
 30
0.0
 10
27.6504683603
 20
1885.8402174343
 30
0.0
  0
SPLINE
  5
478
100
AcDbEntity
  8
94663701000_BL6
100
AcDbSpline
 62
9
  6
CONTINUOUS
 70
0
 71
3
 72
14
 73
10
 74
0
 42
0.0000001
 43
0.0000001
 44
0.0000000001
 40
0.0
 40
0.0
 40
0.0
 40
0.0
 40
0.0275286095
 40
0.0866365966
 40
0.1791225596
 40
0.3023221394
 40
0.4519063724
 40
0.6223581025
 40
1.0
 40
1.0
 40
1.0
 40
1.0
 10
33.9636277934
 20
1922.1930224141
 30
0.0
 10
33.9911340346
 20
1922.1901313919
 30
0.0
 10
34.0387001595
 20
1922.0929772959
 30
0.0
 10
34.0638989117
 20
1921.9284603637
 30
0.0
 10
34.0885794643
 20
1921.6462309695
 30
0.0
 10
34.0932686592
 20
1921.2819304752
 30
0.0
 10
34.0844615076
 20
1920.835649497
 30
0.0
 10
34.0494901492
 20
1920.1359139685
 30
0.0
 10
34.0028586353
 20
1919.5868365831
 30
0.0
 10
33.9636277934
 20
1919.209456728
 30
0.0
  0
SPLINE
  5
479
100
AcDbEntity
  8
94663701000_BL6
100
AcDbSpline
 62
7
  6
CONTINUOUS
 70
0
 71
3
 72
13
 73
9
 74
0
 42
0.0000001
 43
0.0000001
 44
0.0000000001
 40
0.0
 40
0.0
 40
0.0
 40
0.0
 40
0.0228689703
 40
0.0748647054
 40
0.1580222898
 40
0.2717288016
 40
0.5852609458
 40
1.0
 40
1.0
 40
1.0
 40
1.0
 10
27.6504683603
 20
1922.8565622084
 30
0.0
 10
27.659414841
 20
1922.8556218954
 30
0.0
 10
27.6733737663
 20
1922.8211192558
 30
0.0
 10
27.6840770382
 20
1922.7658621502
 30
0.0
 10
27.6957659095
 20
1922.6654569421
 30
0.0
 10
27.7083441017
 20
1922.4668527444
 30
0.0
 10
27.7158086241
 20
1922.1343234591
 30
0.0
 10
27.7146591147
 20
1921.8482935229
 30
0.0
 10
27.7126881487
 20
1921.6851632711
 30
0.0
  0
SPLINE
  5
47A
100
AcDbEntity
  8
94663701000_BL6
100
AcDbSpline
 62
7
  6
CONTINUOUS
 70
0
 71
3
 72
9
 73
5
 74
0
 42
0.0000001
 43
0.0000001
 44
0.0000000001
 40
0.0
 40
0.0
 40
0.0
 40
0.0
 40
0.2255926768
 40
1.0
 40
1.0
 40
1.0
 40
1.0
 10
27.7126881487
 20
1921.6851632711
 30
0.0
 10
27.711040796
 20
1921.5488174034
 30
0.0
 10
27.6994447078
 20
1920.9444825165
 30
0.0
 10
27.6747660007
 20
1920.3404433522
 30
0.0
 10
27.6504683603
 20
1919.8729965223
 30
0.0
  0
SPLINE
  5
47B
100
AcDbEntity
  8
94663701000_BL6
100
AcDbSpline
 62
9
  6
CONTINUOUS
 70
0
 71
3
 72
14
 73
10
 74
0
 42
0.0000001
 43
0.0000001
 44
0.0000000001
 40
0.0
 40
0.0
 40
0.0
 40
0.0
 40
0.0275270815
 40
0.0866349175
 40
0.1791210479
 40
0.302321078
 40
0.4519056988
 40
0.6223576404
 40
1.0
 40
1.0
 40
1.0
 40
1.0
 10
33.9636277934
 20
98.2741806802
 30
0.0
 10
33.9911324744
 20
98.2712898219
 30
0.0
 10
34.0386910257
 20
98.1741321518
 30
0.0
 10
34.0638912243
 20
98.0096206922
 30
0.0
 10
34.088570853
 20
97.7273892496
 30
0.0
 10
34.0932699382
 20
97.3630892854
 30
0.0
 10
34.0844703019
 20
96.9168072276
 30
0.0
 10
34.0494996789
 20
96.2170714707
 30
0.0
 10
34.0028586356
 20
95.6679948519
 30
0.0
 10
33.9636277934
 20
95.2906149941
 30
0.0
  0
SPLINE
  5
47C
100
AcDbEntity
  8
94663701000_BL6
100
AcDbSpline
 62
7
  6
CONTINUOUS
 70
0
 71
3
 72
9
 73
5
 74
0
 42
0.0000001
 43
0.0000001
 44
0.0000000001
 40
0.0
 40
0.0
 40
0.0
 40
0.0
 40
0.2675517642
 40
1.0
 40
1.0
 40
1.0
 40
1.0
 10
27.6504683603
 20
85.9213757003
 30
0.0
 10
27.6588629734
 20
85.7598770846
 30
0.0
 10
27.6875903776
 20
85.1561363362
 30
0.0
 10
27.7073395901
 20
84.5518912308
 30
0.0
 10
27.7126881487
 20
84.1092089516
 30
0.0
  0
SPLINE
  5
47D
100
AcDbEntity
  8
94663701000_BL6
100
AcDbSpline
 62
7
  6
CONTINUOUS
 70
0
 71
3
 72
13
 73
9
 74
0
 42
0.0000001
 43
0.0000001
 44
0.0000000001
 40
0.0
 40
0.0
 40
0.0
 40
0.0
 40
0.4147390542
 40
0.7282711984
 40
0.8419777102
 40
0.9251352946
 40
0.9771310297
 40
1.0
 40
1.0
 40
1.0
 40
1.0
 10
27.7126881487
 20
84.1092089516
 30
0.0
 10
27.7146591147
 20
83.9460786998
 30
0.0
 10
27.7158086241
 20
83.6600487636
 30
0.0
 10
27.7083441017
 20
83.3275194783
 30
0.0
 10
27.6957659095
 20
83.1289152806
 30
0.0
 10
27.6840770382
 20
83.0285100724
 30
0.0
 10
27.6733737663
 20
82.9732529668
 30
0.0
 10
27.659414841
 20
82.9387503272
 30
0.0
 10
27.6504683603
 20
82.9378100142
 30
0.0
  0
SPLINE
  5
47E
100
AcDbEntity
  8
94663701000_BL6
100
AcDbSpline
 62
9
  6
CONTINUOUS
 70
0
 71
3
 72
14
 73
10
 74
0
 42
0.0000001
 43
0.0000001
 44
0.0000000001
 40
0.0
 40
0.0
 40
0.0
 40
0.0
 40
0.3776423596
 40
0.5480943012
 40
0.697678922
 40
0.8208789521
 40
0.9133650825
 40
0.9724729185
 40
1.0
 40
1.0
 40
1.0
 40
1.0
 10
33.9636277934
 20
86.5849154946
 30
0.0
 10
34.0028586356
 20
86.2075356368
 30
0.0
 10
34.0494996789
 20
85.658459018
 30
0.0
 10
34.0844703019
 20
84.9587232611
 30
0.0
 10
34.0932699382
 20
84.5124412033
 30
0.0
 10
34.088570853
 20
84.1481412392
 30
0.0
 10
34.0638912243
 20
83.8659097965
 30
0.0
 10
34.0386910257
 20
83.7013983369
 30
0.0
 10
33.9911324744
 20
83.6042406669
 30
0.0
 10
33.9636277934
 20
83.6013498085
 30
0.0
  0
SPLINE
  5
47F
100
AcDbEntity
  8
94663701000_BL6
100
AcDbSpline
 62
7
  6
CONTINUOUS
 70
0
 71
3
 72
9
 73
5
 74
0
 42
0.0000001
 43
0.0000001
 44
0.0000000001
 40
0.0
 40
0.0
 40
0.0
 40
0.0
 40
0.2675517642
 40
1.0
 40
1.0
 40
1.0
 40
1.0
 10
27.6504683603
 20
95.9541547884
 30
0.0
 10
27.6588629734
 20
96.1156534041
 30
0.0
 10
27.6875903776
 20
96.7193941525
 30
0.0
 10
27.7073395901
 20
97.3236392579
 30
0.0
 10
27.7126881487
 20
97.7663215372
 30
0.0
  0
SPLINE
  5
480
100
AcDbEntity
  8
94663701000_BL6
100
AcDbSpline
 62
7
  6
CONTINUOUS
 70
0
 71
3
 72
13
 73
9
 74
0
 42
0.0000001
 43
0.0000001
 44
0.0000000001
 40
0.0
 40
0.0
 40
0.0
 40
0.0
 40
0.4147390542
 40
0.7282711984
 40
0.8419777102
 40
0.9251352946
 40
0.9771310297
 40
1.0
 40
1.0
 40
1.0
 40
1.0
 10
27.7126881487
 20
97.7663215372
 30
0.0
 10
27.7146591147
 20
97.9294517889
 30
0.0
 10
27.7158086241
 20
98.2154817252
 30
0.0
 10
27.7083441017
 20
98.5480110104
 30
0.0
 10
27.6957659095
 20
98.7466152082
 30
0.0
 10
27.6840770382
 20
98.8470204163
 30
0.0
 10
27.6733737663
 20
98.9022775219
 30
0.0
 10
27.659414841
 20
98.9367801615
 30
0.0
 10
27.6504683603
 20
98.9377204745
 30
0.0
  0
ELLIPSE
  5
481
100
AcDbEntity
  8
94663701000_BL6
100
AcDbEllipse
 62
7
  6
CONTINUOUS
 10
56.1931357662
 20
1885.8566069783
 30
0.0
 11
28.5430933627
 21
-0.0
 31
0.0
 40
0.1051042353
 41
-3.1415926536
 42
-3.1361294451
  0
ELLIPSE
  5
482
100
AcDbEntity
  8
94663701000_BL6
100
AcDbEllipse
 62
7
  6
CONTINUOUS
 10
56.1931357662
 20
1919.8566069783
 30
0.0
 11
28.5430933627
 21
0.0
 31
0.0
 40
0.1051042353
 41
3.1361294451
 42
3.1415926536
  0
ELLIPSE
  5
483
100
AcDbEntity
  8
94663701000_BL6
100
AcDbEllipse
 62
7
  6
CONTINUOUS
 10
56.1931357662
 20
85.9377652444
 30
0.0
 11
28.5430933627
 21
0.0
 31
0.0
 40
0.1051042353
 41
-3.1415926536
 42
-3.1361294451
  0
ELLIPSE
  5
484
100
AcDbEntity
  8
94663701000_BL6
100
AcDbEllipse
 62
7
  6
CONTINUOUS
 10
56.1931357662
 20
95.9377652444
 30
0.0
 11
28.5430933627
 21
0.0
 31
0.0
 40
0.1051042353
 41
3.1361294451
 42
3.1415926536
  0
ENDBLK
  5
485
100
AcDbEntity
  8
0
  6
BYBLOCK
 62
0
100
AcDbBlockEnd
  0
BLOCK
  5
486
100
AcDbEntity
  8
94529001000_BL7
100
AcDbBlockBegin
  2
94529001000_BL7
 70
64
 10
76.9516706582
 20
1013.6539224441
  3
94529001000_BL7
  1

  0
LINE
  5
487
100
AcDbEntity
  8
94529001000_BL7
100
AcDbLine
 62
7
  6
CONTINUOUS
 10
120.0532989129
 20
1903.0066069783
 11
119.9032989129
 21
1902.8566069783
  0
LINE
  5
488
100
AcDbEntity
  8
94529001000_BL7
100
AcDbLine
 62
7
  6
CONTINUOUS
 10
121.7532989129
 20
1902.7066069783
 11
121.9032989129
 21
1902.8566069783
  0
LINE
  5
489
100
AcDbEntity
  8
94529001000_BL7
100
AcDbLine
 62
7
  6
CONTINUOUS
 10
119.2532989129
 20
1872.3566069783
 11
119.2532989129
 21
1933.3566069783
  0
LINE
  5
48A
100
AcDbEntity
  8
94529001000_BL7
100
AcDbLine
 62
7
  6
CONTINUOUS
 10
120.0532989129
 20
1880.6066069783
 11
120.0532989129
 21
1902.7066069783
  0
LINE
  5
48B
100
AcDbEntity
  8
94529001000_BL7
100
AcDbLine
 62
7
  6
CONTINUOUS
 10
120.0532989129
 20
1903.0066069783
 11
120.0532989129
 21
1925.1066069783
  0
LINE
  5
48C
100
AcDbEntity
  8
94529001000_BL7
100
AcDbLine
 62
7
  6
CONTINUOUS
 10
121.7532989129
 20
1919.8566069783
 11
121.7532989129
 21
1903.0066069783
  0
LINE
  5
48D
100
AcDbEntity
  8
94529001000_BL7
100
AcDbLine
 62
7
  6
CONTINUOUS
 10
121.7532989129
 20
1902.7066069783
 11
121.7532989129
 21
1885.8566069783
  0
LINE
  5
48E
100
AcDbEntity
  8
94529001000_BL7
100
AcDbLine
 62
7
  6
CONTINUOUS
 10
122.5532989129
 20
1919.8566069783
 11
122.5532989129
 21
1885.8566069783
  0
LINE
  5
48F
100
AcDbEntity
  8
94529001000_BL7
100
AcDbLine
 62
9
  6
CONTINUOUS
 10
124.5532989129
 20
1883.8566069783
 11
124.5532989129
 21
1883.0566069783
  0
LINE
  5
490
100
AcDbEntity
  8
94529001000_BL7
100
AcDbLine
 62
9
  6
CONTINUOUS
 10
124.5532989129
 20
1921.8566069783
 11
124.5532989129
 21
1922.6566069783
  0
LINE
  5
491
100
AcDbEntity
  8
94529001000_BL7
100
AcDbLine
 62
7
  6
CENTER
 10
127.7532989129
 20
1944.8700796438
 11
127.7532989129
 21
1860.8431343128
  0
LINE
  5
492
100
AcDbEntity
  8
94529001000_BL7
100
AcDbLine
 62
9
  6
CONTINUOUS
 10
131.9532989129
 20
1883.8566069783
 11
131.9532989129
 21
1883.0566069783
  0
LINE
  5
493
100
AcDbEntity
  8
94529001000_BL7
100
AcDbLine
 62
9
  6
CONTINUOUS
 10
131.9532989129
 20
1921.8566069783
 11
131.9532989129
 21
1922.6566069783
  0
LINE
  5
494
100
AcDbEntity
  8
94529001000_BL7
100
AcDbLine
 62
7
  6
CONTINUOUS
 10
133.9532989129
 20
1885.8566069783
 11
133.9532989129
 21
1919.8566069783
  0
LINE
  5
495
100
AcDbEntity
  8
94529001000_BL7
100
AcDbLine
 62
7
  6
CONTINUOUS
 10
134.7532989129
 20
1885.8566069783
 11
134.7532989129
 21
1919.8566069783
  0
LINE
  5
496
100
AcDbEntity
  8
94529001000_BL7
100
AcDbLine
 62
7
  6
CONTINUOUS
 10
135.4532989129
 20
1880.6066069783
 11
135.4532989129
 21
1925.1066069783
  0
LINE
  5
497
100
AcDbEntity
  8
94529001000_BL7
100
AcDbLine
 62
7
  6
CONTINUOUS
 10
136.2532989129
 20
1872.3566069783
 11
136.2532989129
 21
1933.3566069783
  0
LINE
  5
498
100
AcDbEntity
  8
94529001000_BL7
100
AcDbLine
 62
7
  6
CONTINUOUS
 10
120.0532989129
 20
1902.7066069783
 11
119.9032989129
 21
1902.8566069783
  0
LINE
  5
499
100
AcDbEntity
  8
94529001000_BL7
100
AcDbLine
 62
7
  6
CONTINUOUS
 10
121.7532989129
 20
1903.0066069783
 11
121.9032989129
 21
1902.8566069783
  0
LINE
  5
49A
100
AcDbEntity
  8
94529001000_BL7
100
AcDbLine
 62
7
  6
CONTINUOUS
 10
119.2532989129
 20
1880.6066069783
 11
120.0532989129
 21
1880.6066069783
  0
LINE
  5
49B
100
AcDbEntity
  8
94529001000_BL7
100
AcDbLine
 62
7
  6
CONTINUOUS
 10
135.4532989129
 20
1880.6066069783
 11
136.2532989129
 21
1880.6066069783
  0
LINE
  5
49C
100
AcDbEntity
  8
94529001000_BL7
100
AcDbLine
 62
7
  6
CONTINUOUS
 10
124.5532989129
 20
1883.0566069783
 11
131.9532989129
 21
1883.0566069783
  0
LINE
  5
49D
100
AcDbEntity
  8
94529001000_BL7
100
AcDbLine
 62
7
  6
CONTINUOUS
 10
124.5532989129
 20
1883.8566069783
 11
131.9532989129
 21
1883.8566069783
  0
LINE
  5
49E
100
AcDbEntity
  8
94529001000_BL7
100
AcDbLine
 62
9
  6
CONTINUOUS
 10
122.5532989129
 20
1885.8566069783
 11
121.7532989129
 21
1885.8566069783
  0
LINE
  5
49F
100
AcDbEntity
  8
94529001000_BL7
100
AcDbLine
 62
9
  6
CONTINUOUS
 10
133.9532989129
 20
1885.8566069783
 11
134.7532989129
 21
1885.8566069783
  0
LINE
  5
4A0
100
AcDbEntity
  8
94529001000_BL7
100
AcDbLine
 62
7
  6
CONTINUOUS
 10
120.0532989129
 20
1902.7066069783
 11
121.7532989129
 21
1902.7066069783
  0
LINE
  5
4A1
100
AcDbEntity
  8
94529001000_BL7
100
AcDbLine
 62
7
  6
CONTINUOUS
 10
119.9032989129
 20
1902.8566069783
 11
121.9032989129
 21
1902.8566069783
  0
LINE
  5
4A2
100
AcDbEntity
  8
94529001000_BL7
100
AcDbLine
 62
7
  6
CONTINUOUS
 10
120.0532989129
 20
1903.0066069783
 11
121.7532989129
 21
1903.0066069783
  0
LINE
  5
4A3
100
AcDbEntity
  8
94529001000_BL7
100
AcDbLine
 62
9
  6
CONTINUOUS
 10
122.5532989129
 20
1919.8566069783
 11
121.7532989129
 21
1919.8566069783
  0
LINE
  5
4A4
100
AcDbEntity
  8
94529001000_BL7
100
AcDbLine
 62
9
  6
CONTINUOUS
 10
133.9532989129
 20
1919.8566069783
 11
134.7532989129
 21
1919.8566069783
  0
LINE
  5
4A5
100
AcDbEntity
  8
94529001000_BL7
100
AcDbLine
 62
7
  6
CONTINUOUS
 10
131.9532989129
 20
1921.8566069783
 11
124.5532989129
 21
1921.8566069783
  0
LINE
  5
4A6
100
AcDbEntity
  8
94529001000_BL7
100
AcDbLine
 62
7
  6
CONTINUOUS
 10
131.9532989129
 20
1922.6566069783
 11
124.5532989129
 21
1922.6566069783
  0
LINE
  5
4A7
100
AcDbEntity
  8
94529001000_BL7
100
AcDbLine
 62
7
  6
CONTINUOUS
 10
119.2532989129
 20
1925.1066069783
 11
120.0532989129
 21
1925.1066069783
  0
LINE
  5
4A8
100
AcDbEntity
  8
94529001000_BL7
100
AcDbLine
 62
7
  6
CONTINUOUS
 10
135.4532989129
 20
1925.1066069783
 11
136.2532989129
 21
1925.1066069783
  0
LINE
  5
4A9
100
AcDbEntity
  8
94529001000_BL7
100
AcDbLine
 62
7
  6
CONTINUOUS
 10
17.6500424036
 20
1863.8566069783
 11
17.6500424036
 21
1941.8566069783
  0
LINE
  5
4AA
100
AcDbEntity
  8
94529001000_BL7
100
AcDbLine
 62
7
  6
CONTINUOUS
 10
18.4500424036
 20
1880.6066069783
 11
18.4500424036
 21
1925.1066069783
  0
LINE
  5
4AB
100
AcDbEntity
  8
94529001000_BL7
100
AcDbLine
 62
7
  6
CONTINUOUS
 10
19.6500424036
 20
1938.1626526787
 11
19.6500424036
 21
1867.5505616098
  0
LINE
  5
4AC
100
AcDbEntity
  8
94529001000_BL7
100
AcDbLine
 62
7
  6
CONTINUOUS
 10
19.6500424036
 20
1863.8566069783
 11
17.6500424036
 21
1863.8566069783
  0
LINE
  5
4AD
100
AcDbEntity
  8
94529001000_BL7
100
AcDbLine
 62
9
  6
CONTINUOUS
 10
17.6500424036
 20
1872.3566069783
 11
19.6500424036
 21
1872.3566069783
  0
LINE
  5
4AE
100
AcDbEntity
  8
94529001000_BL7
100
AcDbLine
 62
7
  6
CONTINUOUS
 10
17.6500424036
 20
1880.6066069783
 11
18.4500424036
 21
1880.6066069783
  0
LINE
  5
4AF
100
AcDbEntity
  8
94529001000_BL7
100
AcDbLine
 62
7
  6
CONTINUOUS
 10
17.6500424036
 20
1925.1066069783
 11
18.4500424036
 21
1925.1066069783
  0
LINE
  5
4B0
100
AcDbEntity
  8
94529001000_BL7
100
AcDbLine
 62
9
  6
CONTINUOUS
 10
17.6500424036
 20
1933.3566069783
 11
19.6500424036
 21
1933.3566069783
  0
LINE
  5
4B1
100
AcDbEntity
  8
94529001000_BL7
100
AcDbLine
 62
7
  6
CONTINUOUS
 10
19.6500424036
 20
1941.8566069783
 11
17.6500424036
 21
1941.8566069783
  0
LINE
  5
4B2
100
AcDbEntity
  8
94529001000_BL7
100
AcDbLine
 62
7
  6
CONTINUOUS
 10
17.6500424036
 20
82.4377652444
 11
17.6500424036
 21
99.4377652444
  0
LINE
  5
4B3
100
AcDbEntity
  8
94529001000_BL7
100
AcDbLine
 62
7
  6
CONTINUOUS
 10
19.6500424036
 20
83.9377652444
 11
19.6500424036
 21
82.4377652444
  0
LINE
  5
4B4
100
AcDbEntity
  8
94529001000_BL7
100
AcDbLine
 62
7
  6
CONTINUOUS
 10
19.6500424036
 20
82.4377652444
 11
17.6500424036
 21
82.4377652444
  0
LINE
  5
4B5
100
AcDbEntity
  8
94529001000_BL7
100
AcDbLine
 62
7
  6
CONTINUOUS
 10
17.6500424036
 20
99.4377652444
 11
19.6500424036
 21
99.4377652444
  0
ARC
  5
4B6
100
AcDbEntity
  8
94529001000_BL7
100
AcDbCircle
 62
7
  6
CONTINUOUS
 10
124.5532989129
 20
1885.8566069783
 40
2.7999942656
100
AcDbArc
 50
180.0
 51
270.0
  0
ARC
  5
4B7
100
AcDbEntity
  8
94529001000_BL7
100
AcDbCircle
 62
7
  6
CONTINUOUS
 10
124.5532989129
 20
1919.8566069783
 40
2.7999942656
100
AcDbArc
 50
90.0
 51
180.0
  0
ARC
  5
4B8
100
AcDbEntity
  8
94529001000_BL7
100
AcDbCircle
 62
7
  6
CONTINUOUS
 10
124.5532989129
 20
1885.8566069783
 40
2.0
100
AcDbArc
 50
180.0
 51
270.0
  0
ARC
  5
4B9
100
AcDbEntity
  8
94529001000_BL7
100
AcDbCircle
 62
7
  6
CONTINUOUS
 10
124.5532989129
 20
1919.8566069783
 40
2.0
100
AcDbArc
 50
90.0
 51
180.0
  0
ARC
  5
4BA
100
AcDbEntity
  8
94529001000_BL7
100
AcDbCircle
 62
7
  6
CONTINUOUS
 10
127.7532989129
 20
1933.3566069783
 40
8.5
100
AcDbArc
 50
0.0
 51
180.0
  0
ARC
  5
4BB
100
AcDbEntity
  8
94529001000_BL7
100
AcDbCircle
 62
7
  6
CONTINUOUS
 10
127.7532989129
 20
1872.3566069783
 40
8.5
100
AcDbArc
 50
180.0
 51
360.0
  0
CIRCLE
  5
4BC
100
AcDbEntity
  8
94529001000_BL7
100
AcDbCircle
 62
7
  6
CONTINUOUS
 10
127.7532989129
 20
1932.9566069783
 40
5.65
  0
CIRCLE
  5
4BD
100
AcDbEntity
  8
94529001000_BL7
100
AcDbCircle
 62
7
  6
CONTINUOUS
 10
127.7532989129
 20
1872.7566069783
 40
5.65
  0
ARC
  5
4BE
100
AcDbEntity
  8
94529001000_BL7
100
AcDbCircle
 62
7
  6
CONTINUOUS
 10
131.9532989129
 20
1885.8566069783
 40
2.7999942656
100
AcDbArc
 50
270.0
 51
360.0
  0
ARC
  5
4BF
100
AcDbEntity
  8
94529001000_BL7
100
AcDbCircle
 62
7
  6
CONTINUOUS
 10
131.9532989129
 20
1919.8566069783
 40
2.7999942656
100
AcDbArc
 50
0.0
 51
90.0
  0
ARC
  5
4C0
100
AcDbEntity
  8
94529001000_BL7
100
AcDbCircle
 62
7
  6
CONTINUOUS
 10
131.9532989129
 20
1885.8566069783
 40
2.0
100
AcDbArc
 50
270.0
 51
360.0
  0
ARC
  5
4C1
100
AcDbEntity
  8
94529001000_BL7
100
AcDbCircle
 62
7
  6
CONTINUOUS
 10
131.9532989129
 20
1919.8566069783
 40
2.0
100
AcDbArc
 50
0.0
 51
90.0
  0
ENDBLK
  5
4C2
100
AcDbEntity
  8
0
  6
BYBLOCK
 62
0
100
AcDbBlockEnd
  0
BLOCK
  5
4C3
100
AcDbEntity
  8
94528901000_M_BL8
100
AcDbBlockBegin
  2
94528901000_M_BL8
 70
64
 10
79.1016706582
 20
1013.1971861113
  3
94528901000_M_BL8
  1

  0
LINE
  5
4C4
100
AcDbEntity
  8
94528901000_M_BL8
100
AcDbLine
 62
7
  6
CONTINUOUS
 10
126.8782989129
 20
1932.9721514349
 11
126.0032989129
 21
1931.4566069783
  0
LINE
  5
4C5
100
AcDbEntity
  8
94528901000_M_BL8
100
AcDbLine
 62
7
  6
CONTINUOUS
 10
128.6282989129
 20
1929.9410625217
 11
129.5032989129
 21
1931.4566069783
  0
LINE
  5
4C6
100
AcDbEntity
  8
94528901000_M_BL8
100
AcDbLine
 62
7
  6
CONTINUOUS
 10
126.0032989129
 20
1931.4566069783
 11
126.8782989129
 21
1929.9410625217
  0
LINE
  5
4C7
100
AcDbEntity
  8
94528901000_M_BL8
100
AcDbLine
 62
7
  6
CONTINUOUS
 10
129.5032989129
 20
1931.4566069783
 11
128.6282989129
 21
1932.9721514349
  0
LINE
  5
4C8
100
AcDbEntity
  8
94528901000_M_BL8
100
AcDbLine
 62
7
  6
CONTINUOUS
 10
126.8782989129
 20
1929.9410625217
 11
128.6282989129
 21
1929.9410625217
  0
LINE
  5
4C9
100
AcDbEntity
  8
94528901000_M_BL8
100
AcDbLine
 62
7
  6
CONTINUOUS
 10
128.6282989129
 20
1932.9721514349
 11
126.8782989129
 21
1932.9721514349
  0
CIRCLE
  5
4CA
100
AcDbEntity
  8
94528901000_M_BL8
100
AcDbCircle
 62
7
  6
CONTINUOUS
 10
127.7532989129
 20
1932.9566069783
 40
5.5
  0
CIRCLE
  5
4CB
100
AcDbEntity
  8
94528901000_M_BL8
100
AcDbCircle
 62
7
  6
CONTINUOUS
 10
127.7532989129
 20
1931.4566069783
 40
1.75
  0
CIRCLE
  5
4CC
100
AcDbEntity
  8
94528901000_M_BL8
100
AcDbCircle
 62
7
  6
CONTINUOUS
 10
127.7532989129
 20
1931.4566069783
 40
1.515
  0
CIRCLE
  5
4CD
100
AcDbEntity
  8
94528901000_M_BL8
100
AcDbCircle
 62
7
  6
CONTINUOUS
 10
127.7532989129
 20
1935.4566069783
 40
0.75
  0
ARC
  5
4CE
100
AcDbEntity
  8
94528901000_M_BL8
100
AcDbCircle
 62
7
  6
CONTINUOUS
 10
22.3042910925
 20
1931.4566069783
 40
4.0
100
AcDbArc
 50
326.8389561101
 51
33.1610438899
  0
ARC
  5
4CF
100
AcDbEntity
  8
94528901000_M_BL8
100
AcDbCircle
 62
7
  6
CONTINUOUS
 10
22.3042910925
 20
90.9377652444
 40
4.0
100
AcDbArc
 50
311.4096221093
 51
48.5903778907
  0
ENDBLK
  5
4D0
100
AcDbEntity
  8
0
  6
BYBLOCK
 62
0
100
AcDbBlockEnd
  0
BLOCK
  5
4D1
100
AcDbEntity
  8
94528901000_M_BL9
100
AcDbBlockBegin
  2
94528901000_M_BL9
 70
64
 10
79.4530678328
 20
1872.7566069783
  3
94528901000_M_BL9
  1

  0
LINE
  5
4D2
100
AcDbEntity
  8
94528901000_M_BL9
100
AcDbLine
 62
7
  6
CONTINUOUS
 10
126.8782989129
 20
1872.7721514349
 11
126.0032989129
 21
1871.2566069783
  0
LINE
  5
4D3
100
AcDbEntity
  8
94528901000_M_BL9
100
AcDbLine
 62
7
  6
CONTINUOUS
 10
128.6282989129
 20
1869.7410625217
 11
129.5032989129
 21
1871.2566069783
  0
LINE
  5
4D4
100
AcDbEntity
  8
94528901000_M_BL9
100
AcDbLine
 62
7
  6
CONTINUOUS
 10
126.0032989129
 20
1871.2566069783
 11
126.8782989129
 21
1869.7410625217
  0
LINE
  5
4D5
100
AcDbEntity
  8
94528901000_M_BL9
100
AcDbLine
 62
7
  6
CONTINUOUS
 10
129.5032989129
 20
1871.2566069783
 11
128.6282989129
 21
1872.7721514349
  0
LINE
  5
4D6
100
AcDbEntity
  8
94528901000_M_BL9
100
AcDbLine
 62
7
  6
CONTINUOUS
 10
126.8782989129
 20
1869.7410625217
 11
128.6282989129
 21
1869.7410625217
  0
LINE
  5
4D7
100
AcDbEntity
  8
94528901000_M_BL9
100
AcDbLine
 62
7
  6
CONTINUOUS
 10
128.6282989129
 20
1872.7721514349
 11
126.8782989129
 21
1872.7721514349
  0
CIRCLE
  5
4D8
100
AcDbEntity
  8
94528901000_M_BL9
100
AcDbCircle
 62
7
  6
CONTINUOUS
 10
127.7532989129
 20
1871.2566069783
 40
1.75
  0
CIRCLE
  5
4D9
100
AcDbEntity
  8
94528901000_M_BL9
100
AcDbCircle
 62
7
  6
CONTINUOUS
 10
127.7532989129
 20
1871.2566069783
 40
1.515
  0
CIRCLE
  5
4DA
100
AcDbEntity
  8
94528901000_M_BL9
100
AcDbCircle
 62
7
  6
CONTINUOUS
 10
127.7532989129
 20
1872.7566069783
 40
5.5
  0
CIRCLE
  5
4DB
100
AcDbEntity
  8
94528901000_M_BL9
100
AcDbCircle
 62
7
  6
CONTINUOUS
 10
127.7532989129
 20
1875.2566069783
 40
0.75
  0
ARC
  5
4DC
100
AcDbEntity
  8
94528901000_M_BL9
100
AcDbCircle
 62
7
  6
CONTINUOUS
 10
22.3042910925
 20
1871.2566069783
 40
4.0
100
AcDbArc
 50
326.8389561101
 51
33.1610438899
  0
ENDBLK
  5
4DD
100
AcDbEntity
  8
0
  6
BYBLOCK
 62
0
100
AcDbBlockEnd
  0
BLOCK
  5
4DE
100
AcDbEntity
  8
93894102000_BL10
100
AcDbBlockBegin
  2
93894102000_BL10
 70
64
 10
77.2016706582
 20
1197.8566069783
  3
93894102000_BL10
  1

  0
LINE
  5
4DF
100
AcDbEntity
  8
93894102000_BL10
100
AcDbLine
 62
7
  6
CONTINUOUS
 10
135.7532989129
 20
1173.8566069783
 11
132.8532989129
 21
1173.8566069783
  0
LINE
  5
4E0
100
AcDbEntity
  8
93894102000_BL10
100
AcDbLine
 62
7
  6
CONTINUOUS
 10
118.7532989129
 20
1176.7566069783
 11
129.5390853505
 21
1176.7566069783
  0
LINE
  5
4E1
100
AcDbEntity
  8
93894102000_BL10
100
AcDbLine
 62
9
  6
CONTINUOUS
 10
131.2532989129
 20
1178.2950541655
 11
130.5532989129
 21
1178.2950541655
  0
LINE
  5
4E2
100
AcDbEntity
  8
93894102000_BL10
100
AcDbLine
 62
7
  6
CONTINUOUS
 10
133.3996854413
 20
1178.3566069783
 11
133.2532989129
 21
1178.3566069783
  0
LINE
  5
4E3
100
AcDbEntity
  8
93894102000_BL10
100
AcDbLine
 62
9
  6
CONTINUOUS
 10
131.2532989129
 20
1178.416321978
 11
130.5532989129
 21
1178.416321978
  0
LINE
  5
4E4
100
AcDbEntity
  8
93894102000_BL10
100
AcDbLine
 62
7
  6
CONTINUOUS
 10
120.8532989129
 20
1179.5066069783
 11
123.8532989129
 21
1179.5066069783
  0
LINE
  5
4E5
100
AcDbEntity
  8
93894102000_BL10
100
AcDbLine
 62
7
  6
CONTINUOUS
 10
120.8532989129
 20
1180.5066069783
 11
121.6156820676
 21
1180.5066069783
  0
LINE
  5
4E6
100
AcDbEntity
  8
93894102000_BL10
100
AcDbLine
 62
9
  6
CONTINUOUS
 10
131.2532989129
 20
1182.2968919786
 11
130.5532989129
 21
1182.2968919786
  0
LINE
  5
4E7
100
AcDbEntity
  8
93894102000_BL10
100
AcDbLine
 62
9
  6
CONTINUOUS
 10
131.2532989129
 20
1182.4181597911
 11
130.5532989129
 21
1182.4181597911
  0
LINE
  5
4E8
100
AcDbEntity
  8
93894102000_BL10
100
AcDbLine
 62
7
  6
CONTINUOUS
 10
121.6156820676
 20
1184.2066069783
 11
120.8532989129
 21
1184.2066069783
  0
LINE
  5
4E9
100
AcDbEntity
  8
93894102000_BL10
100
AcDbLine
 62
7
  6
CONTINUOUS
 10
123.8532989129
 20
1185.2066069783
 11
120.8532989129
 21
1185.2066069783
  0
LINE
  5
4EA
100
AcDbEntity
  8
93894102000_BL10
100
AcDbLine
 62
7
  6
CONTINUOUS
 10
119.0837289478
 20
1194.9200548603
 11
121.0022165414
 21
1194.9200548603
  0
LINE
  5
4EB
100
AcDbEntity
  8
93894102000_BL10
100
AcDbLine
 62
4
  6
CONTINUOUS
 10
119.0837289478
 20
1194.9200548603
 11
121.0022165414
 21
1194.9200548603
  0
LINE
  5
4EC
100
AcDbEntity
  8
93894102000_BL10
100
AcDbLine
 62
7
  6
CONTINUOUS
 10
121.0022165414
 20
1195.6758227003
 11
119.0837289478
 21
1195.6758227003
  0
LINE
  5
4ED
100
AcDbEntity
  8
93894102000_BL10
100
AcDbLine
 62
4
  6
CONTINUOUS
 10
121.0022165414
 20
1195.6758227003
 11
119.0837289478
 21
1195.6758227003
  0
LINE
  5
4EE
100
AcDbEntity
  8
93894102000_BL10
100
AcDbLine
 62
7
  6
CONTINUOUS
 10
119.0837289478
 20
1196.3269457625
 11
121.0022165414
 21
1196.3269457625
  0
LINE
  5
4EF
100
AcDbEntity
  8
93894102000_BL10
100
AcDbLine
 62
4
  6
CONTINUOUS
 10
119.0837289478
 20
1196.3269457625
 11
121.0022165414
 21
1196.3269457625
  0
LINE
  5
4F0
100
AcDbEntity
  8
93894102000_BL10
100
AcDbLine
 62
7
  6
CONTINUOUS
 10
121.0022165414
 20
1197.0827136023
 11
119.8540307845
 21
1197.0827136023
  0
LINE
  5
4F1
100
AcDbEntity
  8
93894102000_BL10
100
AcDbLine
 62
7
  6
CONTINUOUS
 10
119.243602914
 20
1197.0827136023
 11
119.0837289478
 21
1197.0827136023
  0
LINE
  5
4F2
100
AcDbEntity
  8
93894102000_BL10
100
AcDbLine
 62
4
  6
CONTINUOUS
 10
121.0022165414
 20
1197.0827136023
 11
119.8540307845
 21
1197.0827136023
  0
LINE
  5
4F3
100
AcDbEntity
  8
93894102000_BL10
100
AcDbLine
 62
4
  6
CONTINUOUS
 10
119.243602914
 20
1197.0827136023
 11
119.0837289478
 21
1197.0827136023
  0
LINE
  5
4F4
100
AcDbEntity
  8
93894102000_BL10
100
AcDbLine
 62
7
  6
CONTINUOUS
 10
123.8532989129
 20
1210.5066069783
 11
120.8532989129
 21
1210.5066069783
  0
LINE
  5
4F5
100
AcDbEntity
  8
93894102000_BL10
100
AcDbLine
 62
7
  6
CONTINUOUS
 10
120.8532989129
 20
1211.5066069783
 11
121.6156820676
 21
1211.5066069783
  0
LINE
  5
4F6
100
AcDbEntity
  8
93894102000_BL10
100
AcDbLine
 62
9
  6
CONTINUOUS
 10
130.5532989129
 20
1213.2950541655
 11
131.2532989129
 21
1213.2950541655
  0
LINE
  5
4F7
100
AcDbEntity
  8
93894102000_BL10
100
AcDbLine
 62
9
  6
CONTINUOUS
 10
130.5532989129
 20
1213.416321978
 11
131.2532989129
 21
1213.416321978
  0
LINE
  5
4F8
100
AcDbEntity
  8
93894102000_BL10
100
AcDbLine
 62
7
  6
CONTINUOUS
 10
121.6156820676
 20
1215.2066069783
 11
120.8532989129
 21
1215.2066069783
  0
LINE
  5
4F9
100
AcDbEntity
  8
93894102000_BL10
100
AcDbLine
 62
7
  6
CONTINUOUS
 10
120.8532989129
 20
1216.2066069783
 11
123.8532989129
 21
1216.2066069783
  0
LINE
  5
4FA
100
AcDbEntity
  8
93894102000_BL10
100
AcDbLine
 62
9
  6
CONTINUOUS
 10
130.5532989129
 20
1217.2968919786
 11
131.2532989129
 21
1217.2968919786
  0
LINE
  5
4FB
100
AcDbEntity
  8
93894102000_BL10
100
AcDbLine
 62
7
  6
CONTINUOUS
 10
133.3996854413
 20
1217.3566069783
 11
133.2532989129
 21
1217.3566069783
  0
LINE
  5
4FC
100
AcDbEntity
  8
93894102000_BL10
100
AcDbLine
 62
9
  6
CONTINUOUS
 10
130.5532989129
 20
1217.4181597911
 11
131.2532989129
 21
1217.4181597911
  0
LINE
  5
4FD
100
AcDbEntity
  8
93894102000_BL10
100
AcDbLine
 62
7
  6
CONTINUOUS
 10
118.7532989129
 20
1218.9566069783
 11
129.5390853505
 21
1218.9566069783
  0
LINE
  5
4FE
100
AcDbEntity
  8
93894102000_BL10
100
AcDbLine
 62
7
  6
CONTINUOUS
 10
132.8532989129
 20
1221.8566069783
 11
135.7532989129
 21
1221.8566069783
  0
LINE
  5
4FF
100
AcDbEntity
  8
93894102000_BL10
100
AcDbLine
 62
7
  6
CONTINUOUS
 10
132.8532989129
 20
1173.8566069783
 11
132.2532989129
 21
1174.4566069783
  0
LINE
  5
500
100
AcDbEntity
  8
93894102000_BL10
100
AcDbLine
 62
7
  6
CONTINUOUS
 10
130.5532989129
 20
1176.1566069783
 11
130.2461921317
 21
1176.4637137595
  0
LINE
  5
501
100
AcDbEntity
  8
93894102000_BL10
100
AcDbLine
 62
7
  6
CONTINUOUS
 10
130.5532989129
 20
1176.1566069783
 11
132.2532989129
 21
1174.4566069783
  0
LINE
  5
502
100
AcDbEntity
  8
93894102000_BL10
100
AcDbLine
 62
7
  6
CONTINUOUS
 10
130.553005349
 20
1182.3133084743
 11
130.5532989129
 21
1182.2968919786
  0
LINE
  5
503
100
AcDbEntity
  8
93894102000_BL10
100
AcDbLine
 62
7
  6
CONTINUOUS
 10
130.5529875665
 20
1213.3126966973
 11
130.5532989129
 21
1213.2950541655
  0
LINE
  5
504
100
AcDbEntity
  8
93894102000_BL10
100
AcDbLine
 62
7
  6
CONTINUOUS
 10
130.553483474
 20
1178.4050251357
 11
130.5532989129
 21
1178.416321978
  0
LINE
  5
505
100
AcDbEntity
  8
93894102000_BL10
100
AcDbLine
 62
7
  6
CONTINUOUS
 10
130.5534944349
 20
1217.4060506829
 11
130.5532989129
 21
1217.4181597911
  0
LINE
  5
506
100
AcDbEntity
  8
93894102000_BL10
100
AcDbLine
 62
7
  6
CONTINUOUS
 10
117.7532989129
 20
1217.9566069783
 11
117.7532989129
 21
1177.7566069783
  0
LINE
  5
507
100
AcDbEntity
  8
93894102000_BL10
100
AcDbLine
 62
7
  6
CONTINUOUS
 10
119.243602914
 20
1197.5939037082
 11
119.243602914
 21
1197.0827136023
  0
LINE
  5
508
100
AcDbEntity
  8
93894102000_BL10
100
AcDbLine
 62
7
  6
CONTINUOUS
 10
119.243602914
 20
1199.204677153
 11
119.243602914
 21
1198.517002448
  0
LINE
  5
509
100
AcDbEntity
  8
93894102000_BL10
100
AcDbLine
 62
4
  6
CONTINUOUS
 10
119.243602914
 20
1199.204677153
 11
119.243602914
 21
1198.517002448
  0
LINE
  5
50A
100
AcDbEntity
  8
93894102000_BL10
100
AcDbLine
 62
4
  6
CONTINUOUS
 10
119.243602914
 20
1197.5939037082
 11
119.243602914
 21
1197.0827136023
  0
LINE
  5
50B
100
AcDbEntity
  8
93894102000_BL10
100
AcDbLine
 62
7
  6
CONTINUOUS
 10
119.8540307845
 20
1197.0827136023
 11
119.8540307847
 21
1197.5939037082
  0
LINE
  5
50C
100
AcDbEntity
  8
93894102000_BL10
100
AcDbLine
 62
7
  6
CONTINUOUS
 10
119.8540307848
 20
1197.7296091729
 11
119.8540307848
 21
1199.204677153
  0
LINE
  5
50D
100
AcDbEntity
  8
93894102000_BL10
100
AcDbLine
 62
4
  6
CONTINUOUS
 10
119.8540307848
 20
1197.7296091729
 11
119.8540307848
 21
1199.204677153
  0
LINE
  5
50E
100
AcDbEntity
  8
93894102000_BL10
100
AcDbLine
 62
4
  6
CONTINUOUS
 10
119.8540307845
 20
1197.0827136023
 11
119.8540307847
 21
1197.5939037082
  0
LINE
  5
50F
100
AcDbEntity
  8
93894102000_BL10
100
AcDbLine
 62
9
  6
CONTINUOUS
 10
120.8532989129
 20
1185.2066069783
 11
120.8532989129
 21
1184.2066069783
  0
LINE
  5
510
100
AcDbEntity
  8
93894102000_BL10
100
AcDbLine
 62
9
  6
CONTINUOUS
 10
120.8532989129
 20
1179.5066069783
 11
120.8532989129
 21
1180.5066069783
  0
LINE
  5
511
100
AcDbEntity
  8
93894102000_BL10
100
AcDbLine
 62
9
  6
CONTINUOUS
 10
120.8532989129
 20
1210.5066069783
 11
120.8532989129
 21
1211.5066069783
  0
LINE
  5
512
100
AcDbEntity
  8
93894102000_BL10
100
AcDbLine
 62
9
  6
CONTINUOUS
 10
120.8532989129
 20
1215.2066069783
 11
120.8532989129
 21
1216.2066069783
  0
LINE
  5
513
100
AcDbEntity
  8
93894102000_BL10
100
AcDbLine
 62
7
  6
CONTINUOUS
 10
121.0022165414
 20
1194.9200548603
 11
121.0022165414
 21
1195.6758227003
  0
LINE
  5
514
100
AcDbEntity
  8
93894102000_BL10
100
AcDbLine
 62
4
  6
CONTINUOUS
 10
121.0022165414
 20
1194.9200548603
 11
121.0022165414
 21
1195.6758227003
  0
LINE
  5
515
100
AcDbEntity
  8
93894102000_BL10
100
AcDbLine
 62
7
  6
CONTINUOUS
 10
121.0022165414
 20
1196.3269457625
 11
121.0022165414
 21
1197.0827136023
  0
LINE
  5
516
100
AcDbEntity
  8
93894102000_BL10
100
AcDbLine
 62
4
  6
CONTINUOUS
 10
121.0022165414
 20
1196.3269457625
 11
121.0022165414
 21
1197.0827136023
  0
LINE
  5
517
100
AcDbEntity
  8
93894102000_BL10
100
AcDbLine
 62
7
  6
CONTINUOUS
 10
126.5532989129
 20
1217.3566069783
 11
126.5532989129
 21
1214.2690213578
  0
LINE
  5
518
100
AcDbEntity
  8
93894102000_BL10
100
AcDbLine
 62
7
  6
CONTINUOUS
 10
126.5532989129
 20
1218.9566069783
 11
126.5532989129
 21
1217.3566069783
  0
LINE
  5
519
100
AcDbEntity
  8
93894102000_BL10
100
AcDbLine
 62
7
  6
CONTINUOUS
 10
126.5532989129
 20
1212.4441925987
 11
126.5532989129
 21
1183.2690213578
  0
LINE
  5
51A
100
AcDbEntity
  8
93894102000_BL10
100
AcDbLine
 62
7
  6
CONTINUOUS
 10
126.5532989129
 20
1181.4441925987
 11
126.5532989129
 21
1178.3566069783
  0
LINE
  5
51B
100
AcDbEntity
  8
93894102000_BL10
100
AcDbLine
 62
7
  6
CONTINUOUS
 10
126.5532989129
 20
1178.3566069783
 11
126.5532989129
 21
1176.7566069783
  0
LINE
  5
51C
100
AcDbEntity
  8
93894102000_BL10
100
AcDbLine
 62
7
  6
CONTINUOUS
 10
130.5532989129
 20
1217.2968919786
 11
130.5532989129
 21
1213.416321978
  0
LINE
  5
51D
100
AcDbEntity
  8
93894102000_BL10
100
AcDbLine
 62
7
  6
CONTINUOUS
 10
130.5532989129
 20
1176.1566069783
 11
130.5532989129
 21
1178.2950541655
  0
LINE
  5
51E
100
AcDbEntity
  8
93894102000_BL10
100
AcDbLine
 62
7
  6
CONTINUOUS
 10
130.5532989129
 20
1178.416321978
 11
130.5532989129
 21
1182.2968919786
  0
LINE
  5
51F
100
AcDbEntity
  8
93894102000_BL10
100
AcDbLine
 62
7
  6
CONTINUOUS
 10
130.5532989129
 20
1182.4181597911
 11
130.5532989129
 21
1213.2950541655
  0
LINE
  5
520
100
AcDbEntity
  8
93894102000_BL10
100
AcDbLine
 62
7
  6
CONTINUOUS
 10
130.5532989129
 20
1217.4181597911
 11
130.5532989129
 21
1219.5566069783
  0
LINE
  5
521
100
AcDbEntity
  8
93894102000_BL10
100
AcDbLine
 62
9
  6
CONTINUOUS
 10
131.2532989129
 20
1220.2566069783
 11
131.2532989129
 21
1175.4566069783
  0
LINE
  5
522
100
AcDbEntity
  8
93894102000_BL10
100
AcDbLine
 62
7
  6
CONTINUOUS
 10
132.2532989129
 20
1174.4566069783
 11
132.2532989129
 21
1221.2566069783
  0
LINE
  5
523
100
AcDbEntity
  8
93894102000_BL10
100
AcDbLine
 62
9
  6
CONTINUOUS
 10
133.2532989129
 20
1173.8566069783
 11
133.2532989129
 21
1221.8566069783
  0
LINE
  5
524
100
AcDbEntity
  8
93894102000_BL10
100
AcDbLine
 62
9
  6
CONTINUOUS
 10
133.3996854413
 20
1178.3566069783
 11
133.3996854413
 21
1217.3566069783
  0
LINE
  5
525
100
AcDbEntity
  8
93894102000_BL10
100
AcDbLine
 62
9
  6
CONTINUOUS
 10
133.7927030108
 20
1178.3841240689
 11
133.7927030108
 21
1217.3290898407
  0
LINE
  5
526
100
AcDbEntity
  8
93894102000_BL10
100
AcDbLine
 62
7
  6
CONTINUOUS
 10
135.7532989129
 20
1221.8566069783
 11
135.7532989129
 21
1173.8566069783
  0
LINE
  5
527
100
AcDbEntity
  8
93894102000_BL10
100
AcDbLine
 62
7
  6
CONTINUOUS
 10
130.5534944349
 20
1178.3071632737
 11
130.5532989129
 21
1178.2950541655
  0
LINE
  5
528
100
AcDbEntity
  8
93894102000_BL10
100
AcDbLine
 62
7
  6
CONTINUOUS
 10
130.553483474
 20
1217.3081888209
 11
130.5532989129
 21
1217.2968919786
  0
LINE
  5
529
100
AcDbEntity
  8
93894102000_BL10
100
AcDbLine
 62
7
  6
CONTINUOUS
 10
130.5529875665
 20
1182.4005172586
 11
130.5532989129
 21
1182.4181597911
  0
LINE
  5
52A
100
AcDbEntity
  8
93894102000_BL10
100
AcDbLine
 62
7
  6
CONTINUOUS
 10
130.553005349
 20
1213.3999054823
 11
130.5532989129
 21
1213.416321978
  0
LINE
  5
52B
100
AcDbEntity
  8
93894102000_BL10
100
AcDbLine
 62
7
  6
CONTINUOUS
 10
119.9981839483
 20
1198.5973923727
 11
120.4477880949
 21
1197.9897872399
  0
LINE
  5
52C
100
AcDbEntity
  8
93894102000_BL10
100
AcDbLine
 62
4
  6
CONTINUOUS
 10
119.9981839483
 20
1198.5973923727
 11
120.4477880949
 21
1197.9897872399
  0
LINE
  5
52D
100
AcDbEntity
  8
93894102000_BL10
100
AcDbLine
 62
7
  6
CONTINUOUS
 10
130.5532989129
 20
1219.5566069783
 11
130.2461921317
 21
1219.2495001971
  0
LINE
  5
52E
100
AcDbEntity
  8
93894102000_BL10
100
AcDbLine
 62
7
  6
CONTINUOUS
 10
132.2532989129
 20
1221.2566069783
 11
132.8532989129
 21
1221.8566069783
  0
LINE
  5
52F
100
AcDbEntity
  8
93894102000_BL10
100
AcDbLine
 62
7
  6
CONTINUOUS
 10
130.5532989129
 20
1219.5566069783
 11
132.2532989129
 21
1221.2566069783
  0
LINE
  5
530
100
AcDbEntity
  8
93894102000_BL10
100
AcDbLine
 62
7
  6
CONTINUOUS
 10
25.6500424036
 20
1173.8566069783
 11
22.5959404373
 21
1173.8566069783
  0
LINE
  5
531
100
AcDbEntity
  8
93894102000_BL10
100
AcDbLine
 62
7
  6
CONTINUOUS
 10
22.5959404373
 20
1173.8566069783
 11
19.1468470287
 21
1173.8566069783
  0
LINE
  5
532
100
AcDbEntity
  8
93894102000_BL10
100
AcDbLine
 62
7
  6
CONTINUOUS
 10
25.6500424036
 20
1221.8566069783
 11
22.5959404373
 21
1221.8566069783
  0
LINE
  5
533
100
AcDbEntity
  8
93894102000_BL10
100
AcDbLine
 62
7
  6
CONTINUOUS
 10
19.1468470287
 20
1221.8566069783
 11
22.5959404373
 21
1221.8566069783
  0
LINE
  5
534
100
AcDbEntity
  8
93894102000_BL10
100
AcDbLine
 62
7
  6
CONTINUOUS
 10
18.6500424036
 20
1178.3566069783
 11
18.6500424036
 21
1217.3566069783
  0
LINE
  5
535
100
AcDbEntity
  8
93894102000_BL10
100
AcDbLine
 62
9
  6
CONTINUOUS
 10
18.8409514945
 20
1178.3841240689
 11
18.8409514945
 21
1217.3290898407
  0
LINE
  5
536
100
AcDbEntity
  8
93894102000_BL10
100
AcDbLine
 62
7
  6
CONTINUOUS
 10
22.5959404373
 20
1221.8566069783
 11
22.5959404373
 21
1173.8566069783
  0
LINE
  5
537
100
AcDbEntity
  8
93894102000_BL10
100
AcDbLine
 62
7
  6
CONTINUOUS
 10
25.6500424036
 20
1221.8566069783
 11
25.6500424036
 21
1173.8566069783
  0
LINE
  5
538
100
AcDbEntity
  8
93894102000_BL10
100
AcDbLine
 62
7
  6
CONTINUOUS
 10
18.6500424036
 20
1217.3566069783
 11
19.1468470287
 21
1221.8566069783
  0
LINE
  5
539
100
AcDbEntity
  8
93894102000_BL10
100
AcDbLine
 62
7
  6
CONTINUOUS
 10
19.1468470287
 20
1173.8566069783
 11
18.6500424036
 21
1178.3566069783
  0
ARC
  5
53A
100
AcDbEntity
  8
93894102000_BL10
100
AcDbCircle
 62
9
  6
CONTINUOUS
 10
-336.263290498
 20
1258.1189806022
 40
471.4262327403
100
AcDbArc
 50
355.0396650838
 51
355.5884183883
  0
ARC
  5
53B
100
AcDbEntity
  8
93894102000_BL10
100
AcDbCircle
 62
9
  6
CONTINUOUS
 10
-336.2609555791
 20
1137.5929525514
 40
471.4240159867
100
AcDbArc
 50
4.4117585256
 51
4.9605145504
  0
ARC
  5
53C
100
AcDbEntity
  8
93894102000_BL10
100
AcDbCircle
 62
9
  6
CONTINUOUS
 10
-316.221404755
 20
1258.1317826611
 40
451.8601192047
100
AcDbArc
 50
354.819168691
 51
355.3953593573
  0
ARC
  5
53D
100
AcDbEntity
  8
93894102000_BL10
100
AcDbCircle
 62
9
  6
CONTINUOUS
 10
-316.2168750961
 20
1137.5811726579
 40
451.8556311628
100
AcDbArc
 50
4.6047193785
 51
5.1809158251
  0
ARC
  5
53E
100
AcDbEntity
  8
93894102000_BL10
100
AcDbCircle
 62
7
  6
CONTINUOUS
 10
119.0837289478
 20
1196.0013842313
 40
1.081329371
100
AcDbArc
 50
90.0
 51
270.0
  0
ARC
  5
53F
100
AcDbEntity
  8
93894102000_BL10
100
AcDbCircle
 62
4
  6
CONTINUOUS
 10
119.0837289478
 20
1196.0013842313
 40
1.081329371
100
AcDbArc
 50
90.0
 51
270.0
  0
ARC
  5
540
100
AcDbEntity
  8
93894102000_BL10
100
AcDbCircle
 62
7
  6
CONTINUOUS
 10
118.7532989129
 20
1177.7566069783
 40
1.0
100
AcDbArc
 50
180.0
 51
270.0
  0
ARC
  5
541
100
AcDbEntity
  8
93894102000_BL10
100
AcDbCircle
 62
7
  6
CONTINUOUS
 10
119.0837289478
 20
1196.0013842314
 40
0.3255615311
100
AcDbArc
 50
90.0
 51
270.0
  0
ARC
  5
542
100
AcDbEntity
  8
93894102000_BL10
100
AcDbCircle
 62
4
  6
CONTINUOUS
 10
119.0837289478
 20
1196.0013842314
 40
0.3255615311
100
AcDbArc
 50
90.0
 51
270.0
  0
ARC
  5
543
100
AcDbEntity
  8
93894102000_BL10
100
AcDbCircle
 62
7
  6
CONTINUOUS
 10
118.7532989129
 20
1217.9566069783
 40
1.0
100
AcDbArc
 50
90.0
 51
180.0
  0
ARC
  5
544
100
AcDbEntity
  8
93894102000_BL10
100
AcDbCircle
 62
7
  6
CONTINUOUS
 10
119.5488168494
 20
1199.204677153
 40
1.6394348529
100
AcDbArc
 50
259.2706340045
 51
280.7293659955
  0
ARC
  5
545
100
AcDbEntity
  8
93894102000_BL10
100
AcDbCircle
 62
4
  6
CONTINUOUS
 10
119.5488168494
 20
1199.204677153
 40
1.6394348529
100
AcDbArc
 50
259.2706340045
 51
280.7293659955
  0
ARC
  5
546
100
AcDbEntity
  8
93894102000_BL10
100
AcDbCircle
 62
7
  6
CONTINUOUS
 10
119.5488168494
 20
1199.2337451468
 40
1.534790075
100
AcDbArc
 50
305.8545159679
 51
281.4705154512
  0
ARC
  5
547
100
AcDbEntity
  8
93894102000_BL10
100
AcDbCircle
 62
4
  6
CONTINUOUS
 10
119.5488168494
 20
1199.2337451468
 40
1.534790075
100
AcDbArc
 50
305.8545159679
 51
281.4705154512
  0
ARC
  5
548
100
AcDbEntity
  8
93894102000_BL10
100
AcDbCircle
 62
7
  6
CONTINUOUS
 10
119.5488168494
 20
1199.2337451469
 40
0.7790222351
100
AcDbArc
 50
305.2282226131
 51
246.9340105685
  0
ARC
  5
549
100
AcDbEntity
  8
93894102000_BL10
100
AcDbCircle
 62
4
  6
CONTINUOUS
 10
119.5488168494
 20
1199.2337451469
 40
0.7790222351
100
AcDbArc
 50
305.2282226131
 51
246.9340105685
  0
ARC
  5
54A
100
AcDbEntity
  8
93894102000_BL10
100
AcDbCircle
 62
7
  6
CONTINUOUS
 10
119.5488168494
 20
1199.204677153
 40
0.3052139354
100
AcDbArc
 50
0.0
 51
180.0
  0
ARC
  5
54B
100
AcDbEntity
  8
93894102000_BL10
100
AcDbCircle
 62
4
  6
CONTINUOUS
 10
119.5488168494
 20
1199.204677153
 40
0.3052139354
100
AcDbArc
 50
0.0
 51
180.0
  0
ARC
  5
54C
100
AcDbEntity
  8
93894102000_BL10
100
AcDbCircle
 62
7
  6
CONTINUOUS
 10
120.8532989129
 20
1182.3566069783
 40
2.85
100
AcDbArc
 50
90.0
 51
270.0
  0
ARC
  5
54D
100
AcDbEntity
  8
93894102000_BL10
100
AcDbCircle
 62
7
  6
CONTINUOUS
 10
120.8532989129
 20
1213.3566069783
 40
2.85
100
AcDbArc
 50
90.0
 51
270.0
  0
ARC
  5
54E
100
AcDbEntity
  8
93894102000_BL10
100
AcDbCircle
 62
7
  6
CONTINUOUS
 10
120.8532989129
 20
1213.3566069783
 40
1.85
100
AcDbArc
 50
90.0
 51
270.0
  0
ARC
  5
54F
100
AcDbEntity
  8
93894102000_BL10
100
AcDbCircle
 62
7
  6
CONTINUOUS
 10
120.8532989129
 20
1182.3566069783
 40
1.85
100
AcDbArc
 50
90.0
 51
270.0
  0
ARC
  5
550
100
AcDbEntity
  8
93894102000_BL10
100
AcDbCircle
 62
7
  6
CONTINUOUS
 10
123.8532989129
 20
1182.3566069783
 40
2.85
100
AcDbArc
 50
270.0
 51
90.0
  0
ARC
  5
551
100
AcDbEntity
  8
93894102000_BL10
100
AcDbCircle
 62
7
  6
CONTINUOUS
 10
123.8532989129
 20
1213.3566069783
 40
2.85
100
AcDbArc
 50
270.0
 51
90.0
  0
ARC
  5
552
100
AcDbEntity
  8
93894102000_BL10
100
AcDbCircle
 62
7
  6
CONTINUOUS
 10
129.0445037217
 20
1178.3559249772
 40
1.5097783674
100
AcDbArc
 50
358.1490832491
 51
1.8636695629
  0
ARC
  5
553
100
AcDbEntity
  8
93894102000_BL10
100
AcDbCircle
 62
7
  6
CONTINUOUS
 10
129.0445037258
 20
1217.3572889794
 40
1.5097783632
100
AcDbArc
 50
358.1363304318
 51
1.8509167558
  0
ARC
  5
554
100
AcDbEntity
  8
93894102000_BL10
100
AcDbCircle
 62
7
  6
CONTINUOUS
 10
131.7834775839
 20
1182.3571639034
 40
1.2312535155
100
AcDbArc
 50
177.9820806673
 51
182.0412226869
  0
ARC
  5
555
100
AcDbEntity
  8
93894102000_BL10
100
AcDbCircle
 62
7
  6
CONTINUOUS
 10
131.7834774981
 20
1213.3560500532
 40
1.2312534298
100
AcDbArc
 50
177.9587771713
 51
182.0179194736
  0
ARC
  5
556
100
AcDbEntity
  8
93894102000_BL10
100
AcDbCircle
 62
7
  6
CONTINUOUS
 10
129.5390853505
 20
1175.7566069783
 40
1.0
100
AcDbArc
 50
45.0
 51
90.0
  0
ARC
  5
557
100
AcDbEntity
  8
93894102000_BL10
100
AcDbCircle
 62
7
  6
CONTINUOUS
 10
129.5390853505
 20
1219.9566069783
 40
1.0
100
AcDbArc
 50
270.0
 51
315.0
  0
SPLINE
  5
558
100
AcDbEntity
  8
93894102000_BL10
100
AcDbSpline
 62
9
  6
CONTINUOUS
 70
0
 71
3
 72
13
 73
9
 74
0
 42
0.0000001
 43
0.0000001
 44
0.0000000001
 40
0.0
 40
0.0
 40
0.0
 40
0.0
 40
0.381135105
 40
0.703828506
 40
0.8275759728
 40
0.9197971006
 40
0.9773643011
 40
1.0
 40
1.0
 40
1.0
 40
1.0
 10
131.2532989129
 20
1213.2950541655
 30
0.0
 10
131.3811194671
 20
1213.2950541278
 30
0.0
 10
131.616603403
 20
1213.2976329197
 30
0.0
 10
131.8958081973
 20
1213.3073421388
 30
0.0
 10
132.0734096085
 20
1213.3201059968
 30
0.0
 10
132.1693564404
 20
1213.3299674827
 30
0.0
 10
132.2175267622
 20
1213.3399694927
 30
0.0
 10
132.2532820319
 20
1213.3490157058
 30
0.0
 10
132.2532989129
 20
1213.3566069783
 30
0.0
  0
SPLINE
  5
559
100
AcDbEntity
  8
93894102000_BL10
100
AcDbSpline
 62
9
  6
CONTINUOUS
 70
0
 71
3
 72
8
 73
4
 74
0
 42
0.0000001
 43
0.0000001
 44
0.0000000001
 40
0.0
 40
0.0
 40
0.0
 40
0.0
 40
1.0
 40
1.0
 40
1.0
 40
1.0
 10
126.7032984309
 20
1213.3549495389
 30
0.0
 10
127.9865270926
 20
1213.3407699026
 30
0.0
 10
129.2697557442
 20
1213.3265873672
 30
0.0
 10
130.5529875665
 20
1213.3126966973
 30
0.0
  0
SPLINE
  5
55A
100
AcDbEntity
  8
93894102000_BL10
100
AcDbSpline
 62
9
  6
CONTINUOUS
 70
0
 71
3
 72
8
 73
4
 74
0
 42
0.0000001
 43
0.0000001
 44
0.0000000001
 40
0.0
 40
0.0
 40
0.0
 40
0.0
 40
1.0
 40
1.0
 40
1.0
 40
1.0
 10
126.7032964886
 20
1213.3566070177
 30
0.0
 10
127.9865355012
 20
1213.3707879237
 30
0.0
 10
129.2697566247
 20
1213.3866088478
 30
0.0
 10
130.5530051506
 20
1213.3999010378
 30
0.0
  0
SPLINE
  5
55B
100
AcDbEntity
  8
93894102000_BL10
100
AcDbSpline
 62
7
  6
CONTINUOUS
 70
0
 71
3
 72
14
 73
10
 74
0
 42
0.0000001
 43
0.0000001
 44
0.0000000001
 40
0.0
 40
0.0
 40
0.0
 40
0.0
 40
0.0219160739
 40
0.079350465
 40
0.1717976431
 40
0.2956958664
 40
0.446580718
 40
0.6188403024
 40
1.0
 40
1.0
 40
1.0
 40
1.0
 10
132.2532989129
 20
1178.4116403082
 30
0.0
 10
132.2532989129
 20
1178.4043003762
 30
0.0
 10
132.2902482539
 20
1178.3979761458
 30
0.0
 10
132.3370802458
 20
1178.3878900584
 30
0.0
 10
132.4338205224
 20
1178.3798834282
 30
0.0
 10
132.5543013116
 20
1178.3717003994
 30
0.0
 10
132.7047002015
 20
1178.3652553086
 30
0.0
 10
132.9401439973
 20
1178.3584386816
 30
0.0
 10
133.125644376
 20
1178.3566069783
 30
0.0
 10
133.2532989129
 20
1178.3566069783
 30
0.0
  0
SPLINE
  5
55C
100
AcDbEntity
  8
93894102000_BL10
100
AcDbSpline
 62
7
  6
CONTINUOUS
 70
0
 71
3
 72
9
 73
5
 74
0
 42
0.0000001
 43
0.0000001
 44
0.0000000001
 40
0.0
 40
0.0
 40
0.0
 40
0.0
 40
0.2848402393
 40
1.0
 40
1.0
 40
1.0
 40
1.0
 10
133.3996854413
 20
1217.3566069783
 30
0.0
 10
133.4370971531
 20
1217.3566069783
 30
0.0
 10
133.5682440823
 20
1217.3475949743
 30
0.0
 10
133.6993661866
 20
1217.3396389974
 30
0.0
 10
133.7927030108
 20
1217.3290898407
 30
0.0
  0
SPLINE
  5
55D
100
AcDbEntity
  8
93894102000_BL10
100
AcDbSpline
 62
7
  6
CONTINUOUS
 70
0
 71
3
 72
14
 73
10
 74
0
 42
0.0000001
 43
0.0000001
 44
0.0000000001
 40
0.0
 40
0.0
 40
0.0
 40
0.0
 40
0.0219160739
 40
0.079350465
 40
0.1717976431
 40
0.2956958664
 40
0.446580718
 40
0.6188403024
 40
1.0
 40
1.0
 40
1.0
 40
1.0
 10
132.2532989129
 20
1217.3015736484
 30
0.0
 10
132.2532989129
 20
1217.3089135804
 30
0.0
 10
132.2902482539
 20
1217.3152378108
 30
0.0
 10
132.3370802458
 20
1217.3253238982
 30
0.0
 10
132.4338205224
 20
1217.3333305283
 30
0.0
 10
132.5543013116
 20
1217.3415135572
 30
0.0
 10
132.7047002015
 20
1217.3479586479
 30
0.0
 10
132.9401439973
 20
1217.354775275
 30
0.0
 10
133.125644376
 20
1217.3566069783
 30
0.0
 10
133.2532989129
 20
1217.3566069783
 30
0.0
  0
SPLINE
  5
55E
100
AcDbEntity
  8
93894102000_BL10
100
AcDbSpline
 62
9
  6
CONTINUOUS
 70
0
 71
3
 72
9
 73
5
 74
0
 42
0.0000001
 43
0.0000001
 44
0.0000000001
 40
0.0
 40
0.0
 40
0.0
 40
0.0
 40
0.2957300404
 40
1.0
 40
1.0
 40
1.0
 40
1.0
 10
132.2532989329
 20
1178.3566073434
 30
0.0
 10
132.2531588193
 20
1178.3618608206
 30
0.0
 10
132.2314700318
 20
1178.370360731
 30
0.0
 10
132.2168747262
 20
1178.3733975282
 30
0.0
 10
132.204574777
 20
1178.3757098135
 30
0.0
  0
SPLINE
  5
55F
100
AcDbEntity
  8
93894102000_BL10
100
AcDbSpline
 62
9
  6
CONTINUOUS
 70
0
 71
3
 72
9
 73
5
 74
0
 42
0.0000001
 43
0.0000001
 44
0.0000000001
 40
0.0
 40
0.0
 40
0.0
 40
0.0
 40
0.3802243743
 40
1.0
 40
1.0
 40
1.0
 40
1.0
 10
132.204574777
 20
1178.3757098135
 30
0.0
 10
132.0859191917
 20
1178.3980160496
 30
0.0
 10
131.7668066976
 20
1178.408234547
 30
0.0
 10
131.450098591
 20
1178.4163337792
 30
0.0
 10
131.2532989119
 20
1178.4163381999
 30
0.0
  0
SPLINE
  5
560
100
AcDbEntity
  8
93894102000_BL10
100
AcDbSpline
 62
9
  6
CONTINUOUS
 70
0
 71
3
 72
9
 73
5
 74
0
 42
0.0000001
 43
0.0000001
 44
0.0000000001
 40
0.0
 40
0.0
 40
0.0
 40
0.0
 40
0.2945128553
 40
1.0
 40
1.0
 40
1.0
 40
1.0
 10
132.2532989129
 20
1178.3566069783
 30
0.0
 10
132.2531540525
 20
1178.3512908465
 30
0.0
 10
132.2309189871
 20
1178.3429260263
 30
0.0
 10
132.2162138109
 20
1178.3396574462
 30
0.0
 10
132.203697455
 20
1178.3372851572
 30
0.0
  0
SPLINE
  5
561
100
AcDbEntity
  8
93894102000_BL10
100
AcDbSpline
 62
9
  6
CONTINUOUS
 70
0
 71
3
 72
9
 73
5
 74
0
 42
0.0000001
 43
0.0000001
 44
0.0000000001
 40
0.0
 40
0.0
 40
0.0
 40
0.0
 40
0.3830297729
 40
1.0
 40
1.0
 40
1.0
 40
1.0
 10
132.203697455
 20
1178.3372851572
 30
0.0
 10
132.0842998761
 20
1178.3146551224
 30
0.0
 10
131.7654929982
 20
1178.3037112825
 30
0.0
 10
131.4490440808
 20
1178.2950543327
 30
0.0
 10
131.2532989129
 20
1178.2950541655
 30
0.0
  0
SPLINE
  5
562
100
AcDbEntity
  8
93894102000_BL10
100
AcDbSpline
 62
9
  6
CONTINUOUS
 70
0
 71
3
 72
8
 73
4
 74
0
 42
0.0000001
 43
0.0000001
 44
0.0000000001
 40
0.0
 40
0.0
 40
0.0
 40
0.0
 40
1.0
 40
1.0
 40
1.0
 40
1.0
 10
130.5534944349
 20
1178.3071632737
 30
0.0
 10
129.2200917628
 20
1178.3233040484
 30
0.0
 10
127.886695086
 20
1178.3399379671
 30
0.0
 10
126.5532989129
 20
1178.3566069783
 30
0.0
  0
SPLINE
  5
563
100
AcDbEntity
  8
93894102000_BL10
100
AcDbSpline
 62
9
  6
CONTINUOUS
 70
0
 71
3
 72
8
 73
4
 74
0
 42
0.0000001
 43
0.0000001
 44
0.0000000001
 40
0.0
 40
0.0
 40
0.0
 40
0.0
 40
1.0
 40
1.0
 40
1.0
 40
1.0
 10
130.5534837344
 20
1178.4050189022
 30
0.0
 10
129.2200773807
 20
1178.3898539391
 30
0.0
 10
127.886687311
 20
1178.3732761083
 30
0.0
 10
126.5532989129
 20
1178.3566069783
 30
0.0
  0
SPLINE
  5
564
100
AcDbEntity
  8
93894102000_BL10
100
AcDbSpline
 62
9
  6
CONTINUOUS
 70
0
 71
3
 72
13
 73
9
 74
0
 42
0.0000001
 43
0.0000001
 44
0.0000000001
 40
0.0
 40
0.0
 40
0.0
 40
0.0
 40
0.3807296448
 40
0.7034919501
 40
0.827438737
 40
0.9198181142
 40
0.9773645941
 40
1.0
 40
1.0
 40
1.0
 40
1.0
 10
131.2532989129
 20
1217.4181597911
 30
0.0
 10
131.380961984
 20
1217.4181596511
 30
0.0
 10
131.6163039286
 20
1217.4154609884
 30
0.0
 10
131.895376821
 20
1217.4055085818
 30
0.0
 10
132.0731218943
 20
1217.3925915868
 30
0.0
 10
132.1691035256
 20
1217.382903958
 30
0.0
 10
132.2174663932
 20
1217.3727795902
 30
0.0
 10
132.2530929128
 20
1217.3641930103
 30
0.0
 10
132.2532989129
 20
1217.3566058919
 30
0.0
  0
SPLINE
  5
565
100
AcDbEntity
  8
93894102000_BL10
100
AcDbSpline
 62
9
  6
CONTINUOUS
 70
0
 71
3
 72
11
 73
7
 74
0
 42
0.0000001
 43
0.0000001
 44
0.0000000001
 40
0.0
 40
0.0
 40
0.0
 40
0.0
 40
0.3518190985
 40
0.6587202703
 40
0.8832388278
 40
1.0
 40
1.0
 40
1.0
 40
1.0
 10
131.2532989117
 20
1217.2968758028
 30
0.0
 10
131.3694067212
 20
1217.2968785355
 30
0.0
 10
131.5865945745
 20
1217.2993690173
 30
0.0
 10
131.8787502507
 20
1217.3066103678
 30
0.0
 10
132.0905409621
 20
1217.3238569247
 30
0.0
 10
132.2049149845
 20
1217.332794322
 30
0.0
 10
132.2408301892
 20
1217.3467565005
 30
0.0
  0
SPLINE
  5
566
100
AcDbEntity
  8
93894102000_BL10
100
AcDbSpline
 62
9
  6
CONTINUOUS
 70
0
 71
3
 72
8
 73
4
 74
0
 42
0.0000001
 43
0.0000001
 44
0.0000000001
 40
0.0
 40
0.0
 40
0.0
 40
0.0
 40
1.0
 40
1.0
 40
1.0
 40
1.0
 10
126.5532989129
 20
1217.3566069783
 30
0.0
 10
127.886695086
 20
1217.3732759895
 30
0.0
 10
129.2200917628
 20
1217.3899099082
 30
0.0
 10
130.5534944349
 20
1217.4060506829
 30
0.0
  0
SPLINE
  5
567
100
AcDbEntity
  8
93894102000_BL10
100
AcDbSpline
 62
9
  6
CONTINUOUS
 70
0
 71
3
 72
8
 73
4
 74
0
 42
0.0000001
 43
0.0000001
 44
0.0000000001
 40
0.0
 40
0.0
 40
0.0
 40
0.0
 40
1.0
 40
1.0
 40
1.0
 40
1.0
 10
126.5532989129
 20
1217.3566069783
 30
0.0
 10
127.886687311
 20
1217.3399378483
 30
0.0
 10
129.2200773807
 20
1217.3233600175
 30
0.0
 10
130.5534837344
 20
1217.3081950543
 30
0.0
  0
SPLINE
  5
568
100
AcDbEntity
  8
93894102000_BL10
100
AcDbSpline
 62
9
  6
CONTINUOUS
 70
0
 71
3
 72
13
 73
9
 74
0
 42
0.0000001
 43
0.0000001
 44
0.0000000001
 40
0.0
 40
0.0
 40
0.0
 40
0.0
 40
0.0226357454
 40
0.0802031523
 40
0.1724245445
 40
0.2961722837
 40
0.6188658614
 40
1.0
 40
1.0
 40
1.0
 40
1.0
 10
132.2532989129
 20
1182.3566069783
 30
0.0
 10
132.2532818384
 20
1182.3641982659
 30
0.0
 10
132.2175268596
 20
1182.3732444673
 30
0.0
 10
132.1693560465
 20
1182.3832465385
 30
0.0
 10
132.0734091348
 20
1182.3931079901
 30
0.0
 10
131.8958073861
 20
1182.4058718679
 30
0.0
 10
131.6166028358
 20
1182.4155810493
 30
0.0
 10
131.3811191424
 20
1182.4181598107
 30
0.0
 10
131.2532989129
 20
1182.4181597911
 30
0.0
  0
SPLINE
  5
569
100
AcDbEntity
  8
93894102000_BL10
100
AcDbSpline
 62
9
  6
CONTINUOUS
 70
0
 71
3
 72
13
 73
9
 74
0
 42
0.0000001
 43
0.0000001
 44
0.0000000001
 40
0.0
 40
0.0
 40
0.0
 40
0.0
 40
0.0229525932
 40
0.0813157544
 40
0.1745009598
 40
0.2989818148
 40
0.6213906479
 40
1.0
 40
1.0
 40
1.0
 40
1.0
 10
132.2532989129
 20
1182.3566069783
 30
0.0
 10
132.2532818047
 20
1182.3489103543
 30
0.0
 10
132.2169273563
 20
1182.3398909029
 30
0.0
 10
132.168218168
 20
1182.3299166209
 30
0.0
 10
132.0713456268
 20
1182.3202837614
 30
0.0
 10
131.8932699574
 20
1182.3080931616
 30
0.0
 10
131.6147718329
 20
1182.2991975487
 30
0.0
 10
131.3802571614
 20
1182.2969083501
 30
0.0
 10
131.2532989132
 20
1182.2969072152
 30
0.0
  0
SPLINE
  5
56A
100
AcDbEntity
  8
93894102000_BL10
100
AcDbSpline
 62
9
  6
CONTINUOUS
 70
0
 71
3
 72
8
 73
4
 74
0
 42
0.0000001
 43
0.0000001
 44
0.0000000001
 40
0.0
 40
0.0
 40
0.0
 40
0.0
 40
1.0
 40
1.0
 40
1.0
 40
1.0
 10
130.5530051505
 20
1182.3133129204
 30
0.0
 10
129.2697566246
 20
1182.3266051104
 30
0.0
 10
127.9865355012
 20
1182.3424260329
 30
0.0
 10
126.7032964886
 20
1182.3566069389
 30
0.0
  0
SPLINE
  5
56B
100
AcDbEntity
  8
93894102000_BL10
100
AcDbSpline
 62
9
  6
CONTINUOUS
 70
0
 71
3
 72
8
 73
4
 74
0
 42
0.0000001
 43
0.0000001
 44
0.0000000001
 40
0.0
 40
0.0
 40
0.0
 40
0.0
 40
1.0
 40
1.0
 40
1.0
 40
1.0
 10
130.5529875665
 20
1182.4005172586
 30
0.0
 10
129.2697557442
 20
1182.3866265887
 30
0.0
 10
127.9865270926
 20
1182.372444054
 30
0.0
 10
126.7032984309
 20
1182.3582644177
 30
0.0
  0
SPLINE
  5
56C
100
AcDbEntity
  8
93894102000_BL10
100
AcDbSpline
 62
7
  6
CONTINUOUS
 70
0
 71
3
 72
9
 73
5
 74
0
 42
0.0000001
 43
0.0000001
 44
0.0000000001
 40
0.0
 40
0.0
 40
0.0
 40
0.0
 40
0.284845105
 40
1.0
 40
1.0
 40
1.0
 40
1.0
 10
133.3996854413
 20
1178.3566069783
 30
0.0
 10
133.4370978091
 20
1178.3566069783
 30
0.0
 10
133.5682454089
 20
1178.3656062199
 30
0.0
 10
133.6993667792
 20
1178.3735749797
 30
0.0
 10
133.7927030108
 20
1178.3841240689
 30
0.0
  0
SPLINE
  5
56D
100
AcDbEntity
  8
93894102000_BL10
100
AcDbSpline
 62
9
  6
CONTINUOUS
 70
0
 71
3
 72
13
 73
9
 74
0
 42
0.0000001
 43
0.0000001
 44
0.0000000001
 40
0.0
 40
0.0
 40
0.0
 40
0.0
 40
0.3786103078
 40
0.7010189466
 40
0.8254995721
 40
0.9186845056
 40
0.9770474835
 40
1.0
 40
1.0
 40
1.0
 40
1.0
 10
131.2532989135
 20
1213.416306694
 30
0.0
 10
131.3802574806
 20
1213.4163055408
 30
0.0
 10
131.6147723759
 20
1213.4140163436
 30
0.0
 10
131.8932707626
 20
1213.4051207703
 30
0.0
 10
132.0713460722
 20
1213.3929301193
 30
0.0
 10
132.1682186012
 20
1213.383297388
 30
0.0
 10
132.2169272083
 20
1213.373322949
 30
0.0
 10
132.253282002
 20
1213.3643035769
 30
0.0
 10
132.2532989129
 20
1213.3566069783
 30
0.0
  0
LINE
  5
56E
100
AcDbEntity
  8
93894102000_BL10
100
AcDbLine
 62
9
  6
CONTINUOUS
 10
19.3635500205
 20
1173.8566069783
 11
19.3607016653
 21
1173.8812852038
  0
LINE
  5
56F
100
AcDbEntity
  8
93894102000_BL10
100
AcDbLine
 62
9
  6
CONTINUOUS
 10
19.3607016653
 20
1173.8812852038
 11
18.8409655757
 21
1178.3841267001
  0
LINE
  5
570
100
AcDbEntity
  8
93894102000_BL10
100
AcDbLine
 62
9
  6
CONTINUOUS
 10
18.8409658747
 20
1217.3290871538
 11
19.3606929927
 21
1221.8319311331
  0
LINE
  5
571
100
AcDbEntity
  8
93894102000_BL10
100
AcDbLine
 62
9
  6
CONTINUOUS
 10
19.3606929927
 20
1221.8319311331
 11
19.3635410702
 21
1221.8566069783
  0
SPLINE
  5
572
100
AcDbEntity
  8
93894102000_BL10
100
AcDbSpline
 62
7
  6
CONTINUOUS
 70
0
 71
3
 72
9
 73
5
 74
0
 42
0.0000001
 43
0.0000001
 44
0.0000000001
 40
0.0
 40
0.0
 40
0.0
 40
0.0
 40
0.2681641948
 40
1.0
 40
1.0
 40
1.0
 40
1.0
 10
18.6500424036
 20
1217.3566069783
 30
0.0
 10
18.6665910426
 20
1217.3512799514
 30
0.0
 10
18.7291937515
 20
1217.336219472
 30
0.0
 10
18.7939957469
 20
1217.3332635904
 30
0.0
 10
18.8409514945
 20
1217.3290898407
 30
0.0
  0
SPLINE
  5
573
100
AcDbEntity
  8
93894102000_BL10
100
AcDbSpline
 62
7
  6
CONTINUOUS
 70
0
 71
3
 72
9
 73
5
 74
0
 42
0.0000001
 43
0.0000001
 44
0.0000000001
 40
0.0
 40
0.0
 40
0.0
 40
0.0
 40
0.2681580695
 40
1.0
 40
1.0
 40
1.0
 40
1.0
 10
18.6500424036
 20
1178.3566069783
 30
0.0
 10
18.6665908936
 20
1178.3619327391
 30
0.0
 10
18.7291940017
 20
1178.3769913388
 30
0.0
 10
18.7939954187
 20
1178.37995029
 30
0.0
 10
18.8409514945
 20
1178.3841240689
 30
0.0
  0
ENDBLK
  5
574
100
AcDbEntity
  8
0
  6
BYBLOCK
 62
0
100
AcDbBlockEnd
  0
BLOCK
  5
575
100
AcDbEntity
  8
93894203000_BL11
100
AcDbBlockBegin
  2
93894203000_BL11
 70
64
 10
77.2016706582
 20
1197.8566069783
  3
93894203000_BL11
  1

  0
LINE
  5
576
100
AcDbEntity
  8
93894203000_BL11
100
AcDbLine
 62
7
  6
CONTINUOUS
 10
130.1032989129
 20
1176.3566069783
 11
117.7532989129
 21
1176.3566069783
  0
LINE
  5
577
100
AcDbEntity
  8
93894203000_BL11
100
AcDbLine
 62
7
  6
CONTINUOUS
 10
117.7532989129
 20
1219.3566069783
 11
130.1032989129
 21
1219.3566069783
  0
LINE
  5
578
100
AcDbEntity
  8
93894203000_BL11
100
AcDbLine
 62
7
  6
CONTINUOUS
 10
118.2532989129
 20
1176.8566069783
 11
118.7532989129
 21
1176.3566069783
  0
LINE
  5
579
100
AcDbEntity
  8
93894203000_BL11
100
AcDbLine
 62
7
  6
CONTINUOUS
 10
119.3532989129
 20
1176.7566069783
 11
119.7532989129
 21
1176.3566069783
  0
LINE
  5
57A
100
AcDbEntity
  8
93894203000_BL11
100
AcDbLine
 62
7
  6
CONTINUOUS
 10
120.3532989129
 20
1176.7566069783
 11
120.7532989129
 21
1176.3566069783
  0
LINE
  5
57B
100
AcDbEntity
  8
93894203000_BL11
100
AcDbLine
 62
7
  6
CONTINUOUS
 10
121.3532989129
 20
1176.7566069783
 11
121.7532989129
 21
1176.3566069783
  0
LINE
  5
57C
100
AcDbEntity
  8
93894203000_BL11
100
AcDbLine
 62
7
  6
CONTINUOUS
 10
122.3532989129
 20
1176.7566069783
 11
122.7532989129
 21
1176.3566069783
  0
LINE
  5
57D
100
AcDbEntity
  8
93894203000_BL11
100
AcDbLine
 62
7
  6
CONTINUOUS
 10
123.3532989129
 20
1176.7566069783
 11
123.7532989129
 21
1176.3566069783
  0
LINE
  5
57E
100
AcDbEntity
  8
93894203000_BL11
100
AcDbLine
 62
7
  6
CONTINUOUS
 10
124.3532989129
 20
1176.7566069783
 11
124.7532989129
 21
1176.3566069783
  0
LINE
  5
57F
100
AcDbEntity
  8
93894203000_BL11
100
AcDbLine
 62
7
  6
CONTINUOUS
 10
125.3532989129
 20
1176.7566069783
 11
125.7532989129
 21
1176.3566069783
  0
LINE
  5
580
100
AcDbEntity
  8
93894203000_BL11
100
AcDbLine
 62
7
  6
CONTINUOUS
 10
130.1032989129
 20
1176.3566069783
 11
132.7532989129
 21
1173.7066069783
  0
LINE
  5
581
100
AcDbEntity
  8
93894203000_BL11
100
AcDbLine
 62
7
  6
CONTINUOUS
 10
118.2532989129
 20
1176.8566069783
 11
118.2532989129
 21
1176.8944936896
  0
LINE
  5
582
100
AcDbEntity
  8
93894203000_BL11
100
AcDbLine
 62
7
  6
CONTINUOUS
 10
118.2532989129
 20
1218.818720267
 11
118.2532989129
 21
1218.8566069783
  0
LINE
  5
583
100
AcDbEntity
  8
93894203000_BL11
100
AcDbLine
 62
7
  6
CONTINUOUS
 10
118.7532989129
 20
1219.3566069783
 11
118.7532989129
 21
1218.9566069783
  0
LINE
  5
584
100
AcDbEntity
  8
93894203000_BL11
100
AcDbLine
 62
7
  6
CONTINUOUS
 10
118.7532989129
 20
1176.7566069783
 11
118.7532989129
 21
1176.3566069783
  0
LINE
  5
585
100
AcDbEntity
  8
93894203000_BL11
100
AcDbLine
 62
7
  6
CONTINUOUS
 10
119.2532989129
 20
1181.444386575
 11
119.2532989129
 21
1183.2688273816
  0
LINE
  5
586
100
AcDbEntity
  8
93894203000_BL11
100
AcDbLine
 62
7
  6
CONTINUOUS
 10
119.2532989129
 20
1212.444386575
 11
119.2532989129
 21
1214.2688273816
  0
LINE
  5
587
100
AcDbEntity
  8
93894203000_BL11
100
AcDbLine
 62
7
  6
CONTINUOUS
 10
119.7532989129
 20
1219.3566069783
 11
119.7532989129
 21
1218.9566069783
  0
LINE
  5
588
100
AcDbEntity
  8
93894203000_BL11
100
AcDbLine
 62
7
  6
CONTINUOUS
 10
119.7532989129
 20
1214.8355767992
 11
119.7532989129
 21
1211.8776371574
  0
LINE
  5
589
100
AcDbEntity
  8
93894203000_BL11
100
AcDbLine
 62
7
  6
CONTINUOUS
 10
119.7532989129
 20
1183.8355767992
 11
119.7532989129
 21
1180.8776371574
  0
LINE
  5
58A
100
AcDbEntity
  8
93894203000_BL11
100
AcDbLine
 62
7
  6
CONTINUOUS
 10
119.7532989129
 20
1176.7566069783
 11
119.7532989129
 21
1176.3566069783
  0
LINE
  5
58B
100
AcDbEntity
  8
93894203000_BL11
100
AcDbLine
 62
7
  6
CONTINUOUS
 10
120.2532989129
 20
1180.6146792157
 11
120.2532989129
 21
1184.0985347409
  0
LINE
  5
58C
100
AcDbEntity
  8
93894203000_BL11
100
AcDbLine
 62
7
  6
CONTINUOUS
 10
120.2532989129
 20
1211.6146792157
 11
120.2532989129
 21
1215.0985347409
  0
LINE
  5
58D
100
AcDbEntity
  8
93894203000_BL11
100
AcDbLine
 62
7
  6
CONTINUOUS
 10
120.7532989129
 20
1219.3566069783
 11
120.7532989129
 21
1218.9566069783
  0
LINE
  5
58E
100
AcDbEntity
  8
93894203000_BL11
100
AcDbLine
 62
7
  6
CONTINUOUS
 10
120.7532989129
 20
1215.196757838
 11
120.7532989129
 21
1211.5164561186
  0
LINE
  5
58F
100
AcDbEntity
  8
93894203000_BL11
100
AcDbLine
 62
7
  6
CONTINUOUS
 10
120.7532989129
 20
1184.196757838
 11
120.7532989129
 21
1180.5164561186
  0
LINE
  5
590
100
AcDbEntity
  8
93894203000_BL11
100
AcDbLine
 62
7
  6
CONTINUOUS
 10
120.7532989129
 20
1176.7566069783
 11
120.7532989129
 21
1176.3566069783
  0
LINE
  5
591
100
AcDbEntity
  8
93894203000_BL11
100
AcDbLine
 62
7
  6
CONTINUOUS
 10
121.2532989129
 20
1180.5066069783
 11
121.2532989129
 21
1181.0098908312
  0
LINE
  5
592
100
AcDbEntity
  8
93894203000_BL11
100
AcDbLine
 62
7
  6
CONTINUOUS
 10
121.2532989129
 20
1183.7033231254
 11
121.2532989129
 21
1184.2066069783
  0
LINE
  5
593
100
AcDbEntity
  8
93894203000_BL11
100
AcDbLine
 62
7
  6
CONTINUOUS
 10
121.2532989129
 20
1211.5066069783
 11
121.2532989129
 21
1212.0098908312
  0
LINE
  5
594
100
AcDbEntity
  8
93894203000_BL11
100
AcDbLine
 62
7
  6
CONTINUOUS
 10
121.2532989129
 20
1214.7033231254
 11
121.2532989129
 21
1215.2066069783
  0
LINE
  5
595
100
AcDbEntity
  8
93894203000_BL11
100
AcDbLine
 62
7
  6
CONTINUOUS
 10
121.7532989129
 20
1219.3566069783
 11
121.7532989129
 21
1218.9566069783
  0
LINE
  5
596
100
AcDbEntity
  8
93894203000_BL11
100
AcDbLine
 62
7
  6
CONTINUOUS
 10
121.7532989129
 20
1176.7566069783
 11
121.7532989129
 21
1176.3566069783
  0
LINE
  5
597
100
AcDbEntity
  8
93894203000_BL11
100
AcDbLine
 62
7
  6
CONTINUOUS
 10
122.7532989129
 20
1219.3566069783
 11
122.7532989129
 21
1218.9566069783
  0
LINE
  5
598
100
AcDbEntity
  8
93894203000_BL11
100
AcDbLine
 62
7
  6
CONTINUOUS
 10
122.7532989129
 20
1176.7566069783
 11
122.7532989129
 21
1176.3566069783
  0
LINE
  5
599
100
AcDbEntity
  8
93894203000_BL11
100
AcDbLine
 62
7
  6
CONTINUOUS
 10
123.7532989129
 20
1219.3566069783
 11
123.7532989129
 21
1218.9566069783
  0
LINE
  5
59A
100
AcDbEntity
  8
93894203000_BL11
100
AcDbLine
 62
7
  6
CONTINUOUS
 10
123.7532989129
 20
1176.7566069783
 11
123.7532989129
 21
1176.3566069783
  0
LINE
  5
59B
100
AcDbEntity
  8
93894203000_BL11
100
AcDbLine
 62
7
  6
CONTINUOUS
 10
124.7532989129
 20
1219.3566069783
 11
124.7532989129
 21
1218.9566069783
  0
LINE
  5
59C
100
AcDbEntity
  8
93894203000_BL11
100
AcDbLine
 62
7
  6
CONTINUOUS
 10
124.7532989129
 20
1176.7566069783
 11
124.7532989129
 21
1176.3566069783
  0
LINE
  5
59D
100
AcDbEntity
  8
93894203000_BL11
100
AcDbLine
 62
7
  6
CONTINUOUS
 10
125.7532989129
 20
1219.3566069783
 11
125.7532989129
 21
1218.9566069783
  0
LINE
  5
59E
100
AcDbEntity
  8
93894203000_BL11
100
AcDbLine
 62
7
  6
CONTINUOUS
 10
125.7532989129
 20
1176.7566069783
 11
125.7532989129
 21
1176.3566069783
  0
LINE
  5
59F
100
AcDbEntity
  8
93894203000_BL11
100
AcDbLine
 62
7
  6
CONTINUOUS
 10
126.2532989129
 20
1176.3566069783
 11
126.2532989129
 21
1176.7566069783
  0
LINE
  5
5A0
100
AcDbEntity
  8
93894203000_BL11
100
AcDbLine
 62
7
  6
CONTINUOUS
 10
126.2532989129
 20
1218.9566069783
 11
126.2532989129
 21
1219.3566069783
  0
LINE
  5
5A1
100
AcDbEntity
  8
93894203000_BL11
100
AcDbLine
 62
7
  6
CONTINUOUS
 10
117.7532989129
 20
1219.3566069783
 11
118.2532989129
 21
1218.8566069783
  0
LINE
  5
5A2
100
AcDbEntity
  8
93894203000_BL11
100
AcDbLine
 62
7
  6
CONTINUOUS
 10
118.7532989129
 20
1219.3566069783
 11
119.1532989129
 21
1218.9566069783
  0
LINE
  5
5A3
100
AcDbEntity
  8
93894203000_BL11
100
AcDbLine
 62
7
  6
CONTINUOUS
 10
119.7532989129
 20
1219.3566069783
 11
120.1532989129
 21
1218.9566069783
  0
LINE
  5
5A4
100
AcDbEntity
  8
93894203000_BL11
100
AcDbLine
 62
7
  6
CONTINUOUS
 10
120.7532989129
 20
1219.3566069783
 11
121.1532989129
 21
1218.9566069783
  0
LINE
  5
5A5
100
AcDbEntity
  8
93894203000_BL11
100
AcDbLine
 62
7
  6
CONTINUOUS
 10
121.7532989129
 20
1219.3566069783
 11
122.1532989129
 21
1218.9566069783
  0
LINE
  5
5A6
100
AcDbEntity
  8
93894203000_BL11
100
AcDbLine
 62
7
  6
CONTINUOUS
 10
122.7532989129
 20
1219.3566069783
 11
123.1532989129
 21
1218.9566069783
  0
LINE
  5
5A7
100
AcDbEntity
  8
93894203000_BL11
100
AcDbLine
 62
7
  6
CONTINUOUS
 10
123.7532989129
 20
1219.3566069783
 11
124.1532989129
 21
1218.9566069783
  0
LINE
  5
5A8
100
AcDbEntity
  8
93894203000_BL11
100
AcDbLine
 62
7
  6
CONTINUOUS
 10
124.7532989129
 20
1219.3566069783
 11
125.1532989129
 21
1218.9566069783
  0
LINE
  5
5A9
100
AcDbEntity
  8
93894203000_BL11
100
AcDbLine
 62
7
  6
CONTINUOUS
 10
118.2532989129
 20
1218.8566069783
 11
118.7532989129
 21
1219.3566069783
  0
LINE
  5
5AA
100
AcDbEntity
  8
93894203000_BL11
100
AcDbLine
 62
7
  6
CONTINUOUS
 10
119.3532989129
 20
1218.9566069783
 11
119.7532989129
 21
1219.3566069783
  0
LINE
  5
5AB
100
AcDbEntity
  8
93894203000_BL11
100
AcDbLine
 62
7
  6
CONTINUOUS
 10
120.3532989129
 20
1218.9566069783
 11
120.7532989129
 21
1219.3566069783
  0
LINE
  5
5AC
100
AcDbEntity
  8
93894203000_BL11
100
AcDbLine
 62
7
  6
CONTINUOUS
 10
121.3532989129
 20
1218.9566069783
 11
121.7532989129
 21
1219.3566069783
  0
LINE
  5
5AD
100
AcDbEntity
  8
93894203000_BL11
100
AcDbLine
 62
7
  6
CONTINUOUS
 10
122.3532989129
 20
1218.9566069783
 11
122.7532989129
 21
1219.3566069783
  0
LINE
  5
5AE
100
AcDbEntity
  8
93894203000_BL11
100
AcDbLine
 62
7
  6
CONTINUOUS
 10
123.3532989129
 20
1218.9566069783
 11
123.7532989129
 21
1219.3566069783
  0
LINE
  5
5AF
100
AcDbEntity
  8
93894203000_BL11
100
AcDbLine
 62
7
  6
CONTINUOUS
 10
124.3532989129
 20
1218.9566069783
 11
124.7532989129
 21
1219.3566069783
  0
LINE
  5
5B0
100
AcDbEntity
  8
93894203000_BL11
100
AcDbLine
 62
7
  6
CONTINUOUS
 10
125.3532989129
 20
1218.9566069783
 11
125.7532989129
 21
1219.3566069783
  0
LINE
  5
5B1
100
AcDbEntity
  8
93894203000_BL11
100
AcDbLine
 62
7
  6
CONTINUOUS
 10
132.7532989129
 20
1222.0066069783
 11
130.1032989129
 21
1219.3566069783
  0
LINE
  5
5B2
100
AcDbEntity
  8
93894203000_BL11
100
AcDbLine
 62
7
  6
CONTINUOUS
 10
117.7532989129
 20
1176.3566069783
 11
118.2532989129
 21
1176.8566069783
  0
LINE
  5
5B3
100
AcDbEntity
  8
93894203000_BL11
100
AcDbLine
 62
7
  6
CONTINUOUS
 10
118.7532989129
 20
1176.3566069783
 11
119.1532989129
 21
1176.7566069783
  0
LINE
  5
5B4
100
AcDbEntity
  8
93894203000_BL11
100
AcDbLine
 62
7
  6
CONTINUOUS
 10
119.7532989129
 20
1176.3566069783
 11
120.1532989129
 21
1176.7566069783
  0
LINE
  5
5B5
100
AcDbEntity
  8
93894203000_BL11
100
AcDbLine
 62
7
  6
CONTINUOUS
 10
120.7532989129
 20
1176.3566069783
 11
121.1532989129
 21
1176.7566069783
  0
LINE
  5
5B6
100
AcDbEntity
  8
93894203000_BL11
100
AcDbLine
 62
7
  6
CONTINUOUS
 10
121.7532989129
 20
1176.3566069783
 11
122.1532989129
 21
1176.7566069783
  0
LINE
  5
5B7
100
AcDbEntity
  8
93894203000_BL11
100
AcDbLine
 62
7
  6
CONTINUOUS
 10
122.7532989129
 20
1176.3566069783
 11
123.1532989129
 21
1176.7566069783
  0
LINE
  5
5B8
100
AcDbEntity
  8
93894203000_BL11
100
AcDbLine
 62
7
  6
CONTINUOUS
 10
123.7532989129
 20
1176.3566069783
 11
124.1532989129
 21
1176.7566069783
  0
LINE
  5
5B9
100
AcDbEntity
  8
93894203000_BL11
100
AcDbLine
 62
7
  6
CONTINUOUS
 10
124.7532989129
 20
1176.3566069783
 11
125.1532989129
 21
1176.7566069783
  0
LINE
  5
5BA
100
AcDbEntity
  8
93894203000_BL11
100
AcDbLine
 62
7
  6
CONTINUOUS
 10
21.6500424036
 20
1222.0066069783
 11
21.6500424036
 21
1221.8566069783
  0
LINE
  5
5BB
100
AcDbEntity
  8
93894203000_BL11
100
AcDbLine
 62
7
  6
CONTINUOUS
 10
21.6500424036
 20
1173.8566069783
 11
21.6500424036
 21
1173.7066069783
  0
LINE
  5
5BC
100
AcDbEntity
  8
93894203000_BL11
100
AcDbLine
 62
7
  6
CONTINUOUS
 10
25.6500424036
 20
1222.0066069783
 11
25.6500424036
 21
1221.8566069783
  0
LINE
  5
5BD
100
AcDbEntity
  8
93894203000_BL11
100
AcDbLine
 62
7
  6
CONTINUOUS
 10
25.6500424036
 20
1173.8566069783
 11
25.6500424036
 21
1173.7066069783
  0
ARC
  5
5BE
100
AcDbEntity
  8
93894203000_BL11
100
AcDbCircle
 62
7
  6
CONTINUOUS
 10
128.7532989129
 20
1176.8566069783
 40
0.5
100
AcDbArc
 50
191.5504554011
 51
269.9999999999
  0
ARC
  5
5BF
100
AcDbEntity
  8
93894203000_BL11
100
AcDbCircle
 62
7
  6
CONTINUOUS
 10
128.7532989129
 20
1218.8566069783
 40
0.5
100
AcDbArc
 50
90.0000000001
 51
168.449544599
  0
SPLINE
  5
5C0
100
AcDbEntity
  8
93894203000_BL11
100
AcDbSpline
 62
7
  6
CONTINUOUS
 70
0
 71
3
 72
8
 73
4
 74
0
 42
0.0000001
 43
0.0000001
 44
0.0000000001
 40
0.0
 40
0.0
 40
0.0
 40
0.0
 40
1.0
 40
1.0
 40
1.0
 40
1.0
 10
126.5104969851
 20
1218.9566535322
 30
0.0
 10
126.5149294431
 20
1218.9873350276
 30
0.0
 10
126.521416139
 20
1219.0178051333
 30
0.0
 10
126.5300991031
 20
1219.0475642828
 30
0.0
  0
SPLINE
  5
5C1
100
AcDbEntity
  8
93894203000_BL11
100
AcDbSpline
 62
7
  6
CONTINUOUS
 70
0
 71
3
 72
9
 73
5
 74
0
 42
0.0000001
 43
0.0000001
 44
0.0000000001
 40
0.0
 40
0.0
 40
0.0
 40
0.0
 40
0.548246784
 40
1.0
 40
1.0
 40
1.0
 40
1.0
 10
126.5300991031
 20
1219.0475642828
 30
0.0
 10
126.554338881
 20
1219.1306413475
 30
0.0
 10
126.6279267141
 20
1219.2792810059
 30
0.0
 10
126.7855427572
 20
1219.3566069783
 30
0.0
 10
126.8568523034
 20
1219.3566069783
 30
0.0
  0
SPLINE
  5
5C2
100
AcDbEntity
  8
93894203000_BL11
100
AcDbSpline
 62
7
  6
CONTINUOUS
 70
0
 71
3
 72
9
 73
5
 74
0
 42
0.0000001
 43
0.0000001
 44
0.0000000001
 40
0.0
 40
0.0
 40
0.0
 40
0.0
 40
0.4447493273
 40
1.0
 40
1.0
 40
1.0
 40
1.0
 10
126.8568523034
 20
1176.3566069783
 30
0.0
 10
126.7732766105
 20
1176.3566069783
 30
0.0
 10
126.5886819506
 20
1176.4661351341
 30
0.0
 10
126.525120043
 20
1176.6542766991
 30
0.0
 10
126.5103523125
 20
1176.7575670545
 30
0.0
  0
ENDBLK
  5
5C3
100
AcDbEntity
  8
0
  6
BYBLOCK
 62
0
100
AcDbBlockEnd
  0
BLOCK
  5
5C4
100
AcDbEntity
  8
93780800R00_BL12
100
AcDbBlockBegin
  2
93780800R00_BL12
 70
64
 10
123.7532989129
 20
1182.3566069783
  3
93780800R00_BL12
  1

  0
LINE
  5
5C5
100
AcDbEntity
  8
93780800R00_BL12
100
AcDbLine
 62
7
  6
CONTINUOUS
 10
124.509541233
 20
1182.3566069783
 11
124.2270206496
 21
1182.3566069783
  0
LINE
  5
5C6
100
AcDbEntity
  8
93780800R00_BL12
100
AcDbLine
 62
7
  6
CONTINUOUS
 10
122.9970565927
 20
1182.3566069783
 11
123.2795771761
 21
1182.3566069783
  0
LINE
  5
5C7
100
AcDbEntity
  8
93780800R00_BL12
100
AcDbLine
 62
7
  6
CONTINUOUS
 10
123.8444530303
 20
1181.5653738709
 11
123.7532989129
 21
1181.6003646582
  0
LINE
  5
5C8
100
AcDbEntity
  8
93780800R00_BL12
100
AcDbLine
 62
7
  6
CONTINUOUS
 10
123.6621447955
 20
1183.1478400857
 11
123.7532989129
 21
1183.1128492984
  0
LINE
  5
5C9
100
AcDbEntity
  8
93780800R00_BL12
100
AcDbLine
 62
7
  6
CONTINUOUS
 10
122.9620658054
 20
1182.2654528609
 11
123.1810211615
 21
1182.1259629151
  0
LINE
  5
5CA
100
AcDbEntity
  8
93780800R00_BL12
100
AcDbLine
 62
7
  6
CONTINUOUS
 10
124.5445320203
 20
1182.4477610957
 11
124.3255766642
 21
1182.5872510415
  0
LINE
  5
5CB
100
AcDbEntity
  8
93780800R00_BL12
100
AcDbLine
 62
7
  6
CONTINUOUS
 10
123.1810211615
 20
1182.5872510415
 11
123.1668808917
 21
1182.6002027593
  0
LINE
  5
5CC
100
AcDbEntity
  8
93780800R00_BL12
100
AcDbLine
 62
7
  6
CONTINUOUS
 10
124.3255766642
 20
1182.1259629151
 11
124.339716934
 21
1182.1130111973
  0
LINE
  5
5CD
100
AcDbEntity
  8
93780800R00_BL12
100
AcDbLine
 62
7
  6
CONTINUOUS
 10
124.7734805044
 20
1180.6682224675
 11
123.8444530303
 21
1181.5653738709
  0
LINE
  5
5CE
100
AcDbEntity
  8
93780800R00_BL12
100
AcDbLine
 62
7
  6
CONTINUOUS
 10
122.7331173213
 20
1184.044991489
 11
123.6621447955
 21
1183.1478400857
  0
LINE
  5
5CF
100
AcDbEntity
  8
93780800R00_BL12
100
AcDbLine
 62
7
  6
CONTINUOUS
 10
122.9620658054
 20
1182.4477610957
 11
122.0649144021
 21
1183.3767885699
  0
LINE
  5
5D0
100
AcDbEntity
  8
93780800R00_BL12
100
AcDbLine
 62
7
  6
CONTINUOUS
 10
124.5445320203
 20
1182.2654528609
 11
125.4416834236
 21
1181.3364253867
  0
LINE
  5
5D1
100
AcDbEntity
  8
93780800R00_BL12
100
AcDbLine
 62
7
  6
CONTINUOUS
 10
123.9968946938
 20
1181.7701889572
 11
123.9839429761
 21
1181.784329227
  0
LINE
  5
5D2
100
AcDbEntity
  8
93780800R00_BL12
100
AcDbLine
 62
7
  6
CONTINUOUS
 10
123.5097031319
 20
1182.9430249994
 11
123.5226548496
 21
1182.9288847296
  0
LINE
  5
5D3
100
AcDbEntity
  8
93780800R00_BL12
100
AcDbLine
 62
7
  6
CONTINUOUS
 10
123.7532989129
 20
1183.1128492984
 11
123.7532989129
 21
1182.8303287151
  0
LINE
  5
5D4
100
AcDbEntity
  8
93780800R00_BL12
100
AcDbLine
 62
7
  6
CONTINUOUS
 10
123.7532989129
 20
1181.6003646582
 11
123.7532989129
 21
1181.8828852415
  0
LINE
  5
5D5
100
AcDbEntity
  8
93780800R00_BL12
100
AcDbLine
 62
7
  6
CONTINUOUS
 10
123.6621447955
 20
1181.5653738709
 11
123.5226548496
 21
1181.784329227
  0
LINE
  5
5D6
100
AcDbEntity
  8
93780800R00_BL12
100
AcDbLine
 62
7
  6
CONTINUOUS
 10
123.8444530303
 20
1183.1478400857
 11
123.9839429761
 21
1182.9288847296
  0
LINE
  5
5D7
100
AcDbEntity
  8
93780800R00_BL12
100
AcDbLine
 62
7
  6
CONTINUOUS
 10
122.9970565927
 20
1182.3566069783
 11
122.9620658054
 21
1182.4477610957
  0
LINE
  5
5D8
100
AcDbEntity
  8
93780800R00_BL12
100
AcDbLine
 62
7
  6
CONTINUOUS
 10
124.509541233
 20
1182.3566069783
 11
124.5445320203
 21
1182.2654528609
  0
LINE
  5
5D9
100
AcDbEntity
  8
93780800R00_BL12
100
AcDbLine
 62
7
  6
CONTINUOUS
 10
122.9620658054
 20
1182.2654528609
 11
122.9970565927
 21
1182.3566069783
  0
LINE
  5
5DA
100
AcDbEntity
  8
93780800R00_BL12
100
AcDbLine
 62
7
  6
CONTINUOUS
 10
124.5445320203
 20
1182.4477610957
 11
124.509541233
 21
1182.3566069783
  0
LINE
  5
5DB
100
AcDbEntity
  8
93780800R00_BL12
100
AcDbLine
 62
7
  6
CONTINUOUS
 10
123.6621447955
 20
1183.1478400857
 11
123.5226548496
 21
1182.9288847296
  0
LINE
  5
5DC
100
AcDbEntity
  8
93780800R00_BL12
100
AcDbLine
 62
7
  6
CONTINUOUS
 10
123.8444530303
 20
1181.5653738709
 11
123.9839429761
 21
1181.784329227
  0
LINE
  5
5DD
100
AcDbEntity
  8
93780800R00_BL12
100
AcDbLine
 62
7
  6
CONTINUOUS
 10
123.9839429761
 20
1182.9288847296
 11
123.9968946938
 21
1182.9430249994
  0
LINE
  5
5DE
100
AcDbEntity
  8
93780800R00_BL12
100
AcDbLine
 62
7
  6
CONTINUOUS
 10
123.5226548496
 20
1181.784329227
 11
123.5097031319
 21
1181.7701889572
  0
LINE
  5
5DF
100
AcDbEntity
  8
93780800R00_BL12
100
AcDbLine
 62
7
  6
CONTINUOUS
 10
122.0649144021
 20
1181.3364253867
 11
122.9620658054
 21
1182.2654528609
  0
LINE
  5
5E0
100
AcDbEntity
  8
93780800R00_BL12
100
AcDbLine
 62
7
  6
CONTINUOUS
 10
125.4416834236
 20
1183.3767885699
 11
124.5445320203
 21
1182.4477610957
  0
LINE
  5
5E1
100
AcDbEntity
  8
93780800R00_BL12
100
AcDbLine
 62
7
  6
CONTINUOUS
 10
123.8444530303
 20
1183.1478400857
 11
124.7734805044
 21
1184.044991489
  0
LINE
  5
5E2
100
AcDbEntity
  8
93780800R00_BL12
100
AcDbLine
 62
7
  6
CONTINUOUS
 10
123.6621447955
 20
1181.5653738709
 11
122.7331173213
 21
1180.6682224675
  0
LINE
  5
5E3
100
AcDbEntity
  8
93780800R00_BL12
100
AcDbLine
 62
7
  6
CONTINUOUS
 10
123.1668808917
 20
1182.1130111973
 11
123.1810211615
 21
1182.1259629151
  0
LINE
  5
5E4
100
AcDbEntity
  8
93780800R00_BL12
100
AcDbLine
 62
7
  6
CONTINUOUS
 10
124.339716934
 20
1182.6002027593
 11
124.3255766642
 21
1182.5872510415
  0
LINE
  5
5E5
100
AcDbEntity
  8
93780800R00_BL12
100
AcDbLine
 62
7
  6
CONTINUOUS
 10
122.9620658054
 20
1182.4477610957
 11
123.1810211615
 21
1182.5872510415
  0
LINE
  5
5E6
100
AcDbEntity
  8
93780800R00_BL12
100
AcDbLine
 62
7
  6
CONTINUOUS
 10
124.5445320203
 20
1182.2654528609
 11
124.3255766642
 21
1182.1259629151
  0
LINE
  5
5E7
100
AcDbEntity
  8
93780800R00_BL12
100
AcDbLine
 62
7
  6
CONTINUOUS
 10
123.7532989129
 20
1183.1128492984
 11
123.8444530303
 21
1183.1478400857
  0
LINE
  5
5E8
100
AcDbEntity
  8
93780800R00_BL12
100
AcDbLine
 62
7
  6
CONTINUOUS
 10
123.7532989129
 20
1181.6003646582
 11
123.6621447955
 21
1181.5653738709
  0
ARC
  5
5E9
100
AcDbEntity
  8
93780800R00_BL12
100
AcDbCircle
 62
7
  6
CONTINUOUS
 10
-43.4790533538
 20
914.9085097107
 40
315.3247689728
100
AcDbArc
 50
58.0965244491
 51
58.2591591005
  0
ARC
  5
5EA
100
AcDbEntity
  8
93780800R00_BL12
100
AcDbCircle
 62
7
  6
CONTINUOUS
 10
-143.6947983548
 20
1015.1242547117
 40
315.3247689728
100
AcDbArc
 50
31.7408408995
 51
31.9034755509
  0
ARC
  5
5EB
100
AcDbEntity
  8
93780800R00_BL12
100
AcDbCircle
 62
7
  6
CONTINUOUS
 10
-43.4790533538
 20
1449.8047042459
 40
315.3247689729
100
AcDbArc
 50
301.7408408995
 51
301.9034755509
  0
ARC
  5
5EC
100
AcDbEntity
  8
93780800R00_BL12
100
AcDbCircle
 62
7
  6
CONTINUOUS
 10
-143.6947983404
 20
1349.588959236
 40
315.324768956
100
AcDbArc
 50
328.0965244491
 51
328.2591591005
  0
CIRCLE
  5
5ED
100
AcDbEntity
  8
93780800R00_BL12
100
AcDbCircle
 62
7
  6
CONTINUOUS
 10
123.7532989129
 20
1182.3566069783
 40
2.85
  0
ARC
  5
5EE
100
AcDbEntity
  8
93780800R00_BL12
100
AcDbCircle
 62
9
  6
CONTINUOUS
 10
123.7532989129
 20
1182.3566069783
 40
1.9726664026
100
AcDbArc
 50
121.1528667687
 51
148.8529794039
  0
ARC
  5
5EF
100
AcDbEntity
  8
93780800R00_BL12
100
AcDbCircle
 62
9
  6
CONTINUOUS
 10
123.7532989129
 20
1182.3566069783
 40
1.9726664026
100
AcDbArc
 50
31.14168669
 51
58.8742098283
  0
ARC
  5
5F0
100
AcDbEntity
  8
93780800R00_BL12
100
AcDbCircle
 62
9
  6
CONTINUOUS
 10
123.7532989129
 20
1182.3566069783
 40
1.9726664026
100
AcDbArc
 50
301.1402786404
 51
328.8739772222
  0
ARC
  5
5F1
100
AcDbEntity
  8
93780800R00_BL12
100
AcDbCircle
 62
9
  6
CONTINUOUS
 10
123.7532989129
 20
1182.3566069783
 40
1.9726664026
100
AcDbArc
 50
211.1234299516
 51
238.8466423422
  0
ARC
  5
5F2
100
AcDbEntity
  8
93780800R00_BL12
100
AcDbCircle
 62
9
  6
CONTINUOUS
 10
123.7532989129
 20
1182.3566069783
 40
1.5251992218
100
AcDbArc
 50
117.9789520644
 51
152.0210479356
  0
ARC
  5
5F3
100
AcDbEntity
  8
93780800R00_BL12
100
AcDbCircle
 62
9
  6
CONTINUOUS
 10
123.7532989129
 20
1182.3566069783
 40
1.5251992218
100
AcDbArc
 50
27.9789520644
 51
62.0210479356
  0
ARC
  5
5F4
100
AcDbEntity
  8
93780800R00_BL12
100
AcDbCircle
 62
9
  6
CONTINUOUS
 10
123.7532989129
 20
1182.3566069783
 40
1.5251992218
100
AcDbArc
 50
297.9789520644
 51
332.0210479356
  0
ARC
  5
5F5
100
AcDbEntity
  8
93780800R00_BL12
100
AcDbCircle
 62
9
  6
CONTINUOUS
 10
123.7532989129
 20
1182.3566069783
 40
1.5251992218
100
AcDbArc
 50
207.9789520644
 51
242.0210479356
  0
ARC
  5
5F6
100
AcDbEntity
  8
93780800R00_BL12
100
AcDbCircle
 62
7
  6
CONTINUOUS
 10
123.7532989129
 20
1182.3566069783
 40
0.635
100
AcDbArc
 50
112.5578096573
 51
157.4421903427
  0
ARC
  5
5F7
100
AcDbEntity
  8
93780800R00_BL12
100
AcDbCircle
 62
7
  6
CONTINUOUS
 10
123.7532989129
 20
1182.3566069783
 40
0.635
100
AcDbArc
 50
202.5578096573
 51
247.4421903427
  0
ARC
  5
5F8
100
AcDbEntity
  8
93780800R00_BL12
100
AcDbCircle
 62
7
  6
CONTINUOUS
 10
123.7532989129
 20
1182.3566069783
 40
0.635
100
AcDbArc
 50
22.5578096573
 51
67.4421903427
  0
ARC
  5
5F9
100
AcDbEntity
  8
93780800R00_BL12
100
AcDbCircle
 62
7
  6
CONTINUOUS
 10
123.7532989129
 20
1182.3566069783
 40
0.635
100
AcDbArc
 50
292.5578096573
 51
337.4421903427
  0
ARC
  5
5FA
100
AcDbEntity
  8
93780800R00_BL12
100
AcDbCircle
 62
7
  6
CONTINUOUS
 10
290.9856511795
 20
914.9085097107
 40
315.3247689728
100
AcDbArc
 50
121.7408408995
 51
121.9034755509
  0
ARC
  5
5FB
100
AcDbEntity
  8
93780800R00_BL12
100
AcDbCircle
 62
7
  6
CONTINUOUS
 10
391.2013961805
 20
1015.1242547117
 40
315.3247689729
100
AcDbArc
 50
148.0965244491
 51
148.2591591005
  0
ARC
  5
5FC
100
AcDbEntity
  8
93780800R00_BL12
100
AcDbCircle
 62
7
  6
CONTINUOUS
 10
290.9856511795
 20
1449.8047042459
 40
315.3247689729
100
AcDbArc
 50
238.0965244491
 51
238.2591591005
  0
ARC
  5
5FD
100
AcDbEntity
  8
93780800R00_BL12
100
AcDbCircle
 62
7
  6
CONTINUOUS
 10
391.2013961805
 20
1349.5889592449
 40
315.3247689729
100
AcDbArc
 50
211.7408408995
 51
211.9034755509
  0
SPLINE
  5
5FE
100
AcDbEntity
  8
93780800R00_BL12
100
AcDbSpline
 62
7
  6
CONTINUOUS
 70
0
 71
3
 72
8
 73
4
 74
0
 42
0.0000001
 43
0.0000001
 44
0.0000000001
 40
0.0
 40
0.0
 40
0.0
 40
0.0
 40
1.0
 40
1.0
 40
1.0
 40
1.0
 10
123.1810211615
 20
1182.1259629151
 30
0.0
 10
123.2145926671
 20
1182.2025328236
 30
0.0
 10
123.2476806097
 20
1182.2793243416
 30
0.0
 10
123.2795771761
 20
1182.3566069783
 30
0.0
  0
SPLINE
  5
5FF
100
AcDbEntity
  8
93780800R00_BL12
100
AcDbSpline
 62
7
  6
CONTINUOUS
 70
0
 71
3
 72
8
 73
4
 74
0
 42
0.0000001
 43
0.0000001
 44
0.0000000001
 40
0.0
 40
0.0
 40
0.0
 40
0.0
 40
1.0
 40
1.0
 40
1.0
 40
1.0
 10
123.2795771761
 20
1182.3566069783
 30
0.0
 10
123.2476806097
 20
1182.433889615
 30
0.0
 10
123.2145926671
 20
1182.510681133
 30
0.0
 10
123.1810211615
 20
1182.5872510415
 30
0.0
  0
SPLINE
  5
600
100
AcDbEntity
  8
93780800R00_BL12
100
AcDbSpline
 62
7
  6
CONTINUOUS
 70
0
 71
3
 72
8
 73
4
 74
0
 42
0.0000001
 43
0.0000001
 44
0.0000000001
 40
0.0
 40
0.0
 40
0.0
 40
0.0
 40
1.0
 40
1.0
 40
1.0
 40
1.0
 10
124.3255766642
 20
1182.5872510415
 30
0.0
 10
124.2920051586
 20
1182.510681133
 30
0.0
 10
124.258917216
 20
1182.433889615
 30
0.0
 10
124.2270206496
 20
1182.3566069783
 30
0.0
  0
SPLINE
  5
601
100
AcDbEntity
  8
93780800R00_BL12
100
AcDbSpline
 62
7
  6
CONTINUOUS
 70
0
 71
3
 72
8
 73
4
 74
0
 42
0.0000001
 43
0.0000001
 44
0.0000000001
 40
0.0
 40
0.0
 40
0.0
 40
0.0
 40
1.0
 40
1.0
 40
1.0
 40
1.0
 10
124.2270206496
 20
1182.3566069783
 30
0.0
 10
124.258917216
 20
1182.2793243416
 30
0.0
 10
124.2920051586
 20
1182.2025328236
 30
0.0
 10
124.3255766642
 20
1182.1259629151
 30
0.0
  0
SPLINE
  5
602
100
AcDbEntity
  8
93780800R00_BL12
100
AcDbSpline
 62
7
  6
CONTINUOUS
 70
0
 71
3
 72
8
 73
4
 74
0
 42
0.0000001
 43
0.0000001
 44
0.0000000001
 40
0.0
 40
0.0
 40
0.0
 40
0.0
 40
1.0
 40
1.0
 40
1.0
 40
1.0
 10
123.5226548496
 20
1182.9288847296
 30
0.0
 10
123.5992247582
 20
1182.895313224
 30
0.0
 10
123.6760162762
 20
1182.8622252814
 30
0.0
 10
123.7532989129
 20
1182.8303287151
 30
0.0
  0
SPLINE
  5
603
100
AcDbEntity
  8
93780800R00_BL12
100
AcDbSpline
 62
7
  6
CONTINUOUS
 70
0
 71
3
 72
8
 73
4
 74
0
 42
0.0000001
 43
0.0000001
 44
0.0000000001
 40
0.0
 40
0.0
 40
0.0
 40
0.0
 40
1.0
 40
1.0
 40
1.0
 40
1.0
 10
123.7532989129
 20
1182.8303287151
 30
0.0
 10
123.8305815495
 20
1182.8622252814
 30
0.0
 10
123.9073730675
 20
1182.895313224
 30
0.0
 10
123.9839429761
 20
1182.9288847296
 30
0.0
  0
SPLINE
  5
604
100
AcDbEntity
  8
93780800R00_BL12
100
AcDbSpline
 62
7
  6
CONTINUOUS
 70
0
 71
3
 72
8
 73
4
 74
0
 42
0.0000001
 43
0.0000001
 44
0.0000000001
 40
0.0
 40
0.0
 40
0.0
 40
0.0
 40
1.0
 40
1.0
 40
1.0
 40
1.0
 10
123.9839429761
 20
1181.784329227
 30
0.0
 10
123.9073730675
 20
1181.8179007325
 30
0.0
 10
123.8305815495
 20
1181.8509886752
 30
0.0
 10
123.7532989129
 20
1181.8828852415
 30
0.0
  0
SPLINE
  5
605
100
AcDbEntity
  8
93780800R00_BL12
100
AcDbSpline
 62
7
  6
CONTINUOUS
 70
0
 71
3
 72
8
 73
4
 74
0
 42
0.0000001
 43
0.0000001
 44
0.0000000001
 40
0.0
 40
0.0
 40
0.0
 40
0.0
 40
1.0
 40
1.0
 40
1.0
 40
1.0
 10
123.7532989129
 20
1181.8828852415
 30
0.0
 10
123.6760162762
 20
1181.8509886752
 30
0.0
 10
123.5992247582
 20
1181.8179007325
 30
0.0
 10
123.5226548496
 20
1181.784329227
 30
0.0
  0
SPLINE
  5
606
100
AcDbEntity
  8
93780800R00_BL12
100
AcDbSpline
 62
7
  6
CONTINUOUS
 70
0
 71
3
 72
9
 73
5
 74
0
 42
0.0000001
 43
0.0000001
 44
0.0000000001
 40
0.0
 40
0.0
 40
0.0
 40
0.0
 40
0.4137975716
 40
1.0
 40
1.0
 40
1.0
 40
1.0
 10
122.4063649816
 20
1183.0721498848
 30
0.0
 10
122.3526442354
 20
1183.1054259452
 30
0.0
 10
122.2368410414
 20
1183.2066358209
 30
0.0
 10
122.1271003536
 20
1183.3123931321
 30
0.0
 10
122.0649144021
 20
1183.3767885699
 30
0.0
  0
SPLINE
  5
607
100
AcDbEntity
  8
93780800R00_BL12
100
AcDbSpline
 62
7
  6
CONTINUOUS
 70
0
 71
3
 72
9
 73
5
 74
0
 42
0.0000001
 43
0.0000001
 44
0.0000000001
 40
0.0
 40
0.0
 40
0.0
 40
0.0
 40
0.5862071362
 40
1.0
 40
1.0
 40
1.0
 40
1.0
 10
122.7331173213
 20
1184.044991489
 30
0.0
 10
122.7975132766
 20
1183.9828050378
 30
0.0
 10
122.9032705992
 20
1183.8730643503
 30
0.0
 10
123.0044803243
 20
1183.757261045
 30
0.0
 10
123.0377560063
 20
1183.7035409095
 30
0.0
  0
SPLINE
  5
608
100
AcDbEntity
  8
93780800R00_BL12
100
AcDbSpline
 62
7
  6
CONTINUOUS
 70
0
 71
3
 72
9
 73
5
 74
0
 42
0.0000001
 43
0.0000001
 44
0.0000000001
 40
0.0
 40
0.0
 40
0.0
 40
0.0
 40
0.4137975716
 40
1.0
 40
1.0
 40
1.0
 40
1.0
 10
124.4688418194
 20
1183.7035409095
 30
0.0
 10
124.5021178797
 20
1183.7572616558
 30
0.0
 10
124.6033277555
 20
1183.8730648497
 30
0.0
 10
124.7090850666
 20
1183.9828055376
 30
0.0
 10
124.7734805044
 20
1184.044991489
 30
0.0
  0
SPLINE
  5
609
100
AcDbEntity
  8
93780800R00_BL12
100
AcDbSpline
 62
7
  6
CONTINUOUS
 70
0
 71
3
 72
9
 73
5
 74
0
 42
0.0000001
 43
0.0000001
 44
0.0000000001
 40
0.0
 40
0.0
 40
0.0
 40
0.0
 40
0.5862071362
 40
1.0
 40
1.0
 40
1.0
 40
1.0
 10
125.4416834236
 20
1183.3767885699
 30
0.0
 10
125.3794969723
 20
1183.3123926145
 30
0.0
 10
125.2697562849
 20
1183.206635292
 30
0.0
 10
125.1539529795
 20
1183.1054255668
 30
0.0
 10
125.1002328441
 20
1183.0721498848
 30
0.0
  0
SPLINE
  5
60A
100
AcDbEntity
  8
93780800R00_BL12
100
AcDbSpline
 62
7
  6
CONTINUOUS
 70
0
 71
3
 72
9
 73
5
 74
0
 42
0.0000001
 43
0.0000001
 44
0.0000000001
 40
0.0
 40
0.0
 40
0.0
 40
0.0
 40
0.4137975716
 40
1.0
 40
1.0
 40
1.0
 40
1.0
 10
125.1002328441
 20
1181.6410640717
 30
0.0
 10
125.1539535904
 20
1181.6077880114
 30
0.0
 10
125.2697567843
 20
1181.5065781357
 30
0.0
 10
125.3794974721
 20
1181.4008208245
 30
0.0
 10
125.4416834236
 20
1181.3364253867
 30
0.0
  0
SPLINE
  5
60B
100
AcDbEntity
  8
93780800R00_BL12
100
AcDbSpline
 62
7
  6
CONTINUOUS
 70
0
 71
3
 72
9
 73
5
 74
0
 42
0.0000001
 43
0.0000001
 44
0.0000000001
 40
0.0
 40
0.0
 40
0.0
 40
0.0
 40
0.5862071362
 40
1.0
 40
1.0
 40
1.0
 40
1.0
 10
124.7734805044
 20
1180.6682224675
 30
0.0
 10
124.7090845491
 20
1180.7304089188
 30
0.0
 10
124.6033272266
 20
1180.8401496062
 30
0.0
 10
124.5021175014
 20
1180.9559529116
 30
0.0
 10
124.4688418194
 20
1181.0096730471
 30
0.0
  0
SPLINE
  5
60C
100
AcDbEntity
  8
93780800R00_BL12
100
AcDbSpline
 62
7
  6
CONTINUOUS
 70
0
 71
3
 72
9
 73
5
 74
0
 42
0.0000001
 43
0.0000001
 44
0.0000000001
 40
0.0
 40
0.0
 40
0.0
 40
0.0
 40
0.4137975716
 40
1.0
 40
1.0
 40
1.0
 40
1.0
 10
123.0377560063
 20
1181.0096730471
 30
0.0
 10
123.004479946
 20
1180.9559523008
 30
0.0
 10
122.9032700702
 20
1180.8401491068
 30
0.0
 10
122.7975127591
 20
1180.730408419
 30
0.0
 10
122.7331173213
 20
1180.6682224675
 30
0.0
  0
SPLINE
  5
60D
100
AcDbEntity
  8
93780800R00_BL12
100
AcDbSpline
 62
7
  6
CONTINUOUS
 70
0
 71
3
 72
9
 73
5
 74
0
 42
0.0000001
 43
0.0000001
 44
0.0000000001
 40
0.0
 40
0.0
 40
0.0
 40
0.0
 40
0.5862071362
 40
1.0
 40
1.0
 40
1.0
 40
1.0
 10
122.0649144021
 20
1181.3364253867
 30
0.0
 10
122.1271008534
 20
1181.4008213421
 30
0.0
 10
122.2368415408
 20
1181.5065786646
 30
0.0
 10
122.3526448462
 20
1181.6077883898
 30
0.0
 10
122.4063649816
 20
1181.6410640717
 30
0.0
  0
ENDBLK
  5
60E
100
AcDbEntity
  8
0
  6
BYBLOCK
 62
0
100
AcDbBlockEnd
  0
BLOCK
  5
60F
100
AcDbEntity
  8
62890203000_STELLUNG_1_BL13
100
AcDbBlockBegin
  2
62890203000_STELLUNG_1_BL13
 70
64
 10
77.2016594467
 20
1197.8566069783
  3
62890203000_STELLUNG_1_BL13
  1

  0
LINE
  5
610
100
AcDbEntity
  8
62890203000_STELLUNG_1_BL13
100
AcDbLine
 62
7
  6
CENTER
 10
114.7532989129
 20
1197.8566069783
 11
138.7532989129
 21
1197.8566069783
  0
LINE
  5
611
100
AcDbEntity
  8
62890203000_STELLUNG_1_BL13
100
AcDbLine
 62
7
  6
CENTER
 10
15.6500199806
 20
1197.8566069783
 11
29.0502937422
 21
1197.8566069783
  0
ENDBLK
  5
612
100
AcDbEntity
  8
0
  6
BYBLOCK
 62
0
100
AcDbBlockEnd
  0
BLOCK
  5
613
100
AcDbEntity
  8
93780800R00_BL14
100
AcDbBlockBegin
  2
93780800R00_BL14
 70
64
 10
123.7532989129
 20
1213.3566069783
  3
93780800R00_BL14
  1

  0
LINE
  5
614
100
AcDbEntity
  8
93780800R00_BL14
100
AcDbLine
 62
7
  6
CONTINUOUS
 10
124.509541233
 20
1213.3566069783
 11
124.2270206496
 21
1213.3566069783
  0
LINE
  5
615
100
AcDbEntity
  8
93780800R00_BL14
100
AcDbLine
 62
7
  6
CONTINUOUS
 10
122.9970565927
 20
1213.3566069783
 11
123.2795771761
 21
1213.3566069783
  0
LINE
  5
616
100
AcDbEntity
  8
93780800R00_BL14
100
AcDbLine
 62
7
  6
CONTINUOUS
 10
123.8444530303
 20
1212.5653738709
 11
123.7532989129
 21
1212.6003646582
  0
LINE
  5
617
100
AcDbEntity
  8
93780800R00_BL14
100
AcDbLine
 62
7
  6
CONTINUOUS
 10
123.6621447955
 20
1214.1478400857
 11
123.7532989129
 21
1214.1128492984
  0
LINE
  5
618
100
AcDbEntity
  8
93780800R00_BL14
100
AcDbLine
 62
7
  6
CONTINUOUS
 10
122.9620658054
 20
1213.2654528609
 11
123.1810211615
 21
1213.1259629151
  0
LINE
  5
619
100
AcDbEntity
  8
93780800R00_BL14
100
AcDbLine
 62
7
  6
CONTINUOUS
 10
124.5445320203
 20
1213.4477610957
 11
124.3255766642
 21
1213.5872510415
  0
LINE
  5
61A
100
AcDbEntity
  8
93780800R00_BL14
100
AcDbLine
 62
7
  6
CONTINUOUS
 10
123.7532989129
 20
1214.1128492984
 11
123.7532989129
 21
1213.8303287151
  0
LINE
  5
61B
100
AcDbEntity
  8
93780800R00_BL14
100
AcDbLine
 62
7
  6
CONTINUOUS
 10
123.7532989129
 20
1212.6003646582
 11
123.7532989129
 21
1212.8828852415
  0
LINE
  5
61C
100
AcDbEntity
  8
93780800R00_BL14
100
AcDbLine
 62
7
  6
CONTINUOUS
 10
123.1810211615
 20
1213.5872510415
 11
123.1668808917
 21
1213.6002027593
  0
LINE
  5
61D
100
AcDbEntity
  8
93780800R00_BL14
100
AcDbLine
 62
7
  6
CONTINUOUS
 10
124.3255766642
 20
1213.1259629151
 11
124.339716934
 21
1213.1130111973
  0
LINE
  5
61E
100
AcDbEntity
  8
93780800R00_BL14
100
AcDbLine
 62
7
  6
CONTINUOUS
 10
124.7734805044
 20
1211.6682224675
 11
123.8444530303
 21
1212.5653738709
  0
LINE
  5
61F
100
AcDbEntity
  8
93780800R00_BL14
100
AcDbLine
 62
7
  6
CONTINUOUS
 10
122.7331173213
 20
1215.044991489
 11
123.6621447955
 21
1214.1478400857
  0
LINE
  5
620
100
AcDbEntity
  8
93780800R00_BL14
100
AcDbLine
 62
7
  6
CONTINUOUS
 10
122.9620658054
 20
1213.4477610957
 11
122.0649144021
 21
1214.3767885699
  0
LINE
  5
621
100
AcDbEntity
  8
93780800R00_BL14
100
AcDbLine
 62
7
  6
CONTINUOUS
 10
124.5445320203
 20
1213.2654528609
 11
125.4416834236
 21
1212.3364253867
  0
LINE
  5
622
100
AcDbEntity
  8
93780800R00_BL14
100
AcDbLine
 62
7
  6
CONTINUOUS
 10
123.9968946938
 20
1212.7701889572
 11
123.9839429761
 21
1212.784329227
  0
LINE
  5
623
100
AcDbEntity
  8
93780800R00_BL14
100
AcDbLine
 62
7
  6
CONTINUOUS
 10
123.5097031319
 20
1213.9430249994
 11
123.5226548496
 21
1213.9288847296
  0
LINE
  5
624
100
AcDbEntity
  8
93780800R00_BL14
100
AcDbLine
 62
7
  6
CONTINUOUS
 10
123.6621447955
 20
1212.5653738709
 11
123.5226548496
 21
1212.784329227
  0
LINE
  5
625
100
AcDbEntity
  8
93780800R00_BL14
100
AcDbLine
 62
7
  6
CONTINUOUS
 10
123.8444530303
 20
1214.1478400857
 11
123.9839429761
 21
1213.9288847296
  0
LINE
  5
626
100
AcDbEntity
  8
93780800R00_BL14
100
AcDbLine
 62
7
  6
CONTINUOUS
 10
122.9970565927
 20
1213.3566069783
 11
122.9620658054
 21
1213.4477610957
  0
LINE
  5
627
100
AcDbEntity
  8
93780800R00_BL14
100
AcDbLine
 62
7
  6
CONTINUOUS
 10
124.509541233
 20
1213.3566069783
 11
124.5445320203
 21
1213.2654528609
  0
LINE
  5
628
100
AcDbEntity
  8
93780800R00_BL14
100
AcDbLine
 62
7
  6
CONTINUOUS
 10
122.9620658054
 20
1213.2654528609
 11
122.9970565927
 21
1213.3566069783
  0
LINE
  5
629
100
AcDbEntity
  8
93780800R00_BL14
100
AcDbLine
 62
7
  6
CONTINUOUS
 10
124.5445320203
 20
1213.4477610957
 11
124.509541233
 21
1213.3566069783
  0
LINE
  5
62A
100
AcDbEntity
  8
93780800R00_BL14
100
AcDbLine
 62
7
  6
CONTINUOUS
 10
123.6621447955
 20
1214.1478400857
 11
123.5226548496
 21
1213.9288847296
  0
LINE
  5
62B
100
AcDbEntity
  8
93780800R00_BL14
100
AcDbLine
 62
7
  6
CONTINUOUS
 10
123.8444530303
 20
1212.5653738709
 11
123.9839429761
 21
1212.784329227
  0
LINE
  5
62C
100
AcDbEntity
  8
93780800R00_BL14
100
AcDbLine
 62
7
  6
CONTINUOUS
 10
123.9839429761
 20
1213.9288847296
 11
123.9968946938
 21
1213.9430249994
  0
LINE
  5
62D
100
AcDbEntity
  8
93780800R00_BL14
100
AcDbLine
 62
7
  6
CONTINUOUS
 10
123.5226548496
 20
1212.784329227
 11
123.5097031319
 21
1212.7701889572
  0
LINE
  5
62E
100
AcDbEntity
  8
93780800R00_BL14
100
AcDbLine
 62
7
  6
CONTINUOUS
 10
122.0649144021
 20
1212.3364253867
 11
122.9620658054
 21
1213.2654528609
  0
LINE
  5
62F
100
AcDbEntity
  8
93780800R00_BL14
100
AcDbLine
 62
7
  6
CONTINUOUS
 10
125.4416834236
 20
1214.3767885699
 11
124.5445320203
 21
1213.4477610957
  0
LINE
  5
630
100
AcDbEntity
  8
93780800R00_BL14
100
AcDbLine
 62
7
  6
CONTINUOUS
 10
123.8444530303
 20
1214.1478400857
 11
124.7734805044
 21
1215.044991489
  0
LINE
  5
631
100
AcDbEntity
  8
93780800R00_BL14
100
AcDbLine
 62
7
  6
CONTINUOUS
 10
123.6621447955
 20
1212.5653738709
 11
122.7331173213
 21
1211.6682224675
  0
LINE
  5
632
100
AcDbEntity
  8
93780800R00_BL14
100
AcDbLine
 62
7
  6
CONTINUOUS
 10
123.1668808917
 20
1213.1130111973
 11
123.1810211615
 21
1213.1259629151
  0
LINE
  5
633
100
AcDbEntity
  8
93780800R00_BL14
100
AcDbLine
 62
7
  6
CONTINUOUS
 10
124.339716934
 20
1213.6002027593
 11
124.3255766642
 21
1213.5872510415
  0
LINE
  5
634
100
AcDbEntity
  8
93780800R00_BL14
100
AcDbLine
 62
7
  6
CONTINUOUS
 10
122.9620658054
 20
1213.4477610957
 11
123.1810211615
 21
1213.5872510415
  0
LINE
  5
635
100
AcDbEntity
  8
93780800R00_BL14
100
AcDbLine
 62
7
  6
CONTINUOUS
 10
124.5445320203
 20
1213.2654528609
 11
124.3255766642
 21
1213.1259629151
  0
LINE
  5
636
100
AcDbEntity
  8
93780800R00_BL14
100
AcDbLine
 62
7
  6
CONTINUOUS
 10
123.7532989129
 20
1214.1128492984
 11
123.8444530303
 21
1214.1478400857
  0
LINE
  5
637
100
AcDbEntity
  8
93780800R00_BL14
100
AcDbLine
 62
7
  6
CONTINUOUS
 10
123.7532989129
 20
1212.6003646582
 11
123.6621447955
 21
1212.5653738709
  0
ARC
  5
638
100
AcDbEntity
  8
93780800R00_BL14
100
AcDbCircle
 62
7
  6
CONTINUOUS
 10
-43.4790533538
 20
945.9085097107
 40
315.3247689728
100
AcDbArc
 50
58.0965244491
 51
58.2591591005
  0
ARC
  5
639
100
AcDbEntity
  8
93780800R00_BL14
100
AcDbCircle
 62
7
  6
CONTINUOUS
 10
-143.6947983548
 20
1046.1242547117
 40
315.3247689728
100
AcDbArc
 50
31.7408408995
 51
31.9034755509
  0
ARC
  5
63A
100
AcDbEntity
  8
93780800R00_BL14
100
AcDbCircle
 62
7
  6
CONTINUOUS
 10
-43.4790533538
 20
1480.8047042459
 40
315.3247689729
100
AcDbArc
 50
301.7408408995
 51
301.9034755509
  0
ARC
  5
63B
100
AcDbEntity
  8
93780800R00_BL14
100
AcDbCircle
 62
7
  6
CONTINUOUS
 10
-143.6947983548
 20
1380.5889592449
 40
315.3247689728
100
AcDbArc
 50
328.0965244491
 51
328.2591591005
  0
CIRCLE
  5
63C
100
AcDbEntity
  8
93780800R00_BL14
100
AcDbCircle
 62
7
  6
CONTINUOUS
 10
123.7532989129
 20
1213.3566069783
 40
2.85
  0
ARC
  5
63D
100
AcDbEntity
  8
93780800R00_BL14
100
AcDbCircle
 62
9
  6
CONTINUOUS
 10
123.7532989129
 20
1213.3566069783
 40
1.9726664026
100
AcDbArc
 50
301.1528667687
 51
328.8529794039
  0
ARC
  5
63E
100
AcDbEntity
  8
93780800R00_BL14
100
AcDbCircle
 62
9
  6
CONTINUOUS
 10
123.7532989129
 20
1213.3566069783
 40
1.9726664026
100
AcDbArc
 50
211.14168669
 51
238.8742098283
  0
ARC
  5
63F
100
AcDbEntity
  8
93780800R00_BL14
100
AcDbCircle
 62
9
  6
CONTINUOUS
 10
123.7532989129
 20
1213.3566069783
 40
1.9726664026
100
AcDbArc
 50
121.1402786404
 51
148.8739772222
  0
ARC
  5
640
100
AcDbEntity
  8
93780800R00_BL14
100
AcDbCircle
 62
9
  6
CONTINUOUS
 10
123.7532989129
 20
1213.3566069783
 40
1.9726664026
100
AcDbArc
 50
31.1234299516
 51
58.8466423422
  0
ARC
  5
641
100
AcDbEntity
  8
93780800R00_BL14
100
AcDbCircle
 62
9
  6
CONTINUOUS
 10
123.7532989129
 20
1213.3566069783
 40
1.5251992218
100
AcDbArc
 50
297.9789520644
 51
332.0210479356
  0
ARC
  5
642
100
AcDbEntity
  8
93780800R00_BL14
100
AcDbCircle
 62
9
  6
CONTINUOUS
 10
123.7532989129
 20
1213.3566069783
 40
1.5251992218
100
AcDbArc
 50
207.9789520644
 51
242.0210479356
  0
ARC
  5
643
100
AcDbEntity
  8
93780800R00_BL14
100
AcDbCircle
 62
9
  6
CONTINUOUS
 10
123.7532989129
 20
1213.3566069783
 40
1.5251992218
100
AcDbArc
 50
117.9789520644
 51
152.0210479356
  0
ARC
  5
644
100
AcDbEntity
  8
93780800R00_BL14
100
AcDbCircle
 62
9
  6
CONTINUOUS
 10
123.7532989129
 20
1213.3566069783
 40
1.5251992218
100
AcDbArc
 50
27.9789520644
 51
62.0210479356
  0
ARC
  5
645
100
AcDbEntity
  8
93780800R00_BL14
100
AcDbCircle
 62
7
  6
CONTINUOUS
 10
123.7532989129
 20
1213.3566069783
 40
0.635
100
AcDbArc
 50
292.5578096573
 51
337.4421903427
  0
ARC
  5
646
100
AcDbEntity
  8
93780800R00_BL14
100
AcDbCircle
 62
7
  6
CONTINUOUS
 10
123.7532989129
 20
1213.3566069783
 40
0.635
100
AcDbArc
 50
22.5578096573
 51
67.4421903427
  0
ARC
  5
647
100
AcDbEntity
  8
93780800R00_BL14
100
AcDbCircle
 62
7
  6
CONTINUOUS
 10
123.7532989129
 20
1213.3566069783
 40
0.635
100
AcDbArc
 50
202.5578096573
 51
247.4421903427
  0
ARC
  5
648
100
AcDbEntity
  8
93780800R00_BL14
100
AcDbCircle
 62
7
  6
CONTINUOUS
 10
123.7532989129
 20
1213.3566069783
 40
0.635
100
AcDbArc
 50
112.5578096573
 51
157.4421903427
  0
ARC
  5
649
100
AcDbEntity
  8
93780800R00_BL14
100
AcDbCircle
 62
7
  6
CONTINUOUS
 10
290.9856511795
 20
945.9085097107
 40
315.3247689728
100
AcDbArc
 50
121.7408408995
 51
121.9034755509
  0
ARC
  5
64A
100
AcDbEntity
  8
93780800R00_BL14
100
AcDbCircle
 62
7
  6
CONTINUOUS
 10
391.2013961661
 20
1046.1242547205
 40
315.324768956
100
AcDbArc
 50
148.0965244491
 51
148.2591591005
  0
ARC
  5
64B
100
AcDbEntity
  8
93780800R00_BL14
100
AcDbCircle
 62
7
  6
CONTINUOUS
 10
290.9856511795
 20
1480.8047042459
 40
315.3247689729
100
AcDbArc
 50
238.0965244491
 51
238.2591591005
  0
ARC
  5
64C
100
AcDbEntity
  8
93780800R00_BL14
100
AcDbCircle
 62
7
  6
CONTINUOUS
 10
391.2013961805
 20
1380.5889592449
 40
315.3247689729
100
AcDbArc
 50
211.7408408995
 51
211.9034755509
  0
SPLINE
  5
64D
100
AcDbEntity
  8
93780800R00_BL14
100
AcDbSpline
 62
7
  6
CONTINUOUS
 70
0
 71
3
 72
8
 73
4
 74
0
 42
0.0000001
 43
0.0000001
 44
0.0000000001
 40
0.0
 40
0.0
 40
0.0
 40
0.0
 40
1.0
 40
1.0
 40
1.0
 40
1.0
 10
124.3255766642
 20
1213.5872510415
 30
0.0
 10
124.2920051586
 20
1213.510681133
 30
0.0
 10
124.258917216
 20
1213.433889615
 30
0.0
 10
124.2270206496
 20
1213.3566069783
 30
0.0
  0
SPLINE
  5
64E
100
AcDbEntity
  8
93780800R00_BL14
100
AcDbSpline
 62
7
  6
CONTINUOUS
 70
0
 71
3
 72
8
 73
4
 74
0
 42
0.0000001
 43
0.0000001
 44
0.0000000001
 40
0.0
 40
0.0
 40
0.0
 40
0.0
 40
1.0
 40
1.0
 40
1.0
 40
1.0
 10
124.2270206496
 20
1213.3566069783
 30
0.0
 10
124.258917216
 20
1213.2793243416
 30
0.0
 10
124.2920051586
 20
1213.2025328236
 30
0.0
 10
124.3255766642
 20
1213.1259629151
 30
0.0
  0
SPLINE
  5
64F
100
AcDbEntity
  8
93780800R00_BL14
100
AcDbSpline
 62
7
  6
CONTINUOUS
 70
0
 71
3
 72
8
 73
4
 74
0
 42
0.0000001
 43
0.0000001
 44
0.0000000001
 40
0.0
 40
0.0
 40
0.0
 40
0.0
 40
1.0
 40
1.0
 40
1.0
 40
1.0
 10
123.1810211615
 20
1213.1259629151
 30
0.0
 10
123.2145926671
 20
1213.2025328236
 30
0.0
 10
123.2476806097
 20
1213.2793243416
 30
0.0
 10
123.2795771761
 20
1213.3566069783
 30
0.0
  0
SPLINE
  5
650
100
AcDbEntity
  8
93780800R00_BL14
100
AcDbSpline
 62
7
  6
CONTINUOUS
 70
0
 71
3
 72
8
 73
4
 74
0
 42
0.0000001
 43
0.0000001
 44
0.0000000001
 40
0.0
 40
0.0
 40
0.0
 40
0.0
 40
1.0
 40
1.0
 40
1.0
 40
1.0
 10
123.2795771761
 20
1213.3566069783
 30
0.0
 10
123.2476806097
 20
1213.433889615
 30
0.0
 10
123.2145926671
 20
1213.510681133
 30
0.0
 10
123.1810211615
 20
1213.5872510415
 30
0.0
  0
SPLINE
  5
651
100
AcDbEntity
  8
93780800R00_BL14
100
AcDbSpline
 62
7
  6
CONTINUOUS
 70
0
 71
3
 72
8
 73
4
 74
0
 42
0.0000001
 43
0.0000001
 44
0.0000000001
 40
0.0
 40
0.0
 40
0.0
 40
0.0
 40
1.0
 40
1.0
 40
1.0
 40
1.0
 10
123.9839429761
 20
1212.784329227
 30
0.0
 10
123.9073730675
 20
1212.8179007325
 30
0.0
 10
123.8305815495
 20
1212.8509886752
 30
0.0
 10
123.7532989129
 20
1212.8828852415
 30
0.0
  0
SPLINE
  5
652
100
AcDbEntity
  8
93780800R00_BL14
100
AcDbSpline
 62
7
  6
CONTINUOUS
 70
0
 71
3
 72
8
 73
4
 74
0
 42
0.0000001
 43
0.0000001
 44
0.0000000001
 40
0.0
 40
0.0
 40
0.0
 40
0.0
 40
1.0
 40
1.0
 40
1.0
 40
1.0
 10
123.7532989129
 20
1212.8828852415
 30
0.0
 10
123.6760162762
 20
1212.8509886752
 30
0.0
 10
123.5992247582
 20
1212.8179007325
 30
0.0
 10
123.5226548496
 20
1212.784329227
 30
0.0
  0
SPLINE
  5
653
100
AcDbEntity
  8
93780800R00_BL14
100
AcDbSpline
 62
7
  6
CONTINUOUS
 70
0
 71
3
 72
8
 73
4
 74
0
 42
0.0000001
 43
0.0000001
 44
0.0000000001
 40
0.0
 40
0.0
 40
0.0
 40
0.0
 40
1.0
 40
1.0
 40
1.0
 40
1.0
 10
123.5226548496
 20
1213.9288847296
 30
0.0
 10
123.5992247582
 20
1213.895313224
 30
0.0
 10
123.6760162762
 20
1213.8622252814
 30
0.0
 10
123.7532989129
 20
1213.8303287151
 30
0.0
  0
SPLINE
  5
654
100
AcDbEntity
  8
93780800R00_BL14
100
AcDbSpline
 62
7
  6
CONTINUOUS
 70
0
 71
3
 72
8
 73
4
 74
0
 42
0.0000001
 43
0.0000001
 44
0.0000000001
 40
0.0
 40
0.0
 40
0.0
 40
0.0
 40
1.0
 40
1.0
 40
1.0
 40
1.0
 10
123.7532989129
 20
1213.8303287151
 30
0.0
 10
123.8305815495
 20
1213.8622252814
 30
0.0
 10
123.9073730675
 20
1213.895313224
 30
0.0
 10
123.9839429761
 20
1213.9288847296
 30
0.0
  0
SPLINE
  5
655
100
AcDbEntity
  8
93780800R00_BL14
100
AcDbSpline
 62
7
  6
CONTINUOUS
 70
0
 71
3
 72
9
 73
5
 74
0
 42
0.0000001
 43
0.0000001
 44
0.0000000001
 40
0.0
 40
0.0
 40
0.0
 40
0.0
 40
0.4137975716
 40
1.0
 40
1.0
 40
1.0
 40
1.0
 10
125.1002328441
 20
1212.6410640717
 30
0.0
 10
125.1539535904
 20
1212.6077880114
 30
0.0
 10
125.2697567843
 20
1212.5065781357
 30
0.0
 10
125.3794974721
 20
1212.4008208245
 30
0.0
 10
125.4416834236
 20
1212.3364253867
 30
0.0
  0
SPLINE
  5
656
100
AcDbEntity
  8
93780800R00_BL14
100
AcDbSpline
 62
7
  6
CONTINUOUS
 70
0
 71
3
 72
9
 73
5
 74
0
 42
0.0000001
 43
0.0000001
 44
0.0000000001
 40
0.0
 40
0.0
 40
0.0
 40
0.0
 40
0.5862071362
 40
1.0
 40
1.0
 40
1.0
 40
1.0
 10
124.7734805044
 20
1211.6682224675
 30
0.0
 10
124.7090845491
 20
1211.7304089188
 30
0.0
 10
124.6033272266
 20
1211.8401496062
 30
0.0
 10
124.5021175014
 20
1211.9559529116
 30
0.0
 10
124.4688418194
 20
1212.0096730471
 30
0.0
  0
SPLINE
  5
657
100
AcDbEntity
  8
93780800R00_BL14
100
AcDbSpline
 62
7
  6
CONTINUOUS
 70
0
 71
3
 72
9
 73
5
 74
0
 42
0.0000001
 43
0.0000001
 44
0.0000000001
 40
0.0
 40
0.0
 40
0.0
 40
0.0
 40
0.4137975716
 40
1.0
 40
1.0
 40
1.0
 40
1.0
 10
123.0377560063
 20
1212.0096730471
 30
0.0
 10
123.004479946
 20
1211.9559523008
 30
0.0
 10
122.9032700702
 20
1211.8401491068
 30
0.0
 10
122.7975127591
 20
1211.730408419
 30
0.0
 10
122.7331173213
 20
1211.6682224675
 30
0.0
  0
SPLINE
  5
658
100
AcDbEntity
  8
93780800R00_BL14
100
AcDbSpline
 62
7
  6
CONTINUOUS
 70
0
 71
3
 72
9
 73
5
 74
0
 42
0.0000001
 43
0.0000001
 44
0.0000000001
 40
0.0
 40
0.0
 40
0.0
 40
0.0
 40
0.5862071362
 40
1.0
 40
1.0
 40
1.0
 40
1.0
 10
122.0649144021
 20
1212.3364253867
 30
0.0
 10
122.1271008534
 20
1212.4008213421
 30
0.0
 10
122.2368415408
 20
1212.5065786646
 30
0.0
 10
122.3526448462
 20
1212.6077883898
 30
0.0
 10
122.4063649816
 20
1212.6410640717
 30
0.0
  0
SPLINE
  5
659
100
AcDbEntity
  8
93780800R00_BL14
100
AcDbSpline
 62
7
  6
CONTINUOUS
 70
0
 71
3
 72
9
 73
5
 74
0
 42
0.0000001
 43
0.0000001
 44
0.0000000001
 40
0.0
 40
0.0
 40
0.0
 40
0.0
 40
0.4137975716
 40
1.0
 40
1.0
 40
1.0
 40
1.0
 10
122.4063649816
 20
1214.0721498848
 30
0.0
 10
122.3526442354
 20
1214.1054259452
 30
0.0
 10
122.2368410414
 20
1214.2066358209
 30
0.0
 10
122.1271003536
 20
1214.3123931321
 30
0.0
 10
122.0649144021
 20
1214.3767885699
 30
0.0
  0
SPLINE
  5
65A
100
AcDbEntity
  8
93780800R00_BL14
100
AcDbSpline
 62
7
  6
CONTINUOUS
 70
0
 71
3
 72
9
 73
5
 74
0
 42
0.0000001
 43
0.0000001
 44
0.0000000001
 40
0.0
 40
0.0
 40
0.0
 40
0.0
 40
0.5862071362
 40
1.0
 40
1.0
 40
1.0
 40
1.0
 10
122.7331173213
 20
1215.044991489
 30
0.0
 10
122.7975132766
 20
1214.9828050378
 30
0.0
 10
122.9032705992
 20
1214.8730643503
 30
0.0
 10
123.0044803243
 20
1214.757261045
 30
0.0
 10
123.0377560063
 20
1214.7035409095
 30
0.0
  0
SPLINE
  5
65B
100
AcDbEntity
  8
93780800R00_BL14
100
AcDbSpline
 62
7
  6
CONTINUOUS
 70
0
 71
3
 72
9
 73
5
 74
0
 42
0.0000001
 43
0.0000001
 44
0.0000000001
 40
0.0
 40
0.0
 40
0.0
 40
0.0
 40
0.4137975716
 40
1.0
 40
1.0
 40
1.0
 40
1.0
 10
124.4688418194
 20
1214.7035409095
 30
0.0
 10
124.5021178797
 20
1214.7572616558
 30
0.0
 10
124.6033277555
 20
1214.8730648497
 30
0.0
 10
124.7090850666
 20
1214.9828055376
 30
0.0
 10
124.7734805044
 20
1215.044991489
 30
0.0
  0
SPLINE
  5
65C
100
AcDbEntity
  8
93780800R00_BL14
100
AcDbSpline
 62
7
  6
CONTINUOUS
 70
0
 71
3
 72
9
 73
5
 74
0
 42
0.0000001
 43
0.0000001
 44
0.0000000001
 40
0.0
 40
0.0
 40
0.0
 40
0.0
 40
0.5862071362
 40
1.0
 40
1.0
 40
1.0
 40
1.0
 10
125.4416834236
 20
1214.3767885699
 30
0.0
 10
125.3794969723
 20
1214.3123926145
 30
0.0
 10
125.2697562849
 20
1214.206635292
 30
0.0
 10
125.1539529795
 20
1214.1054255668
 30
0.0
 10
125.1002328441
 20
1214.0721498848
 30
0.0
  0
ENDBLK
  5
65D
100
AcDbEntity
  8
0
  6
BYBLOCK
 62
0
100
AcDbBlockEnd
  0
BLOCK
  5
65E
100
AcDbEntity
  8
93764299000_O3A_BL15
100
AcDbBlockBegin
  2
93764299000_O3A_BL15
 70
64
 10
27.5994555274
 20
196.8566069783
  3
93764299000_O3A_BL15
  1

  0
LINE
  5
65F
100
AcDbEntity
  8
93764299000_O3A_BL15
100
AcDbLine
 62
7
  6
CONTINUOUS
 10
25.6500424036
 20
193.4566069783
 11
29.2500424036
 21
193.4566069783
  0
LINE
  5
660
100
AcDbEntity
  8
93764299000_O3A_BL15
100
AcDbLine
 62
9
  6
CONTINUOUS
 10
25.6500424036
 20
193.7566069783
 11
29.5500424036
 21
193.7566069783
  0
LINE
  5
661
100
AcDbEntity
  8
93764299000_O3A_BL15
100
AcDbLine
 62
9
  6
CONTINUOUS
 10
25.6500424036
 20
199.9566069783
 11
29.5500424036
 21
199.9566069783
  0
LINE
  5
662
100
AcDbEntity
  8
93764299000_O3A_BL15
100
AcDbLine
 62
7
  6
CONTINUOUS
 10
25.6500424036
 20
200.2566069783
 11
29.2500424036
 21
200.2566069783
  0
LINE
  5
663
100
AcDbEntity
  8
93764299000_O3A_BL15
100
AcDbLine
 62
9
  6
CONTINUOUS
 10
25.8500424036
 20
193.4566069783
 11
25.8500424036
 21
200.2566069783
  0
LINE
  5
664
100
AcDbEntity
  8
93764299000_O3A_BL15
100
AcDbLine
 62
9
  6
CONTINUOUS
 10
29.2500424036
 20
193.4566069783
 11
29.2500424036
 21
200.2566069783
  0
LINE
  5
665
100
AcDbEntity
  8
93764299000_O3A_BL15
100
AcDbLine
 62
7
  6
CONTINUOUS
 10
29.5500424036
 20
193.7566069783
 11
29.5500424036
 21
199.9566069783
  0
ARC
  5
666
100
AcDbEntity
  8
93764299000_O3A_BL15
100
AcDbCircle
 62
7
  6
CONTINUOUS
 10
25.8500424036
 20
193.7566069783
 40
0.3
100
AcDbArc
 50
227.888218482
 51
270.0
  0
ARC
  5
667
100
AcDbEntity
  8
93764299000_O3A_BL15
100
AcDbCircle
 62
7
  6
CONTINUOUS
 10
25.8500424036
 20
199.9566069783
 40
0.3
100
AcDbArc
 50
90.0
 51
132.0710678119
  0
ARC
  5
668
100
AcDbEntity
  8
93764299000_O3A_BL15
100
AcDbCircle
 62
7
  6
CONTINUOUS
 10
29.2500424036
 20
193.7566069783
 40
0.3
100
AcDbArc
 50
270.0
 51
360.0
  0
ARC
  5
669
100
AcDbEntity
  8
93764299000_O3A_BL15
100
AcDbCircle
 62
7
  6
CONTINUOUS
 10
29.2500424036
 20
199.9566069783
 40
0.3
100
AcDbArc
 50
0.0
 51
90.0
  0
ENDBLK
  5
66A
100
AcDbEntity
  8
0
  6
BYBLOCK
 62
0
100
AcDbBlockEnd
  0
BLOCK
  5
66B
100
AcDbEntity
  8
93764299000_O3A_BL16
100
AcDbBlockBegin
  2
93764299000_O3A_BL16
 70
64
 10
27.5994555274
 20
371.8566069783
  3
93764299000_O3A_BL16
  1

  0
LINE
  5
66C
100
AcDbEntity
  8
93764299000_O3A_BL16
100
AcDbLine
 62
7
  6
CONTINUOUS
 10
25.6500424036
 20
368.4566069783
 11
29.2500424036
 21
368.4566069783
  0
LINE
  5
66D
100
AcDbEntity
  8
93764299000_O3A_BL16
100
AcDbLine
 62
9
  6
CONTINUOUS
 10
25.6500424036
 20
368.7566069783
 11
29.5500424036
 21
368.7566069783
  0
LINE
  5
66E
100
AcDbEntity
  8
93764299000_O3A_BL16
100
AcDbLine
 62
9
  6
CONTINUOUS
 10
25.6500424036
 20
374.9566069783
 11
29.5500424036
 21
374.9566069783
  0
LINE
  5
66F
100
AcDbEntity
  8
93764299000_O3A_BL16
100
AcDbLine
 62
7
  6
CONTINUOUS
 10
25.6500424036
 20
375.2566069783
 11
29.2500424036
 21
375.2566069783
  0
LINE
  5
670
100
AcDbEntity
  8
93764299000_O3A_BL16
100
AcDbLine
 62
9
  6
CONTINUOUS
 10
25.8500424036
 20
368.4566069783
 11
25.8500424036
 21
375.2566069783
  0
LINE
  5
671
100
AcDbEntity
  8
93764299000_O3A_BL16
100
AcDbLine
 62
9
  6
CONTINUOUS
 10
29.2500424036
 20
368.4566069783
 11
29.2500424036
 21
375.2566069783
  0
LINE
  5
672
100
AcDbEntity
  8
93764299000_O3A_BL16
100
AcDbLine
 62
7
  6
CONTINUOUS
 10
29.5500424036
 20
368.7566069783
 11
29.5500424036
 21
374.9566069783
  0
ARC
  5
673
100
AcDbEntity
  8
93764299000_O3A_BL16
100
AcDbCircle
 62
7
  6
CONTINUOUS
 10
25.8500424036
 20
368.7566069783
 40
0.3
100
AcDbArc
 50
227.8882184819
 51
270.0
  0
ARC
  5
674
100
AcDbEntity
  8
93764299000_O3A_BL16
100
AcDbCircle
 62
7
  6
CONTINUOUS
 10
25.8500424036
 20
374.9566069783
 40
0.3
100
AcDbArc
 50
90.0
 51
132.0710678119
  0
ARC
  5
675
100
AcDbEntity
  8
93764299000_O3A_BL16
100
AcDbCircle
 62
7
  6
CONTINUOUS
 10
29.2500424036
 20
368.7566069783
 40
0.3
100
AcDbArc
 50
270.0
 51
360.0
  0
ARC
  5
676
100
AcDbEntity
  8
93764299000_O3A_BL16
100
AcDbCircle
 62
7
  6
CONTINUOUS
 10
29.2500424036
 20
374.9566069783
 40
0.3
100
AcDbArc
 50
0.0
 51
90.0
  0
ENDBLK
  5
677
100
AcDbEntity
  8
0
  6
BYBLOCK
 62
0
100
AcDbBlockEnd
  0
BLOCK
  5
678
100
AcDbEntity
  8
93764299000_O3A_BL17
100
AcDbBlockBegin
  2
93764299000_O3A_BL17
 70
64
 10
27.5994555274
 20
467.8566069783
  3
93764299000_O3A_BL17
  1

  0
LINE
  5
679
100
AcDbEntity
  8
93764299000_O3A_BL17
100
AcDbLine
 62
7
  6
CONTINUOUS
 10
25.6500424036
 20
464.4566069783
 11
29.2500424036
 21
464.4566069783
  0
LINE
  5
67A
100
AcDbEntity
  8
93764299000_O3A_BL17
100
AcDbLine
 62
9
  6
CONTINUOUS
 10
25.6500424036
 20
464.7566069783
 11
29.5500424036
 21
464.7566069783
  0
LINE
  5
67B
100
AcDbEntity
  8
93764299000_O3A_BL17
100
AcDbLine
 62
9
  6
CONTINUOUS
 10
25.6500424036
 20
470.9566069783
 11
29.5500424036
 21
470.9566069783
  0
LINE
  5
67C
100
AcDbEntity
  8
93764299000_O3A_BL17
100
AcDbLine
 62
7
  6
CONTINUOUS
 10
25.6500424036
 20
471.2566069783
 11
29.2500424036
 21
471.2566069783
  0
LINE
  5
67D
100
AcDbEntity
  8
93764299000_O3A_BL17
100
AcDbLine
 62
9
  6
CONTINUOUS
 10
25.8500424036
 20
464.4566069783
 11
25.8500424036
 21
471.2566069783
  0
LINE
  5
67E
100
AcDbEntity
  8
93764299000_O3A_BL17
100
AcDbLine
 62
9
  6
CONTINUOUS
 10
29.2500424036
 20
464.4566069783
 11
29.2500424036
 21
471.2566069783
  0
LINE
  5
67F
100
AcDbEntity
  8
93764299000_O3A_BL17
100
AcDbLine
 62
7
  6
CONTINUOUS
 10
29.5500424036
 20
464.7566069783
 11
29.5500424036
 21
470.9566069783
  0
ARC
  5
680
100
AcDbEntity
  8
93764299000_O3A_BL17
100
AcDbCircle
 62
7
  6
CONTINUOUS
 10
25.8500424036
 20
464.7566069783
 40
0.3
100
AcDbArc
 50
227.8882184819
 51
270.0
  0
ARC
  5
681
100
AcDbEntity
  8
93764299000_O3A_BL17
100
AcDbCircle
 62
7
  6
CONTINUOUS
 10
25.8500424036
 20
470.9566069783
 40
0.3
100
AcDbArc
 50
90.0
 51
132.0710678119
  0
ARC
  5
682
100
AcDbEntity
  8
93764299000_O3A_BL17
100
AcDbCircle
 62
7
  6
CONTINUOUS
 10
29.2500424036
 20
464.7566069783
 40
0.3
100
AcDbArc
 50
270.0
 51
360.0
  0
ARC
  5
683
100
AcDbEntity
  8
93764299000_O3A_BL17
100
AcDbCircle
 62
7
  6
CONTINUOUS
 10
29.2500424036
 20
470.9566069783
 40
0.3
100
AcDbArc
 50
0.0
 51
90.0
  0
ENDBLK
  5
684
100
AcDbEntity
  8
0
  6
BYBLOCK
 62
0
100
AcDbBlockEnd
  0
BLOCK
  5
685
100
AcDbEntity
  8
93764299000_O3A_BL18
100
AcDbBlockBegin
  2
93764299000_O3A_BL18
 70
64
 10
27.5994555274
 20
766.8566069783
  3
93764299000_O3A_BL18
  1

  0
LINE
  5
686
100
AcDbEntity
  8
93764299000_O3A_BL18
100
AcDbLine
 62
7
  6
CONTINUOUS
 10
25.6500424036
 20
763.4566069783
 11
29.2500424036
 21
763.4566069783
  0
LINE
  5
687
100
AcDbEntity
  8
93764299000_O3A_BL18
100
AcDbLine
 62
9
  6
CONTINUOUS
 10
25.6500424036
 20
763.7566069783
 11
29.5500424036
 21
763.7566069783
  0
LINE
  5
688
100
AcDbEntity
  8
93764299000_O3A_BL18
100
AcDbLine
 62
9
  6
CONTINUOUS
 10
25.6500424036
 20
769.9566069783
 11
29.5500424036
 21
769.9566069783
  0
LINE
  5
689
100
AcDbEntity
  8
93764299000_O3A_BL18
100
AcDbLine
 62
7
  6
CONTINUOUS
 10
25.6500424036
 20
770.2566069783
 11
29.2500424036
 21
770.2566069783
  0
LINE
  5
68A
100
AcDbEntity
  8
93764299000_O3A_BL18
100
AcDbLine
 62
9
  6
CONTINUOUS
 10
25.8500424036
 20
763.4566069783
 11
25.8500424036
 21
770.2566069783
  0
LINE
  5
68B
100
AcDbEntity
  8
93764299000_O3A_BL18
100
AcDbLine
 62
9
  6
CONTINUOUS
 10
29.2500424036
 20
763.4566069783
 11
29.2500424036
 21
770.2566069783
  0
LINE
  5
68C
100
AcDbEntity
  8
93764299000_O3A_BL18
100
AcDbLine
 62
7
  6
CONTINUOUS
 10
29.5500424036
 20
763.7566069783
 11
29.5500424036
 21
769.9566069783
  0
ARC
  5
68D
100
AcDbEntity
  8
93764299000_O3A_BL18
100
AcDbCircle
 62
7
  6
CONTINUOUS
 10
25.8500424036
 20
763.7566069783
 40
0.3
100
AcDbArc
 50
227.8882184819
 51
270.0
  0
ARC
  5
68E
100
AcDbEntity
  8
93764299000_O3A_BL18
100
AcDbCircle
 62
7
  6
CONTINUOUS
 10
25.8500424036
 20
769.9566069783
 40
0.3
100
AcDbArc
 50
90.0
 51
132.0710678119
  0
ARC
  5
68F
100
AcDbEntity
  8
93764299000_O3A_BL18
100
AcDbCircle
 62
7
  6
CONTINUOUS
 10
29.2500424036
 20
763.7566069783
 40
0.3
100
AcDbArc
 50
270.0
 51
360.0
  0
ARC
  5
690
100
AcDbEntity
  8
93764299000_O3A_BL18
100
AcDbCircle
 62
7
  6
CONTINUOUS
 10
29.2500424036
 20
769.9566069783
 40
0.3
100
AcDbArc
 50
0.0
 51
90.0
  0
ENDBLK
  5
691
100
AcDbEntity
  8
0
  6
BYBLOCK
 62
0
100
AcDbBlockEnd
  0
BLOCK
  5
692
100
AcDbEntity
  8
93764299000_O3A_BL19
100
AcDbBlockBegin
  2
93764299000_O3A_BL19
 70
64
 10
27.5994555274
 20
1070.8566069783
  3
93764299000_O3A_BL19
  1

  0
LINE
  5
693
100
AcDbEntity
  8
93764299000_O3A_BL19
100
AcDbLine
 62
7
  6
CONTINUOUS
 10
25.6500424036
 20
1067.4566069783
 11
29.2500424036
 21
1067.4566069783
  0
LINE
  5
694
100
AcDbEntity
  8
93764299000_O3A_BL19
100
AcDbLine
 62
9
  6
CONTINUOUS
 10
25.6500424036
 20
1067.7566069783
 11
29.5500424036
 21
1067.7566069783
  0
LINE
  5
695
100
AcDbEntity
  8
93764299000_O3A_BL19
100
AcDbLine
 62
9
  6
CONTINUOUS
 10
25.6500424036
 20
1073.9566069783
 11
29.5500424036
 21
1073.9566069783
  0
LINE
  5
696
100
AcDbEntity
  8
93764299000_O3A_BL19
100
AcDbLine
 62
7
  6
CONTINUOUS
 10
25.6500424036
 20
1074.2566069783
 11
29.2500424036
 21
1074.2566069783
  0
LINE
  5
697
100
AcDbEntity
  8
93764299000_O3A_BL19
100
AcDbLine
 62
9
  6
CONTINUOUS
 10
25.8500424036
 20
1067.4566069783
 11
25.8500424036
 21
1074.2566069783
  0
LINE
  5
698
100
AcDbEntity
  8
93764299000_O3A_BL19
100
AcDbLine
 62
9
  6
CONTINUOUS
 10
29.2500424036
 20
1067.4566069783
 11
29.2500424036
 21
1074.2566069783
  0
LINE
  5
699
100
AcDbEntity
  8
93764299000_O3A_BL19
100
AcDbLine
 62
7
  6
CONTINUOUS
 10
29.5500424036
 20
1067.7566069783
 11
29.5500424036
 21
1073.9566069783
  0
ARC
  5
69A
100
AcDbEntity
  8
93764299000_O3A_BL19
100
AcDbCircle
 62
7
  6
CONTINUOUS
 10
25.8500424036
 20
1067.7566069783
 40
0.3
100
AcDbArc
 50
227.8882184819
 51
270.0
  0
ARC
  5
69B
100
AcDbEntity
  8
93764299000_O3A_BL19
100
AcDbCircle
 62
7
  6
CONTINUOUS
 10
25.8500424036
 20
1073.9566069783
 40
0.3
100
AcDbArc
 50
90.0
 51
132.0710678119
  0
ARC
  5
69C
100
AcDbEntity
  8
93764299000_O3A_BL19
100
AcDbCircle
 62
7
  6
CONTINUOUS
 10
29.2500424036
 20
1067.7566069783
 40
0.3
100
AcDbArc
 50
270.0
 51
360.0
  0
ARC
  5
69D
100
AcDbEntity
  8
93764299000_O3A_BL19
100
AcDbCircle
 62
7
  6
CONTINUOUS
 10
29.2500424036
 20
1073.9566069783
 40
0.3
100
AcDbArc
 50
0.0
 51
90.0
  0
ENDBLK
  5
69E
100
AcDbEntity
  8
0
  6
BYBLOCK
 62
0
100
AcDbBlockEnd
  0
BLOCK
  5
69F
100
AcDbEntity
  8
93764299000_O3A_BL20
100
AcDbBlockBegin
  2
93764299000_O3A_BL20
 70
64
 10
27.5994555274
 20
1161.8566069783
  3
93764299000_O3A_BL20
  1

  0
LINE
  5
6A0
100
AcDbEntity
  8
93764299000_O3A_BL20
100
AcDbLine
 62
7
  6
CONTINUOUS
 10
25.6500424036
 20
1158.4566069783
 11
29.2500424036
 21
1158.4566069783
  0
LINE
  5
6A1
100
AcDbEntity
  8
93764299000_O3A_BL20
100
AcDbLine
 62
9
  6
CONTINUOUS
 10
25.6500424036
 20
1158.7566069783
 11
29.5500424036
 21
1158.7566069783
  0
LINE
  5
6A2
100
AcDbEntity
  8
93764299000_O3A_BL20
100
AcDbLine
 62
9
  6
CONTINUOUS
 10
25.6500424036
 20
1164.9566069783
 11
29.5500424036
 21
1164.9566069783
  0
LINE
  5
6A3
100
AcDbEntity
  8
93764299000_O3A_BL20
100
AcDbLine
 62
7
  6
CONTINUOUS
 10
25.6500424036
 20
1165.2566069783
 11
29.2500424036
 21
1165.2566069783
  0
LINE
  5
6A4
100
AcDbEntity
  8
93764299000_O3A_BL20
100
AcDbLine
 62
9
  6
CONTINUOUS
 10
25.8500424036
 20
1158.4566069783
 11
25.8500424036
 21
1165.2566069783
  0
LINE
  5
6A5
100
AcDbEntity
  8
93764299000_O3A_BL20
100
AcDbLine
 62
9
  6
CONTINUOUS
 10
29.2500424036
 20
1158.4566069783
 11
29.2500424036
 21
1165.2566069783
  0
LINE
  5
6A6
100
AcDbEntity
  8
93764299000_O3A_BL20
100
AcDbLine
 62
7
  6
CONTINUOUS
 10
29.5500424036
 20
1158.7566069783
 11
29.5500424036
 21
1164.9566069783
  0
ARC
  5
6A7
100
AcDbEntity
  8
93764299000_O3A_BL20
100
AcDbCircle
 62
7
  6
CONTINUOUS
 10
25.8500424036
 20
1158.7566069783
 40
0.3
100
AcDbArc
 50
227.8882184819
 51
270.0
  0
ARC
  5
6A8
100
AcDbEntity
  8
93764299000_O3A_BL20
100
AcDbCircle
 62
7
  6
CONTINUOUS
 10
25.8500424036
 20
1164.9566069783
 40
0.3
100
AcDbArc
 50
90.0
 51
132.0710678119
  0
ARC
  5
6A9
100
AcDbEntity
  8
93764299000_O3A_BL20
100
AcDbCircle
 62
7
  6
CONTINUOUS
 10
29.2500424036
 20
1158.7566069783
 40
0.3
100
AcDbArc
 50
270.0
 51
360.0
  0
ARC
  5
6AA
100
AcDbEntity
  8
93764299000_O3A_BL20
100
AcDbCircle
 62
7
  6
CONTINUOUS
 10
29.2500424036
 20
1164.9566069783
 40
0.3
100
AcDbArc
 50
0.0
 51
90.0
  0
ENDBLK
  5
6AB
100
AcDbEntity
  8
0
  6
BYBLOCK
 62
0
100
AcDbBlockEnd
  0
BLOCK
  5
6AC
100
AcDbEntity
  8
93764299000_O3A_BL21
100
AcDbBlockBegin
  2
93764299000_O3A_BL21
 70
64
 10
27.5994555274
 20
1273.8566069783
  3
93764299000_O3A_BL21
  1

  0
LINE
  5
6AD
100
AcDbEntity
  8
93764299000_O3A_BL21
100
AcDbLine
 62
9
  6
CONTINUOUS
 10
25.8500424036
 20
1270.4566069783
 11
25.8500424036
 21
1277.2566069783
  0
LINE
  5
6AE
100
AcDbEntity
  8
93764299000_O3A_BL21
100
AcDbLine
 62
9
  6
CONTINUOUS
 10
29.2500424036
 20
1270.4566069783
 11
29.2500424036
 21
1277.2566069783
  0
LINE
  5
6AF
100
AcDbEntity
  8
93764299000_O3A_BL21
100
AcDbLine
 62
7
  6
CONTINUOUS
 10
29.5500424036
 20
1270.7566069783
 11
29.5500424036
 21
1276.9566069783
  0
LINE
  5
6B0
100
AcDbEntity
  8
93764299000_O3A_BL21
100
AcDbLine
 62
7
  6
CONTINUOUS
 10
25.6500424036
 20
1270.4566069783
 11
29.2500424036
 21
1270.4566069783
  0
LINE
  5
6B1
100
AcDbEntity
  8
93764299000_O3A_BL21
100
AcDbLine
 62
9
  6
CONTINUOUS
 10
25.6500424036
 20
1270.7566069783
 11
29.5500424036
 21
1270.7566069783
  0
LINE
  5
6B2
100
AcDbEntity
  8
93764299000_O3A_BL21
100
AcDbLine
 62
9
  6
CONTINUOUS
 10
25.6500424036
 20
1276.9566069783
 11
29.5500424036
 21
1276.9566069783
  0
LINE
  5
6B3
100
AcDbEntity
  8
93764299000_O3A_BL21
100
AcDbLine
 62
7
  6
CONTINUOUS
 10
25.6500424036
 20
1277.2566069783
 11
29.2500424036
 21
1277.2566069783
  0
ARC
  5
6B4
100
AcDbEntity
  8
93764299000_O3A_BL21
100
AcDbCircle
 62
7
  6
CONTINUOUS
 10
25.8500424036
 20
1270.7566069783
 40
0.3
100
AcDbArc
 50
227.8882184819
 51
270.0
  0
ARC
  5
6B5
100
AcDbEntity
  8
93764299000_O3A_BL21
100
AcDbCircle
 62
7
  6
CONTINUOUS
 10
25.8500424036
 20
1276.9566069783
 40
0.3
100
AcDbArc
 50
90.0
 51
132.0710678119
  0
ARC
  5
6B6
100
AcDbEntity
  8
93764299000_O3A_BL21
100
AcDbCircle
 62
7
  6
CONTINUOUS
 10
29.2500424036
 20
1270.7566069783
 40
0.3
100
AcDbArc
 50
270.0
 51
360.0
  0
ARC
  5
6B7
100
AcDbEntity
  8
93764299000_O3A_BL21
100
AcDbCircle
 62
7
  6
CONTINUOUS
 10
29.2500424036
 20
1276.9566069783
 40
0.3
100
AcDbArc
 50
0.0
 51
90.0
  0
ENDBLK
  5
6B8
100
AcDbEntity
  8
0
  6
BYBLOCK
 62
0
100
AcDbBlockEnd
  0
BLOCK
  5
6B9
100
AcDbEntity
  8
93764299000_O3A_BL22
100
AcDbBlockBegin
  2
93764299000_O3A_BL22
 70
64
 10
27.5994555274
 20
1580.8566069783
  3
93764299000_O3A_BL22
  1

  0
LINE
  5
6BA
100
AcDbEntity
  8
93764299000_O3A_BL22
100
AcDbLine
 62
9
  6
CONTINUOUS
 10
25.8500424036
 20
1577.4566069783
 11
25.8500424036
 21
1584.2566069783
  0
LINE
  5
6BB
100
AcDbEntity
  8
93764299000_O3A_BL22
100
AcDbLine
 62
9
  6
CONTINUOUS
 10
29.2500424036
 20
1577.4566069783
 11
29.2500424036
 21
1584.2566069783
  0
LINE
  5
6BC
100
AcDbEntity
  8
93764299000_O3A_BL22
100
AcDbLine
 62
7
  6
CONTINUOUS
 10
29.5500424036
 20
1577.7566069783
 11
29.5500424036
 21
1583.9566069783
  0
LINE
  5
6BD
100
AcDbEntity
  8
93764299000_O3A_BL22
100
AcDbLine
 62
7
  6
CONTINUOUS
 10
25.6500424036
 20
1577.4566069783
 11
29.2500424036
 21
1577.4566069783
  0
LINE
  5
6BE
100
AcDbEntity
  8
93764299000_O3A_BL22
100
AcDbLine
 62
9
  6
CONTINUOUS
 10
25.6500424036
 20
1577.7566069783
 11
29.5500424036
 21
1577.7566069783
  0
LINE
  5
6BF
100
AcDbEntity
  8
93764299000_O3A_BL22
100
AcDbLine
 62
9
  6
CONTINUOUS
 10
25.6500424036
 20
1583.9566069783
 11
29.5500424036
 21
1583.9566069783
  0
LINE
  5
6C0
100
AcDbEntity
  8
93764299000_O3A_BL22
100
AcDbLine
 62
7
  6
CONTINUOUS
 10
25.6500424036
 20
1584.2566069783
 11
29.2500424036
 21
1584.2566069783
  0
ARC
  5
6C1
100
AcDbEntity
  8
93764299000_O3A_BL22
100
AcDbCircle
 62
7
  6
CONTINUOUS
 10
25.8500424036
 20
1577.7566069783
 40
0.3
100
AcDbArc
 50
227.8882184819
 51
270.0
  0
ARC
  5
6C2
100
AcDbEntity
  8
93764299000_O3A_BL22
100
AcDbCircle
 62
7
  6
CONTINUOUS
 10
25.8500424036
 20
1583.9566069783
 40
0.3
100
AcDbArc
 50
90.0
 51
132.0710678119
  0
ARC
  5
6C3
100
AcDbEntity
  8
93764299000_O3A_BL22
100
AcDbCircle
 62
7
  6
CONTINUOUS
 10
29.2500424036
 20
1577.7566069783
 40
0.3
100
AcDbArc
 50
270.0
 51
360.0
  0
ARC
  5
6C4
100
AcDbEntity
  8
93764299000_O3A_BL22
100
AcDbCircle
 62
7
  6
CONTINUOUS
 10
29.2500424036
 20
1583.9566069783
 40
0.3
100
AcDbArc
 50
0.0
 51
90.0
  0
ENDBLK
  5
6C5
100
AcDbEntity
  8
0
  6
BYBLOCK
 62
0
100
AcDbBlockEnd
  0
BLOCK
  5
6C6
100
AcDbEntity
  8
93764299000_O3A_BL23
100
AcDbBlockBegin
  2
93764299000_O3A_BL23
 70
64
 10
25.6000424036
 20
973.0971861113
  3
93764299000_O3A_BL23
  1

  0
LINE
  5
6C7
100
AcDbEntity
  8
93764299000_O3A_BL23
100
AcDbLine
 62
9
  6
CONTINUOUS
 10
25.8500424036
 20
1858.4566069783
 11
25.8500424036
 21
1865.2566069783
  0
LINE
  5
6C8
100
AcDbEntity
  8
93764299000_O3A_BL23
100
AcDbLine
 62
9
  6
CONTINUOUS
 10
29.2500424036
 20
1858.4566069783
 11
29.2500424036
 21
1865.2566069783
  0
LINE
  5
6C9
100
AcDbEntity
  8
93764299000_O3A_BL23
100
AcDbLine
 62
7
  6
CONTINUOUS
 10
29.5500424036
 20
1858.7566069783
 11
29.5500424036
 21
1864.9566069783
  0
LINE
  5
6CA
100
AcDbEntity
  8
93764299000_O3A_BL23
100
AcDbLine
 62
7
  6
CONTINUOUS
 10
25.6500424036
 20
1858.4566069783
 11
29.2500424036
 21
1858.4566069783
  0
LINE
  5
6CB
100
AcDbEntity
  8
93764299000_O3A_BL23
100
AcDbLine
 62
9
  6
CONTINUOUS
 10
25.6500424036
 20
1858.7566069783
 11
29.5500424036
 21
1858.7566069783
  0
LINE
  5
6CC
100
AcDbEntity
  8
93764299000_O3A_BL23
100
AcDbLine
 62
9
  6
CONTINUOUS
 10
25.6500424036
 20
1864.9566069783
 11
29.5500424036
 21
1864.9566069783
  0
LINE
  5
6CD
100
AcDbEntity
  8
93764299000_O3A_BL23
100
AcDbLine
 62
7
  6
CONTINUOUS
 10
25.6500424036
 20
1865.2566069783
 11
29.2500424036
 21
1865.2566069783
  0
LINE
  5
6CE
100
AcDbEntity
  8
93764299000_O3A_BL23
100
AcDbLine
 62
7
  6
CONTINUOUS
 10
21.7379103692
 20
107.92563321
 11
22.5621744379
 21
108.7498972787
  0
LINE
  5
6CF
100
AcDbEntity
  8
93764299000_O3A_BL23
100
AcDbLine
 62
9
  6
CONTINUOUS
 10
21.9500424036
 20
107.7135011756
 11
22.7743064723
 21
108.5377652444
  0
LINE
  5
6D0
100
AcDbEntity
  8
93764299000_O3A_BL23
100
AcDbLine
 62
7
  6
CONTINUOUS
 10
25.8500424036
 20
80.9377652444
 11
29.2500424036
 21
80.9377652444
  0
LINE
  5
6D1
100
AcDbEntity
  8
93764299000_O3A_BL23
100
AcDbLine
 62
9
  6
CONTINUOUS
 10
25.6500424036
 20
81.2377652444
 11
29.5500424036
 21
81.2377652444
  0
LINE
  5
6D2
100
AcDbEntity
  8
93764299000_O3A_BL23
100
AcDbLine
 62
9
  6
CONTINUOUS
 10
25.6500424036
 20
82.7377652444
 11
25.8500424036
 21
82.7377652444
  0
LINE
  5
6D3
100
AcDbEntity
  8
93764299000_O3A_BL23
100
AcDbLine
 62
9
  6
CONTINUOUS
 10
21.7379103692
 20
98.9377652444
 11
21.7379103692
 21
102.9377652444
  0
LINE
  5
6D4
100
AcDbEntity
  8
93764299000_O3A_BL23
100
AcDbLine
 62
9
  6
CONTINUOUS
 10
21.9500424036
 20
107.7135011756
 11
21.9500424036
 21
107.4290199553
  0
LINE
  5
6D5
100
AcDbEntity
  8
93764299000_O3A_BL23
100
AcDbLine
 62
9
  6
CONTINUOUS
 10
22.7743064723
 20
108.5377652444
 11
22.7743064723
 21
108.8377652444
  0
LINE
  5
6D6
100
AcDbEntity
  8
93764299000_O3A_BL23
100
AcDbLine
 62
9
  6
CONTINUOUS
 10
24.7550676567
 20
102.9377652444
 11
24.7550676567
 21
98.9377652444
  0
LINE
  5
6D7
100
AcDbEntity
  8
93764299000_O3A_BL23
100
AcDbLine
 62
9
  6
CONTINUOUS
 10
24.9671996911
 20
102.9377652444
 11
24.9671996911
 21
98.9377652444
  0
LINE
  5
6D8
100
AcDbEntity
  8
93764299000_O3A_BL23
100
AcDbLine
 62
9
  6
CONTINUOUS
 10
25.2500424036
 20
108.5377652444
 11
25.2500424036
 21
108.8377652444
  0
LINE
  5
6D9
100
AcDbEntity
  8
93764299000_O3A_BL23
100
AcDbLine
 62
9
  6
CONTINUOUS
 10
25.8500424036
 20
80.9377652444
 11
25.8500424036
 21
82.7377652444
  0
LINE
  5
6DA
100
AcDbEntity
  8
93764299000_O3A_BL23
100
AcDbLine
 62
9
  6
CONTINUOUS
 10
25.8500424036
 20
109.1377652444
 11
25.8500424036
 21
110.9377652444
  0
LINE
  5
6DB
100
AcDbEntity
  8
93764299000_O3A_BL23
100
AcDbLine
 62
9
  6
CONTINUOUS
 10
26.2500424036
 20
98.9377652444
 11
26.2500424036
 21
110.9377652444
  0
LINE
  5
6DC
100
AcDbEntity
  8
93764299000_O3A_BL23
100
AcDbLine
 62
7
  6
CONTINUOUS
 10
26.5500424036
 20
98.9377652444
 11
26.5500424036
 21
110.6377652444
  0
LINE
  5
6DD
100
AcDbEntity
  8
93764299000_O3A_BL23
100
AcDbLine
 62
9
  6
CONTINUOUS
 10
29.2500424036
 20
80.9377652444
 11
29.2500424036
 21
83.1059320208
  0
LINE
  5
6DE
100
AcDbEntity
  8
93764299000_O3A_BL23
100
AcDbLine
 62
7
  6
CONTINUOUS
 10
29.5500424036
 20
81.2377652444
 11
29.5500424036
 21
83.1374632914
  0
LINE
  5
6DF
100
AcDbEntity
  8
93764299000_O3A_BL23
100
AcDbLine
 62
9
  6
CONTINUOUS
 10
21.7379103692
 20
107.92563321
 11
21.9500424036
 21
107.7135011756
  0
LINE
  5
6E0
100
AcDbEntity
  8
93764299000_O3A_BL23
100
AcDbLine
 62
9
  6
CONTINUOUS
 10
22.5621744379
 20
108.7498972787
 11
22.7743064723
 21
108.5377652444
  0
LINE
  5
6E1
100
AcDbEntity
  8
93764299000_O3A_BL23
100
AcDbLine
 62
9
  6
CONTINUOUS
 10
21.6500424036
 20
102.9377652444
 11
24.9671996911
 21
102.9377652444
  0
LINE
  5
6E2
100
AcDbEntity
  8
93764299000_O3A_BL23
100
AcDbLine
 62
9
  6
CONTINUOUS
 10
21.9500424036
 20
107.4318089174
 11
21.6500424036
 21
107.4318089174
  0
LINE
  5
6E3
100
AcDbEntity
  8
93764299000_O3A_BL23
100
AcDbLine
 62
9
  6
CONTINUOUS
 10
21.9500424036
 20
107.7135011756
 11
21.6500424036
 21
107.7135011756
  0
LINE
  5
6E4
100
AcDbEntity
  8
93764299000_O3A_BL23
100
AcDbLine
 62
9
  6
CONTINUOUS
 10
25.2500424036
 20
108.5377652444
 11
22.7743064723
 21
108.5377652444
  0
LINE
  5
6E5
100
AcDbEntity
  8
93764299000_O3A_BL23
100
AcDbLine
 62
7
  6
CONTINUOUS
 10
25.2500424036
 20
108.8377652444
 11
22.7743064723
 21
108.8377652444
  0
LINE
  5
6E6
100
AcDbEntity
  8
93764299000_O3A_BL23
100
AcDbLine
 62
9
  6
CONTINUOUS
 10
25.8500424036
 20
109.1377652444
 11
25.6500424036
 21
109.1377652444
  0
LINE
  5
6E7
100
AcDbEntity
  8
93764299000_O3A_BL23
100
AcDbLine
 62
9
  6
CONTINUOUS
 10
25.6500424036
 20
110.6377652444
 11
26.5500424036
 21
110.6377652444
  0
LINE
  5
6E8
100
AcDbEntity
  8
93764299000_O3A_BL23
100
AcDbLine
 62
7
  6
CONTINUOUS
 10
26.2500424036
 20
110.9377652444
 11
25.8500424036
 21
110.9377652444
  0
ARC
  5
6E9
100
AcDbEntity
  8
93764299000_O3A_BL23
100
AcDbCircle
 62
7
  6
CONTINUOUS
 10
25.8500424036
 20
1858.7566069783
 40
0.3
100
AcDbArc
 50
227.8882184819
 51
270.0
  0
ARC
  5
6EA
100
AcDbEntity
  8
93764299000_O3A_BL23
100
AcDbCircle
 62
7
  6
CONTINUOUS
 10
25.8500424036
 20
1864.9566069783
 40
0.3
100
AcDbArc
 50
90.0
 51
132.0710678119
  0
ARC
  5
6EB
100
AcDbEntity
  8
93764299000_O3A_BL23
100
AcDbCircle
 62
7
  6
CONTINUOUS
 10
29.2500424036
 20
1858.7566069783
 40
0.3
100
AcDbArc
 50
270.0
 51
360.0
  0
ARC
  5
6EC
100
AcDbEntity
  8
93764299000_O3A_BL23
100
AcDbCircle
 62
7
  6
CONTINUOUS
 10
29.2500424036
 20
1864.9566069783
 40
0.3
100
AcDbArc
 50
0.0
 51
90.0
  0
ARC
  5
6ED
100
AcDbEntity
  8
93764299000_O3A_BL23
100
AcDbCircle
 62
9
  6
CONTINUOUS
 10
25.2500424036
 20
82.7377652444
 40
0.6
100
AcDbArc
 50
0.0
 51
19.5655143196
  0
ARC
  5
6EE
100
AcDbEntity
  8
93764299000_O3A_BL23
100
AcDbCircle
 62
7
  6
CONTINUOUS
 10
25.8500424036
 20
81.2377652444
 40
0.3
100
AcDbArc
 50
227.888218482
 51
270.0
  0
ARC
  5
6EF
100
AcDbEntity
  8
93764299000_O3A_BL23
100
AcDbCircle
 62
9
  6
CONTINUOUS
 10
25.2500424036
 20
109.1377652444
 40
0.6
100
AcDbArc
 50
270.0
 51
360.0
  0
ARC
  5
6F0
100
AcDbEntity
  8
93764299000_O3A_BL23
100
AcDbCircle
 62
7
  6
CONTINUOUS
 10
25.2500424036
 20
109.1377652444
 40
0.3
100
AcDbArc
 50
270.0
 51
315.0
  0
ARC
  5
6F1
100
AcDbEntity
  8
93764299000_O3A_BL23
100
AcDbCircle
 62
7
  6
CONTINUOUS
 10
25.8500424036
 20
110.6377652444
 40
0.3
100
AcDbArc
 50
90.0
 51
132.111781518
  0
ARC
  5
6F2
100
AcDbEntity
  8
93764299000_O3A_BL23
100
AcDbCircle
 62
7
  6
CONTINUOUS
 10
26.2500424036
 20
110.6377652444
 40
0.3
100
AcDbArc
 50
0.0
 51
90.0
  0
ARC
  5
6F3
100
AcDbEntity
  8
93764299000_O3A_BL23
100
AcDbCircle
 62
7
  6
CONTINUOUS
 10
21.9500424036
 20
107.7135011756
 40
0.3
100
AcDbArc
 50
135.0
 51
180.0
  0
ARC
  5
6F4
100
AcDbEntity
  8
93764299000_O3A_BL23
100
AcDbCircle
 62
7
  6
CONTINUOUS
 10
22.7743064723
 20
108.5377652444
 40
0.3
100
AcDbArc
 50
90.0
 51
135.0
  0
ARC
  5
6F5
100
AcDbEntity
  8
93764299000_O3A_BL23
100
AcDbCircle
 62
7
  6
CONTINUOUS
 10
29.2500424036
 20
81.2377652444
 40
0.3
100
AcDbArc
 50
270.0
 51
360.0
  0
SPLINE
  5
6F6
100
AcDbEntity
  8
93764299000_O3A_BL23
100
AcDbSpline
 62
9
  6
CONTINUOUS
 70
0
 71
3
 72
9
 73
5
 74
0
 42
0.0000001
 43
0.0000001
 44
0.0000000001
 40
0.0
 40
0.0
 40
0.0
 40
0.0
 40
0.5905569759
 40
1.0
 40
1.0
 40
1.0
 40
1.0
 10
21.7379103692
 20
102.9377652444
 30
0.0
 10
21.7380379427
 20
103.7770065318
 30
0.0
 10
21.7505280652
 20
105.1980913099
 30
0.0
 10
21.7878233687
 20
106.6189168342
 30
0.0
 10
21.8152751366
 20
107.200128917
 30
0.0
  0
SPLINE
  5
6F7
100
AcDbEntity
  8
93764299000_O3A_BL23
100
AcDbSpline
 62
9
  6
CONTINUOUS
 70
0
 71
3
 72
9
 73
5
 74
0
 42
0.0000001
 43
0.0000001
 44
0.0000000001
 40
0.0
 40
0.0
 40
0.0
 40
0.0
 40
0.4826993485
 40
1.0
 40
1.0
 40
1.0
 40
1.0
 10
21.6500424036
 20
107.4318089174
 30
0.0
 10
21.650042399
 20
107.3838172833
 30
0.0
 10
21.6845926254
 20
107.2829584351
 30
0.0
 10
21.7682977072
 20
107.2187340971
 30
0.0
 10
21.8159402758
 20
107.19935841
 30
0.0
  0
SPLINE
  5
6F8
100
AcDbEntity
  8
93764299000_O3A_BL23
100
AcDbSpline
 62
9
  6
CONTINUOUS
 70
0
 71
3
 72
10
 73
6
 74
0
 42
0.0000001
 43
0.0000001
 44
0.0000000001
 40
0.0
 40
0.0
 40
0.0
 40
0.0
 40
0.4990307514
 40
0.7496370086
 40
1.0
 40
1.0
 40
1.0
 40
1.0
 10
21.9500424036
 20
107.4290199553
 30
0.0
 10
22.7622927462
 20
106.9605085185
 30
0.0
 10
23.8937501082
 20
106.0293682428
 30
0.0
 10
24.7992047487
 20
104.3567034263
 30
0.0
 10
24.9669148875
 20
103.4082004526
 30
0.0
 10
24.9671996911
 20
102.9377652444
 30
0.0
  0
SPLINE
  5
6F9
100
AcDbEntity
  8
93764299000_O3A_BL23
100
AcDbSpline
 62
9
  6
CONTINUOUS
 70
0
 71
3
 72
11
 73
7
 74
0
 42
0.0000001
 43
0.0000001
 44
0.0000000001
 40
0.0
 40
0.0
 40
0.0
 40
0.0
 40
0.250269077
 40
0.5004297329
 40
0.7503509895
 40
1.0
 40
1.0
 40
1.0
 40
1.0
 10
21.8152751366
 20
107.200128917
 30
0.0
 10
22.2090664827
 20
106.9790375662
 30
0.0
 10
22.9618923857
 20
106.4700347507
 30
0.0
 10
23.915130365
 20
105.4921429069
 30
0.0
 10
24.5879067967
 20
104.2966610153
 30
0.0
 10
24.7548815055
 20
103.3882578628
 30
0.0
 10
24.7550676567
 20
102.9377652444
 30
0.0
  0
SPLINE
  5
6FA
100
AcDbEntity
  8
93764299000_O3A_BL23
100
AcDbSpline
 62
9
  6
CONTINUOUS
 70
0
 71
3
 72
10
 73
6
 74
0
 42
0.0000001
 43
0.0000001
 44
0.0000000001
 40
0.0
 40
0.0
 40
0.0
 40
0.0
 40
0.3052991405
 40
0.7134013312
 40
1.0
 40
1.0
 40
1.0
 40
1.0
 10
21.9500424465
 20
107.4318089174
 30
0.0
 10
21.9350827232
 20
107.4089605017
 30
0.0
 10
21.905127278
 20
107.3524594681
 30
0.0
 10
21.8585480519
 20
107.276234986
 30
0.0
 10
21.8309946703
 20
107.2201101994
 30
0.0
 10
21.8159402758
 20
107.19935841
 30
0.0
  0
ENDBLK
  5
6FB
100
AcDbEntity
  8
0
  6
BYBLOCK
 62
0
100
AcDbBlockEnd
  0
BLOCK
  5
6FC
100
AcDbEntity
  8
93764299000_O3A_BL24
100
AcDbBlockBegin
  2
93764299000_O3A_BL24
 70
64
 10
27.5994555274
 20
1957.8566069783
  3
93764299000_O3A_BL24
  1

  0
LINE
  5
6FD
100
AcDbEntity
  8
93764299000_O3A_BL24
100
AcDbLine
 62
9
  6
CONTINUOUS
 10
25.8500424036
 20
1954.4566069783
 11
25.8500424036
 21
1961.2566069783
  0
LINE
  5
6FE
100
AcDbEntity
  8
93764299000_O3A_BL24
100
AcDbLine
 62
9
  6
CONTINUOUS
 10
29.2500424036
 20
1954.4566069783
 11
29.2500424036
 21
1961.2566069783
  0
LINE
  5
6FF
100
AcDbEntity
  8
93764299000_O3A_BL24
100
AcDbLine
 62
7
  6
CONTINUOUS
 10
29.5500424036
 20
1954.7566069783
 11
29.5500424036
 21
1960.9566069783
  0
LINE
  5
700
100
AcDbEntity
  8
93764299000_O3A_BL24
100
AcDbLine
 62
7
  6
CONTINUOUS
 10
25.6500424036
 20
1954.4566069783
 11
29.2500424036
 21
1954.4566069783
  0
LINE
  5
701
100
AcDbEntity
  8
93764299000_O3A_BL24
100
AcDbLine
 62
9
  6
CONTINUOUS
 10
25.6500424036
 20
1954.7566069783
 11
29.5500424036
 21
1954.7566069783
  0
LINE
  5
702
100
AcDbEntity
  8
93764299000_O3A_BL24
100
AcDbLine
 62
9
  6
CONTINUOUS
 10
25.6500424036
 20
1960.9566069783
 11
29.5500424036
 21
1960.9566069783
  0
LINE
  5
703
100
AcDbEntity
  8
93764299000_O3A_BL24
100
AcDbLine
 62
7
  6
CONTINUOUS
 10
25.6500424036
 20
1961.2566069783
 11
29.2500424036
 21
1961.2566069783
  0
ARC
  5
704
100
AcDbEntity
  8
93764299000_O3A_BL24
100
AcDbCircle
 62
7
  6
CONTINUOUS
 10
25.8500424036
 20
1954.7566069783
 40
0.3
100
AcDbArc
 50
227.8882184819
 51
270.0
  0
ARC
  5
705
100
AcDbEntity
  8
93764299000_O3A_BL24
100
AcDbCircle
 62
7
  6
CONTINUOUS
 10
25.8500424036
 20
1960.9566069783
 40
0.3
100
AcDbArc
 50
90.0
 51
132.0710678119
  0
ARC
  5
706
100
AcDbEntity
  8
93764299000_O3A_BL24
100
AcDbCircle
 62
7
  6
CONTINUOUS
 10
29.2500424036
 20
1954.7566069783
 40
0.3
100
AcDbArc
 50
270.0
 51
360.0
  0
ARC
  5
707
100
AcDbEntity
  8
93764299000_O3A_BL24
100
AcDbCircle
 62
7
  6
CONTINUOUS
 10
29.2500424036
 20
1960.9566069783
 40
0.3
100
AcDbArc
 50
0.0
 51
90.0
  0
ENDBLK
  5
708
100
AcDbEntity
  8
0
  6
BYBLOCK
 62
0
100
AcDbBlockEnd
  0
BLOCK
  5
709
100
AcDbEntity
  8
93764299000_O3A_BL25
100
AcDbBlockBegin
  2
93764299000_O3A_BL25
 70
64
 10
27.5994555274
 20
2098.8566069783
  3
93764299000_O3A_BL25
  1

  0
LINE
  5
70A
100
AcDbEntity
  8
93764299000_O3A_BL25
100
AcDbLine
 62
9
  6
CONTINUOUS
 10
25.8500424036
 20
2095.4566069783
 11
25.8500424036
 21
2102.2566069783
  0
LINE
  5
70B
100
AcDbEntity
  8
93764299000_O3A_BL25
100
AcDbLine
 62
9
  6
CONTINUOUS
 10
29.2500424036
 20
2095.4566069783
 11
29.2500424036
 21
2102.2566069783
  0
LINE
  5
70C
100
AcDbEntity
  8
93764299000_O3A_BL25
100
AcDbLine
 62
7
  6
CONTINUOUS
 10
29.5500424036
 20
2095.7566069783
 11
29.5500424036
 21
2101.9566069783
  0
LINE
  5
70D
100
AcDbEntity
  8
93764299000_O3A_BL25
100
AcDbLine
 62
7
  6
CONTINUOUS
 10
25.6500424036
 20
2095.4566069783
 11
29.2500424036
 21
2095.4566069783
  0
LINE
  5
70E
100
AcDbEntity
  8
93764299000_O3A_BL25
100
AcDbLine
 62
9
  6
CONTINUOUS
 10
25.6500424036
 20
2095.7566069783
 11
29.5500424036
 21
2095.7566069783
  0
LINE
  5
70F
100
AcDbEntity
  8
93764299000_O3A_BL25
100
AcDbLine
 62
9
  6
CONTINUOUS
 10
25.6500424036
 20
2101.9566069783
 11
29.5500424036
 21
2101.9566069783
  0
LINE
  5
710
100
AcDbEntity
  8
93764299000_O3A_BL25
100
AcDbLine
 62
7
  6
CONTINUOUS
 10
25.6500424036
 20
2102.2566069783
 11
29.2500424036
 21
2102.2566069783
  0
ARC
  5
711
100
AcDbEntity
  8
93764299000_O3A_BL25
100
AcDbCircle
 62
7
  6
CONTINUOUS
 10
25.8500424036
 20
2095.7566069783
 40
0.3
100
AcDbArc
 50
227.8882184819
 51
270.0
  0
ARC
  5
712
100
AcDbEntity
  8
93764299000_O3A_BL25
100
AcDbCircle
 62
7
  6
CONTINUOUS
 10
25.8500424036
 20
2101.9566069783
 40
0.3
100
AcDbArc
 50
90.0
 51
132.0710678119
  0
ARC
  5
713
100
AcDbEntity
  8
93764299000_O3A_BL25
100
AcDbCircle
 62
7
  6
CONTINUOUS
 10
29.2500424036
 20
2095.7566069783
 40
0.3
100
AcDbArc
 50
270.0
 51
360.0
  0
ARC
  5
714
100
AcDbEntity
  8
93764299000_O3A_BL25
100
AcDbCircle
 62
7
  6
CONTINUOUS
 10
29.2500424036
 20
2101.9566069783
 40
0.3
100
AcDbArc
 50
0.0
 51
90.0
  0
ENDBLK
  5
715
100
AcDbEntity
  8
0
  6
BYBLOCK
 62
0
100
AcDbBlockEnd
  0
BLOCK
  5
716
100
AcDbEntity
  8
93764299000_O3A_BL26
100
AcDbBlockBegin
  2
93764299000_O3A_BL26
 70
64
 10
27.5994555274
 20
2400.8566069783
  3
93764299000_O3A_BL26
  1

  0
LINE
  5
717
100
AcDbEntity
  8
93764299000_O3A_BL26
100
AcDbLine
 62
9
  6
CONTINUOUS
 10
25.8500424036
 20
2397.4566069783
 11
25.8500424036
 21
2404.2566069783
  0
LINE
  5
718
100
AcDbEntity
  8
93764299000_O3A_BL26
100
AcDbLine
 62
9
  6
CONTINUOUS
 10
29.2500424036
 20
2397.4566069783
 11
29.2500424036
 21
2404.2566069783
  0
LINE
  5
719
100
AcDbEntity
  8
93764299000_O3A_BL26
100
AcDbLine
 62
7
  6
CONTINUOUS
 10
29.5500424036
 20
2397.7566069783
 11
29.5500424036
 21
2403.9566069783
  0
LINE
  5
71A
100
AcDbEntity
  8
93764299000_O3A_BL26
100
AcDbLine
 62
7
  6
CONTINUOUS
 10
25.6500424036
 20
2397.4566069783
 11
29.2500424036
 21
2397.4566069783
  0
LINE
  5
71B
100
AcDbEntity
  8
93764299000_O3A_BL26
100
AcDbLine
 62
9
  6
CONTINUOUS
 10
25.6500424036
 20
2397.7566069783
 11
29.5500424036
 21
2397.7566069783
  0
LINE
  5
71C
100
AcDbEntity
  8
93764299000_O3A_BL26
100
AcDbLine
 62
9
  6
CONTINUOUS
 10
25.6500424036
 20
2403.9566069783
 11
29.5500424036
 21
2403.9566069783
  0
LINE
  5
71D
100
AcDbEntity
  8
93764299000_O3A_BL26
100
AcDbLine
 62
7
  6
CONTINUOUS
 10
25.6500424036
 20
2404.2566069783
 11
29.2500424036
 21
2404.2566069783
  0
ARC
  5
71E
100
AcDbEntity
  8
93764299000_O3A_BL26
100
AcDbCircle
 62
7
  6
CONTINUOUS
 10
25.8500424036
 20
2397.7566069783
 40
0.3
100
AcDbArc
 50
227.8882184819
 51
270.0
  0
ARC
  5
71F
100
AcDbEntity
  8
93764299000_O3A_BL26
100
AcDbCircle
 62
7
  6
CONTINUOUS
 10
25.8500424036
 20
2403.9566069783
 40
0.3
100
AcDbArc
 50
90.0
 51
132.0710678119
  0
ARC
  5
720
100
AcDbEntity
  8
93764299000_O3A_BL26
100
AcDbCircle
 62
7
  6
CONTINUOUS
 10
29.2500424036
 20
2397.7566069783
 40
0.3
100
AcDbArc
 50
270.0
 51
360.0
  0
ARC
  5
721
100
AcDbEntity
  8
93764299000_O3A_BL26
100
AcDbCircle
 62
7
  6
CONTINUOUS
 10
29.2500424036
 20
2403.9566069783
 40
0.3
100
AcDbArc
 50
0.0
 51
90.0
  0
ENDBLK
  5
722
100
AcDbEntity
  8
0
  6
BYBLOCK
 62
0
100
AcDbBlockEnd
  0
BLOCK
  5
723
100
AcDbEntity
  8
91511100099_BL27
100
AcDbBlockBegin
  2
91511100099_BL27
 70
64
 10
24.3500424036
 20
90.9377652444
  3
91511100099_BL27
  1

  0
LINE
  5
724
100
AcDbEntity
  8
91511100099_BL27
100
AcDbLine
 62
7
  6
CONTINUOUS
 10
23.7500424036
 20
86.9377652444
 11
24.9500424036
 21
86.9377652444
  0
LINE
  5
725
100
AcDbEntity
  8
91511100099_BL27
100
AcDbLine
 62
7
  6
CONTINUOUS
 10
24.9500424036
 20
94.9377652444
 11
24.9500424036
 21
86.9377652444
  0
LINE
  5
726
100
AcDbEntity
  8
91511100099_BL27
100
AcDbLine
 62
7
  6
CONTINUOUS
 10
23.7500424036
 20
94.9377652444
 11
24.9500424036
 21
94.9377652444
  0
ENDBLK
  5
727
100
AcDbEntity
  8
0
  6
BYBLOCK
 62
0
100
AcDbBlockEnd
  0
BLOCK
  5
728
100
AcDbEntity
  8
91324206R00_BL28
100
AcDbBlockBegin
  2
91324206R00_BL28
 70
64
 10
125.7532989129
 20
1171.6066069783
  3
91324206R00_BL28
  1

  0
ARC
  5
729
100
AcDbEntity
  8
91324206R00_BL28
100
AcDbCircle
 62
7
  6
CONTINUOUS
 10
124.8469965303
 20
1170.0630021094
 40
0.59
100
AcDbArc
 50
12.9620900982
 51
106.2006509182
  0
ARC
  5
72A
100
AcDbEntity
  8
91324206R00_BL28
100
AcDbCircle
 62
7
  6
CONTINUOUS
 10
124.8469965303
 20
1173.1502118472
 40
0.59
100
AcDbArc
 50
253.7993490818
 51
347.0379099017
  0
ARC
  5
72B
100
AcDbEntity
  8
91324206R00_BL28
100
AcDbCircle
 62
7
  6
CONTINUOUS
 10
124.0484055547
 20
1171.6066069783
 40
0.5048933582
100
AcDbArc
 50
309.6496393283
 51
50.3503606716
  0
ARC
  5
72C
100
AcDbEntity
  8
91324206R00_BL28
100
AcDbCircle
 62
7
  6
CONTINUOUS
 10
124.5875246558
 20
1170.9560722893
 40
0.34
100
AcDbArc
 50
129.6496393285
 51
200.3768601609
  0
ARC
  5
72D
100
AcDbEntity
  8
91324206R00_BL28
100
AcDbCircle
 62
7
  6
CONTINUOUS
 10
124.5875246558
 20
1170.9560722893
 40
0.34
100
AcDbArc
 50
224.6349631417
 51
286.200650918
  0
ARC
  5
72E
100
AcDbEntity
  8
91324206R00_BL28
100
AcDbCircle
 62
7
  6
CONTINUOUS
 10
124.5875246558
 20
1172.2571416672
 40
0.34
100
AcDbArc
 50
73.7993490819
 51
135.3499645032
  0
ARC
  5
72F
100
AcDbEntity
  8
91324206R00_BL28
100
AcDbCircle
 62
7
  6
CONTINUOUS
 10
124.5875246558
 20
1172.2571416672
 40
0.34
100
AcDbArc
 50
159.9223576597
 51
230.3503606716
  0
ARC
  5
730
100
AcDbEntity
  8
91324206R00_BL28
100
AcDbCircle
 62
7
  6
CONTINUOUS
 10
125.7532989129
 20
1170.2716069783
 40
0.34
100
AcDbArc
 50
192.9620900983
 51
256.3581162112
  0
ARC
  5
731
100
AcDbEntity
  8
91324206R00_BL28
100
AcDbCircle
 62
7
  6
CONTINUOUS
 10
125.7532989129
 20
1170.2716069783
 40
0.34
100
AcDbArc
 50
283.5069100039
 51
347.0379099016
  0
CIRCLE
  5
732
100
AcDbEntity
  8
91324206R00_BL28
100
AcDbCircle
 62
7
  6
CONTINUOUS
 10
125.7532989129
 20
1171.6066069783
 40
3.75
  0
CIRCLE
  5
733
100
AcDbEntity
  8
91324206R00_BL28
100
AcDbCircle
 62
7
  6
CONTINUOUS
 10
125.7532989129
 20
1171.6066069783
 40
1.675
  0
ARC
  5
734
100
AcDbEntity
  8
91324206R00_BL28
100
AcDbCircle
 62
7
  6
CONTINUOUS
 10
125.7532989129
 20
1172.9416069783
 40
0.34
100
AcDbArc
 50
12.9620900982
 51
76.3581162113
  0
ARC
  5
735
100
AcDbEntity
  8
91324206R00_BL28
100
AcDbCircle
 62
7
  6
CONTINUOUS
 10
125.7532989129
 20
1172.9416069783
 40
0.34
100
AcDbArc
 50
103.5069100041
 51
167.0379099018
  0
ARC
  5
736
100
AcDbEntity
  8
91324206R00_BL28
100
AcDbCircle
 62
7
  6
CONTINUOUS
 10
126.6596012954
 20
1170.0630021094
 40
0.59
100
AcDbArc
 50
73.7993490819
 51
167.0379099018
  0
ARC
  5
737
100
AcDbEntity
  8
91324206R00_BL28
100
AcDbCircle
 62
7
  6
CONTINUOUS
 10
126.9190731699
 20
1170.9560722893
 40
0.34
100
AcDbArc
 50
253.7993490818
 51
315.349964503
  0
ARC
  5
738
100
AcDbEntity
  8
91324206R00_BL28
100
AcDbCircle
 62
7
  6
CONTINUOUS
 10
126.9190731699
 20
1170.9560722893
 40
0.34
100
AcDbArc
 50
339.9223576595
 51
50.3503606717
  0
ARC
  5
739
100
AcDbEntity
  8
91324206R00_BL28
100
AcDbCircle
 62
7
  6
CONTINUOUS
 10
126.6596012954
 20
1173.1502118472
 40
0.59
100
AcDbArc
 50
192.9620900983
 51
286.2006509181
  0
ARC
  5
73A
100
AcDbEntity
  8
91324206R00_BL28
100
AcDbCircle
 62
7
  6
CONTINUOUS
 10
126.9190731699
 20
1172.2571416672
 40
0.34
100
AcDbArc
 50
309.6496393283
 51
20.3768601608
  0
ARC
  5
73B
100
AcDbEntity
  8
91324206R00_BL28
100
AcDbCircle
 62
7
  6
CONTINUOUS
 10
126.9190731699
 20
1172.2571416672
 40
0.34
100
AcDbArc
 50
44.6349631418
 51
106.2006509182
  0
ARC
  5
73C
100
AcDbEntity
  8
91324206R00_BL28
100
AcDbCircle
 62
7
  6
CONTINUOUS
 10
127.458192271
 20
1171.6066069783
 40
0.5048933582
100
AcDbArc
 50
129.6496393284
 51
230.3503606716
  0
ENDBLK
  5
73D
100
AcDbEntity
  8
0
  6
BYBLOCK
 62
0
100
AcDbBlockEnd
  0
BLOCK
  5
73E
100
AcDbEntity
  8
91324206R00_BL29
100
AcDbBlockBegin
  2
91324206R00_BL29
 70
64
 10
125.7532989129
 20
1224.1066069783
  3
91324206R00_BL29
  1

  0
ARC
  5
73F
100
AcDbEntity
  8
91324206R00_BL29
100
AcDbCircle
 62
7
  6
CONTINUOUS
 10
124.8469965303
 20
1222.5630021094
 40
0.59
100
AcDbArc
 50
12.9620900982
 51
106.2006509182
  0
ARC
  5
740
100
AcDbEntity
  8
91324206R00_BL29
100
AcDbCircle
 62
7
  6
CONTINUOUS
 10
124.8469965303
 20
1225.6502118472
 40
0.59
100
AcDbArc
 50
253.7993490818
 51
347.0379099017
  0
ARC
  5
741
100
AcDbEntity
  8
91324206R00_BL29
100
AcDbCircle
 62
7
  6
CONTINUOUS
 10
124.0484055547
 20
1224.1066069783
 40
0.5048933582
100
AcDbArc
 50
309.6496393283
 51
50.3503606716
  0
ARC
  5
742
100
AcDbEntity
  8
91324206R00_BL29
100
AcDbCircle
 62
7
  6
CONTINUOUS
 10
124.5875246558
 20
1223.4560722893
 40
0.34
100
AcDbArc
 50
129.6496393285
 51
200.3768601609
  0
ARC
  5
743
100
AcDbEntity
  8
91324206R00_BL29
100
AcDbCircle
 62
7
  6
CONTINUOUS
 10
124.5875246558
 20
1223.4560722893
 40
0.34
100
AcDbArc
 50
224.6349631417
 51
286.200650918
  0
ARC
  5
744
100
AcDbEntity
  8
91324206R00_BL29
100
AcDbCircle
 62
7
  6
CONTINUOUS
 10
124.5875246558
 20
1224.7571416672
 40
0.34
100
AcDbArc
 50
73.7993490819
 51
135.3499645032
  0
ARC
  5
745
100
AcDbEntity
  8
91324206R00_BL29
100
AcDbCircle
 62
7
  6
CONTINUOUS
 10
124.5875246558
 20
1224.7571416672
 40
0.34
100
AcDbArc
 50
159.9223576597
 51
230.3503606716
  0
CIRCLE
  5
746
100
AcDbEntity
  8
91324206R00_BL29
100
AcDbCircle
 62
7
  6
CONTINUOUS
 10
125.7532989129
 20
1224.1066069783
 40
3.75
  0
CIRCLE
  5
747
100
AcDbEntity
  8
91324206R00_BL29
100
AcDbCircle
 62
7
  6
CONTINUOUS
 10
125.7532989129
 20
1224.1066069783
 40
1.675
  0
ARC
  5
748
100
AcDbEntity
  8
91324206R00_BL29
100
AcDbCircle
 62
7
  6
CONTINUOUS
 10
125.7532989129
 20
1225.4416069783
 40
0.34
100
AcDbArc
 50
12.9620900982
 51
76.3581162113
  0
ARC
  5
749
100
AcDbEntity
  8
91324206R00_BL29
100
AcDbCircle
 62
7
  6
CONTINUOUS
 10
125.7532989129
 20
1225.4416069783
 40
0.34
100
AcDbArc
 50
103.5069100041
 51
167.0379099018
  0
ARC
  5
74A
100
AcDbEntity
  8
91324206R00_BL29
100
AcDbCircle
 62
7
  6
CONTINUOUS
 10
125.7532989129
 20
1222.7716069783
 40
0.34
100
AcDbArc
 50
192.9620900983
 51
256.3581162112
  0
ARC
  5
74B
100
AcDbEntity
  8
91324206R00_BL29
100
AcDbCircle
 62
7
  6
CONTINUOUS
 10
125.7532989129
 20
1222.7716069783
 40
0.34
100
AcDbArc
 50
283.5069100039
 51
347.0379099016
  0
ARC
  5
74C
100
AcDbEntity
  8
91324206R00_BL29
100
AcDbCircle
 62
7
  6
CONTINUOUS
 10
126.6596012954
 20
1225.6502118472
 40
0.59
100
AcDbArc
 50
192.9620900983
 51
286.2006509181
  0
ARC
  5
74D
100
AcDbEntity
  8
91324206R00_BL29
100
AcDbCircle
 62
7
  6
CONTINUOUS
 10
126.6596012954
 20
1222.5630021094
 40
0.59
100
AcDbArc
 50
73.7993490819
 51
167.0379099018
  0
ARC
  5
74E
100
AcDbEntity
  8
91324206R00_BL29
100
AcDbCircle
 62
7
  6
CONTINUOUS
 10
126.9190731699
 20
1224.7571416672
 40
0.34
100
AcDbArc
 50
309.6496393283
 51
20.3768601608
  0
ARC
  5
74F
100
AcDbEntity
  8
91324206R00_BL29
100
AcDbCircle
 62
7
  6
CONTINUOUS
 10
126.9190731699
 20
1224.7571416672
 40
0.34
100
AcDbArc
 50
44.6349631418
 51
106.2006509182
  0
ARC
  5
750
100
AcDbEntity
  8
91324206R00_BL29
100
AcDbCircle
 62
7
  6
CONTINUOUS
 10
126.9190731699
 20
1223.4560722893
 40
0.34
100
AcDbArc
 50
253.7993490818
 51
315.349964503
  0
ARC
  5
751
100
AcDbEntity
  8
91324206R00_BL29
100
AcDbCircle
 62
7
  6
CONTINUOUS
 10
126.9190731699
 20
1223.4560722893
 40
0.34
100
AcDbArc
 50
339.9223576595
 51
50.3503606717
  0
ARC
  5
752
100
AcDbEntity
  8
91324206R00_BL29
100
AcDbCircle
 62
7
  6
CONTINUOUS
 10
127.458192271
 20
1224.1066069783
 40
0.5048933582
100
AcDbArc
 50
129.6496393284
 51
230.3503606716
  0
ENDBLK
  5
753
100
AcDbEntity
  8
0
  6
BYBLOCK
 62
0
100
AcDbBlockEnd
  0
BLOCK
  5
754
100
AcDbEntity
  8
0
100
AcDbBlockBegin
  2
_FILLED
 70
64
 10
0.0
 20
0.0
  3
_FILLED
  1

  0
SOLID
  5
755
100
AcDbEntity
  8
0
  6
BYBLOCK
 62
0
100
AcDbTrace
 10
0.0
 20
0.0
 11
-1.0
 21
0.1428571429
 12
-1.0
 22
-0.1428571429
 13
-1.0
 23
-0.1428571429
  0
ENDBLK
  5
756
100
AcDbEntity
  8
0
  6
BYBLOCK
 62
0
100
AcDbBlockEnd
  0
BLOCK
  5
757
100
AcDbEntity
  8
0
100
AcDbBlockBegin
 62
2
  6
CONTINUOUS
  2
*D0
 70
65
 10
0.0
 20
0.0
  3
*D0
  1

  0
TEXT
  5
758
100
AcDbEntity
  8
0
100
AcDbText
 62
5
  6
CONTINUOUS
 10
46.2250424036
 20
410.9142277961
  7
STANDARD
 40
2.5
  1
74
 50
90.0
 72
5
 11
46.2250424036
 21
414.7989861604
100
AcDbText
  0
LINE
  5
759
100
AcDbEntity
  8
0
100
AcDbLine
 62
2
  6
CONTINUOUS
 10
25.6716536065
 20
449.8566069783
 11
47.8500424036
 21
449.8566069783
  0
LINE
  5
75A
100
AcDbEntity
  8
0
100
AcDbLine
 62
2
  6
CONTINUOUS
 10
25.7344882401
 20
375.8566069783
 11
47.8500424036
 21
375.8566069783
  0
LINE
  5
75B
100
AcDbEntity
  8
0
100
AcDbLine
 62
2
  6
CONTINUOUS
 10
46.8500424036
 20
449.8566069783
 11
46.8500424036
 21
412.8566069783
  0
LINE
  5
75C
100
AcDbEntity
  8
0
100
AcDbLine
 62
2
  6
CONTINUOUS
 10
46.8500424036
 20
375.8566069783
 11
46.8500424036
 21
412.8566069783
  0
INSERT
  5
75D
100
AcDbEntity
  8
0
100
AcDbBlockReference
 62
2
  6
CONTINUOUS
  2
_FILLED
 10
46.8500424036
 20
449.8566069783
 41
3.5
 42
3.5
 43
3.5
 50
90.0
  0
INSERT
  5
75E
100
AcDbEntity
  8
0
100
AcDbBlockReference
 62
2
  6
CONTINUOUS
  2
_FILLED
 10
46.8500424036
 20
375.8566069783
 41
3.5
 42
3.5
 43
3.5
 50
270.0
  0
ENDBLK
  5
75F
100
AcDbEntity
  8
0
  6
BYBLOCK
 62
0
100
AcDbBlockEnd
  0
BLOCK
  5
760
100
AcDbEntity
  8
0
100
AcDbBlockBegin
 62
2
  6
CONTINUOUS
  2
*D1
 70
65
 10
0.0
 20
0.0
  3
*D1
  1

  0
TEXT
  5
761
100
AcDbEntity
  8
0
100
AcDbText
 62
5
  6
CONTINUOUS
 10
46.2250424036
 20
1900.9142277961
  7
STANDARD
 40
2.5
  1
74
 50
90.0
 72
5
 11
46.2250424036
 21
1904.7989861604
100
AcDbText
  0
LINE
  5
762
100
AcDbEntity
  8
0
100
AcDbLine
 62
2
  6
CONTINUOUS
 10
25.9345318417
 20
1939.8566069783
 11
47.8500424036
 21
1939.8566069783
  0
LINE
  5
763
100
AcDbEntity
  8
0
100
AcDbLine
 62
2
  6
CONTINUOUS
 10
25.7330176832
 20
1865.8566069783
 11
47.8500424036
 21
1865.8566069783
  0
LINE
  5
764
100
AcDbEntity
  8
0
100
AcDbLine
 62
2
  6
CONTINUOUS
 10
46.8500424036
 20
1939.8566069783
 11
46.8500424036
 21
1902.8566069783
  0
LINE
  5
765
100
AcDbEntity
  8
0
100
AcDbLine
 62
2
  6
CONTINUOUS
 10
46.8500424036
 20
1865.8566069783
 11
46.8500424036
 21
1902.8566069783
  0
INSERT
  5
766
100
AcDbEntity
  8
0
100
AcDbBlockReference
 62
2
  6
CONTINUOUS
  2
_FILLED
 10
46.8500424036
 20
1939.8566069783
 41
3.5
 42
3.5
 43
3.5
 50
90.0
  0
INSERT
  5
767
100
AcDbEntity
  8
0
100
AcDbBlockReference
 62
2
  6
CONTINUOUS
  2
_FILLED
 10
46.8500424036
 20
1865.8566069783
 41
3.5
 42
3.5
 43
3.5
 50
270.0
  0
ENDBLK
  5
768
100
AcDbEntity
  8
0
  6
BYBLOCK
 62
0
100
AcDbBlockEnd
  0
BLOCK
  5
769
100
AcDbEntity
  8
0
100
AcDbBlockBegin
 62
2
  6
CONTINUOUS
  2
*D2
 70
65
 10
0.0
 20
0.0
  3
*D2
  1

  0
TEXT
  5
76A
100
AcDbEntity
  8
0
100
AcDbText
 62
5
  6
CONTINUOUS
 10
46.2250424036
 20
2192.9430382051
  7
STANDARD
 40
2.5
  1
512
 50
90.0
 72
5
 11
46.2250424036
 21
2198.7701757515
100
AcDbText
  0
LINE
  5
76B
100
AcDbEntity
  8
0
100
AcDbLine
 62
2
  6
CONTINUOUS
 10
25.6500424036
 20
2451.8566069783
 11
47.8500424036
 21
2451.8566069783
  0
LINE
  5
76C
100
AcDbEntity
  8
0
100
AcDbLine
 62
2
  6
CONTINUOUS
 10
25.7330176832
 20
1939.8566069783
 11
47.8500424036
 21
1939.8566069783
  0
LINE
  5
76D
100
AcDbEntity
  8
0
100
AcDbLine
 62
2
  6
CONTINUOUS
 10
46.8500424036
 20
2451.8566069783
 11
46.8500424036
 21
2195.8566069783
  0
LINE
  5
76E
100
AcDbEntity
  8
0
100
AcDbLine
 62
2
  6
CONTINUOUS
 10
46.8500424036
 20
1939.8566069783
 11
46.8500424036
 21
2195.8566069783
  0
INSERT
  5
76F
100
AcDbEntity
  8
0
100
AcDbBlockReference
 62
2
  6
CONTINUOUS
  2
_FILLED
 10
46.8500424036
 20
2451.8566069783
 41
3.5
 42
3.5
 43
3.5
 50
90.0
  0
INSERT
  5
770
100
AcDbEntity
  8
0
100
AcDbBlockReference
 62
2
  6
CONTINUOUS
  2
_FILLED
 10
46.8500424036
 20
1939.8566069783
 41
3.5
 42
3.5
 43
3.5
 50
270.0
  0
ENDBLK
  5
771
100
AcDbEntity
  8
0
  6
BYBLOCK
 62
0
100
AcDbBlockEnd
  0
BLOCK
  5
772
100
AcDbEntity
  8
0
100
AcDbBlockBegin
 62
2
  6
CONTINUOUS
  2
*D3
 70
65
 10
0.0
 20
0.0
  3
*D3
  1

  0
TEXT
  5
773
100
AcDbEntity
  8
0
100
AcDbText
 62
5
  6
CONTINUOUS
 10
21.6788528125
 20
2462.4816069783
  7
STANDARD
 40
2.5
  1
6
 72
5
 11
23.6212319946
 21
2462.4816069783
100
AcDbText
  0
LINE
  5
774
100
AcDbEntity
  8
0
100
AcDbLine
 62
2
  6
CONTINUOUS
 10
19.6500424036
 20
2451.8566069783
 11
19.6500424036
 21
2462.8566069783
  0
LINE
  5
775
100
AcDbEntity
  8
0
100
AcDbLine
 62
2
  6
CONTINUOUS
 10
25.6500424036
 20
2451.8566069783
 11
25.6500424036
 21
2462.8566069783
  0
LINE
  5
776
100
AcDbEntity
  8
0
100
AcDbLine
 62
2
  6
CONTINUOUS
 10
19.6500424036
 20
2461.8566069783
 11
12.6500424036
 21
2461.8566069783
  0
LINE
  5
777
100
AcDbEntity
  8
0
100
AcDbLine
 62
2
  6
CONTINUOUS
 10
12.6500424036
 20
2461.8566069783
 11
22.6500424036
 21
2461.8566069783
  0
LINE
  5
778
100
AcDbEntity
  8
0
100
AcDbLine
 62
2
  6
CONTINUOUS
 10
25.6500424036
 20
2461.8566069783
 11
32.6500424036
 21
2461.8566069783
  0
LINE
  5
779
100
AcDbEntity
  8
0
100
AcDbLine
 62
2
  6
CONTINUOUS
 10
32.6500424036
 20
2461.8566069783
 11
22.6500424036
 21
2461.8566069783
  0
INSERT
  5
77A
100
AcDbEntity
  8
0
100
AcDbBlockReference
 62
2
  6
CONTINUOUS
  2
_FILLED
 10
19.6500424036
 20
2461.8566069783
 41
3.5
 42
3.5
 43
3.5
  0
INSERT
  5
77B
100
AcDbEntity
  8
0
100
AcDbBlockReference
 62
2
  6
CONTINUOUS
  2
_FILLED
 10
25.6500424036
 20
2461.8566069783
 41
3.5
 42
3.5
 43
3.5
 50
180.0
  0
ENDBLK
  5
77C
100
AcDbEntity
  8
0
  6
BYBLOCK
 62
0
100
AcDbBlockEnd
  0
BLOCK
  5
77D
100
AcDbEntity
  8
0
100
AcDbBlockBegin
 62
2
  6
CONTINUOUS
  2
*D4
 70
65
 10
0.0
 20
0.0
  3
*D4
  1

  0
TEXT
  5
77E
100
AcDbEntity
  8
0
100
AcDbText
 62
5
  6
CONTINUOUS
 10
120.8109197307
 20
2469.4816069783
  7
STANDARD
 40
2.5
  1
30
 72
5
 11
124.695678095
 21
2469.4816069783
100
AcDbText
  0
LINE
  5
77F
100
AcDbEntity
  8
0
100
AcDbLine
 62
2
  6
CONTINUOUS
 10
137.7532989129
 20
2451.8566069783
 11
137.7532989129
 21
2469.8566069783
  0
LINE
  5
780
100
AcDbEntity
  8
0
100
AcDbLine
 62
2
  6
CONTINUOUS
 10
107.7532989129
 20
2451.8566069783
 11
107.7532989129
 21
2469.8566069783
  0
LINE
  5
781
100
AcDbEntity
  8
0
100
AcDbLine
 62
2
  6
CONTINUOUS
 10
137.7532989129
 20
2468.8566069783
 11
122.7532989129
 21
2468.8566069783
  0
LINE
  5
782
100
AcDbEntity
  8
0
100
AcDbLine
 62
2
  6
CONTINUOUS
 10
107.7532989129
 20
2468.8566069783
 11
122.7532989129
 21
2468.8566069783
  0
INSERT
  5
783
100
AcDbEntity
  8
0
100
AcDbBlockReference
 62
2
  6
CONTINUOUS
  2
_FILLED
 10
137.7532989129
 20
2468.8566069783
 41
3.5
 42
3.5
 43
3.5
  0
INSERT
  5
784
100
AcDbEntity
  8
0
100
AcDbBlockReference
 62
2
  6
CONTINUOUS
  2
_FILLED
 10
107.7532989129
 20
2468.8566069783
 41
3.5
 42
3.5
 43
3.5
 50
180.0
  0
ENDBLK
  5
785
100
AcDbEntity
  8
0
  6
BYBLOCK
 62
0
100
AcDbBlockEnd
  0
BLOCK
  5
786
100
AcDbEntity
  8
0
100
AcDbBlockBegin
 62
2
  6
CONTINUOUS
  2
*D5
 70
65
 10
0.0
 20
0.0
  3
*D5
  1

  0
TEXT
  5
787
100
AcDbEntity
  8
0
100
AcDbText
 62
5
  6
CONTINUOUS
 10
46.2250424036
 20
255.9430382051
  7
STANDARD
 40
2.5
  1
234
 50
90.0
 72
5
 11
46.2250424036
 21
261.7701757515
100
AcDbText
  0
LINE
  5
788
100
AcDbEntity
  8
0
100
AcDbLine
 62
2
  6
CONTINUOUS
 10
25.6829006155
 20
375.8566069783
 11
47.8500424036
 21
375.8566069783
  0
LINE
  5
789
100
AcDbEntity
  8
0
100
AcDbLine
 62
2
  6
CONTINUOUS
 10
25.6500424036
 20
141.8566069783
 11
47.8500424036
 21
141.8566069783
  0
LINE
  5
78A
100
AcDbEntity
  8
0
100
AcDbLine
 62
2
  6
CONTINUOUS
 10
46.8500424036
 20
375.8566069783
 11
46.8500424036
 21
258.8566069783
  0
LINE
  5
78B
100
AcDbEntity
  8
0
100
AcDbLine
 62
2
  6
CONTINUOUS
 10
46.8500424036
 20
141.8566069783
 11
46.8500424036
 21
258.8566069783
  0
INSERT
  5
78C
100
AcDbEntity
  8
0
100
AcDbBlockReference
 62
2
  6
CONTINUOUS
  2
_FILLED
 10
46.8500424036
 20
375.8566069783
 41
3.5
 42
3.5
 43
3.5
 50
90.0
  0
INSERT
  5
78D
100
AcDbEntity
  8
0
100
AcDbBlockReference
 62
2
  6
CONTINUOUS
  2
_FILLED
 10
46.8500424036
 20
141.8566069783
 41
3.5
 42
3.5
 43
3.5
 50
270.0
  0
ENDBLK
  5
78E
100
AcDbEntity
  8
0
  6
BYBLOCK
 62
0
100
AcDbBlockEnd
  0
BLOCK
  5
78F
100
AcDbEntity
  8
0
100
AcDbBlockBegin
 62
2
  6
CONTINUOUS
  2
*D6
 70
65
 10
0.0
 20
0.0
  3
*D6
  1

  0
TEXT
  5
790
100
AcDbEntity
  8
0
100
AcDbText
 62
5
  6
CONTINUOUS
 10
46.2250424036
 20
115.5504988006
  7
STANDARD
 40
2.5
  1
2
 50
90.0
 72
5
 11
46.2250424036
 21
117.4928779827
100
AcDbText
  0
LINE
  5
791
100
AcDbEntity
  8
0
100
AcDbLine
 62
2
  6
CONTINUOUS
 10
25.6500424036
 20
108.9377652444
 11
47.8500424036
 21
108.9377652444
  0
LINE
  5
792
100
AcDbEntity
  8
0
100
AcDbLine
 62
2
  6
CONTINUOUS
 10
25.6500424036
 20
110.9377652444
 11
47.8500424036
 21
110.9377652444
  0
LINE
  5
793
100
AcDbEntity
  8
0
100
AcDbLine
 62
2
  6
CONTINUOUS
 10
46.8500424036
 20
108.9377652444
 11
46.8500424036
 21
101.9377652444
  0
LINE
  5
794
100
AcDbEntity
  8
0
100
AcDbLine
 62
2
  6
CONTINUOUS
 10
46.8500424036
 20
101.9377652444
 11
46.8500424036
 21
109.9377652444
  0
LINE
  5
795
100
AcDbEntity
  8
0
100
AcDbLine
 62
2
  6
CONTINUOUS
 10
46.8500424036
 20
110.9377652444
 11
46.8500424036
 21
117.4928779827
  0
LINE
  5
796
100
AcDbEntity
  8
0
100
AcDbLine
 62
2
  6
CONTINUOUS
 10
46.8500424036
 20
117.4928779827
 11
46.8500424036
 21
109.9377652444
  0
INSERT
  5
797
100
AcDbEntity
  8
0
100
AcDbBlockReference
 62
2
  6
CONTINUOUS
  2
_FILLED
 10
46.8500424036
 20
108.9377652444
 41
3.5
 42
3.5
 43
3.5
 50
90.0
  0
INSERT
  5
798
100
AcDbEntity
  8
0
100
AcDbBlockReference
 62
2
  6
CONTINUOUS
  2
_FILLED
 10
46.8500424036
 20
110.9377652444
 41
3.5
 42
3.5
 43
3.5
 50
270.0
  0
ENDBLK
  5
799
100
AcDbEntity
  8
0
  6
BYBLOCK
 62
0
100
AcDbBlockEnd
  0
BLOCK
  5
79A
100
AcDbEntity
  8
0
100
AcDbBlockBegin
 62
2
  6
CONTINUOUS
  2
*D7
 70
65
 10
0.0
 20
0.0
  3
*D7
  1

  0
TEXT
  5
79B
100
AcDbEntity
  8
0
100
AcDbText
 62
5
  6
CONTINUOUS
 10
53.2250424036
 20
88.9953860622
  7
STANDARD
 40
2.5
  1
16
 50
90.0
 72
5
 11
53.2250424036
 21
92.8801444265
100
AcDbText
  0
LINE
  5
79C
100
AcDbEntity
  8
0
100
AcDbLine
 62
2
  6
CONTINUOUS
 10
25.6500424036
 20
82.9377652444
 11
54.8500424036
 21
82.9377652444
  0
LINE
  5
79D
100
AcDbEntity
  8
0
100
AcDbLine
 62
2
  6
CONTINUOUS
 10
23.7500424036
 20
98.9377652444
 11
54.8500424036
 21
98.9377652444
  0
LINE
  5
79E
100
AcDbEntity
  8
0
100
AcDbLine
 62
2
  6
CONTINUOUS
 10
53.8500424036
 20
82.9377652444
 11
53.8500424036
 21
90.9377652444
  0
LINE
  5
79F
100
AcDbEntity
  8
0
100
AcDbLine
 62
2
  6
CONTINUOUS
 10
53.8500424036
 20
98.9377652444
 11
53.8500424036
 21
90.9377652444
  0
INSERT
  5
7A0
100
AcDbEntity
  8
0
100
AcDbBlockReference
 62
2
  6
CONTINUOUS
  2
_FILLED
 10
53.8500424036
 20
82.9377652444
 41
3.5
 42
3.5
 43
3.5
 50
270.0
  0
INSERT
  5
7A1
100
AcDbEntity
  8
0
100
AcDbBlockReference
 62
2
  6
CONTINUOUS
  2
_FILLED
 10
53.8500424036
 20
98.9377652444
 41
3.5
 42
3.5
 43
3.5
 50
90.0
  0
ENDBLK
  5
7A2
100
AcDbEntity
  8
0
  6
BYBLOCK
 62
0
100
AcDbBlockEnd
  0
BLOCK
  5
7A3
100
AcDbEntity
  8
0
100
AcDbBlockBegin
 62
2
  6
CONTINUOUS
  2
*D8
 70
65
 10
0.0
 20
0.0
  3
*D8
  1

  0
TEXT
  5
7A4
100
AcDbEntity
  8
0
100
AcDbText
 62
5
  6
CONTINUOUS
 10
24.4278563585
 20
121.5627652444
  7
STANDARD
 40
2.5
  1
2
 72
5
 11
26.3702355407
 21
121.5627652444
100
AcDbText
  0
LINE
  5
7A5
100
AcDbEntity
  8
0
100
AcDbLine
 62
2
  6
CONTINUOUS
 10
19.6500424036
 20
107.9377652444
 11
19.6500424036
 21
121.9377652444
  0
LINE
  5
7A6
100
AcDbEntity
  8
0
100
AcDbLine
 62
2
  6
CONTINUOUS
 10
17.6500424036
 20
98.6377652444
 11
17.6500424036
 21
121.9377652444
  0
LINE
  5
7A7
100
AcDbEntity
  8
0
100
AcDbLine
 62
2
  6
CONTINUOUS
 10
19.6500424036
 20
120.9377652444
 11
26.3702355407
 21
120.9377652444
  0
LINE
  5
7A8
100
AcDbEntity
  8
0
100
AcDbLine
 62
2
  6
CONTINUOUS
 10
26.3702355407
 20
120.9377652444
 11
18.6500424036
 21
120.9377652444
  0
LINE
  5
7A9
100
AcDbEntity
  8
0
100
AcDbLine
 62
2
  6
CONTINUOUS
 10
17.6500424036
 20
120.9377652444
 11
10.6500424036
 21
120.9377652444
  0
LINE
  5
7AA
100
AcDbEntity
  8
0
100
AcDbLine
 62
2
  6
CONTINUOUS
 10
10.6500424036
 20
120.9377652444
 11
18.6500424036
 21
120.9377652444
  0
INSERT
  5
7AB
100
AcDbEntity
  8
0
100
AcDbBlockReference
 62
2
  6
CONTINUOUS
  2
_FILLED
 10
19.6500424036
 20
120.9377652444
 41
3.5
 42
3.5
 43
3.5
 50
180.0
  0
INSERT
  5
7AC
100
AcDbEntity
  8
0
100
AcDbBlockReference
 62
2
  6
CONTINUOUS
  2
_FILLED
 10
17.6500424036
 20
120.9377652444
 41
3.5
 42
3.5
 43
3.5
  0
ENDBLK
  5
7AD
100
AcDbEntity
  8
0
  6
BYBLOCK
 62
0
100
AcDbBlockEnd
  0
BLOCK
  5
7AE
100
AcDbEntity
  8
0
100
AcDbBlockBegin
 62
2
  6
CONTINUOUS
  2
*D9
 70
65
 10
0.0
 20
0.0
  3
*D9
  1

  0
TEXT
  5
7AF
100
AcDbEntity
  8
0
100
AcDbText
 62
5
  6
CONTINUOUS
 10
27.3219559127
 20
359.6778017369
  7
STANDARD
 40
2.5
  1
17
 72
5
 11
31.206714277
 21
359.6778017369
100
AcDbText
  0
LINE
  5
7B0
100
AcDbEntity
  8
0
100
AcDbLine
 62
2
  6
CONTINUOUS
 10
36.6500424036
 20
396.5037572286
 11
36.6500424036
 21
358.0528017369
  0
LINE
  5
7B1
100
AcDbEntity
  8
0
100
AcDbLine
 62
2
  6
CONTINUOUS
 10
19.6500424036
 20
360.7066069783
 11
19.6500424036
 21
358.0528017369
  0
LINE
  5
7B2
100
AcDbEntity
  8
0
100
AcDbLine
 62
2
  6
CONTINUOUS
 10
36.6500424036
 20
359.0528017369
 11
28.1500424036
 21
359.0528017369
  0
LINE
  5
7B3
100
AcDbEntity
  8
0
100
AcDbLine
 62
2
  6
CONTINUOUS
 10
19.6500424036
 20
359.0528017369
 11
28.1500424036
 21
359.0528017369
  0
INSERT
  5
7B4
100
AcDbEntity
  8
0
100
AcDbBlockReference
 62
2
  6
CONTINUOUS
  2
_FILLED
 10
36.6500424036
 20
359.0528017369
 41
3.5
 42
3.5
 43
3.5
  0
INSERT
  5
7B5
100
AcDbEntity
  8
0
100
AcDbBlockReference
 62
2
  6
CONTINUOUS
  2
_FILLED
 10
19.6500424036
 20
359.0528017369
 41
3.5
 42
3.5
 43
3.5
 50
180.0
  0
ENDBLK
  5
7B6
100
AcDbEntity
  8
0
  6
BYBLOCK
 62
0
100
AcDbBlockEnd
  0
BLOCK
  5
7B7
100
AcDbEntity
  8
0
100
AcDbBlockBegin
 62
2
  6
CONTINUOUS
  2
*D10
 70
65
 10
0.0
 20
0.0
  3
*D10
  1

  0
TEXT
  5
7B8
100
AcDbEntity
  8
0
100
AcDbText
 62
5
  6
CONTINUOUS
 10
69.1282989129
 20
1292.971848614
  7
STANDARD
 40
2.5
  1
2310
 50
90.0
 72
5
 11
69.1282989129
 21
1300.7413653426
100
AcDbText
  0
LINE
  5
7B9
100
AcDbEntity
  8
0
100
AcDbLine
 62
2
  6
CONTINUOUS
 10
110.7532989129
 20
141.8566069783
 11
68.7532989129
 21
141.8566069783
  0
LINE
  5
7BA
100
AcDbEntity
  8
0
100
AcDbLine
 62
2
  6
CONTINUOUS
 10
110.7532989129
 20
2451.8566069783
 11
68.7532989129
 21
2451.8566069783
  0
LINE
  5
7BB
100
AcDbEntity
  8
0
100
AcDbLine
 62
2
  6
CONTINUOUS
 10
69.7532989129
 20
141.8566069783
 11
69.7532989129
 21
1296.8566069783
  0
LINE
  5
7BC
100
AcDbEntity
  8
0
100
AcDbLine
 62
2
  6
CONTINUOUS
 10
69.7532989129
 20
2451.8566069783
 11
69.7532989129
 21
1296.8566069783
  0
INSERT
  5
7BD
100
AcDbEntity
  8
0
100
AcDbBlockReference
 62
2
  6
CONTINUOUS
  2
_FILLED
 10
69.7532989129
 20
141.8566069783
 41
3.5
 42
3.5
 43
3.5
 50
270.0
  0
INSERT
  5
7BE
100
AcDbEntity
  8
0
100
AcDbBlockReference
 62
2
  6
CONTINUOUS
  2
_FILLED
 10
69.7532989129
 20
2451.8566069783
 41
3.5
 42
3.5
 43
3.5
 50
90.0
  0
ENDBLK
  5
7BF
100
AcDbEntity
  8
0
  6
BYBLOCK
 62
0
100
AcDbBlockEnd
  0
BLOCK
  5
7C0
100
AcDbEntity
  8
0
100
AcDbBlockBegin
 62
2
  6
CONTINUOUS
  2
*D11
 70
65
 10
0.0
 20
0.0
  3
*D11
  1

  0
TEXT
  5
7C1
100
AcDbEntity
  8
0
100
AcDbText
 62
5
  6
CONTINUOUS
 10
76.1282989129
 20
653.471848614
  7
STANDARD
 40
2.5
  1
1031
 50
90.0
 72
5
 11
76.1282989129
 21
661.2413653426
100
AcDbText
  0
LINE
  5
7C2
100
AcDbEntity
  8
0
100
AcDbLine
 62
2
  6
CONTINUOUS
 10
106.2956349588
 20
1172.8566069783
 11
75.7532989129
 21
1172.8566069783
  0
LINE
  5
7C3
100
AcDbEntity
  8
0
100
AcDbLine
 62
2
  6
CONTINUOUS
 10
110.7532989129
 20
141.8566069783
 11
75.7532989129
 21
141.8566069783
  0
LINE
  5
7C4
100
AcDbEntity
  8
0
100
AcDbLine
 62
2
  6
CONTINUOUS
 10
76.7532989129
 20
1172.8566069783
 11
76.7532989129
 21
657.3566069783
  0
LINE
  5
7C5
100
AcDbEntity
  8
0
100
AcDbLine
 62
2
  6
CONTINUOUS
 10
76.7532989129
 20
141.8566069783
 11
76.7532989129
 21
657.3566069783
  0
INSERT
  5
7C6
100
AcDbEntity
  8
0
100
AcDbBlockReference
 62
2
  6
CONTINUOUS
  2
_FILLED
 10
76.7532989129
 20
1172.8566069783
 41
3.5
 42
3.5
 43
3.5
 50
90.0
  0
INSERT
  5
7C7
100
AcDbEntity
  8
0
100
AcDbBlockReference
 62
2
  6
CONTINUOUS
  2
_FILLED
 10
76.7532989129
 20
141.8566069783
 41
3.5
 42
3.5
 43
3.5
 50
270.0
  0
ENDBLK
  5
7C8
100
AcDbEntity
  8
0
  6
BYBLOCK
 62
0
100
AcDbBlockEnd
  0
BLOCK
  5
7C9
100
AcDbEntity
  8
0
100
AcDbBlockBegin
 62
2
  6
CONTINUOUS
  2
*D12
 70
65
 10
0.0
 20
0.0
  3
*D12
  1

  0
TEXT
  5
7CA
100
AcDbEntity
  8
0
100
AcDbText
 62
5
  6
CONTINUOUS
 10
83.1282989129
 20
789.9430382051
  7
STANDARD
 40
2.5
  1
760
 50
90.0
 72
5
 11
83.1282989129
 21
795.7701757515
100
AcDbText
  0
LINE
  5
7CB
100
AcDbEntity
  8
0
100
AcDbLine
 62
2
  6
CONTINUOUS
 10
106.2956349588
 20
1172.8566069783
 11
82.7532989129
 21
1172.8566069783
  0
LINE
  5
7CC
100
AcDbEntity
  8
0
100
AcDbLine
 62
2
  6
CONTINUOUS
 10
114.7532989129
 20
412.8566069783
 11
82.7532989129
 21
412.8566069783
  0
LINE
  5
7CD
100
AcDbEntity
  8
0
100
AcDbLine
 62
2
  6
CONTINUOUS
 10
83.7532989129
 20
1172.8566069783
 11
83.7532989129
 21
792.8566069783
  0
LINE
  5
7CE
100
AcDbEntity
  8
0
100
AcDbLine
 62
2
  6
CONTINUOUS
 10
83.7532989129
 20
412.8566069783
 11
83.7532989129
 21
792.8566069783
  0
INSERT
  5
7CF
100
AcDbEntity
  8
0
100
AcDbBlockReference
 62
2
  6
CONTINUOUS
  2
_FILLED
 10
83.7532989129
 20
1172.8566069783
 41
3.5
 42
3.5
 43
3.5
 50
90.0
  0
INSERT
  5
7D0
100
AcDbEntity
  8
0
100
AcDbBlockReference
 62
2
  6
CONTINUOUS
  2
_FILLED
 10
83.7532989129
 20
412.8566069783
 41
3.5
 42
3.5
 43
3.5
 50
270.0
  0
ENDBLK
  5
7D1
100
AcDbEntity
  8
0
  6
BYBLOCK
 62
0
100
AcDbBlockEnd
  0
BLOCK
  5
7D2
100
AcDbEntity
  8
0
100
AcDbBlockBegin
 62
2
  6
CONTINUOUS
  2
*D13
 70
65
 10
0.0
 20
0.0
  3
*D13
  1

  0
TEXT
  5
7D3
100
AcDbEntity
  8
0
100
AcDbText
 62
5
  6
CONTINUOUS
 10
97.1282989129
 20
1534.9430382051
  7
STANDARD
 40
2.5
  1
730
 50
90.0
 72
5
 11
97.1282989129
 21
1540.7701757515
100
AcDbText
  0
LINE
  5
7D4
100
AcDbEntity
  8
0
100
AcDbLine
 62
2
  6
CONTINUOUS
 10
106.2956349588
 20
1172.8566069783
 11
96.7532989129
 21
1172.8566069783
  0
LINE
  5
7D5
100
AcDbEntity
  8
0
100
AcDbLine
 62
2
  6
CONTINUOUS
 10
114.7532989129
 20
1902.8566069783
 11
96.7532989129
 21
1902.8566069783
  0
LINE
  5
7D6
100
AcDbEntity
  8
0
100
AcDbLine
 62
2
  6
CONTINUOUS
 10
97.7532989129
 20
1172.8566069783
 11
97.7532989129
 21
1537.8566069783
  0
LINE
  5
7D7
100
AcDbEntity
  8
0
100
AcDbLine
 62
2
  6
CONTINUOUS
 10
97.7532989129
 20
1902.8566069783
 11
97.7532989129
 21
1537.8566069783
  0
INSERT
  5
7D8
100
AcDbEntity
  8
0
100
AcDbBlockReference
 62
2
  6
CONTINUOUS
  2
_FILLED
 10
97.7532989129
 20
1172.8566069783
 41
3.5
 42
3.5
 43
3.5
 50
270.0
  0
INSERT
  5
7D9
100
AcDbEntity
  8
0
100
AcDbBlockReference
 62
2
  6
CONTINUOUS
  2
_FILLED
 10
97.7532989129
 20
1902.8566069783
 41
3.5
 42
3.5
 43
3.5
 50
90.0
  0
ENDBLK
  5
7DA
100
AcDbEntity
  8
0
  6
BYBLOCK
 62
0
100
AcDbBlockEnd
  0
BLOCK
  5
7DB
100
AcDbEntity
  8
0
100
AcDbBlockBegin
 62
2
  6
CONTINUOUS
  2
*D14
 70
65
 10
0.0
 20
0.0
  3
*D14
  1

  0
TEXT
  5
7DC
100
AcDbEntity
  8
0
100
AcDbText
 62
5
  6
CONTINUOUS
 10
90.1282989129
 20
1137.9142277961
  7
STANDARD
 40
2.5
  1
66
 50
90.0
 72
5
 11
90.1282989129
 21
1141.7989861604
100
AcDbText
  0
LINE
  5
7DD
100
AcDbEntity
  8
0
100
AcDbLine
 62
2
  6
CONTINUOUS
 10
106.2956349588
 20
1172.8566069783
 11
89.7532989129
 21
1172.8566069783
  0
LINE
  5
7DE
100
AcDbEntity
  8
0
100
AcDbLine
 62
2
  6
CONTINUOUS
 10
118.8697770277
 20
1106.8566069783
 11
98.7687448962
 21
1106.8566069783
  0
LINE
  5
7DF
100
AcDbEntity
  8
0
100
AcDbLine
 62
2
  6
CONTINUOUS
 10
93.7767136391
 20
1106.8566069783
 11
89.7532989129
 21
1106.8566069783
  0
LINE
  5
7E0
100
AcDbEntity
  8
0
100
AcDbLine
 62
2
  6
CONTINUOUS
 10
90.7532989129
 20
1172.8566069783
 11
90.7532989129
 21
1139.8566069783
  0
LINE
  5
7E1
100
AcDbEntity
  8
0
100
AcDbLine
 62
2
  6
CONTINUOUS
 10
90.7532989129
 20
1106.8566069783
 11
90.7532989129
 21
1139.8566069783
  0
INSERT
  5
7E2
100
AcDbEntity
  8
0
100
AcDbBlockReference
 62
2
  6
CONTINUOUS
  2
_FILLED
 10
90.7532989129
 20
1172.8566069783
 41
3.5
 42
3.5
 43
3.5
 50
90.0
  0
INSERT
  5
7E3
100
AcDbEntity
  8
0
100
AcDbBlockReference
 62
2
  6
CONTINUOUS
  2
_FILLED
 10
90.7532989129
 20
1106.8566069783
 41
3.5
 42
3.5
 43
3.5
 50
270.0
  0
ENDBLK
  5
7E4
100
AcDbEntity
  8
0
  6
BYBLOCK
 62
0
100
AcDbBlockEnd
  0
BLOCK
  5
7E5
100
AcDbEntity
  8
0
100
AcDbBlockBegin
 62
2
  6
CONTINUOUS
  2
*D15
 70
65
 10
0.0
 20
0.0
  3
*D15
  1

  0
TEXT
  5
7E6
100
AcDbEntity
  8
0
100
AcDbText
 62
5
  6
CONTINUOUS
 10
147.1282989129
 20
1161.9142277961
  7
STANDARD
 40
2.5
  1
18
 50
90.0
 72
5
 11
147.1282989129
 21
1165.7989861604
100
AcDbText
  0
LINE
  5
7E7
100
AcDbEntity
  8
0
100
AcDbLine
 62
2
  6
CONTINUOUS
 10
139.1827456397
 20
1172.8566069783
 11
148.7532989129
 21
1172.8566069783
  0
LINE
  5
7E8
100
AcDbEntity
  8
0
100
AcDbLine
 62
2
  6
CONTINUOUS
 10
128.1532989129
 20
1154.8566069783
 11
148.7532989129
 21
1154.8566069783
  0
LINE
  5
7E9
100
AcDbEntity
  8
0
100
AcDbLine
 62
2
  6
CONTINUOUS
 10
147.7532989129
 20
1172.8566069783
 11
147.7532989129
 21
1163.8566069783
  0
LINE
  5
7EA
100
AcDbEntity
  8
0
100
AcDbLine
 62
2
  6
CONTINUOUS
 10
147.7532989129
 20
1154.8566069783
 11
147.7532989129
 21
1163.8566069783
  0
INSERT
  5
7EB
100
AcDbEntity
  8
0
100
AcDbBlockReference
 62
2
  6
CONTINUOUS
  2
_FILLED
 10
147.7532989129
 20
1172.8566069783
 41
3.5
 42
3.5
 43
3.5
 50
90.0
  0
INSERT
  5
7EC
100
AcDbEntity
  8
0
100
AcDbBlockReference
 62
2
  6
CONTINUOUS
  2
_FILLED
 10
147.7532989129
 20
1154.8566069783
 41
3.5
 42
3.5
 43
3.5
 50
270.0
  0
ENDBLK
  5
7ED
100
AcDbEntity
  8
0
  6
BYBLOCK
 62
0
100
AcDbBlockEnd
  0
BLOCK
  5
7EE
100
AcDbEntity
  8
0
100
AcDbBlockBegin
 62
2
  6
CONTINUOUS
  2
*D16
 70
65
 10
0.0
 20
0.0
  3
*D16
  1

  0
TEXT
  5
7EF
100
AcDbEntity
  8
0
100
AcDbText
 62
5
  6
CONTINUOUS
 10
154.1282989129
 20
1115.4430382051
  7
STANDARD
 40
2.5
  1
109
 50
90.0
 72
5
 11
154.1282989129
 21
1121.2701757515
100
AcDbText
  0
LINE
  5
7F0
100
AcDbEntity
  8
0
100
AcDbLine
 62
2
  6
CONTINUOUS
 10
139.1827456397
 20
1172.8566069783
 11
155.7532989129
 21
1172.8566069783
  0
LINE
  5
7F1
100
AcDbEntity
  8
0
100
AcDbLine
 62
2
  6
CONTINUOUS
 10
128.1532989129
 20
1063.8566069783
 11
155.7532989129
 21
1063.8566069783
  0
LINE
  5
7F2
100
AcDbEntity
  8
0
100
AcDbLine
 62
2
  6
CONTINUOUS
 10
154.7532989129
 20
1172.8566069783
 11
154.7532989129
 21
1118.3566069783
  0
LINE
  5
7F3
100
AcDbEntity
  8
0
100
AcDbLine
 62
2
  6
CONTINUOUS
 10
154.7532989129
 20
1063.8566069783
 11
154.7532989129
 21
1118.3566069783
  0
INSERT
  5
7F4
100
AcDbEntity
  8
0
100
AcDbBlockReference
 62
2
  6
CONTINUOUS
  2
_FILLED
 10
154.7532989129
 20
1172.8566069783
 41
3.5
 42
3.5
 43
3.5
 50
90.0
  0
INSERT
  5
7F5
100
AcDbEntity
  8
0
100
AcDbBlockReference
 62
2
  6
CONTINUOUS
  2
_FILLED
 10
154.7532989129
 20
1063.8566069783
 41
3.5
 42
3.5
 43
3.5
 50
270.0
  0
ENDBLK
  5
7F6
100
AcDbEntity
  8
0
  6
BYBLOCK
 62
0
100
AcDbBlockEnd
  0
BLOCK
  5
7F7
100
AcDbEntity
  8
0
100
AcDbBlockBegin
 62
2
  6
CONTINUOUS
  2
*D17
 70
65
 10
0.0
 20
0.0
  3
*D17
  1

  0
TEXT
  5
7F8
100
AcDbEntity
  8
0
100
AcDbText
 62
5
  6
CONTINUOUS
 10
161.1282989129
 20
963.4430382051
  7
STANDARD
 40
2.5
  1
413
 50
90.0
 72
5
 11
161.1282989129
 21
969.2701757515
100
AcDbText
  0
LINE
  5
7F9
100
AcDbEntity
  8
0
100
AcDbLine
 62
2
  6
CONTINUOUS
 10
139.1827456397
 20
1172.8566069783
 11
162.7532989129
 21
1172.8566069783
  0
LINE
  5
7FA
100
AcDbEntity
  8
0
100
AcDbLine
 62
2
  6
CONTINUOUS
 10
128.1532989129
 20
759.8566069783
 11
162.7532989129
 21
759.8566069783
  0
LINE
  5
7FB
100
AcDbEntity
  8
0
100
AcDbLine
 62
2
  6
CONTINUOUS
 10
161.7532989129
 20
1172.8566069783
 11
161.7532989129
 21
966.3566069783
  0
LINE
  5
7FC
100
AcDbEntity
  8
0
100
AcDbLine
 62
2
  6
CONTINUOUS
 10
161.7532989129
 20
759.8566069783
 11
161.7532989129
 21
966.3566069783
  0
INSERT
  5
7FD
100
AcDbEntity
  8
0
100
AcDbBlockReference
 62
2
  6
CONTINUOUS
  2
_FILLED
 10
161.7532989129
 20
1172.8566069783
 41
3.5
 42
3.5
 43
3.5
 50
90.0
  0
INSERT
  5
7FE
100
AcDbEntity
  8
0
100
AcDbBlockReference
 62
2
  6
CONTINUOUS
  2
_FILLED
 10
161.7532989129
 20
759.8566069783
 41
3.5
 42
3.5
 43
3.5
 50
270.0
  0
ENDBLK
  5
7FF
100
AcDbEntity
  8
0
  6
BYBLOCK
 62
0
100
AcDbBlockEnd
  0
BLOCK
  5
800
100
AcDbEntity
  8
0
100
AcDbBlockBegin
 62
2
  6
CONTINUOUS
  2
*D18
 70
65
 10
0.0
 20
0.0
  3
*D18
  1

  0
TEXT
  5
801
100
AcDbEntity
  8
0
100
AcDbText
 62
5
  6
CONTINUOUS
 10
168.1282989129
 20
813.9430382051
  7
STANDARD
 40
2.5
  1
712
 50
90.0
 72
5
 11
168.1282989129
 21
819.7701757515
100
AcDbText
  0
LINE
  5
802
100
AcDbEntity
  8
0
100
AcDbLine
 62
2
  6
CONTINUOUS
 10
139.1827456397
 20
1172.8566069783
 11
169.7532989129
 21
1172.8566069783
  0
LINE
  5
803
100
AcDbEntity
  8
0
100
AcDbLine
 62
2
  6
CONTINUOUS
 10
128.1532989129
 20
460.8566069783
 11
169.7532989129
 21
460.8566069783
  0
LINE
  5
804
100
AcDbEntity
  8
0
100
AcDbLine
 62
2
  6
CONTINUOUS
 10
168.7532989129
 20
1172.8566069783
 11
168.7532989129
 21
816.8566069783
  0
LINE
  5
805
100
AcDbEntity
  8
0
100
AcDbLine
 62
2
  6
CONTINUOUS
 10
168.7532989129
 20
460.8566069783
 11
168.7532989129
 21
816.8566069783
  0
INSERT
  5
806
100
AcDbEntity
  8
0
100
AcDbBlockReference
 62
2
  6
CONTINUOUS
  2
_FILLED
 10
168.7532989129
 20
1172.8566069783
 41
3.5
 42
3.5
 43
3.5
 50
90.0
  0
INSERT
  5
807
100
AcDbEntity
  8
0
100
AcDbBlockReference
 62
2
  6
CONTINUOUS
  2
_FILLED
 10
168.7532989129
 20
460.8566069783
 41
3.5
 42
3.5
 43
3.5
 50
270.0
  0
ENDBLK
  5
808
100
AcDbEntity
  8
0
  6
BYBLOCK
 62
0
100
AcDbBlockEnd
  0
BLOCK
  5
809
100
AcDbEntity
  8
0
100
AcDbBlockBegin
 62
2
  6
CONTINUOUS
  2
*D19
 70
65
 10
0.0
 20
0.0
  3
*D19
  1

  0
TEXT
  5
80A
100
AcDbEntity
  8
0
100
AcDbText
 62
5
  6
CONTINUOUS
 10
175.1282989129
 20
765.9430382051
  7
STANDARD
 40
2.5
  1
808
 50
90.0
 72
5
 11
175.1282989129
 21
771.7701757515
100
AcDbText
  0
LINE
  5
80B
100
AcDbEntity
  8
0
100
AcDbLine
 62
2
  6
CONTINUOUS
 10
139.1827456397
 20
1172.8566069783
 11
176.7532989129
 21
1172.8566069783
  0
LINE
  5
80C
100
AcDbEntity
  8
0
100
AcDbLine
 62
2
  6
CONTINUOUS
 10
128.1532989129
 20
364.8566069783
 11
176.7532989129
 21
364.8566069783
  0
LINE
  5
80D
100
AcDbEntity
  8
0
100
AcDbLine
 62
2
  6
CONTINUOUS
 10
175.7532989129
 20
1172.8566069783
 11
175.7532989129
 21
768.8566069783
  0
LINE
  5
80E
100
AcDbEntity
  8
0
100
AcDbLine
 62
2
  6
CONTINUOUS
 10
175.7532989129
 20
364.8566069783
 11
175.7532989129
 21
768.8566069783
  0
INSERT
  5
80F
100
AcDbEntity
  8
0
100
AcDbBlockReference
 62
2
  6
CONTINUOUS
  2
_FILLED
 10
175.7532989129
 20
1172.8566069783
 41
3.5
 42
3.5
 43
3.5
 50
90.0
  0
INSERT
  5
810
100
AcDbEntity
  8
0
100
AcDbBlockReference
 62
2
  6
CONTINUOUS
  2
_FILLED
 10
175.7532989129
 20
364.8566069783
 41
3.5
 42
3.5
 43
3.5
 50
270.0
  0
ENDBLK
  5
811
100
AcDbEntity
  8
0
  6
BYBLOCK
 62
0
100
AcDbBlockEnd
  0
BLOCK
  5
812
100
AcDbEntity
  8
0
100
AcDbBlockBegin
 62
2
  6
CONTINUOUS
  2
*D20
 70
65
 10
0.0
 20
0.0
  3
*D20
  1

  0
TEXT
  5
813
100
AcDbEntity
  8
0
100
AcDbText
 62
5
  6
CONTINUOUS
 10
182.1282989129
 20
678.4430382051
  7
STANDARD
 40
2.5
  1
983
 50
90.0
 72
5
 11
182.1282989129
 21
684.2701757515
100
AcDbText
  0
LINE
  5
814
100
AcDbEntity
  8
0
100
AcDbLine
 62
2
  6
CONTINUOUS
 10
139.1827456397
 20
1172.8566069783
 11
183.7532989129
 21
1172.8566069783
  0
LINE
  5
815
100
AcDbEntity
  8
0
100
AcDbLine
 62
2
  6
CONTINUOUS
 10
128.1532989129
 20
189.8566069783
 11
183.7532989129
 21
189.8566069783
  0
LINE
  5
816
100
AcDbEntity
  8
0
100
AcDbLine
 62
2
  6
CONTINUOUS
 10
182.7532989129
 20
1172.8566069783
 11
182.7532989129
 21
681.3566069783
  0
LINE
  5
817
100
AcDbEntity
  8
0
100
AcDbLine
 62
2
  6
CONTINUOUS
 10
182.7532989129
 20
189.8566069783
 11
182.7532989129
 21
681.3566069783
  0
INSERT
  5
818
100
AcDbEntity
  8
0
100
AcDbBlockReference
 62
2
  6
CONTINUOUS
  2
_FILLED
 10
182.7532989129
 20
1172.8566069783
 41
3.5
 42
3.5
 43
3.5
 50
90.0
  0
INSERT
  5
819
100
AcDbEntity
  8
0
100
AcDbBlockReference
 62
2
  6
CONTINUOUS
  2
_FILLED
 10
182.7532989129
 20
189.8566069783
 41
3.5
 42
3.5
 43
3.5
 50
270.0
  0
ENDBLK
  5
81A
100
AcDbEntity
  8
0
  6
BYBLOCK
 62
0
100
AcDbBlockEnd
  0
BLOCK
  5
81B
100
AcDbEntity
  8
0
100
AcDbBlockBegin
 62
2
  6
CONTINUOUS
  2
*D21
 70
65
 10
0.0
 20
0.0
  3
*D21
  1

  0
TEXT
  5
81C
100
AcDbEntity
  8
0
100
AcDbText
 62
5
  6
CONTINUOUS
 10
147.1282989129
 20
1217.9142277961
  7
STANDARD
 40
2.5
  1
94
 50
90.0
 72
5
 11
147.1282989129
 21
1221.7989861604
100
AcDbText
  0
LINE
  5
81D
100
AcDbEntity
  8
0
100
AcDbLine
 62
2
  6
CONTINUOUS
 10
139.1827456397
 20
1172.8566069783
 11
148.7532989129
 21
1172.8566069783
  0
LINE
  5
81E
100
AcDbEntity
  8
0
100
AcDbLine
 62
2
  6
CONTINUOUS
 10
128.1532989129
 20
1266.8566069783
 11
148.7532989129
 21
1266.8566069783
  0
LINE
  5
81F
100
AcDbEntity
  8
0
100
AcDbLine
 62
2
  6
CONTINUOUS
 10
147.7532989129
 20
1172.8566069783
 11
147.7532989129
 21
1219.8566069783
  0
LINE
  5
820
100
AcDbEntity
  8
0
100
AcDbLine
 62
2
  6
CONTINUOUS
 10
147.7532989129
 20
1266.8566069783
 11
147.7532989129
 21
1219.8566069783
  0
INSERT
  5
821
100
AcDbEntity
  8
0
100
AcDbBlockReference
 62
2
  6
CONTINUOUS
  2
_FILLED
 10
147.7532989129
 20
1172.8566069783
 41
3.5
 42
3.5
 43
3.5
 50
270.0
  0
INSERT
  5
822
100
AcDbEntity
  8
0
100
AcDbBlockReference
 62
2
  6
CONTINUOUS
  2
_FILLED
 10
147.7532989129
 20
1266.8566069783
 41
3.5
 42
3.5
 43
3.5
 50
90.0
  0
ENDBLK
  5
823
100
AcDbEntity
  8
0
  6
BYBLOCK
 62
0
100
AcDbBlockEnd
  0
BLOCK
  5
824
100
AcDbEntity
  8
0
100
AcDbBlockBegin
 62
2
  6
CONTINUOUS
  2
*D22
 70
65
 10
0.0
 20
0.0
  3
*D22
  1

  0
TEXT
  5
825
100
AcDbEntity
  8
0
100
AcDbText
 62
5
  6
CONTINUOUS
 10
154.1282989129
 20
1370.4430382051
  7
STANDARD
 40
2.5
  1
401
 50
90.0
 72
5
 11
154.1282989129
 21
1376.2701757515
100
AcDbText
  0
LINE
  5
826
100
AcDbEntity
  8
0
100
AcDbLine
 62
2
  6
CONTINUOUS
 10
139.1827456397
 20
1172.8566069783
 11
155.7532989129
 21
1172.8566069783
  0
LINE
  5
827
100
AcDbEntity
  8
0
100
AcDbLine
 62
2
  6
CONTINUOUS
 10
128.1532989129
 20
1573.8566069783
 11
155.7532989129
 21
1573.8566069783
  0
LINE
  5
828
100
AcDbEntity
  8
0
100
AcDbLine
 62
2
  6
CONTINUOUS
 10
154.7532989129
 20
1172.8566069783
 11
154.7532989129
 21
1373.3566069783
  0
LINE
  5
829
100
AcDbEntity
  8
0
100
AcDbLine
 62
2
  6
CONTINUOUS
 10
154.7532989129
 20
1573.8566069783
 11
154.7532989129
 21
1373.3566069783
  0
INSERT
  5
82A
100
AcDbEntity
  8
0
100
AcDbBlockReference
 62
2
  6
CONTINUOUS
  2
_FILLED
 10
154.7532989129
 20
1172.8566069783
 41
3.5
 42
3.5
 43
3.5
 50
270.0
  0
INSERT
  5
82B
100
AcDbEntity
  8
0
100
AcDbBlockReference
 62
2
  6
CONTINUOUS
  2
_FILLED
 10
154.7532989129
 20
1573.8566069783
 41
3.5
 42
3.5
 43
3.5
 50
90.0
  0
ENDBLK
  5
82C
100
AcDbEntity
  8
0
  6
BYBLOCK
 62
0
100
AcDbBlockEnd
  0
BLOCK
  5
82D
100
AcDbEntity
  8
0
100
AcDbBlockBegin
 62
2
  6
CONTINUOUS
  2
*D23
 70
65
 10
0.0
 20
0.0
  3
*D23
  1

  0
TEXT
  5
82E
100
AcDbEntity
  8
0
100
AcDbText
 62
5
  6
CONTINUOUS
 10
161.1282989129
 20
1510.9430382051
  7
STANDARD
 40
2.5
  1
682
 50
90.0
 72
5
 11
161.1282989129
 21
1516.7701757515
100
AcDbText
  0
LINE
  5
82F
100
AcDbEntity
  8
0
100
AcDbLine
 62
2
  6
CONTINUOUS
 10
139.1827456397
 20
1172.8566069783
 11
162.7532989129
 21
1172.8566069783
  0
LINE
  5
830
100
AcDbEntity
  8
0
100
AcDbLine
 62
2
  6
CONTINUOUS
 10
128.1532989129
 20
1854.8566069783
 11
162.7532989129
 21
1854.8566069783
  0
LINE
  5
831
100
AcDbEntity
  8
0
100
AcDbLine
 62
2
  6
CONTINUOUS
 10
161.7532989129
 20
1172.8566069783
 11
161.7532989129
 21
1513.8566069783
  0
LINE
  5
832
100
AcDbEntity
  8
0
100
AcDbLine
 62
2
  6
CONTINUOUS
 10
161.7532989129
 20
1854.8566069783
 11
161.7532989129
 21
1513.8566069783
  0
INSERT
  5
833
100
AcDbEntity
  8
0
100
AcDbBlockReference
 62
2
  6
CONTINUOUS
  2
_FILLED
 10
161.7532989129
 20
1172.8566069783
 41
3.5
 42
3.5
 43
3.5
 50
270.0
  0
INSERT
  5
834
100
AcDbEntity
  8
0
100
AcDbBlockReference
 62
2
  6
CONTINUOUS
  2
_FILLED
 10
161.7532989129
 20
1854.8566069783
 41
3.5
 42
3.5
 43
3.5
 50
90.0
  0
ENDBLK
  5
835
100
AcDbEntity
  8
0
  6
BYBLOCK
 62
0
100
AcDbBlockEnd
  0
BLOCK
  5
836
100
AcDbEntity
  8
0
100
AcDbBlockBegin
 62
2
  6
CONTINUOUS
  2
*D24
 70
65
 10
0.0
 20
0.0
  3
*D24
  1

  0
TEXT
  5
837
100
AcDbEntity
  8
0
100
AcDbText
 62
5
  6
CONTINUOUS
 10
168.1282989129
 20
1558.9430382051
  7
STANDARD
 40
2.5
  1
778
 50
90.0
 72
5
 11
168.1282989129
 21
1564.7701757515
100
AcDbText
  0
LINE
  5
838
100
AcDbEntity
  8
0
100
AcDbLine
 62
2
  6
CONTINUOUS
 10
139.1827456397
 20
1172.8566069783
 11
169.7532989129
 21
1172.8566069783
  0
LINE
  5
839
100
AcDbEntity
  8
0
100
AcDbLine
 62
2
  6
CONTINUOUS
 10
128.1532989129
 20
1950.8566069783
 11
169.7532989129
 21
1950.8566069783
  0
LINE
  5
83A
100
AcDbEntity
  8
0
100
AcDbLine
 62
2
  6
CONTINUOUS
 10
168.7532989129
 20
1172.8566069783
 11
168.7532989129
 21
1561.8566069783
  0
LINE
  5
83B
100
AcDbEntity
  8
0
100
AcDbLine
 62
2
  6
CONTINUOUS
 10
168.7532989129
 20
1950.8566069783
 11
168.7532989129
 21
1561.8566069783
  0
INSERT
  5
83C
100
AcDbEntity
  8
0
100
AcDbBlockReference
 62
2
  6
CONTINUOUS
  2
_FILLED
 10
168.7532989129
 20
1172.8566069783
 41
3.5
 42
3.5
 43
3.5
 50
270.0
  0
INSERT
  5
83D
100
AcDbEntity
  8
0
100
AcDbBlockReference
 62
2
  6
CONTINUOUS
  2
_FILLED
 10
168.7532989129
 20
1950.8566069783
 41
3.5
 42
3.5
 43
3.5
 50
90.0
  0
ENDBLK
  5
83E
100
AcDbEntity
  8
0
  6
BYBLOCK
 62
0
100
AcDbBlockEnd
  0
BLOCK
  5
83F
100
AcDbEntity
  8
0
100
AcDbBlockBegin
 62
2
  6
CONTINUOUS
  2
*D25
 70
65
 10
0.0
 20
0.0
  3
*D25
  1

  0
TEXT
  5
840
100
AcDbEntity
  8
0
100
AcDbText
 62
5
  6
CONTINUOUS
 10
175.1282989129
 20
1629.4430382051
  7
STANDARD
 40
2.5
  1
919
 50
90.0
 72
5
 11
175.1282989129
 21
1635.2701757515
100
AcDbText
  0
LINE
  5
841
100
AcDbEntity
  8
0
100
AcDbLine
 62
2
  6
CONTINUOUS
 10
139.1827456397
 20
1172.8566069783
 11
176.7532989129
 21
1172.8566069783
  0
LINE
  5
842
100
AcDbEntity
  8
0
100
AcDbLine
 62
2
  6
CONTINUOUS
 10
128.1532989129
 20
2091.8566069783
 11
176.7532989129
 21
2091.8566069783
  0
LINE
  5
843
100
AcDbEntity
  8
0
100
AcDbLine
 62
2
  6
CONTINUOUS
 10
175.7532989129
 20
1172.8566069783
 11
175.7532989129
 21
1632.3566069783
  0
LINE
  5
844
100
AcDbEntity
  8
0
100
AcDbLine
 62
2
  6
CONTINUOUS
 10
175.7532989129
 20
2091.8566069783
 11
175.7532989129
 21
1632.3566069783
  0
INSERT
  5
845
100
AcDbEntity
  8
0
100
AcDbBlockReference
 62
2
  6
CONTINUOUS
  2
_FILLED
 10
175.7532989129
 20
1172.8566069783
 41
3.5
 42
3.5
 43
3.5
 50
270.0
  0
INSERT
  5
846
100
AcDbEntity
  8
0
100
AcDbBlockReference
 62
2
  6
CONTINUOUS
  2
_FILLED
 10
175.7532989129
 20
2091.8566069783
 41
3.5
 42
3.5
 43
3.5
 50
90.0
  0
ENDBLK
  5
847
100
AcDbEntity
  8
0
  6
BYBLOCK
 62
0
100
AcDbBlockEnd
  0
BLOCK
  5
848
100
AcDbEntity
  8
0
100
AcDbBlockBegin
 62
2
  6
CONTINUOUS
  2
*D26
 70
65
 10
0.0
 20
0.0
  3
*D26
  1

  0
TEXT
  5
849
100
AcDbEntity
  8
0
100
AcDbText
 62
5
  6
CONTINUOUS
 10
182.1282989129
 20
1779.471848614
  7
STANDARD
 40
2.5
  1
1221
 50
90.0
 72
5
 11
182.1282989129
 21
1787.2413653426
100
AcDbText
  0
LINE
  5
84A
100
AcDbEntity
  8
0
100
AcDbLine
 62
2
  6
CONTINUOUS
 10
139.1827456397
 20
1172.8566069783
 11
183.7532989129
 21
1172.8566069783
  0
LINE
  5
84B
100
AcDbEntity
  8
0
100
AcDbLine
 62
2
  6
CONTINUOUS
 10
128.1532989129
 20
2393.8566069783
 11
183.7532989129
 21
2393.8566069783
  0
LINE
  5
84C
100
AcDbEntity
  8
0
100
AcDbLine
 62
2
  6
CONTINUOUS
 10
182.7532989129
 20
1172.8566069783
 11
182.7532989129
 21
1783.3566069783
  0
LINE
  5
84D
100
AcDbEntity
  8
0
100
AcDbLine
 62
2
  6
CONTINUOUS
 10
182.7532989129
 20
2393.8566069783
 11
182.7532989129
 21
1783.3566069783
  0
INSERT
  5
84E
100
AcDbEntity
  8
0
100
AcDbBlockReference
 62
2
  6
CONTINUOUS
  2
_FILLED
 10
182.7532989129
 20
1172.8566069783
 41
3.5
 42
3.5
 43
3.5
 50
270.0
  0
INSERT
  5
84F
100
AcDbEntity
  8
0
100
AcDbBlockReference
 62
2
  6
CONTINUOUS
  2
_FILLED
 10
182.7532989129
 20
2393.8566069783
 41
3.5
 42
3.5
 43
3.5
 50
90.0
  0
ENDBLK
  5
850
100
AcDbEntity
  8
0
  6
BYBLOCK
 62
0
100
AcDbBlockEnd
  0
BLOCK
  5
851
100
AcDbEntity
  8
0
100
AcDbBlockBegin
 62
2
  6
CONTINUOUS
  2
*D27
 70
65
 10
0.0
 20
0.0
  3
*D27
  1

  0
TEXT
  5
852
100
AcDbEntity
  8
0
100
AcDbText
 62
5
  6
CONTINUOUS
 10
124.3564587642
 20
1144.9260140185
  7
STANDARD
 40
2.5
  1
12.3
 72
5
 11
131.1501390616
 21
1144.9260140185
100
AcDbText
  0
LINE
  5
853
100
AcDbEntity
  8
0
100
AcDbLine
 62
2
  6
CONTINUOUS
 10
121.6282989129
 20
1136.3566069783
 11
121.6282989129
 21
1145.3010140185
  0
LINE
  5
854
100
AcDbEntity
  8
0
100
AcDbLine
 62
2
  6
CONTINUOUS
 10
133.8782989129
 20
1136.3566069783
 11
133.8782989129
 21
1145.3010140185
  0
LINE
  5
855
100
AcDbEntity
  8
0
100
AcDbLine
 62
2
  6
CONTINUOUS
 10
121.6282989129
 20
1144.3010140185
 11
114.6282989129
 21
1144.3010140185
  0
LINE
  5
856
100
AcDbEntity
  8
0
100
AcDbLine
 62
2
  6
CONTINUOUS
 10
114.6282989129
 20
1144.3010140185
 11
127.7532989129
 21
1144.3010140185
  0
LINE
  5
857
100
AcDbEntity
  8
0
100
AcDbLine
 62
2
  6
CONTINUOUS
 10
133.8782989129
 20
1144.3010140185
 11
140.8782989129
 21
1144.3010140185
  0
LINE
  5
858
100
AcDbEntity
  8
0
100
AcDbLine
 62
2
  6
CONTINUOUS
 10
140.8782989129
 20
1144.3010140185
 11
127.7532989129
 21
1144.3010140185
  0
INSERT
  5
859
100
AcDbEntity
  8
0
100
AcDbBlockReference
 62
2
  6
CONTINUOUS
  2
_FILLED
 10
121.6282989129
 20
1144.3010140185
 41
3.5
 42
3.5
 43
3.5
  0
INSERT
  5
85A
100
AcDbEntity
  8
0
100
AcDbBlockReference
 62
2
  6
CONTINUOUS
  2
_FILLED
 10
133.8782989129
 20
1144.3010140185
 41
3.5
 42
3.5
 43
3.5
 50
180.0
  0
ENDBLK
  5
85B
100
AcDbEntity
  8
0
  6
BYBLOCK
 62
0
100
AcDbBlockEnd
  0
BLOCK
  5
85C
100
AcDbEntity
  8
0
100
AcDbBlockBegin
 62
2
  6
CONTINUOUS
  2
*D28
 70
65
 10
0.0
 20
0.0
  3
*D28
  1

  0
TEXT
  5
85D
100
AcDbEntity
  8
0
100
AcDbText
 62
5
  6
CONTINUOUS
 10
97.1282989129
 20
1104.9142277961
  7
STANDARD
 40
2.5
  1
62
 50
90.0
 72
5
 11
97.1282989129
 21
1108.7989861604
100
AcDbText
  0
LINE
  5
85E
100
AcDbEntity
  8
0
100
AcDbLine
 62
2
  6
CONTINUOUS
 10
123.1282989129
 20
1137.8566069783
 11
96.7532989129
 21
1137.8566069783
  0
LINE
  5
85F
100
AcDbEntity
  8
0
100
AcDbLine
 62
2
  6
CONTINUOUS
 10
123.1282989129
 20
1075.8566069783
 11
96.7532989129
 21
1075.8566069783
  0
LINE
  5
860
100
AcDbEntity
  8
0
100
AcDbLine
 62
2
  6
CONTINUOUS
 10
97.7532989129
 20
1137.8566069783
 11
97.7532989129
 21
1106.8566069783
  0
LINE
  5
861
100
AcDbEntity
  8
0
100
AcDbLine
 62
2
  6
CONTINUOUS
 10
97.7532989129
 20
1075.8566069783
 11
97.7532989129
 21
1106.8566069783
  0
INSERT
  5
862
100
AcDbEntity
  8
0
100
AcDbBlockReference
 62
2
  6
CONTINUOUS
  2
_FILLED
 10
97.7532989129
 20
1137.8566069783
 41
3.5
 42
3.5
 43
3.5
 50
90.0
  0
INSERT
  5
863
100
AcDbEntity
  8
0
100
AcDbBlockReference
 62
2
  6
CONTINUOUS
  2
_FILLED
 10
97.7532989129
 20
1075.8566069783
 41
3.5
 42
3.5
 43
3.5
 50
270.0
  0
ENDBLK
  5
864
100
AcDbEntity
  8
0
  6
BYBLOCK
 62
0
100
AcDbBlockEnd
  0
BLOCK
  5
865
100
AcDbEntity
  8
0
100
AcDbBlockBegin
 62
2
  6
CONTINUOUS
  2
*D29
 70
65
 10
0.0
 20
0.0
  3
*D29
  1

  0
TEXT
  5
866
100
AcDbEntity
  8
0
100
AcDbText
 62
5
  6
CONTINUOUS
 10
129.6966270394
 20
1070.2820713987
  7
STANDARD
 40
2.5
  1
10
 72
5
 11
133.5813854037
 21
1070.2820713987
100
AcDbText
  0
LINE
  5
867
100
AcDbEntity
  8
0
100
AcDbLine
 62
2
  6
CONTINUOUS
 10
127.7532989129
 20
1074.4295409203
 11
127.7532989129
 21
1068.6570713987
  0
LINE
  5
868
100
AcDbEntity
  8
0
100
AcDbLine
 62
2
  6
CONTINUOUS
 10
127.7532989129
 20
1069.6570713987
 11
120.7532989129
 21
1069.6570713987
  0
LINE
  5
869
100
AcDbEntity
  8
0
100
AcDbLine
 62
2
  6
CONTINUOUS
 10
120.7532989129
 20
1069.6570713987
 11
132.7532989129
 21
1069.6570713987
  0
LINE
  5
86A
100
AcDbEntity
  8
0
100
AcDbLine
 62
2
  6
CONTINUOUS
 10
137.7532989129
 20
1069.6570713987
 11
144.7532989129
 21
1069.6570713987
  0
LINE
  5
86B
100
AcDbEntity
  8
0
100
AcDbLine
 62
2
  6
CONTINUOUS
 10
144.7532989129
 20
1069.6570713987
 11
132.7532989129
 21
1069.6570713987
  0
INSERT
  5
86C
100
AcDbEntity
  8
0
100
AcDbBlockReference
 62
2
  6
CONTINUOUS
  2
_FILLED
 10
127.7532989129
 20
1069.6570713987
 41
3.5
 42
3.5
 43
3.5
  0
INSERT
  5
86D
100
AcDbEntity
  8
0
100
AcDbBlockReference
 62
2
  6
CONTINUOUS
  2
_FILLED
 10
137.7532989129
 20
1069.6570713987
 41
3.5
 42
3.5
 43
3.5
 50
180.0
  0
ENDBLK
  5
86E
100
AcDbEntity
  8
0
  6
BYBLOCK
 62
0
100
AcDbBlockEnd
  0
BLOCK
  5
86F
100
AcDbEntity
  8
0
100
AcDbBlockBegin
 62
2
  6
CONTINUOUS
  2
*D30
 70
65
 10
0.0
 20
0.0
  3
*D30
  1

  0
TEXT
  5
870
100
AcDbEntity
  8
0
100
AcDbText
 62
5
  6
CONTINUOUS
 10
126.8109197307
 20
2462.4816069783
  7
STANDARD
 40
2.5
  1
18
 72
5
 11
130.695678095
 21
2462.4816069783
100
AcDbText
  0
LINE
  5
871
100
AcDbEntity
  8
0
100
AcDbLine
 62
2
  6
CONTINUOUS
 10
137.7532989129
 20
2451.8566069783
 11
137.7532989129
 21
2462.8566069783
  0
LINE
  5
872
100
AcDbEntity
  8
0
100
AcDbLine
 62
2
  6
CONTINUOUS
 10
119.7532989129
 20
2402.2566069783
 11
119.7532989129
 21
2462.8566069783
  0
LINE
  5
873
100
AcDbEntity
  8
0
100
AcDbLine
 62
2
  6
CONTINUOUS
 10
137.7532989129
 20
2461.8566069783
 11
128.7532989129
 21
2461.8566069783
  0
LINE
  5
874
100
AcDbEntity
  8
0
100
AcDbLine
 62
2
  6
CONTINUOUS
 10
119.7532989129
 20
2461.8566069783
 11
128.7532989129
 21
2461.8566069783
  0
INSERT
  5
875
100
AcDbEntity
  8
0
100
AcDbBlockReference
 62
2
  6
CONTINUOUS
  2
_FILLED
 10
137.7532989129
 20
2461.8566069783
 41
3.5
 42
3.5
 43
3.5
  0
INSERT
  5
876
100
AcDbEntity
  8
0
100
AcDbBlockReference
 62
2
  6
CONTINUOUS
  2
_FILLED
 10
119.7532989129
 20
2461.8566069783
 41
3.5
 42
3.5
 43
3.5
 50
180.0
  0
ENDBLK
  5
877
100
AcDbEntity
  8
0
  6
BYBLOCK
 62
0
100
AcDbBlockEnd
  0
ENDSEC
  0
SECTION
  2
ENTITIES
  0
DIMENSION
  5
878
100
AcDbEntity
  8
0
100
AcDbDimension
 62
2
  6
CONTINUOUS
  2
*D0
 10
46.8500424036
 20
375.8566069783
 11
46.8500424036
 21
412.8566069783
 70
160
 71
2
 42
74.0
  3
DIMSTYLE_1
100
AcDbAlignedDimension
 13
25.6716536065
 23
449.8566069783
 14
25.7344882401
 24
375.8566069783
 50
270.0
100
AcDbRotatedDimension
  0
DIMENSION
  5
879
100
AcDbEntity
  8
0
100
AcDbDimension
 62
2
  6
CONTINUOUS
  2
*D1
 10
46.8500424036
 20
1865.8566069783
 11
46.8500424036
 21
1902.8566069783
 70
160
 71
2
 42
74.0
  3
DIMSTYLE_1
100
AcDbAlignedDimension
 13
25.9345318417
 23
1939.8566069783
 14
25.7330176832
 24
1865.8566069783
 50
270.0
100
AcDbRotatedDimension
  0
DIMENSION
  5
87A
100
AcDbEntity
  8
0
100
AcDbDimension
 62
2
  6
CONTINUOUS
  2
*D2
 10
46.8500424036
 20
1939.8566069783
 11
46.8500424036
 21
2195.8566069783
 70
160
 71
2
 42
512.0
  3
DIMSTYLE_2
100
AcDbAlignedDimension
 13
25.6500424036
 23
2451.8566069783
 14
25.7330176832
 24
1939.8566069783
 50
270.0
100
AcDbRotatedDimension
  0
DIMENSION
  5
87B
100
AcDbEntity
  8
0
100
AcDbDimension
 62
2
  6
CONTINUOUS
  2
*D3
 10
25.6500424036
 20
2461.8566069783
 11
22.6500424036
 21
2461.8566069783
 70
160
 71
2
 42
6.0
  3
DIMSTYLE_3
100
AcDbAlignedDimension
 13
19.6500424036
 23
2451.8566069783
 14
25.6500424036
 24
2451.8566069783
100
AcDbRotatedDimension
  0
DIMENSION
  5
87C
100
AcDbEntity
  8
0
100
AcDbDimension
 62
2
  6
CONTINUOUS
  2
*D4
 10
107.7532989129
 20
2468.8566069783
 11
122.7532989129
 21
2468.8566069783
 70
160
 71
2
 42
30.0
  3
DIMSTYLE_4
100
AcDbAlignedDimension
 13
137.7532989129
 23
2451.8566069783
 14
107.7532989129
 24
2451.8566069783
 50
180.0
100
AcDbRotatedDimension
  0
DIMENSION
  5
87D
100
AcDbEntity
  8
0
100
AcDbDimension
 62
2
  6
CONTINUOUS
  2
*D5
 10
46.8500424036
 20
141.8566069783
 11
46.8500424036
 21
258.8566069783
 70
160
 71
2
 42
234.0
  3
DIMSTYLE_5
100
AcDbAlignedDimension
 13
25.6829006155
 23
375.8566069783
 14
25.6500424036
 24
141.8566069783
 50
270.0
100
AcDbRotatedDimension
  0
DIMENSION
  5
87E
100
AcDbEntity
  8
0
100
AcDbDimension
 62
2
  6
CONTINUOUS
  2
*D6
 10
46.8500424036
 20
110.9377652444
 11
46.8500424036
 21
116.5216883917
 70
160
 71
1
 42
2.0
  3
DIMSTYLE_3
100
AcDbAlignedDimension
 13
25.6500424036
 23
108.9377652444
 14
25.6500424036
 24
110.9377652444
 50
90.0
100
AcDbRotatedDimension
  0
DIMENSION
  5
87F
100
AcDbEntity
  8
0
100
AcDbDimension
 62
2
  6
CONTINUOUS
  2
*D7
 10
53.8500424036
 20
98.9377652444
 11
53.8500424036
 21
90.9377652444
 70
160
 71
2
 42
16.0
  3
DIMSTYLE_4
100
AcDbAlignedDimension
 13
25.6500424036
 23
82.9377652444
 14
23.7500424036
 24
98.9377652444
 50
90.0
100
AcDbRotatedDimension
  0
DIMENSION
  5
880
100
AcDbEntity
  8
0
100
AcDbDimension
 62
2
  6
CONTINUOUS
  2
*D8
 10
17.6500424036
 20
120.9377652444
 11
25.3990459496
 21
120.9377652444
 70
160
 71
1
 42
2.0
  3
DIMSTYLE_3
100
AcDbAlignedDimension
 13
19.6500424036
 23
107.9377652444
 14
17.6500424036
 24
98.6377652444
 50
180.0
100
AcDbRotatedDimension
  0
DIMENSION
  5
881
100
AcDbEntity
  8
0
100
AcDbDimension
 62
2
  6
CONTINUOUS
  2
*D9
 10
19.6500424036
 20
359.0528017369
 11
29.2643350949
 21
359.0528017369
 70
160
 71
2
 42
17.0
  3
DIMSTYLE_4
100
AcDbAlignedDimension
 13
36.6500424036
 23
396.5037572286
 14
19.6500424036
 24
360.7066069783
 50
180.0
100
AcDbRotatedDimension
  0
DIMENSION
  5
882
100
AcDbEntity
  8
0
100
AcDbDimension
 62
2
  6
CONTINUOUS
  2
*D10
 10
69.7532989129
 20
2451.8566069783
 11
69.7532989129
 21
1296.8566069783
 70
160
 71
2
 42
2310.0
  3
DIMSTYLE_6
100
AcDbAlignedDimension
 13
110.7532989129
 23
141.8566069783
 14
110.7532989129
 24
2451.8566069783
 50
90.0
100
AcDbRotatedDimension
  0
DIMENSION
  5
883
100
AcDbEntity
  8
0
100
AcDbDimension
 62
2
  6
CONTINUOUS
  2
*D11
 10
76.7532989129
 20
141.8566069783
 11
76.7532989129
 21
657.3566069783
 70
160
 71
2
 42
1031.0
  3
DIMSTYLE_7
100
AcDbAlignedDimension
 13
106.2956349588
 23
1172.8566069783
 14
110.7532989129
 24
141.8566069783
 50
270.0
100
AcDbRotatedDimension
  0
DIMENSION
  5
884
100
AcDbEntity
  8
0
100
AcDbDimension
 62
2
  6
CONTINUOUS
  2
*D12
 10
83.7532989129
 20
412.8566069783
 11
83.7532989129
 21
792.8566069783
 70
160
 71
2
 42
760.0
  3
DIMSTYLE_2
100
AcDbAlignedDimension
 13
106.2956349588
 23
1172.8566069783
 14
114.7532989129
 24
412.8566069783
 50
270.0
100
AcDbRotatedDimension
  0
DIMENSION
  5
885
100
AcDbEntity
  8
0
100
AcDbDimension
 62
2
  6
CONTINUOUS
  2
*D13
 10
97.7532989129
 20
1902.8566069783
 11
97.7532989129
 21
1537.8566069783
 70
160
 71
2
 42
730.0
  3
DIMSTYLE_2
100
AcDbAlignedDimension
 13
106.2956349588
 23
1172.8566069783
 14
114.7532989129
 24
1902.8566069783
 50
90.0
100
AcDbRotatedDimension
  0
DIMENSION
  5
886
100
AcDbEntity
  8
0
100
AcDbDimension
 62
2
  6
CONTINUOUS
  2
*D14
 10
90.7532989129
 20
1106.8566069783
 11
90.7532989129
 21
1139.8566069783
 70
160
 71
2
 42
66.0
  3
DIMSTYLE_1
100
AcDbAlignedDimension
 13
106.2956349588
 23
1172.8566069783
 14
118.8697770277
 24
1106.8566069783
 50
270.0
100
AcDbRotatedDimension
  0
DIMENSION
  5
887
100
AcDbEntity
  8
0
100
AcDbDimension
 62
2
  6
CONTINUOUS
  2
*D15
 10
147.7532989129
 20
1154.8566069783
 11
147.7532989129
 21
1163.8566069783
 70
160
 71
2
 42
18.0
  3
DIMSTYLE_4
100
AcDbAlignedDimension
 13
139.1827456397
 23
1172.8566069783
 14
128.1532989129
 24
1154.8566069783
 50
270.0
100
AcDbRotatedDimension
  0
DIMENSION
  5
888
100
AcDbEntity
  8
0
100
AcDbDimension
 62
2
  6
CONTINUOUS
  2
*D16
 10
154.7532989129
 20
1063.8566069783
 11
154.7532989129
 21
1118.3566069783
 70
160
 71
2
 42
109.0
  3
DIMSTYLE_1
100
AcDbAlignedDimension
 13
139.1827456397
 23
1172.8566069783
 14
128.1532989129
 24
1063.8566069783
 50
270.0
100
AcDbRotatedDimension
  0
DIMENSION
  5
889
100
AcDbEntity
  8
0
100
AcDbDimension
 62
2
  6
CONTINUOUS
  2
*D17
 10
161.7532989129
 20
759.8566069783
 11
161.7532989129
 21
966.3566069783
 70
160
 71
2
 42
413.0
  3
DIMSTYLE_2
100
AcDbAlignedDimension
 13
139.1827456397
 23
1172.8566069783
 14
128.1532989129
 24
759.8566069783
 50
270.0
100
AcDbRotatedDimension
  0
DIMENSION
  5
88A
100
AcDbEntity
  8
0
100
AcDbDimension
 62
2
  6
CONTINUOUS
  2
*D18
 10
168.7532989129
 20
460.8566069783
 11
168.7532989129
 21
816.8566069783
 70
160
 71
2
 42
712.0
  3
DIMSTYLE_2
100
AcDbAlignedDimension
 13
139.1827456397
 23
1172.8566069783
 14
128.1532989129
 24
460.8566069783
 50
270.0
100
AcDbRotatedDimension
  0
DIMENSION
  5
88B
100
AcDbEntity
  8
0
100
AcDbDimension
 62
2
  6
CONTINUOUS
  2
*D19
 10
175.7532989129
 20
364.8566069783
 11
175.7532989129
 21
768.8566069783
 70
160
 71
2
 42
808.0
  3
DIMSTYLE_2
100
AcDbAlignedDimension
 13
139.1827456397
 23
1172.8566069783
 14
128.1532989129
 24
364.8566069783
 50
270.0
100
AcDbRotatedDimension
  0
DIMENSION
  5
88C
100
AcDbEntity
  8
0
100
AcDbDimension
 62
2
  6
CONTINUOUS
  2
*D20
 10
182.7532989129
 20
189.8566069783
 11
182.7532989129
 21
681.3566069783
 70
160
 71
2
 42
983.0
  3
DIMSTYLE_2
100
AcDbAlignedDimension
 13
139.1827456397
 23
1172.8566069783
 14
128.1532989129
 24
189.8566069783
 50
270.0
100
AcDbRotatedDimension
  0
DIMENSION
  5
88D
100
AcDbEntity
  8
0
100
AcDbDimension
 62
2
  6
CONTINUOUS
  2
*D21
 10
147.7532989129
 20
1266.8566069783
 11
147.7532989129
 21
1219.8566069783
 70
160
 71
2
 42
94.0
  3
DIMSTYLE_1
100
AcDbAlignedDimension
 13
139.1827456397
 23
1172.8566069783
 14
128.1532989129
 24
1266.8566069783
 50
90.0
100
AcDbRotatedDimension
  0
DIMENSION
  5
88E
100
AcDbEntity
  8
0
100
AcDbDimension
 62
2
  6
CONTINUOUS
  2
*D22
 10
154.7532989129
 20
1573.8566069783
 11
154.7532989129
 21
1373.3566069783
 70
160
 71
2
 42
401.0
  3
DIMSTYLE_2
100
AcDbAlignedDimension
 13
139.1827456397
 23
1172.8566069783
 14
128.1532989129
 24
1573.8566069783
 50
90.0
100
AcDbRotatedDimension
  0
DIMENSION
  5
88F
100
AcDbEntity
  8
0
100
AcDbDimension
 62
2
  6
CONTINUOUS
  2
*D23
 10
161.7532989129
 20
1854.8566069783
 11
161.7532989129
 21
1513.8566069783
 70
160
 71
2
 42
682.0
  3
DIMSTYLE_2
100
AcDbAlignedDimension
 13
139.1827456397
 23
1172.8566069783
 14
128.1532989129
 24
1854.8566069783
 50
90.0
100
AcDbRotatedDimension
  0
DIMENSION
  5
890
100
AcDbEntity
  8
0
100
AcDbDimension
 62
2
  6
CONTINUOUS
  2
*D24
 10
168.7532989129
 20
1950.8566069783
 11
168.7532989129
 21
1561.8566069783
 70
160
 71
2
 42
778.0
  3
DIMSTYLE_2
100
AcDbAlignedDimension
 13
139.1827456397
 23
1172.8566069783
 14
128.1532989129
 24
1950.8566069783
 50
90.0
100
AcDbRotatedDimension
  0
DIMENSION
  5
891
100
AcDbEntity
  8
0
100
AcDbDimension
 62
2
  6
CONTINUOUS
  2
*D25
 10
175.7532989129
 20
2091.8566069783
 11
175.7532989129
 21
1632.3566069783
 70
160
 71
2
 42
919.0
  3
DIMSTYLE_2
100
AcDbAlignedDimension
 13
139.1827456397
 23
1172.8566069783
 14
128.1532989129
 24
2091.8566069783
 50
90.0
100
AcDbRotatedDimension
  0
DIMENSION
  5
892
100
AcDbEntity
  8
0
100
AcDbDimension
 62
2
  6
CONTINUOUS
  2
*D26
 10
182.7532989129
 20
2393.8566069783
 11
182.7532989129
 21
1783.3566069783
 70
160
 71
2
 42
1221.0
  3
DIMSTYLE_7
100
AcDbAlignedDimension
 13
139.1827456397
 23
1172.8566069783
 14
128.1532989129
 24
2393.8566069783
 50
90.0
100
AcDbRotatedDimension
  0
DIMENSION
  5
893
100
AcDbEntity
  8
0
100
AcDbDimension
 62
2
  6
CONTINUOUS
  2
*D27
 10
133.8782989129
 20
1144.3010140185
 11
127.7532989129
 21
1144.3010140185
 70
160
 71
2
 42
12.25
  3
DIMSTYLE_8
100
AcDbAlignedDimension
 13
121.6282989129
 23
1136.3566069783
 14
133.8782989129
 24
1136.3566069783
100
AcDbRotatedDimension
  0
DIMENSION
  5
894
100
AcDbEntity
  8
0
100
AcDbDimension
 62
2
  6
CONTINUOUS
  2
*D28
 10
97.7532989129
 20
1075.8566069783
 11
97.7532989129
 21
1106.8566069783
 70
160
 71
2
 42
62.0
  3
DIMSTYLE_1
100
AcDbAlignedDimension
 13
123.1282989129
 23
1137.8566069783
 14
123.1282989129
 24
1075.8566069783
 50
270.0
100
AcDbRotatedDimension
  0
DIMENSION
  5
895
100
AcDbEntity
  8
0
100
AcDbDimension
 62
2
  6
CONTINUOUS
  2
*D29
 10
137.7532989129
 20
1069.6570713987
 11
131.6390062215
 21
1069.6570713987
 70
160
 71
2
 42
10.0
  3
DIMSTYLE_4
100
AcDbAlignedDimension
 13
127.7532989129
 23
1074.4295409203
 14
137.7532989129
 24
1173.7066069783
100
AcDbRotatedDimension
  0
DIMENSION
  5
896
100
AcDbEntity
  8
0
100
AcDbDimension
 62
2
  6
CONTINUOUS
  2
*D30
 10
119.7532989129
 20
2461.8566069783
 11
128.7532989129
 21
2461.8566069783
 70
160
 71
2
 42
18.0
  3
DIMSTYLE_4
100
AcDbAlignedDimension
 13
137.7532989129
 23
2451.8566069783
 14
119.7532989129
 24
2402.2566069783
 50
180.0
100
AcDbRotatedDimension
  0
TEXT
  5
897
100
AcDbEntity
  8
0
100
AcDbText
 62
5
  6
CONTINUOUS
 10
20.4692818378
 20
67.2440831163
  7
STANDARD
 40
5.0
  1
A-A
 72
5
 11
32.0863822096
 21
67.2440831163
100
AcDbText
  0
INSERT
  5
898
100
AcDbEntity
  8
0
100
AcDbBlockReference
 62
2
  6
CONTINUOUS
  2
SYMBOL_3_BL30
 10
31.0000000239
 20
34.9999999785
  0
LINE
  5
899
100
AcDbEntity
  8
S-AXIS
100
AcDbLine
 62
7
  6
CENTER
 10
139.1827456397
 20
1172.8566069783
 11
106.2956349588
 21
1172.8566069783
  0
LINE
  5
89A
100
AcDbEntity
  8
S-AXIS
100
AcDbLine
 62
7
  6
CENTER
 10
39.8500424036
 20
1172.8566069783
 11
14.6500424036
 21
1172.8566069783
  0
INSERT
  5
89B
100
AcDbEntity
  8
HATCHING_BL0
100
AcDbBlockReference
  2
HATCHING_BL0
 10
24.8018627332
 20
1953.0413167839
  0
INSERT
  5
89C
100
AcDbEntity
  8
94818813L00_BL1
100
AcDbBlockReference
  2
94818813L00_BL1
 10
77.2016706582
 20
1266.3971861113
  0
INSERT
  5
89D
100
AcDbEntity
  8
94528901000_M_BL2
100
AcDbBlockReference
  2
94528901000_M_BL2
 10
79.4530678328
 20
382.7566069783
  0
INSERT
  5
89E
100
AcDbEntity
  8
94529001000_BL3
100
AcDbBlockReference
  2
94529001000_BL3
 10
76.9516706582
 20
412.8566069783
  0
INSERT
  5
89F
100
AcDbEntity
  8
94663701000_BL4
100
AcDbBlockReference
  2
94663701000_BL4
 10
79.4516706582
 20
412.8566069783
  0
INSERT
  5
8A0
100
AcDbEntity
  8
94528901000_M_BL5
100
AcDbBlockReference
  2
94528901000_M_BL5
 10
79.4530678328
 20
442.9566069783
  0
INSERT
  5
8A1
100
AcDbEntity
  8
94663701000_BL6
100
AcDbBlockReference
  2
94663701000_BL6
 10
79.4516706582
 20
1002.8984430119
  0
INSERT
  5
8A2
100
AcDbEntity
  8
94529001000_BL7
100
AcDbBlockReference
  2
94529001000_BL7
 10
76.9516706582
 20
1013.6539224441
  0
INSERT
  5
8A3
100
AcDbEntity
  8
94528901000_M_BL8
100
AcDbBlockReference
  2
94528901000_M_BL8
 10
79.1016706582
 20
1013.1971861113
  0
INSERT
  5
8A4
100
AcDbEntity
  8
94528901000_M_BL9
100
AcDbBlockReference
  2
94528901000_M_BL9
 10
79.4530678328
 20
1872.7566069783
  0
INSERT
  5
8A5
100
AcDbEntity
  8
93894102000_BL10
100
AcDbBlockReference
  2
93894102000_BL10
 10
77.2016706582
 20
1197.8566069783
  0
INSERT
  5
8A6
100
AcDbEntity
  8
93894203000_BL11
100
AcDbBlockReference
  2
93894203000_BL11
 10
77.2016706582
 20
1197.8566069783
  0
INSERT
  5
8A7
100
AcDbEntity
  8
93780800R00_BL12
100
AcDbBlockReference
  2
93780800R00_BL12
 10
123.7532989129
 20
1182.3566069783
  0
INSERT
  5
8A8
100
AcDbEntity
  8
62890203000_STELLUNG_1_BL13
100
AcDbBlockReference
  2
62890203000_STELLUNG_1_BL13
 10
77.2016594467
 20
1197.8566069783
  0
INSERT
  5
8A9
100
AcDbEntity
  8
93780800R00_BL14
100
AcDbBlockReference
  2
93780800R00_BL14
 10
123.7532989129
 20
1213.3566069783
  0
INSERT
  5
8AA
100
AcDbEntity
  8
93764299000_O3A_BL15
100
AcDbBlockReference
  2
93764299000_O3A_BL15
 10
27.5994555274
 20
196.8566069783
  0
INSERT
  5
8AB
100
AcDbEntity
  8
93764299000_O3A_BL16
100
AcDbBlockReference
  2
93764299000_O3A_BL16
 10
27.5994555274
 20
371.8566069783
  0
INSERT
  5
8AC
100
AcDbEntity
  8
93764299000_O3A_BL17
100
AcDbBlockReference
  2
93764299000_O3A_BL17
 10
27.5994555274
 20
467.8566069783
  0
INSERT
  5
8AD
100
AcDbEntity
  8
93764299000_O3A_BL18
100
AcDbBlockReference
  2
93764299000_O3A_BL18
 10
27.5994555274
 20
766.8566069783
  0
INSERT
  5
8AE
100
AcDbEntity
  8
93764299000_O3A_BL19
100
AcDbBlockReference
  2
93764299000_O3A_BL19
 10
27.5994555274
 20
1070.8566069783
  0
INSERT
  5
8AF
100
AcDbEntity
  8
93764299000_O3A_BL20
100
AcDbBlockReference
  2
93764299000_O3A_BL20
 10
27.5994555274
 20
1161.8566069783
  0
INSERT
  5
8B0
100
AcDbEntity
  8
93764299000_O3A_BL21
100
AcDbBlockReference
  2
93764299000_O3A_BL21
 10
27.5994555274
 20
1273.8566069783
  0
INSERT
  5
8B1
100
AcDbEntity
  8
93764299000_O3A_BL22
100
AcDbBlockReference
  2
93764299000_O3A_BL22
 10
27.5994555274
 20
1580.8566069783
  0
INSERT
  5
8B2
100
AcDbEntity
  8
93764299000_O3A_BL23
100
AcDbBlockReference
  2
93764299000_O3A_BL23
 10
25.6000424036
 20
973.0971861113
  0
INSERT
  5
8B3
100
AcDbEntity
  8
93764299000_O3A_BL24
100
AcDbBlockReference
  2
93764299000_O3A_BL24
 10
27.5994555274
 20
1957.8566069783
  0
INSERT
  5
8B4
100
AcDbEntity
  8
93764299000_O3A_BL25
100
AcDbBlockReference
  2
93764299000_O3A_BL25
 10
27.5994555274
 20
2098.8566069783
  0
INSERT
  5
8B5
100
AcDbEntity
  8
93764299000_O3A_BL26
100
AcDbBlockReference
  2
93764299000_O3A_BL26
 10
27.5994555274
 20
2400.8566069783
  0
INSERT
  5
8B6
100
AcDbEntity
  8
91511100099_BL27
100
AcDbBlockReference
  2
91511100099_BL27
 10
24.3500424036
 20
90.9377652444
  0
INSERT
  5
8B7
100
AcDbEntity
  8
91324206R00_BL28
100
AcDbBlockReference
  2
91324206R00_BL28
 10
125.7532989129
 20
1171.6066069783
  0
INSERT
  5
8B8
100
AcDbEntity
  8
91324206R00_BL29
100
AcDbBlockReference
  2
91324206R00_BL29
 10
125.7532989129
 20
1224.1066069783
  0
ENDSEC
  0
SECTION
  2
OBJECTS
  0
DICTIONARY
  5
C
100
AcDbDictionary
280
0
281
1
  3
ACAD_GROUP
350
D
  3
ACAD_MLINESTYLE
350
17
  3
ACAD_LAYOUT
350
1A
  3
ACAD_PLOTSETTINGS
350
19
  3
ACAD_PLOTSTYLENAME
350
E
  0
DICTIONARY
  5
D
102
{ACAD_REACTORS
330
C
102
}
100
AcDbDictionary
280
0
281
1
  0
ACDBDICTIONARYWDFLT
  5
E
102
{ACAD_REACTORS
330
C
102
}
100
AcDbDictionary
281
1
  3
Normal
350
F
100
AcDbDictionaryWithDefault
340
F
  0
DICTIONARY
  5
17
102
{ACAD_REACTORS
330
C
102
}
100
AcDbDictionary
280
0
281
1
  3
Standard
350
18
  0
DICTIONARY
  5
19
102
{ACAD_REACTORS
330
C
102
}
100
AcDbDictionary
281
1
  0
DICTIONARY
  5
1A
102
{ACAD_REACTORS
330
C
102
}
100
AcDbDictionary
281
1
  3
Model
350
8B9
  3
Layout1
350
8BA
  0
ACDBPLACEHOLDER
  5
F
102
{ACAD_REACTORS
330
E
102
}
  0
MLINESTYLE
  5
18
102
{ACAD_REACTORS
330
17
102
}
100
AcDbMlineStyle
  2
STANDARD
 70
0
  3

 62
256
 51
90.0
 52
90.0
 71
2
 49
0.5
 62
256
  6
BYLAYER
 49
-0.5
 62
256
  6
BYLAYER
  0
LAYOUT
  5
8B9
102
{ACAD_REACTORS
330
1A
102
}
100
AcDbPlotSettings
  1

  2
none_device
  4

  6

 40
0.0
 41
0.0
 42
0.0
 43
0.0
 44
200.0
 45
2480.0
 46
0.0
 47
0.0
 48
0.0
 49
0.0
140
0.0
141
0.0
142
1.0
143
1.0
 70
1024
 72
1
 73
0
 74
0
  7

 75
0
147
1.0
148
0.0
149
0.0
100
AcDbLayout
  1
Model
 70
0
 71
0
 10
0.0
 20
0.0
 11
200.0
 21
2480.0
 12
0.0
 22
0.0
 32
0.0
 14
0.0
 24
0.0
 34
0.0
 15
0.0
 25
0.0
 35
0.0
146
0.0
 13
0.0
 23
0.0
 33
0.0
 16
1.0
 26
0.0
 36
0.0
 17
0.0
 27
1.0
 37
0.0
 76
0
330
22C
345
0
346
0
  0
LAYOUT
  5
8BA
102
{ACAD_REACTORS
330
1A
102
}
100
AcDbPlotSettings
  1

  2
none_device
  4

  6

 40
0.0
 41
0.0
 42
0.0
 43
0.0
 44
200.0
 45
2480.0
 46
0.0
 47
0.0
 48
0.0
 49
0.0
140
0.0
141
0.0
142
1.0
143
1.0
 70
0
 72
1
 73
0
 74
0
  7

 75
0
147
1.0
148
0.0
149
0.0
100
AcDbLayout
  1
Layout1
 70
0
 71
1
 10
0.0
 20
0.0
 11
200.0
 21
2480.0
 12
0.0
 22
0.0
 32
0.0
 14
0.0
 24
0.0
 34
0.0
 15
0.0
 25
0.0
 35
0.0
146
0.0
 13
0.0
 23
0.0
 33
0.0
 16
1.0
 26
0.0
 36
0.0
 17
0.0
 27
1.0
 37
0.0
 76
0
330
22D
345
0
346
0
  0
ENDSEC
  0
EOF
