  0
SECTION
  2
HEADER
  9
$ACADVER
  1
AC1021
  9
$DWGCODEPAGE
  3
ANSI_1252
  9
$EXTMAX
 10
225.0
 20
2150.0
 30
0.0
  9
$EXTMIN
 10
0.0
 20
0.0
 30
0.0
  9
$LIMMIN
 10
0.0
 20
0.0
  9
$LIMMAX
 10
225.0
 20
2150.0
  9
$VIEWCTR
 10
112.5
 20
1075.0
  9
$VIEWSIZE
 40
2150.0
  9
$CLAYER
  8
0
  9
$LTSCALE
 40
140.1481481481
  9
$CELTYPE
  6
BYLAYER
  9
$DIMSCALE
 40
1.0
  9
$DIMASZ
 40
3.5
  9
$DIMEXO
 40
0.0
  9
$DIMDLI
 40
96.8296296296
  9
$DIMEXE
 40
1.0
  9
$DIMCEN
 40
22.9333333333
  9
$DIMLFAC
 40
1.0
  9
$DIMBLK
  1
_FILLED
  9
$DIMTXT
 40
2.5
  9
$DIMTOL
 70
1
  9
$DIMLIM
 70
0
  9
$DIMTFAC
 40
1.0
  9
$DIMTP
 40
0.001
  9
$DIMTM
 40
0.001
  9
$DIMGAP
 40
0.625
  9
$DIMDSEP
 70
46
  9
$PDMODE
 70
3
  9
$PDSIZE
 40
2.0
  9
$HANDSEED
  5
905
  9
$TILEMODE
 70
1
  9
$MEASUREMENT
 70
1
  9
$INSUNITS
 70
4
  0
ENDSEC
  0
SECTION
  2
CLASSES
  0
CLASS
  1
ACDBDICTIONARYWDFLT
  2
AcDbDictionaryWithDefault
  3
AutoCAD 2000
 90
0
 91
1
280
0
281
0
  0
CLASS
  1
ACDBPLACEHOLDER
  2
AcDbPlaceHolder
  3
AutoCAD 2000
 90
0
 91
1
280
0
281
0
  0
CLASS
  1
LAYOUT
  2
AcDbLayout
  3
AutoCAD 2000
 90
0
 91
0
280
0
281
0
  0
ENDSEC
  0
SECTION
  2
TABLES
  0
TABLE
  2
VPORT
  5
8
100
AcDbSymbolTable
 70
2
  0
VPORT
  5
1F4
100
AcDbSymbolTableRecord
100
AcDbViewportTableRecord
  2
*ACTIVE
 70
0
 10
0.0
 20
0.0
 11
1.0
 21
1.0
 12
112.5
 22
1075.0
 13
0.0
 23
0.0
 14
1.0
 24
1.0
 15
0.0
 25
0.0
 16
0.0
 26
0.0
 36
1.0
 17
0.0
 27
0.0
 37
0.0
 40
2150.0
 41
0.1046511628
 42
50.0
 43
0.0
 44
0.0
 50
0.0
 51
0.0
 71
0
 72
100
 73
1
 74
1
 75
0
 76
0
 77
0
 78
0
  0
ENDTAB
  0
TABLE
  2
LTYPE
  5
5
100
AcDbSymbolTable
 70
6
  0
LTYPE
  5
14
100
AcDbSymbolTableRecord
100
AcDbLinetypeTableRecord
  2
BYBLOCK
 70
0
  3

 72
65
 73
0
 40
0.0
  0
LTYPE
  5
15
100
AcDbSymbolTableRecord
100
AcDbLinetypeTableRecord
  2
BYLAYER
 70
0
  3

 72
65
 73
0
 40
0.0
  0
LTYPE
  5
16
100
AcDbSymbolTableRecord
100
AcDbLinetypeTableRecord
  2
CONTINUOUS
 70
64
  3
Solid line
 72
65
 73
0
 40
0.0
  0
LTYPE
  5
1F5
100
AcDbSymbolTableRecord
100
AcDbLinetypeTableRecord
  2
CENTER
 70
64
  3
____ _ ____ _ ____ _ ____ _ ____ _ ____ _ ____
 72
65
 73
4
 40
0.6
 49
0.375
 74
0
 49
-0.075
 74
0
 49
0.075
 74
0
 49
-0.075
 74
0
  0
LTYPE
  5
1F6
100
AcDbSymbolTableRecord
100
AcDbLinetypeTableRecord
  2
HIDDEN
 70
64
  3
- - - - - - - - - - - - - - - - - - - -
 72
65
 73
2
 40
0.2
 49
0.1
 74
0
 49
-0.1
 74
0
  0
LTYPE
  5
1F7
100
AcDbSymbolTableRecord
100
AcDbLinetypeTableRecord
  2
PHANTOM
 70
64
  3
_____ _ _ _____ _ _ _____ _ _ _____
 72
65
 73
6
 40
0.8
 49
0.45
 74
0
 49
-0.05
 74
0
 49
0.1
 74
0
 49
-0.05
 74
0
 49
0.1
 74
0
 49
-0.05
 74
0
  0
LTYPE
  5
1F8
100
AcDbSymbolTableRecord
100
AcDbLinetypeTableRecord
  2
DOT
 70
64
  3
. . . . . . . . . . . . . . . . . . . .
 72
65
 73
2
 40
0.2
 49
0.1
 74
0
 49
-0.1
 74
0
  0
LTYPE
  5
1F9
100
AcDbSymbolTableRecord
100
AcDbLinetypeTableRecord
  2
DASHED
 70
64
  3
- - - - - - - - - - - - - - - - - - - -
 72
65
 73
2
 40
0.2
 49
0.1
 74
0
 49
-0.1
 74
0
  0
ENDTAB
  0
TABLE
  2
LAYER
  5
2
100
AcDbSymbolTable
 70
36
  0
LAYER
  5
10
100
AcDbSymbolTableRecord
100
AcDbLayerTableRecord
  2
0
 70
0
 62
7
  6
CONTINUOUS
370
-3
390
F
  0
LAYER
  5
1FA
100
AcDbSymbolTableRecord
100
AcDbLayerTableRecord
  2
DEFAULT_1
 70
0
 62
7
  6
CENTER
370
-3
390
F
  0
LAYER
  5
1FB
100
AcDbSymbolTableRecord
100
AcDbLayerTableRecord
  2
DEFAULT_2
 70
0
 62
8
  6
HIDDEN
370
-3
390
F
  0
LAYER
  5
1FC
100
AcDbSymbolTableRecord
100
AcDbLayerTableRecord
  2
DEFAULT_3
 70
0
 62
7
  6
PHANTOM
370
-3
390
F
  0
LAYER
  5
1FD
100
AcDbSymbolTableRecord
100
AcDbLayerTableRecord
  2
ACHSEN
 70
0
 62
7
  6
CONTINUOUS
370
-3
390
F
  0
LAYER
  5
1FE
100
AcDbSymbolTableRecord
100
AcDbLayerTableRecord
  2
AXIS
 70
0
 62
7
  6
CONTINUOUS
370
-3
390
F
  0
LAYER
  5
1FF
100
AcDbSymbolTableRecord
100
AcDbLayerTableRecord
  2
COORDSYS
 70
0
 62
7
  6
CONTINUOUS
370
-3
390
F
  0
LAYER
  5
200
100
AcDbSymbolTableRecord
100
AcDbLayerTableRecord
  2
CURVES
 70
0
 62
7
  6
CONTINUOUS
370
-3
390
F
  0
LAYER
  5
201
100
AcDbSymbolTableRecord
100
AcDbLayerTableRecord
  2
EBENEN
 70
0
 62
7
  6
CONTINUOUS
370
-3
390
F
  0
LAYER
  5
202
100
AcDbSymbolTableRecord
100
AcDbLayerTableRecord
  2
EINBAUREFERENZ
 70
0
 62
7
  6
CONTINUOUS
370
-3
390
F
  0
LAYER
  5
203
100
AcDbSymbolTableRecord
100
AcDbLayerTableRecord
  2
FORM_LAGE
 70
0
 62
7
  6
CONTINUOUS
370
-3
390
F
  0
LAYER
  5
204
100
AcDbSymbolTableRecord
100
AcDbLayerTableRecord
  2
FORM_UND_LAGE
 70
0
 62
7
  6
CONTINUOUS
370
-3
390
F
  0
LAYER
  5
205
100
AcDbSymbolTableRecord
100
AcDbLayerTableRecord
  2
GRUNDBEMASSUNGEN
 70
0
 62
7
  6
CONTINUOUS
370
-3
390
F
  0
LAYER
  5
206
100
AcDbSymbolTableRecord
100
AcDbLayerTableRecord
  2
KOSMETIK
 70
0
 62
7
  6
CONTINUOUS
370
-3
390
F
  0
LAYER
  5
207
100
AcDbSymbolTableRecord
100
AcDbLayerTableRecord
  2
KOSMETIK-FUEHRUNGSSEITE
 70
0
 62
7
  6
CONTINUOUS
370
-3
390
F
  0
LAYER
  5
208
100
AcDbSymbolTableRecord
100
AcDbLayerTableRecord
  2
KOSMETIK_2
 70
0
 62
7
  6
CONTINUOUS
370
-3
390
F
  0
LAYER
  5
209
100
AcDbSymbolTableRecord
100
AcDbLayerTableRecord
  2
LASERKONTUR
 70
0
 62
7
  6
CONTINUOUS
370
-3
390
F
  0
LAYER
  5
20A
100
AcDbSymbolTableRecord
100
AcDbLayerTableRecord
  2
PLANES
 70
0
 62
7
  6
CONTINUOUS
370
-3
390
F
  0
LAYER
  5
20B
100
AcDbSymbolTableRecord
100
AcDbLayerTableRecord
  2
POINTS
 70
0
 62
7
  6
CONTINUOUS
370
-3
390
F
  0
LAYER
  5
20C
100
AcDbSymbolTableRecord
100
AcDbLayerTableRecord
  2
PROFIL-EINBAULAGE
 70
0
 62
7
  6
CONTINUOUS
370
-3
390
F
  0
LAYER
  5
20D
100
AcDbSymbolTableRecord
100
AcDbLayerTableRecord
  2
QUERSCHNITTE
 70
0
 62
7
  6
CONTINUOUS
370
-3
390
F
  0
LAYER
  5
20E
100
AcDbSymbolTableRecord
100
AcDbLayerTableRecord
  2
RSK_OEFFNUNG
 70
0
 62
7
  6
CONTINUOUS
370
-3
390
F
  0
LAYER
  5
20F
100
AcDbSymbolTableRecord
100
AcDbLayerTableRecord
  2
S-AXIS
 70
0
 62
7
  6
CONTINUOUS
370
-3
390
F
  0
LAYER
  5
210
100
AcDbSymbolTableRecord
100
AcDbLayerTableRecord
  2
S-COORD-SYS
 70
0
 62
7
  6
CONTINUOUS
370
-3
390
F
  0
LAYER
  5
211
100
AcDbSymbolTableRecord
100
AcDbLayerTableRecord
  2
S-COORDSYS
 70
0
 62
7
  6
CONTINUOUS
370
-3
390
F
  0
LAYER
  5
212
100
AcDbSymbolTableRecord
100
AcDbLayerTableRecord
  2
S-PLANES
 70
0
 62
7
  6
CONTINUOUS
370
-3
390
F
  0
LAYER
  5
213
100
AcDbSymbolTableRecord
100
AcDbLayerTableRecord
  2
SKIZZE
 70
0
 62
7
  6
CONTINUOUS
370
-3
390
F
  0
LAYER
  5
214
100
AcDbSymbolTableRecord
100
AcDbLayerTableRecord
  2
THREADS
 70
0
 62
7
  6
CONTINUOUS
370
-3
390
F
  0
LAYER
  5
215
100
AcDbSymbolTableRecord
100
AcDbLayerTableRecord
  2
XSEC_DATUMS
 70
0
 62
7
  6
CONTINUOUS
370
-3
390
F
  0
LAYER
  5
216
100
AcDbSymbolTableRecord
100
AcDbLayerTableRecord
  2
94934430R00_BL0
 70
0
 62
7
  6
CONTINUOUS
370
-3
390
F
  0
LAYER
  5
217
100
AcDbSymbolTableRecord
100
AcDbLayerTableRecord
  2
94944601000_M2_BL1
 70
0
 62
7
  6
CONTINUOUS
370
-3
390
F
  0
LAYER
  5
218
100
AcDbSymbolTableRecord
100
AcDbLayerTableRecord
  2
94528905000_BL2
 70
0
 62
7
  6
CONTINUOUS
370
-3
390
F
  0
LAYER
  5
219
100
AcDbSymbolTableRecord
100
AcDbLayerTableRecord
  2
94621099000_BL3
 70
0
 62
7
  6
CONTINUOUS
370
-3
390
F
  0
LAYER
  5
21A
100
AcDbSymbolTableRecord
100
AcDbLayerTableRecord
  2
94528905000_BL4
 70
0
 62
7
  6
CONTINUOUS
370
-3
390
F
  0
LAYER
  5
21B
100
AcDbSymbolTableRecord
100
AcDbLayerTableRecord
  2
94944601000_M2_BL5
 70
0
 62
7
  6
CONTINUOUS
370
-3
390
F
  0
LAYER
  5
21C
100
AcDbSymbolTableRecord
100
AcDbLayerTableRecord
  2
94944601000_M2_BL6
 70
0
 62
7
  6
CONTINUOUS
370
-3
390
F
  0
LAYER
  5
21D
100
AcDbSymbolTableRecord
100
AcDbLayerTableRecord
  2
94528905000_BL7
 70
0
 62
7
  6
CONTINUOUS
370
-3
390
F
  0
LAYER
  5
21E
100
AcDbSymbolTableRecord
100
AcDbLayerTableRecord
  2
94528905000_BL8
 70
0
 62
7
  6
CONTINUOUS
370
-3
390
F
  0
LAYER
  5
21F
100
AcDbSymbolTableRecord
100
AcDbLayerTableRecord
  2
94944601000_M2_BL9
 70
0
 62
7
  6
CONTINUOUS
370
-3
390
F
  0
LAYER
  5
220
100
AcDbSymbolTableRecord
100
AcDbLayerTableRecord
  2
94855303000_BL10
 70
0
 62
7
  6
CONTINUOUS
370
-3
390
F
  0
LAYER
  5
221
100
AcDbSymbolTableRecord
100
AcDbLayerTableRecord
  2
94625701000_BL11
 70
0
 62
7
  6
CONTINUOUS
370
-3
390
F
  0
LAYER
  5
222
100
AcDbSymbolTableRecord
100
AcDbLayerTableRecord
  2
93894201000_BL12
 70
0
 62
7
  6
CONTINUOUS
370
-3
390
F
  0
LAYER
  5
223
100
AcDbSymbolTableRecord
100
AcDbLayerTableRecord
  2
93780800R00_BL13
 70
0
 62
7
  6
CONTINUOUS
370
-3
390
F
  0
LAYER
  5
224
100
AcDbSymbolTableRecord
100
AcDbLayerTableRecord
  2
62890228000_BL14
 70
0
 62
7
  6
CONTINUOUS
370
-3
390
F
  0
LAYER
  5
225
100
AcDbSymbolTableRecord
100
AcDbLayerTableRecord
  2
93780800R00_BL15
 70
0
 62
7
  6
CONTINUOUS
370
-3
390
F
  0
LAYER
  5
226
100
AcDbSymbolTableRecord
100
AcDbLayerTableRecord
  2
94322000000_BL16
 70
0
 62
7
  6
CONTINUOUS
370
-3
390
F
  0
LAYER
  5
227
100
AcDbSymbolTableRecord
100
AcDbLayerTableRecord
  2
94621099000_BL17
 70
0
 62
7
  6
CONTINUOUS
370
-3
390
F
  0
LAYER
  5
228
100
AcDbSymbolTableRecord
100
AcDbLayerTableRecord
  2
94944601000_M2_BL18
 70
0
 62
7
  6
CONTINUOUS
370
-3
390
F
  0
LAYER
  5
229
100
AcDbSymbolTableRecord
100
AcDbLayerTableRecord
  2
94944601000_M2_BL19
 70
0
 62
7
  6
CONTINUOUS
370
-3
390
F
  0
LAYER
  5
22A
100
AcDbSymbolTableRecord
100
AcDbLayerTableRecord
  2
94944601000_M2_BL20
 70
0
 62
7
  6
CONTINUOUS
370
-3
390
F
  0
LAYER
  5
22B
100
AcDbSymbolTableRecord
100
AcDbLayerTableRecord
  2
94944601000_M2_BL21
 70
0
 62
7
  6
CONTINUOUS
370
-3
390
F
  0
LAYER
  5
22C
100
AcDbSymbolTableRecord
100
AcDbLayerTableRecord
  2
94320001000_M1_BL22
 70
0
 62
7
  6
CONTINUOUS
370
-3
390
F
  0
LAYER
  5
22D
100
AcDbSymbolTableRecord
100
AcDbLayerTableRecord
  2
94320001000_M1_BL23
 70
0
 62
7
  6
CONTINUOUS
370
-3
390
F
  0
LAYER
  5
22E
100
AcDbSymbolTableRecord
100
AcDbLayerTableRecord
  2
94320001000_M1_BL24
 70
0
 62
7
  6
CONTINUOUS
370
-3
390
F
  0
LAYER
  5
22F
100
AcDbSymbolTableRecord
100
AcDbLayerTableRecord
  2
91324208R00_BL25
 70
0
 62
7
  6
CONTINUOUS
370
-3
390
F
  0
LAYER
  5
230
100
AcDbSymbolTableRecord
100
AcDbLayerTableRecord
  2
94996201000_BL26
 70
0
 62
7
  6
CONTINUOUS
370
-3
390
F
  0
LAYER
  5
231
100
AcDbSymbolTableRecord
100
AcDbLayerTableRecord
  2
94320001000_M1_BL27
 70
0
 62
7
  6
CONTINUOUS
370
-3
390
F
  0
LAYER
  5
232
100
AcDbSymbolTableRecord
100
AcDbLayerTableRecord
  2
91324208R00_BL28
 70
0
 62
7
  6
CONTINUOUS
370
-3
390
F
  0
LAYER
  5
233
100
AcDbSymbolTableRecord
100
AcDbLayerTableRecord
  2
94342601000_M_BL29
 70
0
 62
7
  6
CONTINUOUS
370
-3
390
F
  0
LAYER
  5
234
100
AcDbSymbolTableRecord
100
AcDbLayerTableRecord
  2
94923403000_BL30
 70
0
 62
7
  6
CONTINUOUS
370
-3
390
F
  0
LAYER
  5
235
100
AcDbSymbolTableRecord
100
AcDbLayerTableRecord
  2
94968401R00_BL31
 70
0
 62
7
  6
CONTINUOUS
370
-3
390
F
  0
LAYER
  5
236
100
AcDbSymbolTableRecord
100
AcDbLayerTableRecord
  2
94319401000_BL32
 70
0
 62
7
  6
CONTINUOUS
370
-3
390
F
  0
LAYER
  5
237
100
AcDbSymbolTableRecord
100
AcDbLayerTableRecord
  2
94925801R00_BL33
 70
0
 62
7
  6
CONTINUOUS
370
-3
390
F
  0
ENDTAB
  0
TABLE
  2
STYLE
  5
3
100
AcDbSymbolTable
 70
1
  0
STYLE
  5
11
100
AcDbSymbolTableRecord
100
AcDbTextStyleTableRecord
  2
STANDARD
 70
0
 40
0.0
 41
0.8
 50
0.0
 71
0
 42
0.2
  3
txt
  4

  0
STYLE
  5
238
100
AcDbSymbolTableRecord
100
AcDbTextStyleTableRecord
  2
TEXTSTYLE_1
 70
0
 40
0.0
 41
0.8
 50
0.0
 71
0
 42
0.2
  3
gdt
  4

  0
STYLE
  5
239
100
AcDbSymbolTableRecord
100
AcDbTextStyleTableRecord
  2
TEXTSTYLE_2
 70
0
 40
0.0
 41
1.0
 50
0.0
 71
0
 42
0.2
  3
arialbd.ttf
  4

  0
STYLE
  5
23A
100
AcDbSymbolTableRecord
100
AcDbTextStyleTableRecord
  2
TEXTSTYLE_3
 70
0
 40
0.0
 41
1.0
 50
0.0
 71
0
 42
0.2
  3
arial.ttf
  4

  0
ENDTAB
  0
TABLE
  2
VIEW
  5
6
100
AcDbSymbolTable
 70
0
  0
ENDTAB
  0
TABLE
  2
UCS
  5
7
100
AcDbSymbolTable
 70
0
  0
ENDTAB
  0
TABLE
  2
APPID
  5
9
100
AcDbSymbolTable
 70
1
  0
APPID
  5
23B
100
AcDbSymbolTableRecord
100
AcDbRegAppTableRecord
  2
ACAD
 70
0
  0
ENDTAB
  0
TABLE
  2
BLOCK_RECORD
  5
1
100
AcDbSymbolTable
 70
0
  0
BLOCK_RECORD
  5
23C
100
AcDbSymbolTableRecord
100
AcDbBlockTableRecord
  2
*Model_Space
  0
BLOCK_RECORD
  5
23D
100
AcDbSymbolTableRecord
100
AcDbBlockTableRecord
  2
*Paper_Space
  0
BLOCK_RECORD
  5
23E
100
AcDbSymbolTableRecord
100
AcDbBlockTableRecord
  2
_FILLED
  0
BLOCK_RECORD
  5
23F
100
AcDbSymbolTableRecord
100
AcDbBlockTableRecord
  2
*D0
  0
BLOCK_RECORD
  5
240
100
AcDbSymbolTableRecord
100
AcDbBlockTableRecord
  2
*D1
  0
BLOCK_RECORD
  5
241
100
AcDbSymbolTableRecord
100
AcDbBlockTableRecord
  2
*D2
  0
BLOCK_RECORD
  5
242
100
AcDbSymbolTableRecord
100
AcDbBlockTableRecord
  2
*D3
  0
BLOCK_RECORD
  5
243
100
AcDbSymbolTableRecord
100
AcDbBlockTableRecord
  2
*D4
  0
BLOCK_RECORD
  5
244
100
AcDbSymbolTableRecord
100
AcDbBlockTableRecord
  2
*D5
  0
BLOCK_RECORD
  5
245
100
AcDbSymbolTableRecord
100
AcDbBlockTableRecord
  2
*D6
  0
BLOCK_RECORD
  5
246
100
AcDbSymbolTableRecord
100
AcDbBlockTableRecord
  2
*D7
  0
BLOCK_RECORD
  5
247
100
AcDbSymbolTableRecord
100
AcDbBlockTableRecord
  2
*D8
  0
BLOCK_RECORD
  5
248
100
AcDbSymbolTableRecord
100
AcDbBlockTableRecord
  2
*D9
  0
BLOCK_RECORD
  5
249
100
AcDbSymbolTableRecord
100
AcDbBlockTableRecord
  2
*D10
  0
BLOCK_RECORD
  5
24A
100
AcDbSymbolTableRecord
100
AcDbBlockTableRecord
  2
*D11
  0
BLOCK_RECORD
  5
24B
100
AcDbSymbolTableRecord
100
AcDbBlockTableRecord
  2
*D12
  0
BLOCK_RECORD
  5
24C
100
AcDbSymbolTableRecord
100
AcDbBlockTableRecord
  2
*D13
  0
BLOCK_RECORD
  5
24D
100
AcDbSymbolTableRecord
100
AcDbBlockTableRecord
  2
*D14
  0
BLOCK_RECORD
  5
24E
100
AcDbSymbolTableRecord
100
AcDbBlockTableRecord
  2
*D15
  0
BLOCK_RECORD
  5
24F
100
AcDbSymbolTableRecord
100
AcDbBlockTableRecord
  2
*D16
  0
BLOCK_RECORD
  5
250
100
AcDbSymbolTableRecord
100
AcDbBlockTableRecord
  2
*D17
  0
BLOCK_RECORD
  5
251
100
AcDbSymbolTableRecord
100
AcDbBlockTableRecord
  2
*D18
  0
BLOCK_RECORD
  5
252
100
AcDbSymbolTableRecord
100
AcDbBlockTableRecord
  2
*D19
  0
BLOCK_RECORD
  5
253
100
AcDbSymbolTableRecord
100
AcDbBlockTableRecord
  2
*D20
  0
BLOCK_RECORD
  5
254
100
AcDbSymbolTableRecord
100
AcDbBlockTableRecord
  2
*D21
  0
BLOCK_RECORD
  5
255
100
AcDbSymbolTableRecord
100
AcDbBlockTableRecord
  2
*D22
  0
BLOCK_RECORD
  5
256
100
AcDbSymbolTableRecord
100
AcDbBlockTableRecord
  2
*D23
  0
BLOCK_RECORD
  5
257
100
AcDbSymbolTableRecord
100
AcDbBlockTableRecord
  2
*D24
  0
BLOCK_RECORD
  5
258
100
AcDbSymbolTableRecord
100
AcDbBlockTableRecord
  2
*D25
  0
BLOCK_RECORD
  5
259
100
AcDbSymbolTableRecord
100
AcDbBlockTableRecord
  2
*D26
  0
BLOCK_RECORD
  5
25A
100
AcDbSymbolTableRecord
100
AcDbBlockTableRecord
  2
*D27
  0
BLOCK_RECORD
  5
25B
100
AcDbSymbolTableRecord
100
AcDbBlockTableRecord
  2
*D28
  0
BLOCK_RECORD
  5
25C
100
AcDbSymbolTableRecord
100
AcDbBlockTableRecord
  2
*D29
  0
BLOCK_RECORD
  5
25D
100
AcDbSymbolTableRecord
100
AcDbBlockTableRecord
  2
*D30
  0
BLOCK_RECORD
  5
25E
100
AcDbSymbolTableRecord
100
AcDbBlockTableRecord
  2
SYMBOL_2_BL34
  0
BLOCK_RECORD
  5
25F
100
AcDbSymbolTableRecord
100
AcDbBlockTableRecord
  2
94934430R00_BL0
  0
BLOCK_RECORD
  5
260
100
AcDbSymbolTableRecord
100
AcDbBlockTableRecord
  2
94944601000_M2_BL1
  0
BLOCK_RECORD
  5
261
100
AcDbSymbolTableRecord
100
AcDbBlockTableRecord
  2
94528905000_BL2
  0
BLOCK_RECORD
  5
262
100
AcDbSymbolTableRecord
100
AcDbBlockTableRecord
  2
94621099000_BL3
  0
BLOCK_RECORD
  5
263
100
AcDbSymbolTableRecord
100
AcDbBlockTableRecord
  2
94528905000_BL4
  0
BLOCK_RECORD
  5
264
100
AcDbSymbolTableRecord
100
AcDbBlockTableRecord
  2
94944601000_M2_BL5
  0
BLOCK_RECORD
  5
265
100
AcDbSymbolTableRecord
100
AcDbBlockTableRecord
  2
94944601000_M2_BL6
  0
BLOCK_RECORD
  5
266
100
AcDbSymbolTableRecord
100
AcDbBlockTableRecord
  2
94528905000_BL7
  0
BLOCK_RECORD
  5
267
100
AcDbSymbolTableRecord
100
AcDbBlockTableRecord
  2
94528905000_BL8
  0
BLOCK_RECORD
  5
268
100
AcDbSymbolTableRecord
100
AcDbBlockTableRecord
  2
94944601000_M2_BL9
  0
BLOCK_RECORD
  5
269
100
AcDbSymbolTableRecord
100
AcDbBlockTableRecord
  2
94855303000_BL10
  0
BLOCK_RECORD
  5
26A
100
AcDbSymbolTableRecord
100
AcDbBlockTableRecord
  2
94625701000_BL11
  0
BLOCK_RECORD
  5
26B
100
AcDbSymbolTableRecord
100
AcDbBlockTableRecord
  2
93894201000_BL12
  0
BLOCK_RECORD
  5
26C
100
AcDbSymbolTableRecord
100
AcDbBlockTableRecord
  2
93780800R00_BL13
  0
BLOCK_RECORD
  5
26D
100
AcDbSymbolTableRecord
100
AcDbBlockTableRecord
  2
62890228000_BL14
  0
BLOCK_RECORD
  5
26E
100
AcDbSymbolTableRecord
100
AcDbBlockTableRecord
  2
93780800R00_BL15
  0
BLOCK_RECORD
  5
26F
100
AcDbSymbolTableRecord
100
AcDbBlockTableRecord
  2
94322000000_BL16
  0
BLOCK_RECORD
  5
270
100
AcDbSymbolTableRecord
100
AcDbBlockTableRecord
  2
94621099000_BL17
  0
BLOCK_RECORD
  5
271
100
AcDbSymbolTableRecord
100
AcDbBlockTableRecord
  2
94944601000_M2_BL18
  0
BLOCK_RECORD
  5
272
100
AcDbSymbolTableRecord
100
AcDbBlockTableRecord
  2
94944601000_M2_BL19
  0
BLOCK_RECORD
  5
273
100
AcDbSymbolTableRecord
100
AcDbBlockTableRecord
  2
94944601000_M2_BL20
  0
BLOCK_RECORD
  5
274
100
AcDbSymbolTableRecord
100
AcDbBlockTableRecord
  2
94944601000_M2_BL21
  0
BLOCK_RECORD
  5
275
100
AcDbSymbolTableRecord
100
AcDbBlockTableRecord
  2
94320001000_M1_BL22
  0
BLOCK_RECORD
  5
276
100
AcDbSymbolTableRecord
100
AcDbBlockTableRecord
  2
94320001000_M1_BL23
  0
BLOCK_RECORD
  5
277
100
AcDbSymbolTableRecord
100
AcDbBlockTableRecord
  2
94320001000_M1_BL24
  0
BLOCK_RECORD
  5
278
100
AcDbSymbolTableRecord
100
AcDbBlockTableRecord
  2
91324208R00_BL25
  0
BLOCK_RECORD
  5
279
100
AcDbSymbolTableRecord
100
AcDbBlockTableRecord
  2
94996201000_BL26
  0
BLOCK_RECORD
  5
27A
100
AcDbSymbolTableRecord
100
AcDbBlockTableRecord
  2
94320001000_M1_BL27
  0
BLOCK_RECORD
  5
27B
100
AcDbSymbolTableRecord
100
AcDbBlockTableRecord
  2
91324208R00_BL28
  0
BLOCK_RECORD
  5
27C
100
AcDbSymbolTableRecord
100
AcDbBlockTableRecord
  2
94342601000_M_BL29
  0
BLOCK_RECORD
  5
27D
100
AcDbSymbolTableRecord
100
AcDbBlockTableRecord
  2
94923403000_BL30
  0
BLOCK_RECORD
  5
27E
100
AcDbSymbolTableRecord
100
AcDbBlockTableRecord
  2
94968401R00_BL31
  0
BLOCK_RECORD
  5
27F
100
AcDbSymbolTableRecord
100
AcDbBlockTableRecord
  2
94319401000_BL32
  0
BLOCK_RECORD
  5
280
100
AcDbSymbolTableRecord
100
AcDbBlockTableRecord
  2
94925801R00_BL33
  0
ENDTAB
  0
TABLE
  2
DIMSTYLE
  5
A
100
AcDbSymbolTable
 70
1
100
AcDbDimStyleTable
 71
0
  0
DIMSTYLE
105
281
100
AcDbSymbolTableRecord
100
AcDbDimStyleTableRecord
  2
STANDARD
 70
0
  3

  4

 40
1.0
 41
3.5
 42
0.0
 43
0.38
 44
1.0
 45
0.0
 46
0.0
 47
0.001
 48
0.001
140
2.5
141
0.09
142
0.0
143
25.4
144
1.0
145
0.0
146
1.0
147
0.625
 71
1.0
 72
0.0
 73
0
 74
0
 75
0
 76
0
 77
1
 78
8
170
0
171
2
172
0
173
0
174
0
175
0
176
0
177
0
178
5
270
2
271
3
272
3
273
2
274
2
275
0
280
0
281
0
282
0
283
1
284
8
285
0
286
0
287
3
288
0
340
11
278
46
341
23E
342
23E
343
23E
344
23E
  0
DIMSTYLE
105
282
100
AcDbSymbolTableRecord
100
AcDbDimStyleTableRecord
  2
DIMSTYLE_1
 70
0
  3

  4

 40
1.0
 41
3.5
 42
0.0
 43
0.38
 44
1.0
 45
0.0
 46
0.0
 47
0.2
 48
0.2
140
2.5
141
0.09
142
0.0
143
25.4
144
1.0
145
0.0
146
1.0
147
0.625
 71
0.0
 72
0.0
 73
0
 74
0
 75
0
 76
0
 77
1
 78
8
170
0
171
2
172
0
173
0
174
0
175
0
176
0
177
0
178
5
270
2
271
3
272
3
273
2
274
2
275
0
280
0
281
0
282
0
283
1
284
8
285
0
286
0
287
3
288
0
340
11
278
46
341
23E
342
23E
343
23E
344
23E
  0
DIMSTYLE
105
283
100
AcDbSymbolTableRecord
100
AcDbDimStyleTableRecord
  2
DIMSTYLE_2
 70
0
  3

  4

 40
1.0
 41
3.5
 42
0.0
 43
0.38
 44
1.0
 45
0.0
 46
0.0
 47
0.5
 48
0.5
140
2.5
141
0.09
142
0.0
143
25.4
144
1.0
145
0.0
146
1.0
147
0.625
 71
0.0
 72
0.0
 73
0
 74
0
 75
0
 76
0
 77
1
 78
8
170
0
171
2
172
0
173
0
174
0
175
0
176
0
177
0
178
5
270
2
271
3
272
3
273
2
274
2
275
0
280
0
281
0
282
0
283
1
284
8
285
0
286
0
287
3
288
0
340
11
278
46
341
23E
342
23E
343
23E
344
23E
  0
DIMSTYLE
105
284
100
AcDbSymbolTableRecord
100
AcDbDimStyleTableRecord
  2
DIMSTYLE_3
 70
0
  3

  4

 40
1.0
 41
3.5
 42
0.0
 43
0.38
 44
1.0
 45
0.0
 46
0.0
 47
0.3
 48
0.3
140
2.5
141
0.09
142
0.0
143
25.4
144
1.0
145
0.0
146
1.0
147
0.625
 71
0.0
 72
0.0
 73
0
 74
0
 75
0
 76
0
 77
1
 78
8
170
0
171
2
172
0
173
0
174
0
175
0
176
0
177
0
178
5
270
2
271
3
272
3
273
2
274
2
275
0
280
0
281
0
282
0
283
1
284
8
285
0
286
0
287
3
288
0
340
11
278
46
341
23E
342
23E
343
23E
344
23E
  0
DIMSTYLE
105
285
100
AcDbSymbolTableRecord
100
AcDbDimStyleTableRecord
  2
DIMSTYLE_4
 70
0
  3

  4

 40
1.0
 41
3.5
 42
0.0
 43
0.38
 44
1.0
 45
0.0
 46
0.0
 47
0.8
 48
0.8
140
2.5
141
0.09
142
0.0
143
25.4
144
1.0
145
0.0
146
1.0
147
0.625
 71
0.0
 72
0.0
 73
0
 74
0
 75
0
 76
0
 77
1
 78
8
170
0
171
2
172
0
173
0
174
0
175
0
176
0
177
0
178
5
270
2
271
0
272
0
273
2
274
2
275
0
280
0
281
0
282
0
283
1
284
8
285
0
286
0
287
3
288
0
340
11
278
46
341
23E
342
23E
343
23E
344
23E
  0
DIMSTYLE
105
286
100
AcDbSymbolTableRecord
100
AcDbDimStyleTableRecord
  2
DIMSTYLE_5
 70
0
  3

  4

 40
1.0
 41
3.5
 42
0.0
 43
0.38
 44
1.0
 45
0.0
 46
0.0
 47
0.3
 48
0.3
140
2.5
141
0.09
142
0.0
143
25.4
144
1.0
145
0.0
146
1.0
147
0.625
 71
0.0
 72
0.0
 73
0
 74
0
 75
0
 76
0
 77
1
 78
8
170
0
171
2
172
0
173
0
174
0
175
0
176
0
177
0
178
5
270
2
271
0
272
0
273
2
274
2
275
0
280
0
281
0
282
0
283
1
284
8
285
0
286
0
287
3
288
0
340
11
278
46
341
23E
342
23E
343
23E
344
23E
  0
DIMSTYLE
105
287
100
AcDbSymbolTableRecord
100
AcDbDimStyleTableRecord
  2
DIMSTYLE_6
 70
0
  3

  4

 40
1.0
 41
3.5
 42
0.0
 43
0.38
 44
1.0
 45
0.0
 46
0.0
 47
0.8
 48
0.8
140
2.5
141
0.09
142
0.0
143
25.4
144
1.0
145
0.0
146
1.0
147
0.625
 71
0.0
 72
0.0
 73
0
 74
0
 75
0
 76
0
 77
1
 78
8
170
0
171
2
172
0
173
0
174
0
175
0
176
0
177
0
178
5
270
2
271
3
272
3
273
2
274
2
275
0
280
0
281
0
282
0
283
1
284
8
285
0
286
0
287
3
288
0
340
11
278
46
341
23E
342
23E
343
23E
344
23E
  0
DIMSTYLE
105
288
100
AcDbSymbolTableRecord
100
AcDbDimStyleTableRecord
  2
DIMSTYLE_7
 70
0
  3

  4

 40
1.0
 41
3.5
 42
0.0
 43
0.38
 44
1.0
 45
0.0
 46
0.0
 47
1.2
 48
1.2
140
2.5
141
0.09
142
0.0
143
25.4
144
1.0
145
0.0
146
1.0
147
0.625
 71
0.0
 72
0.0
 73
0
 74
0
 75
0
 76
0
 77
1
 78
8
170
0
171
2
172
0
173
0
174
0
175
0
176
0
177
0
178
5
270
2
271
3
272
3
273
2
274
2
275
0
280
0
281
0
282
0
283
1
284
8
285
0
286
0
287
3
288
0
340
11
278
46
341
23E
342
23E
343
23E
344
23E
  0
DIMSTYLE
105
289
100
AcDbSymbolTableRecord
100
AcDbDimStyleTableRecord
  2
DIMSTYLE_8
 70
0
  3

  4

 40
1.0
 41
3.5
 42
0.0
 43
0.38
 44
1.0
 45
0.0
 46
0.0
 47
0.1
 48
0.1
140
2.5
141
0.09
142
0.0
143
25.4
144
1.0
145
0.0
146
1.0
147
0.625
 71
0.0
 72
0.0
 73
0
 74
0
 75
0
 76
0
 77
1
 78
8
170
0
171
2
172
0
173
0
174
0
175
0
176
0
177
0
178
5
270
2
271
3
272
3
273
2
274
2
275
0
280
0
281
0
282
0
283
1
284
8
285
0
286
0
287
3
288
0
340
11
278
46
341
23E
342
23E
343
23E
344
23E
  0
ENDTAB
  0
ENDSEC
  0
SECTION
  2
BLOCKS
  0
BLOCK
  5
20
100
AcDbEntity
  8
0
100
AcDbBlockBegin
  2
*Model_Space
 70
0
 10
0.0
 20
0.0
 30
0.0
  3
*Model_Space
  1

  0
ENDBLK
  5
21
100
AcDbEntity
  8
0
100
AcDbBlockEnd
  0
BLOCK
  5
1C
100
AcDbEntity
  8
0
100
AcDbBlockBegin
  2
*Paper_Space
 70
0
 10
0.0
 20
0.0
 30
0.0
  3
*Paper_Space
  1

  0
ENDBLK
  5
1D
100
AcDbEntity
  8
0
100
AcDbBlockEnd
  0
BLOCK
  5
28A
100
AcDbEntity
  8
0
100
AcDbBlockBegin
 62
2
  6
CONTINUOUS
  2
SYMBOL_2_BL34
 70
64
 10
31.0000000239
 20
34.9999999785
  3
SYMBOL_2_BL34
  1

  0
TEXT
  5
28B
100
AcDbEntity
  8
0
100
AcDbText
 62
5
  6
CONTINUOUS
 10
11.6434778505
 20
32.1908716548
  7
TEXTSTYLE_2
 40
4.0
  1
6-37900-30-R
 72
5
 11
46.1118793375
 21
32.1908716548
100
AcDbText
  0
TEXT
  5
28C
100
AcDbEntity
  8
0
100
AcDbText
 62
5
  6
CONTINUOUS
 10
10.9089559916
 20
24.1776342906
  7
TEXTSTYLE_3
 40
2.5
  1
Scale
 72
5
 11
19.6357217908
 21
24.1776342906
100
AcDbText
  0
TEXT
  5
28D
100
AcDbEntity
  8
0
100
AcDbText
 62
5
  6
CONTINUOUS
 10
10.9089559916
 20
20.4276342906
  7
TEXTSTYLE_3
 40
2.5
  1
1:1
 72
5
 11
15.7602571068
 21
20.4276342906
100
AcDbText
  0
TEXT
  5
28E
100
AcDbEntity
  8
0
100
AcDbText
 62
5
  6
CONTINUOUS
 10
10.9089559916
 20
13.0518233866
  7
TEXTSTYLE_3
 40
2.5
  1
Draft
 72
5
 11
18.4647180733
 21
13.0518233866
100
AcDbText
  0
TEXT
  5
28F
100
AcDbEntity
  8
0
100
AcDbText
 62
5
  6
CONTINUOUS
 10
23.3811982505
 20
13.113338109
  7
TEXTSTYLE_3
 40
2.5
  1
09.01.2018
 72
5
 11
40.8533172096
 21
13.113338109
100
AcDbText
  0
TEXT
  5
290
100
AcDbEntity
  8
0
100
AcDbText
 62
5
  6
CONTINUOUS
 10
45.4434300913
 20
13.1067461609
  7
TEXTSTYLE_3
 40
2.5
  1
Ko
 72
5
 11
49.7092293478
 21
13.1067461609
100
AcDbText
  0
LINE
  5
291
100
AcDbEntity
  8
0
100
AcDbLine
 62
2
  6
CONTINUOUS
 10
10.0000000239
 20
59.9999999785
 11
52.0000000239
 21
59.9999999785
  0
LINE
  5
292
100
AcDbEntity
  8
0
100
AcDbLine
 62
2
  6
CONTINUOUS
 10
52.0000000239
 20
59.9999999785
 11
52.0000000239
 21
9.9999999785
  0
LINE
  5
293
100
AcDbEntity
  8
0
100
AcDbLine
 62
2
  6
CONTINUOUS
 10
10.0000000239
 20
9.9999999785
 11
52.0000000239
 21
9.9999999785
  0
LINE
  5
294
100
AcDbEntity
  8
0
100
AcDbLine
 62
2
  6
CONTINUOUS
 10
10.0000000239
 20
39.9999999785
 11
21.0000000239
 21
39.9999999785
  0
LINE
  5
295
100
AcDbEntity
  8
0
100
AcDbLine
 62
2
  6
CONTINUOUS
 10
10.0000000239
 20
27.9999999785
 11
21.0000000239
 21
27.9999999785
  0
LINE
  5
296
100
AcDbEntity
  8
0
100
AcDbLine
 62
2
  6
CONTINUOUS
 10
10.0000000239
 20
18.9999999785
 11
21.0000000239
 21
18.9999999785
  0
LINE
  5
297
100
AcDbEntity
  8
0
100
AcDbLine
 62
2
  6
CONTINUOUS
 10
21.0000000239
 20
39.9999999785
 11
43.0000000239
 21
39.9999999785
  0
LINE
  5
298
100
AcDbEntity
  8
0
100
AcDbLine
 62
2
  6
CONTINUOUS
 10
43.0000000239
 20
39.9999999785
 11
52.0000000239
 21
39.9999999785
  0
LINE
  5
299
100
AcDbEntity
  8
0
100
AcDbLine
 62
2
  6
CONTINUOUS
 10
21.0000000239
 20
27.9999999785
 11
43.0000000239
 21
27.9999999785
  0
LINE
  5
29A
100
AcDbEntity
  8
0
100
AcDbLine
 62
2
  6
CONTINUOUS
 10
43.0000000239
 20
27.9999999785
 11
52.0000000239
 21
27.9999999785
  0
LINE
  5
29B
100
AcDbEntity
  8
0
100
AcDbLine
 62
2
  6
CONTINUOUS
 10
21.0000000239
 20
18.9999999785
 11
21.0000000239
 21
9.9999999785
  0
LINE
  5
29C
100
AcDbEntity
  8
0
100
AcDbLine
 62
2
  6
CONTINUOUS
 10
21.0000000239
 20
18.9999999785
 11
43.0000000239
 21
18.9999999785
  0
LINE
  5
29D
100
AcDbEntity
  8
0
100
AcDbLine
 62
2
  6
CONTINUOUS
 10
43.0000000239
 20
18.9999999785
 11
43.0000000239
 21
9.9999999785
  0
LINE
  5
29E
100
AcDbEntity
  8
0
100
AcDbLine
 62
2
  6
CONTINUOUS
 10
43.0000000239
 20
18.9999999785
 11
52.0000000239
 21
18.9999999785
  0
LINE
  5
29F
100
AcDbEntity
  8
0
100
AcDbLine
 62
2
  6
CONTINUOUS
 10
10.0000000239
 20
9.9999999785
 11
10.0000000239
 21
59.9999999785
  0
ARC
  5
2A0
100
AcDbEntity
  8
0
100
AcDbCircle
 62
2
  6
CONTINUOUS
 10
17.6290122978
 20
56.1308274644
 40
1.2679261569
100
AcDbArc
 50
90.0
 51
180.0
  0
LINE
  5
2A1
100
AcDbEntity
  8
0
100
AcDbLine
 62
2
  6
CONTINUOUS
 10
17.6290122978
 20
57.3987536213
 11
44.0849627663
 21
57.3987536213
  0
ARC
  5
2A2
100
AcDbEntity
  8
0
100
AcDbCircle
 62
2
  6
CONTINUOUS
 10
44.0849627663
 20
56.1308274644
 40
1.2679261569
100
AcDbArc
 50
0.0
 51
90.0
  0
LINE
  5
2A3
100
AcDbEntity
  8
0
100
AcDbLine
 62
2
  6
CONTINUOUS
 10
45.3528889231
 20
56.1308274644
 11
45.3528889231
 21
43.6666783678
  0
ARC
  5
2A4
100
AcDbEntity
  8
0
100
AcDbCircle
 62
2
  6
CONTINUOUS
 10
44.0849627663
 20
43.6666783678
 40
1.2679261569
100
AcDbArc
 50
270.0
 51
360.0
  0
LINE
  5
2A5
100
AcDbEntity
  8
0
100
AcDbLine
 62
2
  6
CONTINUOUS
 10
44.0849627663
 20
42.3987522109
 11
17.6290122978
 21
42.3987522109
  0
ARC
  5
2A6
100
AcDbEntity
  8
0
100
AcDbCircle
 62
2
  6
CONTINUOUS
 10
17.6290122978
 20
43.6666783678
 40
1.2679261569
100
AcDbArc
 50
180.0
 51
270.0
  0
LINE
  5
2A7
100
AcDbEntity
  8
0
100
AcDbLine
 62
2
  6
CONTINUOUS
 10
16.3610861409
 20
43.6666783678
 11
16.3610861409
 21
56.1308274644
  0
ARC
  5
2A8
100
AcDbEntity
  8
0
100
AcDbCircle
 62
2
  6
CONTINUOUS
 10
25.0981141224
 20
49.7181091975
 40
2.8108394023
100
AcDbArc
 50
35.2282226131
 51
336.934010569
  0
LINE
  5
2A9
100
AcDbEntity
  8
0
100
AcDbLine
 62
2
  6
CONTINUOUS
 10
27.3941788183
 20
51.3394990511
 11
29.5865173301
 21
52.961744213
  0
ARC
  5
2AA
100
AcDbEntity
  8
0
100
AcDbCircle
 62
2
  6
CONTINUOUS
 10
25.0981141224
 20
49.7181091975
 40
5.5377731507
100
AcDbArc
 50
35.8545159817
 51
11.4705154501
  0
LINE
  5
2AB
100
AcDbEntity
  8
0
100
AcDbLine
 62
2
  6
CONTINUOUS
 10
30.5252822719
 20
50.8193709036
 11
25.2029961896
 21
50.8193709036
  0
ARC
  5
2AC
100
AcDbEntity
  8
0
100
AcDbCircle
 62
2
  6
CONTINUOUS
 10
25.2029961896
 20
49.7181091975
 40
1.1012617061
100
AcDbArc
 50
90.0
 51
270.0
  0
LINE
  5
2AD
100
AcDbEntity
  8
0
100
AcDbLine
 62
2
  6
CONTINUOUS
 10
25.2029961896
 20
48.6168474914
 11
27.6842387906
 21
48.6168474914
  0
ARC
  5
2AE
100
AcDbEntity
  8
0
100
AcDbCircle
 62
2
  6
CONTINUOUS
 10
25.2029961896
 20
49.7181091975
 40
5.9153485927
100
AcDbArc
 50
349.2706340045
 51
10.7293659955
  0
LINE
  5
2AF
100
AcDbEntity
  8
0
100
AcDbLine
 62
2
  6
CONTINUOUS
 10
31.014929743
 20
48.6168474914
 11
32.8593870987
 21
48.6168474914
  0
LINE
  5
2B0
100
AcDbEntity
  8
0
100
AcDbLine
 62
2
  6
CONTINUOUS
 10
32.8593870987
 20
48.6168474914
 11
32.8593870987
 21
48.0399961216
  0
ARC
  5
2B1
100
AcDbEntity
  8
0
100
AcDbCircle
 62
2
  6
CONTINUOUS
 10
36.7610000003
 20
48.0399961216
 40
3.9016129016
100
AcDbArc
 50
180.0
 51
360.0
  0
LINE
  5
2B2
100
AcDbEntity
  8
0
100
AcDbLine
 62
2
  6
CONTINUOUS
 10
40.6626129019
 20
48.0399961216
 11
40.6626129019
 21
54.9622125599
  0
LINE
  5
2B3
100
AcDbEntity
  8
0
100
AcDbLine
 62
2
  6
CONTINUOUS
 10
40.6626129019
 20
54.9622125599
 11
37.9356791535
 21
54.9622125599
  0
LINE
  5
2B4
100
AcDbEntity
  8
0
100
AcDbLine
 62
2
  6
CONTINUOUS
 10
37.9356791535
 20
54.9622125599
 11
37.9356791535
 21
48.0399961216
  0
ARC
  5
2B5
100
AcDbEntity
  8
0
100
AcDbCircle
 62
2
  6
CONTINUOUS
 10
36.7610000003
 20
48.0399961216
 40
1.1746791532
100
AcDbArc
 50
180.0
 51
360.0
  0
LINE
  5
2B6
100
AcDbEntity
  8
0
100
AcDbLine
 62
2
  6
CONTINUOUS
 10
35.5863208471
 20
48.0399961216
 11
35.5863208471
 21
54.9622125599
  0
LINE
  5
2B7
100
AcDbEntity
  8
0
100
AcDbLine
 62
2
  6
CONTINUOUS
 10
35.5863208471
 20
54.9622125599
 11
32.8593870987
 21
54.9622125599
  0
LINE
  5
2B8
100
AcDbEntity
  8
0
100
AcDbLine
 62
2
  6
CONTINUOUS
 10
32.8593870987
 20
54.9622125599
 11
32.8593870987
 21
50.8193709036
  0
LINE
  5
2B9
100
AcDbEntity
  8
0
100
AcDbLine
 62
2
  6
CONTINUOUS
 10
32.8593870987
 20
50.8193709036
 11
31.014929743
 21
50.8193709036
  0
LINE
  5
2BA
100
AcDbEntity
  8
0
100
AcDbLine
 62
2
  6
CONTINUOUS
 10
45.1996126437
 20
56.7334185992
 11
45.2185459944
 21
56.6972621935
  0
LWPOLYLINE
  5
2BB
100
AcDbEntity
  8
0
100
AcDbPolyline
 62
2
  6
CONTINUOUS
 90
42
 70
0
 10
17.4964779251
 20
57.3918123624
 10
17.6290122978
 20
57.398757363
 10
44.0849627663
 20
57.398757363
 10
44.217497139
 20
57.3918123624
 10
44.3485794374
 20
57.3710523604
 10
44.4767734964
 20
57.3367023572
 10
44.600674795
 20
57.2891373527
 10
44.7189258447
 20
57.2288823471
 10
44.8302310623
 20
57.1565973403
 10
44.9333709645
 20
57.0730773324
 10
45.0272155289
 20
56.9792373236
 10
45.1107365748
 20
56.8760973139
 10
45.1830190283
 20
56.7647973034
 10
45.2432709475
 20
56.6465372923
 10
45.2908322
 20
56.5226372807
 10
45.3251816945
 20
56.3944472686
 10
45.345943091
 20
56.2633622563
 10
45.3528889232
 20
56.1308222438
 10
24.5102931399
 20
55.2245960958
 10
23.6929701738
 20
55.0746474408
 10
22.9072856488
 20
54.8040901322
 10
22.1709301607
 20
54.4190160805
 10
21.5004836049
 20
53.9280956735
 10
20.9110418611
 20
53.3423825519
 10
20.4158768919
 20
52.6750647241
 10
20.0261379092
 20
51.9411676226
 10
16.3610861409
 20
43.6666760719
 10
16.3610861409
 20
56.1308222438
 10
16.368031973
 20
56.2633622563
 10
16.3887933695
 20
56.3944472686
 10
16.4231428641
 20
56.5226372807
 10
16.4707041165
 20
56.6465372923
 10
16.5309560358
 20
56.7647973034
 10
16.6032384892
 20
56.8760973139
 10
16.6867595352
 20
56.9792373236
 10
16.7806040996
 20
57.0730773324
 10
16.8837440018
 20
57.1565973403
 10
16.9950492193
 20
57.2288823471
 10
17.113300269
 20
57.2891373527
 10
17.2372015677
 20
57.3367023572
 10
17.3653956267
 20
57.3710523604
 10
17.4964779251
 20
57.3918123624
  0
HATCH
  5
2BC
100
AcDbEntity
  8
0
100
AcDbHatch
 62
2
  6
CONTINUOUS
 10
0.0
 20
0.0
 30
0.0
210
0.0
220
0.0
230
1.0
  2
SOLID
 70
1
 71
1
 91
1
 92
1
 93
41
 72
1
 10
17.4964779251
 20
57.3918123624
 11
17.6290122978
 21
57.398757363
 72
1
 10
17.6290122978
 20
57.398757363
 11
44.0849627663
 21
57.398757363
 72
1
 10
44.0849627663
 20
57.398757363
 11
44.217497139
 21
57.3918123624
 72
1
 10
44.217497139
 20
57.3918123624
 11
44.3485794374
 21
57.3710523604
 72
1
 10
44.3485794374
 20
57.3710523604
 11
44.4767734964
 21
57.3367023572
 72
1
 10
44.4767734964
 20
57.3367023572
 11
44.600674795
 21
57.2891373527
 72
1
 10
44.600674795
 20
57.2891373527
 11
44.7189258447
 21
57.2288823471
 72
1
 10
44.7189258447
 20
57.2288823471
 11
44.8302310623
 21
57.1565973403
 72
1
 10
44.8302310623
 20
57.1565973403
 11
44.9333709645
 21
57.0730773324
 72
1
 10
44.9333709645
 20
57.0730773324
 11
45.0272155289
 21
56.9792373236
 72
1
 10
45.0272155289
 20
56.9792373236
 11
45.1107365748
 21
56.8760973139
 72
1
 10
45.1107365748
 20
56.8760973139
 11
45.1830190283
 21
56.7647973034
 72
1
 10
45.1830190283
 20
56.7647973034
 11
45.2432709475
 21
56.6465372923
 72
1
 10
45.2432709475
 20
56.6465372923
 11
45.2908322
 21
56.5226372807
 72
1
 10
45.2908322
 20
56.5226372807
 11
45.3251816945
 21
56.3944472686
 72
1
 10
45.3251816945
 20
56.3944472686
 11
45.345943091
 21
56.2633622563
 72
1
 10
45.345943091
 20
56.2633622563
 11
45.3528889232
 21
56.1308222438
 72
1
 10
45.3528889232
 20
56.1308222438
 11
24.5102931399
 21
55.2245960958
 72
1
 10
24.5102931399
 20
55.2245960958
 11
23.6929701738
 21
55.0746474408
 72
1
 10
23.6929701738
 20
55.0746474408
 11
22.9072856488
 21
54.8040901322
 72
1
 10
22.9072856488
 20
54.8040901322
 11
22.1709301607
 21
54.4190160805
 72
1
 10
22.1709301607
 20
54.4190160805
 11
21.5004836049
 21
53.9280956735
 72
1
 10
21.5004836049
 20
53.9280956735
 11
20.9110418611
 21
53.3423825519
 72
1
 10
20.9110418611
 20
53.3423825519
 11
20.4158768919
 21
52.6750647241
 72
1
 10
20.4158768919
 20
52.6750647241
 11
20.0261379092
 21
51.9411676226
 72
1
 10
20.0261379092
 20
51.9411676226
 11
16.3610861409
 21
43.6666760719
 72
1
 10
16.3610861409
 20
43.6666760719
 11
16.3610861409
 21
56.1308222438
 72
1
 10
16.3610861409
 20
56.1308222438
 11
16.368031973
 21
56.2633622563
 72
1
 10
16.368031973
 20
56.2633622563
 11
16.3887933695
 21
56.3944472686
 72
1
 10
16.3887933695
 20
56.3944472686
 11
16.4231428641
 21
56.5226372807
 72
1
 10
16.4231428641
 20
56.5226372807
 11
16.4707041165
 21
56.6465372923
 72
1
 10
16.4707041165
 20
56.6465372923
 11
16.5309560358
 21
56.7647973034
 72
1
 10
16.5309560358
 20
56.7647973034
 11
16.6032384892
 21
56.8760973139
 72
1
 10
16.6032384892
 20
56.8760973139
 11
16.6867595352
 21
56.9792373236
 72
1
 10
16.6867595352
 20
56.9792373236
 11
16.7806040996
 21
57.0730773324
 72
1
 10
16.7806040996
 20
57.0730773324
 11
16.8837440018
 21
57.1565973403
 72
1
 10
16.8837440018
 20
57.1565973403
 11
16.9950492193
 21
57.2288823471
 72
1
 10
16.9950492193
 20
57.2288823471
 11
17.113300269
 21
57.2891373527
 72
1
 10
17.113300269
 20
57.2891373527
 11
17.2372015677
 21
57.3367023572
 72
1
 10
17.2372015677
 20
57.3367023572
 11
17.3653956267
 21
57.3710523604
 72
1
 10
17.3653956267
 20
57.3710523604
 11
17.4964779251
 21
57.3918123624
 97
1
330
2BB
 75
0
 76
1
 98
1
 10
0.0
 20
0.0
  0
LWPOLYLINE
  5
2BD
100
AcDbEntity
  8
0
100
AcDbPolyline
 62
2
  6
CONTINUOUS
 90
23
 70
0
 10
26.9669939813
 20
54.9309989471
 10
26.1659444963
 20
55.151954039
 10
45.3528889232
 20
56.1308222438
 10
45.3528889231
 20
43.6666760719
 10
40.1398958888
 20
46.0891912997
 10
40.3656203039
 20
46.5469163427
 10
40.5296686661
 20
47.0301863881
 10
40.6292340626
 20
47.5307364352
 10
40.6626129019
 20
48.0400014831
 10
40.6626129019
 20
54.9622171339
 10
37.9356791535
 20
54.9622171339
 10
35.5863208471
 20
54.9622171339
 10
32.8593870987
 20
54.9622171339
 10
32.8593870987
 20
50.8193667444
 10
31.0149297429
 20
50.8193667444
 10
30.6289655903
 20
49.9949006497
 10
30.5252822719
 20
50.8193667444
 10
27.3941788183
 20
51.3394990511
 10
29.5865173301
 20
52.961744213
 10
29.0506384437
 20
53.5968310176
 10
28.425763901
 20
54.1445839144
 10
27.7259634749
 20
54.5926696135
 10
26.9669939813
 20
54.9309989471
  0
HATCH
  5
2BE
100
AcDbEntity
  8
0
100
AcDbHatch
 62
2
  6
CONTINUOUS
 10
0.0
 20
0.0
 30
0.0
210
0.0
220
0.0
230
1.0
  2
SOLID
 70
1
 71
1
 91
1
 92
1
 93
22
 72
1
 10
26.9669939813
 20
54.9309989471
 11
26.1659444963
 21
55.151954039
 72
1
 10
26.1659444963
 20
55.151954039
 11
45.3528889232
 21
56.1308222438
 72
1
 10
45.3528889232
 20
56.1308222438
 11
45.3528889231
 21
43.6666760719
 72
1
 10
45.3528889231
 20
43.6666760719
 11
40.1398958888
 21
46.0891912997
 72
1
 10
40.1398958888
 20
46.0891912997
 11
40.3656203039
 21
46.5469163427
 72
1
 10
40.3656203039
 20
46.5469163427
 11
40.5296686661
 21
47.0301863881
 72
1
 10
40.5296686661
 20
47.0301863881
 11
40.6292340626
 21
47.5307364352
 72
1
 10
40.6292340626
 20
47.5307364352
 11
40.6626129019
 21
48.0400014831
 72
1
 10
40.6626129019
 20
48.0400014831
 11
40.6626129019
 21
54.9622171339
 72
1
 10
40.6626129019
 20
54.9622171339
 11
37.9356791535
 21
54.9622171339
 72
1
 10
37.9356791535
 20
54.9622171339
 11
35.5863208471
 21
54.9622171339
 72
1
 10
35.5863208471
 20
54.9622171339
 11
32.8593870987
 21
54.9622171339
 72
1
 10
32.8593870987
 20
54.9622171339
 11
32.8593870987
 21
50.8193667444
 72
1
 10
32.8593870987
 20
50.8193667444
 11
31.0149297429
 21
50.8193667444
 72
1
 10
31.0149297429
 20
50.8193667444
 11
30.6289655903
 21
49.9949006497
 72
1
 10
30.6289655903
 20
49.9949006497
 11
30.5252822719
 21
50.8193667444
 72
1
 10
30.5252822719
 20
50.8193667444
 11
27.3941788183
 21
51.3394990511
 72
1
 10
27.3941788183
 20
51.3394990511
 11
29.5865173301
 21
52.961744213
 72
1
 10
29.5865173301
 20
52.961744213
 11
29.0506384437
 21
53.5968310176
 72
1
 10
29.0506384437
 20
53.5968310176
 11
28.425763901
 21
54.1445839144
 72
1
 10
28.425763901
 20
54.1445839144
 11
27.7259634749
 21
54.5926696135
 72
1
 10
27.7259634749
 20
54.5926696135
 11
26.9669939813
 21
54.9309989471
 97
1
330
2BD
 75
0
 76
1
 98
1
 10
0.0
 20
0.0
  0
LWPOLYLINE
  5
2BF
100
AcDbEntity
  8
0
100
AcDbPolyline
 62
2
  6
CONTINUOUS
 90
20
 70
0
 10
24.5005684601
 20
52.4646993247
 10
24.9072650814
 20
52.5224620264
 10
25.3180376874
 20
52.5203318459
 10
25.7241133608
 20
52.4583542776
 10
26.1168194973
 20
52.3378529835
 10
26.4877690273
 20
52.1614015236
 10
26.8290395394
 20
51.9327683916
 10
27.1333424806
 20
51.6568365314
 10
27.3941788183
 20
51.3394990511
 10
30.5252822719
 20
50.8193667444
 10
25.2029961896
 20
50.8193667444
 10
25.0592526925
 20
50.8099494571
 10
22.4413895628
 20
50.6360595011
 10
22.6035508656
 20
51.0134749
 10
22.8189888395
 20
51.3632250264
 10
23.0831023513
 20
51.6778402269
 10
23.3902506985
 20
51.9506012291
 10
23.7338740791
 20
52.175682645
 10
24.1066336894
 20
52.3482773854
 10
24.5005684601
 20
52.4646993247
  0
HATCH
  5
2C0
100
AcDbEntity
  8
0
100
AcDbHatch
 62
2
  6
CONTINUOUS
 10
0.0
 20
0.0
 30
0.0
210
0.0
220
0.0
230
1.0
  2
SOLID
 70
1
 71
1
 91
1
 92
1
 93
19
 72
1
 10
24.5005684601
 20
52.4646993247
 11
24.9072650814
 21
52.5224620264
 72
1
 10
24.9072650814
 20
52.5224620264
 11
25.3180376874
 21
52.5203318459
 72
1
 10
25.3180376874
 20
52.5203318459
 11
25.7241133608
 21
52.4583542776
 72
1
 10
25.7241133608
 20
52.4583542776
 11
26.1168194973
 21
52.3378529835
 72
1
 10
26.1168194973
 20
52.3378529835
 11
26.4877690273
 21
52.1614015236
 72
1
 10
26.4877690273
 20
52.1614015236
 11
26.8290395394
 21
51.9327683916
 72
1
 10
26.8290395394
 20
51.9327683916
 11
27.1333424806
 21
51.6568365314
 72
1
 10
27.1333424806
 20
51.6568365314
 11
27.3941788183
 21
51.3394990511
 72
1
 10
27.3941788183
 20
51.3394990511
 11
30.5252822719
 21
50.8193667444
 72
1
 10
30.5252822719
 20
50.8193667444
 11
25.2029961896
 21
50.8193667444
 72
1
 10
25.2029961896
 20
50.8193667444
 11
25.0592526925
 21
50.8099494571
 72
1
 10
25.0592526925
 20
50.8099494571
 11
22.4413895628
 21
50.6360595011
 72
1
 10
22.4413895628
 20
50.6360595011
 11
22.6035508656
 21
51.0134749
 72
1
 10
22.6035508656
 20
51.0134749
 11
22.8189888395
 21
51.3632250264
 72
1
 10
22.8189888395
 20
51.3632250264
 11
23.0831023513
 21
51.6778402269
 72
1
 10
23.0831023513
 20
51.6778402269
 11
23.3902506985
 21
51.9506012291
 72
1
 10
23.3902506985
 20
51.9506012291
 11
23.7338740791
 21
52.175682645
 72
1
 10
23.7338740791
 20
52.175682645
 11
24.1066336894
 21
52.3482773854
 72
1
 10
24.1066336894
 20
52.3482773854
 11
24.5005684601
 21
52.4646993247
 97
1
330
2BF
 75
0
 76
1
 98
1
 10
0.0
 20
0.0
  0
LWPOLYLINE
  5
2C1
100
AcDbEntity
  8
0
100
AcDbPolyline
 62
2
  6
CONTINUOUS
 90
8
 70
0
 10
24.6523653366
 20
50.6718298112
 10
24.5325905397
 20
50.5917988506
 10
22.3359682285
 20
50.2390393331
 10
22.4413895628
 20
50.6360595011
 10
25.0592526925
 20
50.8099494571
 10
24.9179686864
 20
50.7818463209
 10
24.78156158
 20
50.7355423477
 10
24.6523653366
 20
50.6718298112
  0
HATCH
  5
2C2
100
AcDbEntity
  8
0
100
AcDbHatch
 62
2
  6
CONTINUOUS
 10
0.0
 20
0.0
 30
0.0
210
0.0
220
0.0
230
1.0
  2
SOLID
 70
1
 71
1
 91
1
 92
1
 93
7
 72
1
 10
24.6523653366
 20
50.6718298112
 11
24.5325905397
 21
50.5917988506
 72
1
 10
24.5325905397
 20
50.5917988506
 11
22.3359682285
 21
50.2390393331
 72
1
 10
22.3359682285
 20
50.2390393331
 11
22.4413895628
 21
50.6360595011
 72
1
 10
22.4413895628
 20
50.6360595011
 11
25.0592526925
 21
50.8099494571
 72
1
 10
25.0592526925
 20
50.8099494571
 11
24.9179686864
 21
50.7818463209
 72
1
 10
24.9179686864
 20
50.7818463209
 11
24.78156158
 21
50.7355423477
 72
1
 10
24.78156158
 20
50.7355423477
 11
24.6523653366
 21
50.6718298112
 97
1
330
2C1
 75
0
 76
1
 98
1
 10
0.0
 20
0.0
  0
LWPOLYLINE
  5
2C3
100
AcDbEntity
  8
0
100
AcDbPolyline
 62
2
  6
CONTINUOUS
 90
8
 70
0
 10
24.2492755759
 20
50.2687400506
 10
24.1855630394
 20
50.1395438071
 10
22.2895383581
 20
49.830893601
 10
22.3359682285
 20
50.2390393331
 10
24.5325905397
 20
50.5917988506
 10
24.4242865694
 20
50.4968188178
 10
24.3293065366
 20
50.3885148474
 10
24.2492755759
 20
50.2687400506
  0
HATCH
  5
2C4
100
AcDbEntity
  8
0
100
AcDbHatch
 62
2
  6
CONTINUOUS
 10
0.0
 20
0.0
 30
0.0
210
0.0
220
0.0
230
1.0
  2
SOLID
 70
1
 71
1
 91
1
 92
1
 93
7
 72
1
 10
24.2492755759
 20
50.2687400506
 11
24.1855630394
 21
50.1395438071
 72
1
 10
24.1855630394
 20
50.1395438071
 11
22.2895383581
 21
49.830893601
 72
1
 10
22.2895383581
 20
49.830893601
 11
22.3359682285
 21
50.2390393331
 72
1
 10
22.3359682285
 20
50.2390393331
 11
24.5325905397
 21
50.5917988506
 72
1
 10
24.5325905397
 20
50.5917988506
 11
24.4242865694
 21
50.4968188178
 72
1
 10
24.4242865694
 20
50.4968188178
 11
24.3293065366
 21
50.3885148474
 72
1
 10
24.3293065366
 20
50.3885148474
 11
24.2492755759
 21
50.2687400506
 97
1
330
2C3
 75
0
 76
1
 98
1
 10
0.0
 20
0.0
  0
LWPOLYLINE
  5
2C5
100
AcDbEntity
  8
0
100
AcDbPolyline
 62
2
  6
CONTINUOUS
 90
7
 70
0
 10
31.0993048012
 20
50.1923388153
 10
31.1162282192
 20
49.8763366836
 10
30.6081153911
 20
49.1641981161
 10
30.6289655903
 20
49.9949006497
 10
31.0149297429
 20
50.8193667444
 10
31.0655063992
 20
50.5069837221
 10
31.0993048012
 20
50.1923388153
  0
HATCH
  5
2C6
100
AcDbEntity
  8
0
100
AcDbHatch
 62
2
  6
CONTINUOUS
 10
0.0
 20
0.0
 30
0.0
210
0.0
220
0.0
230
1.0
  2
SOLID
 70
1
 71
1
 91
1
 92
1
 93
6
 72
1
 10
31.0993048012
 20
50.1923388153
 11
31.1162282192
 21
49.8763366836
 72
1
 10
31.1162282192
 20
49.8763366836
 11
30.6081153911
 21
49.1641981161
 72
1
 10
30.6081153911
 20
49.1641981161
 11
30.6289655903
 21
49.9949006497
 72
1
 10
30.6289655903
 20
49.9949006497
 11
31.0149297429
 21
50.8193667444
 72
1
 10
31.0149297429
 20
50.8193667444
 11
31.0655063992
 21
50.5069837221
 72
1
 10
31.0655063992
 20
50.5069837221
 11
31.0993048012
 21
50.1923388153
 97
1
330
2C5
 75
0
 76
1
 98
1
 10
0.0
 20
0.0
  0
LWPOLYLINE
  5
2C7
100
AcDbEntity
  8
0
100
AcDbPolyline
 62
2
  6
CONTINUOUS
 90
7
 70
0
 10
24.1111559301
 20
49.8618526947
 10
24.1017344835
 20
49.7181091975
 10
22.3030915597
 20
49.4203391196
 10
22.2895383581
 20
49.830893601
 10
24.1855630394
 20
50.1395438071
 10
24.1392590662
 20
50.0031367007
 10
24.1111559301
 20
49.8618526947
  0
HATCH
  5
2C8
100
AcDbEntity
  8
0
100
AcDbHatch
 62
2
  6
CONTINUOUS
 10
0.0
 20
0.0
 30
0.0
210
0.0
220
0.0
230
1.0
  2
SOLID
 70
1
 71
1
 91
1
 92
1
 93
6
 72
1
 10
24.1111559301
 20
49.8618526947
 11
24.1017344835
 21
49.7181091975
 72
1
 10
24.1017344835
 20
49.7181091975
 11
22.3030915597
 21
49.4203391196
 72
1
 10
22.3030915597
 20
49.4203391196
 11
22.2895383581
 21
49.830893601
 72
1
 10
22.2895383581
 20
49.830893601
 11
24.1855630394
 21
50.1395438071
 72
1
 10
24.1855630394
 20
50.1395438071
 11
24.1392590662
 21
50.0031367007
 72
1
 10
24.1392590662
 20
50.0031367007
 11
24.1111559301
 21
49.8618526947
 97
1
330
2C7
 75
0
 76
1
 98
1
 10
0.0
 20
0.0
  0
LWPOLYLINE
  5
2C9
100
AcDbEntity
  8
0
100
AcDbPolyline
 62
2
  6
CONTINUOUS
 90
7
 70
0
 10
24.1392590662
 20
49.4330816944
 10
24.1855630394
 20
49.2966745879
 10
22.3763383759
 20
49.0161441476
 10
22.3030915597
 20
49.4203391196
 10
24.1017344835
 20
49.7181091975
 10
24.1111559301
 20
49.5743657004
 10
24.1392590662
 20
49.4330816944
  0
HATCH
  5
2CA
100
AcDbEntity
  8
0
100
AcDbHatch
 62
2
  6
CONTINUOUS
 10
0.0
 20
0.0
 30
0.0
210
0.0
220
0.0
230
1.0
  2
SOLID
 70
1
 71
1
 91
1
 92
1
 93
6
 72
1
 10
24.1392590662
 20
49.4330816944
 11
24.1855630394
 21
49.2966745879
 72
1
 10
24.1855630394
 20
49.2966745879
 11
22.3763383759
 21
49.0161441476
 72
1
 10
22.3763383759
 20
49.0161441476
 11
22.3030915597
 21
49.4203391196
 72
1
 10
22.3030915597
 20
49.4203391196
 11
24.1017344835
 21
49.7181091975
 72
1
 10
24.1017344835
 20
49.7181091975
 11
24.1111559301
 21
49.5743657004
 72
1
 10
24.1111559301
 20
49.5743657004
 11
24.1392590662
 21
49.4330816944
 97
1
330
2C9
 75
0
 76
1
 98
1
 10
0.0
 20
0.0
  0
LWPOLYLINE
  5
2CB
100
AcDbEntity
  8
0
100
AcDbPolyline
 62
2
  6
CONTINUOUS
 90
7
 70
0
 10
31.0993048012
 20
49.2438795798
 10
31.0655063992
 20
48.929234673
 10
30.4632011408
 20
48.3459675312
 10
30.6081153911
 20
49.1641981161
 10
31.1162282192
 20
49.8763366836
 10
31.1162282192
 20
49.5598817115
 10
31.0993048012
 20
49.2438795798
  0
HATCH
  5
2CC
100
AcDbEntity
  8
0
100
AcDbHatch
 62
2
  6
CONTINUOUS
 10
0.0
 20
0.0
 30
0.0
210
0.0
220
0.0
230
1.0
  2
SOLID
 70
1
 71
1
 91
1
 92
1
 93
6
 72
1
 10
31.0993048012
 20
49.2438795798
 11
31.0655063992
 21
48.929234673
 72
1
 10
31.0655063992
 20
48.929234673
 11
30.4632011408
 21
48.3459675312
 72
1
 10
30.4632011408
 20
48.3459675312
 11
30.6081153911
 21
49.1641981161
 72
1
 10
30.6081153911
 20
49.1641981161
 11
31.1162282192
 21
49.8763366836
 72
1
 10
31.1162282192
 20
49.8763366836
 11
31.1162282192
 21
49.5598817115
 72
1
 10
31.1162282192
 20
49.5598817115
 11
31.0993048012
 21
49.2438795798
 97
1
330
2CB
 75
0
 76
1
 98
1
 10
0.0
 20
0.0
  0
LWPOLYLINE
  5
2CD
100
AcDbEntity
  8
0
100
AcDbPolyline
 62
2
  6
CONTINUOUS
 90
7
 70
0
 10
24.3293065366
 20
49.0477035476
 10
24.4242865694
 20
48.9393995773
 10
22.5077144663
 20
48.6269411229
 10
22.3763383759
 20
49.0161441476
 10
24.1855630394
 20
49.2966745879
 10
24.2492755759
 20
49.1674783445
 10
24.3293065366
 20
49.0477035476
  0
HATCH
  5
2CE
100
AcDbEntity
  8
0
100
AcDbHatch
 62
2
  6
CONTINUOUS
 10
0.0
 20
0.0
 30
0.0
210
0.0
220
0.0
230
1.0
  2
SOLID
 70
1
 71
1
 91
1
 92
1
 93
6
 72
1
 10
24.3293065366
 20
49.0477035476
 11
24.4242865694
 21
48.9393995773
 72
1
 10
24.4242865694
 20
48.9393995773
 11
22.5077144663
 21
48.6269411229
 72
1
 10
22.5077144663
 20
48.6269411229
 11
22.3763383759
 21
49.0161441476
 72
1
 10
22.3763383759
 20
49.0161441476
 11
24.1855630394
 21
49.2966745879
 72
1
 10
24.1855630394
 20
49.2966745879
 11
24.2492755759
 21
49.1674783445
 72
1
 10
24.2492755759
 20
49.1674783445
 11
24.3293065366
 21
49.0477035476
 97
1
330
2CD
 75
0
 76
1
 98
1
 10
0.0
 20
0.0
  0
LWPOLYLINE
  5
2CF
100
AcDbEntity
  8
0
100
AcDbPolyline
 62
2
  6
CONTINUOUS
 90
9
 70
0
 10
24.9179686864
 20
48.6543720741
 10
25.0592526925
 20
48.626268938
 10
22.6944140166
 20
48.2610422989
 10
22.5077144663
 20
48.6269411229
 10
24.4242865694
 20
48.9393995773
 10
24.5325905397
 20
48.8444195445
 10
24.6523653366
 20
48.7643885839
 10
24.78156158
 20
48.7006760474
 10
24.9179686864
 20
48.6543720741
  0
HATCH
  5
2D0
100
AcDbEntity
  8
0
100
AcDbHatch
 62
2
  6
CONTINUOUS
 10
0.0
 20
0.0
 30
0.0
210
0.0
220
0.0
230
1.0
  2
SOLID
 70
1
 71
1
 91
1
 92
1
 93
8
 72
1
 10
24.9179686864
 20
48.6543720741
 11
25.0592526925
 21
48.626268938
 72
1
 10
25.0592526925
 20
48.626268938
 11
22.6944140166
 21
48.2610422989
 72
1
 10
22.6944140166
 20
48.2610422989
 11
22.5077144663
 21
48.6269411229
 72
1
 10
22.5077144663
 20
48.6269411229
 11
24.4242865694
 21
48.9393995773
 72
1
 10
24.4242865694
 20
48.9393995773
 11
24.5325905397
 21
48.8444195445
 72
1
 10
24.5325905397
 20
48.8444195445
 11
24.6523653366
 21
48.7643885839
 72
1
 10
24.6523653366
 20
48.7643885839
 11
24.78156158
 21
48.7006760474
 72
1
 10
24.78156158
 20
48.7006760474
 11
24.9179686864
 21
48.6543720741
 97
1
330
2CF
 75
0
 76
1
 98
1
 10
0.0
 20
0.0
  0
LWPOLYLINE
  5
2D1
100
AcDbEntity
  8
0
100
AcDbPolyline
 62
2
  6
CONTINUOUS
 90
9
 70
0
 10
32.8593870987
 20
48.6168415373
 10
32.8593870987
 20
48.0400014831
 10
32.8927659379
 20
47.5307364352
 10
29.8169521117
 20
46.8199201942
 10
30.1974857512
 20
47.5586323028
 10
30.4632011408
 20
48.3459675312
 10
31.0655063992
 20
48.929234673
 10
31.0149297429
 20
48.6168415373
 10
32.8593870987
 20
48.6168415373
  0
HATCH
  5
2D2
100
AcDbEntity
  8
0
100
AcDbHatch
 62
2
  6
CONTINUOUS
 10
0.0
 20
0.0
 30
0.0
210
0.0
220
0.0
230
1.0
  2
SOLID
 70
1
 71
1
 91
1
 92
1
 93
8
 72
1
 10
32.8593870987
 20
48.6168415373
 11
32.8593870987
 21
48.0400014831
 72
1
 10
32.8593870987
 20
48.0400014831
 11
32.8927659379
 21
47.5307364352
 72
1
 10
32.8927659379
 20
47.5307364352
 11
29.8169521117
 21
46.8199201942
 72
1
 10
29.8169521117
 20
46.8199201942
 11
30.1974857512
 21
47.5586323028
 72
1
 10
30.1974857512
 20
47.5586323028
 11
30.4632011408
 21
48.3459675312
 72
1
 10
30.4632011408
 20
48.3459675312
 11
31.0655063992
 21
48.929234673
 72
1
 10
31.0655063992
 20
48.929234673
 11
31.0149297429
 21
48.6168415373
 72
1
 10
31.0149297429
 20
48.6168415373
 11
32.8593870987
 21
48.6168415373
 97
1
330
2D1
 75
0
 76
1
 98
1
 10
0.0
 20
0.0
  0
LWPOLYLINE
  5
2D3
100
AcDbEntity
  8
0
100
AcDbPolyline
 62
2
  6
CONTINUOUS
 90
19
 70
0
 10
27.6842387906
 20
48.6168415373
 10
27.4961137435
 20
48.2516795326
 10
27.2567743458
 20
47.9178302789
 10
26.9713321963
 20
47.6224297867
 10
26.6458835153
 20
47.3717869581
 10
26.2873789475
 20
47.1712548002
 10
25.9034751155
 20
47.0251161014
 10
25.5023710973
 20
46.9364919623
 10
25.0926333168
 20
46.9072751387
 10
24.6830125906
 20
46.9380896178
 10
24.2822572349
 20
47.0282772912
 10
23.8989262276
 20
47.1759120104
 10
23.5412064125
 20
47.377840724
 10
23.2167376524
 20
47.6297508175
 10
22.9324496635
 20
47.9262622184
 10
22.6944140166
 20
48.2610422989
 10
25.0592526925
 20
48.626268938
 10
25.2029961896
 20
48.6168415373
 10
27.6842387906
 20
48.6168415373
  0
HATCH
  5
2D4
100
AcDbEntity
  8
0
100
AcDbHatch
 62
2
  6
CONTINUOUS
 10
0.0
 20
0.0
 30
0.0
210
0.0
220
0.0
230
1.0
  2
SOLID
 70
1
 71
1
 91
1
 92
1
 93
18
 72
1
 10
27.6842387906
 20
48.6168415373
 11
27.4961137435
 21
48.2516795326
 72
1
 10
27.4961137435
 20
48.2516795326
 11
27.2567743458
 21
47.9178302789
 72
1
 10
27.2567743458
 20
47.9178302789
 11
26.9713321963
 21
47.6224297867
 72
1
 10
26.9713321963
 20
47.6224297867
 11
26.6458835153
 21
47.3717869581
 72
1
 10
26.6458835153
 20
47.3717869581
 11
26.2873789475
 21
47.1712548002
 72
1
 10
26.2873789475
 20
47.1712548002
 11
25.9034751155
 21
47.0251161014
 72
1
 10
25.9034751155
 20
47.0251161014
 11
25.5023710973
 21
46.9364919623
 72
1
 10
25.5023710973
 20
46.9364919623
 11
25.0926333168
 21
46.9072751387
 72
1
 10
25.0926333168
 20
46.9072751387
 11
24.6830125906
 21
46.9380896178
 72
1
 10
24.6830125906
 20
46.9380896178
 11
24.2822572349
 21
47.0282772912
 72
1
 10
24.2822572349
 20
47.0282772912
 11
23.8989262276
 21
47.1759120104
 72
1
 10
23.8989262276
 20
47.1759120104
 11
23.5412064125
 21
47.377840724
 72
1
 10
23.5412064125
 20
47.377840724
 11
23.2167376524
 21
47.6297508175
 72
1
 10
23.2167376524
 20
47.6297508175
 11
22.9324496635
 21
47.9262622184
 72
1
 10
22.9324496635
 20
47.9262622184
 11
22.6944140166
 21
48.2610422989
 72
1
 10
22.6944140166
 20
48.2610422989
 11
25.0592526925
 21
48.626268938
 72
1
 10
25.0592526925
 20
48.626268938
 11
25.2029961896
 21
48.6168415373
 72
1
 10
25.2029961896
 20
48.6168415373
 11
27.6842387906
 21
48.6168415373
 97
1
330
2D3
 75
0
 76
1
 98
1
 10
0.0
 20
0.0
  0
LWPOLYLINE
  5
2D5
100
AcDbEntity
  8
0
100
AcDbPolyline
 62
2
  6
CONTINUOUS
 90
28
 70
0
 10
35.5863208471
 20
48.0400014831
 10
35.5863208471
 20
54.9622171339
 10
37.9356791535
 20
54.9622171339
 10
37.9356791535
 20
48.0400014831
 10
37.9256296104
 20
47.8866714687
 10
37.8956529319
 20
47.7359664545
 10
37.8462620271
 20
47.5904664408
 10
37.7783019882
 20
47.4526614279
 10
37.6929356302
 20
47.3248914159
 10
37.5916235952
 20
47.209376405
 10
37.4760993602
 20
47.1080663955
 10
37.3483395768
 20
47.0227013874
 10
37.2105302505
 20
46.9547363811
 10
37.065029337
 20
46.9053413764
 10
36.9143263972
 20
46.8753713736
 10
36.7610000003
 20
46.8653169684
 10
36.6076736033
 20
46.8753713736
 10
36.4569706635
 20
46.9053413764
 10
36.31146975
 20
46.9547363811
 10
36.1736604237
 20
47.0227013874
 10
36.0459006404
 20
47.1080663955
 10
35.9303764053
 20
47.209376405
 10
35.8290643703
 20
47.3248914159
 10
35.7436980123
 20
47.4526614279
 10
35.6757379734
 20
47.5904664408
 10
35.6263470686
 20
47.7359664545
 10
35.5963703901
 20
47.8866714687
 10
35.5863208471
 20
48.0400014831
  0
HATCH
  5
2D6
100
AcDbEntity
  8
0
100
AcDbHatch
 62
2
  6
CONTINUOUS
 10
0.0
 20
0.0
 30
0.0
210
0.0
220
0.0
230
1.0
  2
SOLID
 70
1
 71
1
 91
1
 92
1
 93
27
 72
1
 10
35.5863208471
 20
48.0400014831
 11
35.5863208471
 21
54.9622171339
 72
1
 10
35.5863208471
 20
54.9622171339
 11
37.9356791535
 21
54.9622171339
 72
1
 10
37.9356791535
 20
54.9622171339
 11
37.9356791535
 21
48.0400014831
 72
1
 10
37.9356791535
 20
48.0400014831
 11
37.9256296104
 21
47.8866714687
 72
1
 10
37.9256296104
 20
47.8866714687
 11
37.8956529319
 21
47.7359664545
 72
1
 10
37.8956529319
 20
47.7359664545
 11
37.8462620271
 21
47.5904664408
 72
1
 10
37.8462620271
 20
47.5904664408
 11
37.7783019882
 21
47.4526614279
 72
1
 10
37.7783019882
 20
47.4526614279
 11
37.6929356302
 21
47.3248914159
 72
1
 10
37.6929356302
 20
47.3248914159
 11
37.5916235952
 21
47.209376405
 72
1
 10
37.5916235952
 20
47.209376405
 11
37.4760993602
 21
47.1080663955
 72
1
 10
37.4760993602
 20
47.1080663955
 11
37.3483395768
 21
47.0227013874
 72
1
 10
37.3483395768
 20
47.0227013874
 11
37.2105302505
 21
46.9547363811
 72
1
 10
37.2105302505
 20
46.9547363811
 11
37.065029337
 21
46.9053413764
 72
1
 10
37.065029337
 20
46.9053413764
 11
36.9143263972
 21
46.8753713736
 72
1
 10
36.9143263972
 20
46.8753713736
 11
36.7610000003
 21
46.8653169684
 72
1
 10
36.7610000003
 20
46.8653169684
 11
36.6076736033
 21
46.8753713736
 72
1
 10
36.6076736033
 20
46.8753713736
 11
36.4569706635
 21
46.9053413764
 72
1
 10
36.4569706635
 20
46.9053413764
 11
36.31146975
 21
46.9547363811
 72
1
 10
36.31146975
 20
46.9547363811
 11
36.1736604237
 21
47.0227013874
 72
1
 10
36.1736604237
 20
47.0227013874
 11
36.0459006404
 21
47.1080663955
 72
1
 10
36.0459006404
 20
47.1080663955
 11
35.9303764053
 21
47.209376405
 72
1
 10
35.9303764053
 20
47.209376405
 11
35.8290643703
 21
47.3248914159
 72
1
 10
35.8290643703
 20
47.3248914159
 11
35.7436980123
 21
47.4526614279
 72
1
 10
35.7436980123
 20
47.4526614279
 11
35.6757379734
 21
47.5904664408
 72
1
 10
35.6757379734
 20
47.5904664408
 11
35.6263470686
 21
47.7359664545
 72
1
 10
35.6263470686
 20
47.7359664545
 11
35.5963703901
 21
47.8866714687
 72
1
 10
35.5963703901
 20
47.8866714687
 11
35.5863208471
 21
48.0400014831
 97
1
330
2D5
 75
0
 76
1
 98
1
 10
0.0
 20
0.0
  0
LWPOLYLINE
  5
2D7
100
AcDbEntity
  8
0
100
AcDbPolyline
 62
2
  6
CONTINUOUS
 90
8
 70
0
 10
32.9923313344
 20
47.0301863881
 10
33.1563796967
 20
46.5469163427
 10
33.3821041117
 20
46.0891912997
 10
28.7480950465
 20
45.5534278506
 10
29.3301683772
 20
46.146464163
 10
29.8169521117
 20
46.8199201942
 10
32.8927659379
 20
47.5307364352
 10
32.9923313344
 20
47.0301863881
  0
HATCH
  5
2D8
100
AcDbEntity
  8
0
100
AcDbHatch
 62
2
  6
CONTINUOUS
 10
0.0
 20
0.0
 30
0.0
210
0.0
220
0.0
230
1.0
  2
SOLID
 70
1
 71
1
 91
1
 92
1
 93
7
 72
1
 10
32.9923313344
 20
47.0301863881
 11
33.1563796967
 21
46.5469163427
 72
1
 10
33.1563796967
 20
46.5469163427
 11
33.3821041117
 21
46.0891912997
 72
1
 10
33.3821041117
 20
46.0891912997
 11
28.7480950465
 21
45.5534278506
 72
1
 10
28.7480950465
 20
45.5534278506
 11
29.3301683772
 21
46.146464163
 72
1
 10
29.3301683772
 20
46.146464163
 11
29.8169521117
 21
46.8199201942
 72
1
 10
29.8169521117
 20
46.8199201942
 11
32.8927659379
 21
47.5307364352
 72
1
 10
32.8927659379
 20
47.5307364352
 11
32.9923313344
 21
47.0301863881
 97
1
330
2D7
 75
0
 76
1
 98
1
 10
0.0
 20
0.0
  0
LWPOLYLINE
  5
2D9
100
AcDbEntity
  8
0
100
AcDbPolyline
 62
2
  6
CONTINUOUS
 90
8
 70
0
 10
33.6656423722
 20
45.6648412598
 10
34.00214306
 20
45.2811412237
 10
34.3858485548
 20
44.9446311921
 10
27.3523542712
 20
44.659914577
 10
28.0838381739
 20
45.0541641554
 10
28.7480950465
 20
45.5534278506
 10
33.3821041117
 20
46.0891912997
 10
33.6656423722
 20
45.6648412598
  0
HATCH
  5
2DA
100
AcDbEntity
  8
0
100
AcDbHatch
 62
2
  6
CONTINUOUS
 10
0.0
 20
0.0
 30
0.0
210
0.0
220
0.0
230
1.0
  2
SOLID
 70
1
 71
1
 91
1
 92
1
 93
7
 72
1
 10
33.6656423722
 20
45.6648412598
 11
34.00214306
 21
45.2811412237
 72
1
 10
34.00214306
 20
45.2811412237
 11
34.3858485548
 21
44.9446311921
 72
1
 10
34.3858485548
 20
44.9446311921
 11
27.3523542712
 21
44.659914577
 72
1
 10
27.3523542712
 20
44.659914577
 11
28.0838381739
 21
45.0541641554
 72
1
 10
28.0838381739
 20
45.0541641554
 11
28.7480950465
 21
45.5534278506
 72
1
 10
28.7480950465
 20
45.5534278506
 11
33.3821041117
 21
46.0891912997
 72
1
 10
33.3821041117
 20
46.0891912997
 11
33.6656423722
 21
45.6648412598
 97
1
330
2D9
 75
0
 76
1
 98
1
 10
0.0
 20
0.0
  0
LWPOLYLINE
  5
2DB
100
AcDbEntity
  8
0
100
AcDbPolyline
 62
2
  6
CONTINUOUS
 90
24
 70
0
 10
34.8101935494
 20
44.6611011654
 10
35.2679173833
 20
44.4353811442
 10
35.7511882747
 20
44.2713261287
 10
36.2517373247
 20
44.1717561194
 10
16.3610861409
 20
43.6666760719
 10
20.0261379092
 20
51.9411676226
 10
19.750600337
 20
51.1572157897
 10
19.5954682224
 20
50.3408608074
 10
19.5642345443
 20
49.5104838523
 10
19.6576025652
 20
48.684781822
 10
19.8734699961
 20
47.8823463527
 10
20.2069763321
 20
47.121245207
 10
20.6506122924
 20
46.4186154575
 10
21.1943889001
 20
45.7902776256
 10
21.8260623961
 20
45.2503794643
 10
22.5314099211
 20
44.8110774052
 10
23.2945497596
 20
44.4822628421
 10
24.0982989358
 20
44.2713261287
 10
24.9245601072
 20
44.1830563096
 10
25.754729048
 20
44.2194013213
 10
26.5701135443
 20
44.3795561005
 10
27.3523542712
 20
44.659914577
 10
34.3858485548
 20
44.9446311921
 10
34.8101935494
 20
44.6611011654
  0
HATCH
  5
2DC
100
AcDbEntity
  8
0
100
AcDbHatch
 62
2
  6
CONTINUOUS
 10
0.0
 20
0.0
 30
0.0
210
0.0
220
0.0
230
1.0
  2
SOLID
 70
1
 71
1
 91
1
 92
1
 93
23
 72
1
 10
34.8101935494
 20
44.6611011654
 11
35.2679173833
 21
44.4353811442
 72
1
 10
35.2679173833
 20
44.4353811442
 11
35.7511882747
 21
44.2713261287
 72
1
 10
35.7511882747
 20
44.2713261287
 11
36.2517373247
 21
44.1717561194
 72
1
 10
36.2517373247
 20
44.1717561194
 11
16.3610861409
 21
43.6666760719
 72
1
 10
16.3610861409
 20
43.6666760719
 11
20.0261379092
 21
51.9411676226
 72
1
 10
20.0261379092
 20
51.9411676226
 11
19.750600337
 21
51.1572157897
 72
1
 10
19.750600337
 20
51.1572157897
 11
19.5954682224
 21
50.3408608074
 72
1
 10
19.5954682224
 20
50.3408608074
 11
19.5642345443
 21
49.5104838523
 72
1
 10
19.5642345443
 20
49.5104838523
 11
19.6576025652
 21
48.684781822
 72
1
 10
19.6576025652
 20
48.684781822
 11
19.8734699961
 21
47.8823463527
 72
1
 10
19.8734699961
 20
47.8823463527
 11
20.2069763321
 21
47.121245207
 72
1
 10
20.2069763321
 20
47.121245207
 11
20.6506122924
 21
46.4186154575
 72
1
 10
20.6506122924
 20
46.4186154575
 11
21.1943889001
 21
45.7902776256
 72
1
 10
21.1943889001
 20
45.7902776256
 11
21.8260623961
 21
45.2503794643
 72
1
 10
21.8260623961
 20
45.2503794643
 11
22.5314099211
 21
44.8110774052
 72
1
 10
22.5314099211
 20
44.8110774052
 11
23.2945497596
 21
44.4822628421
 72
1
 10
23.2945497596
 20
44.4822628421
 11
24.0982989358
 21
44.2713261287
 72
1
 10
24.0982989358
 20
44.2713261287
 11
24.9245601072
 21
44.1830563096
 72
1
 10
24.9245601072
 20
44.1830563096
 11
25.754729048
 21
44.2194013213
 72
1
 10
25.754729048
 20
44.2194013213
 11
26.5701135443
 21
44.3795561005
 72
1
 10
26.5701135443
 20
44.3795561005
 11
27.3523542712
 21
44.659914577
 72
1
 10
27.3523542712
 20
44.659914577
 11
34.3858485548
 21
44.9446311921
 72
1
 10
34.3858485548
 20
44.9446311921
 11
34.8101935494
 21
44.6611011654
 97
1
330
2DB
 75
0
 76
1
 98
1
 10
0.0
 20
0.0
  0
LWPOLYLINE
  5
2DD
100
AcDbEntity
  8
0
100
AcDbPolyline
 62
2
  6
CONTINUOUS
 90
43
 70
0
 10
36.7610000003
 20
44.13838322
 10
37.2702626758
 20
44.1717561194
 10
37.7708117258
 20
44.2713261287
 10
38.2540826172
 20
44.4353811442
 10
38.7118064511
 20
44.6611011654
 10
39.1361514457
 20
44.9446311921
 10
39.5198569406
 20
45.2811412237
 10
39.8563576283
 20
45.6648412598
 10
40.1398958888
 20
46.0891912997
 10
45.3528889231
 20
43.6666760719
 10
45.345943091
 20
43.5341510594
 10
45.3251816945
 20
43.4030660471
 10
45.2908322
 20
43.2748610351
 10
45.2432709475
 20
43.1509610234
 10
45.1830190283
 20
43.0327160123
 10
45.1107365748
 20
42.9214160018
 10
45.0272155289
 20
42.8182759921
 10
44.9333709645
 20
42.7244209833
 10
44.8302310623
 20
42.6409009754
 10
44.7189258447
 20
42.5686159687
 10
44.600674795
 20
42.508375963
 10
44.4767734964
 20
42.4608109585
 10
44.3485794374
 20
42.4264609553
 10
44.217497139
 20
42.4057009533
 10
44.0849627663
 20
42.3987559527
 10
17.6290122978
 20
42.3987559527
 10
17.4964779251
 20
42.4057009533
 10
17.3653956267
 20
42.4264609553
 10
17.2372015677
 20
42.4608109585
 10
17.113300269
 20
42.508375963
 10
16.9950492193
 20
42.5686159687
 10
16.8837440018
 20
42.6409009754
 10
16.7806040996
 20
42.7244209833
 10
16.6867595352
 20
42.8182759921
 10
16.6032384892
 20
42.9214160018
 10
16.5309560358
 20
43.0327160123
 10
16.4707041165
 20
43.1509610234
 10
16.4231428641
 20
43.2748610351
 10
16.3887933695
 20
43.4030660471
 10
16.368031973
 20
43.5341510594
 10
16.3610861409
 20
43.6666760719
 10
36.2517373247
 20
44.1717561194
 10
36.7610000003
 20
44.13838322
  0
HATCH
  5
2DE
100
AcDbEntity
  8
0
100
AcDbHatch
 62
2
  6
CONTINUOUS
 10
0.0
 20
0.0
 30
0.0
210
0.0
220
0.0
230
1.0
  2
SOLID
 70
1
 71
1
 91
1
 92
1
 93
42
 72
1
 10
36.7610000003
 20
44.13838322
 11
37.2702626758
 21
44.1717561194
 72
1
 10
37.2702626758
 20
44.1717561194
 11
37.7708117258
 21
44.2713261287
 72
1
 10
37.7708117258
 20
44.2713261287
 11
38.2540826172
 21
44.4353811442
 72
1
 10
38.2540826172
 20
44.4353811442
 11
38.7118064511
 21
44.6611011654
 72
1
 10
38.7118064511
 20
44.6611011654
 11
39.1361514457
 21
44.9446311921
 72
1
 10
39.1361514457
 20
44.9446311921
 11
39.5198569406
 21
45.2811412237
 72
1
 10
39.5198569406
 20
45.2811412237
 11
39.8563576283
 21
45.6648412598
 72
1
 10
39.8563576283
 20
45.6648412598
 11
40.1398958888
 21
46.0891912997
 72
1
 10
40.1398958888
 20
46.0891912997
 11
45.3528889231
 21
43.6666760719
 72
1
 10
45.3528889231
 20
43.6666760719
 11
45.345943091
 21
43.5341510594
 72
1
 10
45.345943091
 20
43.5341510594
 11
45.3251816945
 21
43.4030660471
 72
1
 10
45.3251816945
 20
43.4030660471
 11
45.2908322
 21
43.2748610351
 72
1
 10
45.2908322
 20
43.2748610351
 11
45.2432709475
 21
43.1509610234
 72
1
 10
45.2432709475
 20
43.1509610234
 11
45.1830190283
 21
43.0327160123
 72
1
 10
45.1830190283
 20
43.0327160123
 11
45.1107365748
 21
42.9214160018
 72
1
 10
45.1107365748
 20
42.9214160018
 11
45.0272155289
 21
42.8182759921
 72
1
 10
45.0272155289
 20
42.8182759921
 11
44.9333709645
 21
42.7244209833
 72
1
 10
44.9333709645
 20
42.7244209833
 11
44.8302310623
 21
42.6409009754
 72
1
 10
44.8302310623
 20
42.6409009754
 11
44.7189258447
 21
42.5686159687
 72
1
 10
44.7189258447
 20
42.5686159687
 11
44.600674795
 21
42.508375963
 72
1
 10
44.600674795
 20
42.508375963
 11
44.4767734964
 21
42.4608109585
 72
1
 10
44.4767734964
 20
42.4608109585
 11
44.3485794374
 21
42.4264609553
 72
1
 10
44.3485794374
 20
42.4264609553
 11
44.217497139
 21
42.4057009533
 72
1
 10
44.217497139
 20
42.4057009533
 11
44.0849627663
 21
42.3987559527
 72
1
 10
44.0849627663
 20
42.3987559527
 11
17.6290122978
 21
42.3987559527
 72
1
 10
17.6290122978
 20
42.3987559527
 11
17.4964779251
 21
42.4057009533
 72
1
 10
17.4964779251
 20
42.4057009533
 11
17.3653956267
 21
42.4264609553
 72
1
 10
17.3653956267
 20
42.4264609553
 11
17.2372015677
 21
42.4608109585
 72
1
 10
17.2372015677
 20
42.4608109585
 11
17.113300269
 21
42.508375963
 72
1
 10
17.113300269
 20
42.508375963
 11
16.9950492193
 21
42.5686159687
 72
1
 10
16.9950492193
 20
42.5686159687
 11
16.8837440018
 21
42.6409009754
 72
1
 10
16.8837440018
 20
42.6409009754
 11
16.7806040996
 21
42.7244209833
 72
1
 10
16.7806040996
 20
42.7244209833
 11
16.6867595352
 21
42.8182759921
 72
1
 10
16.6867595352
 20
42.8182759921
 11
16.6032384892
 21
42.9214160018
 72
1
 10
16.6032384892
 20
42.9214160018
 11
16.5309560358
 21
43.0327160123
 72
1
 10
16.5309560358
 20
43.0327160123
 11
16.4707041165
 21
43.1509610234
 72
1
 10
16.4707041165
 20
43.1509610234
 11
16.4231428641
 21
43.2748610351
 72
1
 10
16.4231428641
 20
43.2748610351
 11
16.3887933695
 21
43.4030660471
 72
1
 10
16.3887933695
 20
43.4030660471
 11
16.368031973
 21
43.5341510594
 72
1
 10
16.368031973
 20
43.5341510594
 11
16.3610861409
 21
43.6666760719
 72
1
 10
16.3610861409
 20
43.6666760719
 11
36.2517373247
 21
44.1717561194
 72
1
 10
36.2517373247
 20
44.1717561194
 11
36.7610000003
 21
44.13838322
 97
1
330
2DD
 75
0
 76
1
 98
1
 10
0.0
 20
0.0
  0
SOLID
  5
2DF
100
AcDbEntity
  8
0
100
AcDbTrace
 62
2
  6
CONTINUOUS
 10
25.3408515753
 20
55.2505598297
 11
24.5102931399
 21
55.2245960958
 12
26.1659444963
 22
55.151954039
 13
45.3528889232
 23
56.1308222438
  0
ENDBLK
  5
2E0
100
AcDbEntity
  8
0
  6
BYBLOCK
 62
0
100
AcDbBlockEnd
  0
BLOCK
  5
2E1
100
AcDbEntity
  8
94934430R00_BL0
100
AcDbBlockBegin
  2
94934430R00_BL0
 70
64
 10
87.3961887624
 20
1105.415731234
  3
94934430R00_BL0
  1

  0
LINE
  5
2E2
100
AcDbEntity
  8
94934430R00_BL0
100
AcDbLine
 62
7
  6
CONTINUOUS
 10
155.8104065009
 20
130.4461952983
 11
131.8104065009
 21
130.4461952983
  0
LINE
  5
2E3
100
AcDbEntity
  8
94934430R00_BL0
100
AcDbLine
 62
7
  6
CONTINUOUS
 10
141.8104065009
 20
239.4461952983
 11
151.8104065009
 21
239.4461952983
  0
LINE
  5
2E4
100
AcDbEntity
  8
94934430R00_BL0
100
AcDbLine
 62
7
  6
CONTINUOUS
 10
151.8104065009
 20
277.4461952983
 11
141.8104065009
 21
277.4461952983
  0
LINE
  5
2E5
100
AcDbEntity
  8
94934430R00_BL0
100
AcDbLine
 62
7
  6
CENTER
 10
143.8104065009
 20
520.4461952983
 11
135.4104065009
 21
520.4461952983
  0
LINE
  5
2E6
100
AcDbEntity
  8
94934430R00_BL0
100
AcDbLine
 62
7
  6
CENTER
 10
143.8104065009
 20
520.4461952983
 11
152.2104065009
 21
520.4461952983
  0
LINE
  5
2E7
100
AcDbEntity
  8
94934430R00_BL0
100
AcDbLine
 62
7
  6
CENTER
 10
143.8104065009
 20
997.4461952983
 11
135.4104065009
 21
997.4461952983
  0
LINE
  5
2E8
100
AcDbEntity
  8
94934430R00_BL0
100
AcDbLine
 62
7
  6
CENTER
 10
143.8104065009
 20
997.4461952983
 11
152.2104065009
 21
997.4461952983
  0
LINE
  5
2E9
100
AcDbEntity
  8
94934430R00_BL0
100
AcDbLine
 62
7
  6
CONTINUOUS
 10
135.8104065009
 20
1020.1461952983
 11
141.0278808897
 21
1020.1461952983
  0
LINE
  5
2EA
100
AcDbEntity
  8
94934430R00_BL0
100
AcDbLine
 62
7
  6
CONTINUOUS
 10
148.5929321122
 20
1020.1461952983
 11
151.8104065009
 21
1020.1461952983
  0
LINE
  5
2EB
100
AcDbEntity
  8
94934430R00_BL0
100
AcDbLine
 62
7
  6
CONTINUOUS
 10
151.8104065009
 20
1020.4461952983
 11
148.5046587933
 21
1020.4461952983
  0
LINE
  5
2EC
100
AcDbEntity
  8
94934430R00_BL0
100
AcDbLine
 62
7
  6
CONTINUOUS
 10
141.1161542085
 20
1020.4461952983
 11
135.8104065009
 21
1020.4461952983
  0
LINE
  5
2ED
100
AcDbEntity
  8
94934430R00_BL0
100
AcDbLine
 62
7
  6
CONTINUOUS
 10
135.8104065009
 20
1020.7461952983
 11
141.2316497336
 21
1020.7461952983
  0
LINE
  5
2EE
100
AcDbEntity
  8
94934430R00_BL0
100
AcDbLine
 62
7
  6
CONTINUOUS
 10
148.3891632683
 20
1020.7461952983
 11
151.8104065009
 21
1020.7461952983
  0
LINE
  5
2EF
100
AcDbEntity
  8
94934430R00_BL0
100
AcDbLine
 62
7
  6
CONTINUOUS
 10
155.8104065009
 20
1021.2961952983
 11
150.8104065009
 21
1021.2961952983
  0
LINE
  5
2F0
100
AcDbEntity
  8
94934430R00_BL0
100
AcDbLine
 62
7
  6
CONTINUOUS
 10
136.8104065009
 20
1023.4461952983
 11
148.6604065009
 21
1023.4461952983
  0
LINE
  5
2F1
100
AcDbEntity
  8
94934430R00_BL0
100
AcDbLine
 62
7
  6
CONTINUOUS
 10
148.6604065009
 20
1067.4461952983
 11
136.8104065009
 21
1067.4461952983
  0
LINE
  5
2F2
100
AcDbEntity
  8
94934430R00_BL0
100
AcDbLine
 62
7
  6
CONTINUOUS
 10
155.8104065009
 20
1069.5961952983
 11
150.8104065009
 21
1069.5961952983
  0
LINE
  5
2F3
100
AcDbEntity
  8
94934430R00_BL0
100
AcDbLine
 62
7
  6
CONTINUOUS
 10
148.6604065009
 20
1023.4461952983
 11
150.8104065009
 21
1021.2961952983
  0
LINE
  5
2F4
100
AcDbEntity
  8
94934430R00_BL0
100
AcDbLine
 62
7
  6
CONTINUOUS
 10
131.8104065009
 20
2130.4461952983
 11
131.8104065009
 21
130.4461952983
  0
LINE
  5
2F5
100
AcDbEntity
  8
94934430R00_BL0
100
AcDbLine
 62
7
  6
CONTINUOUS
 10
134.7104065009
 20
1354.9461952983
 11
134.7104065009
 21
1185.9461952983
  0
LINE
  5
2F6
100
AcDbEntity
  8
94934430R00_BL0
100
AcDbLine
 62
9
  6
CONTINUOUS
 10
134.8104065009
 20
2130.4461952983
 11
134.8104065009
 21
1356.3918785278
  0
LINE
  5
2F7
100
AcDbEntity
  8
94934430R00_BL0
100
AcDbLine
 62
9
  6
CONTINUOUS
 10
134.8104065009
 20
1184.5005120688
 11
134.8104065009
 21
130.4461952983
  0
LINE
  5
2F8
100
AcDbEntity
  8
94934430R00_BL0
100
AcDbLine
 62
7
  6
CONTINUOUS
 10
135.8104065009
 20
1020.1461952983
 11
135.8104065009
 21
1020.7461952983
  0
LINE
  5
2F9
100
AcDbEntity
  8
94934430R00_BL0
100
AcDbLine
 62
7
  6
CONTINUOUS
 10
136.8104065009
 20
1067.4461952983
 11
136.8104065009
 21
1023.4461952983
  0
LINE
  5
2FA
100
AcDbEntity
  8
94934430R00_BL0
100
AcDbLine
 62
7
  6
CONTINUOUS
 10
139.8104065009
 20
1765.4461952983
 11
139.8104065009
 21
1731.4461952983
  0
LINE
  5
2FB
100
AcDbEntity
  8
94934430R00_BL0
100
AcDbLine
 62
7
  6
CONTINUOUS
 10
139.8104065009
 20
275.4461952983
 11
139.8104065009
 21
241.4461952983
  0
LINE
  5
2FC
100
AcDbEntity
  8
94934430R00_BL0
100
AcDbLine
 62
7
  6
CONTINUOUS
 10
140.6604065009
 20
1812.6835253552
 11
140.6604065009
 21
1809.1096666818
  0
LINE
  5
2FD
100
AcDbEntity
  8
94934430R00_BL0
100
AcDbLine
 62
7
  6
CONTINUOUS
 10
140.6604065009
 20
1807.9827239148
 11
140.6604065009
 21
1804.4088652414
  0
LINE
  5
2FE
100
AcDbEntity
  8
94934430R00_BL0
100
AcDbLine
 62
7
  6
CONTINUOUS
 10
140.6604065009
 20
1653.5835253552
 11
140.6604065009
 21
1650.0096666818
  0
LINE
  5
2FF
100
AcDbEntity
  8
94934430R00_BL0
100
AcDbLine
 62
7
  6
CONTINUOUS
 10
140.6604065009
 20
1648.8827239148
 11
140.6604065009
 21
1645.3088652414
  0
LINE
  5
300
100
AcDbEntity
  8
94934430R00_BL0
100
AcDbLine
 62
7
  6
CONTINUOUS
 10
140.6604065009
 20
1574.5835253552
 11
140.6604065009
 21
1571.0096666818
  0
LINE
  5
301
100
AcDbEntity
  8
94934430R00_BL0
100
AcDbLine
 62
7
  6
CONTINUOUS
 10
140.6604065009
 20
1569.8827239148
 11
140.6604065009
 21
1566.3088652414
  0
LINE
  5
302
100
AcDbEntity
  8
94934430R00_BL0
100
AcDbLine
 62
7
  6
CONTINUOUS
 10
140.6604065009
 20
1424.0835253552
 11
140.6604065009
 21
1420.5096666818
  0
LINE
  5
303
100
AcDbEntity
  8
94934430R00_BL0
100
AcDbLine
 62
7
  6
CONTINUOUS
 10
140.6604065009
 20
1419.3827239148
 11
140.6604065009
 21
1415.8088652414
  0
LINE
  5
304
100
AcDbEntity
  8
94934430R00_BL0
100
AcDbLine
 62
7
  6
CONTINUOUS
 10
140.6604065009
 20
832.6835253552
 11
140.6604065009
 21
829.1096666818
  0
LINE
  5
305
100
AcDbEntity
  8
94934430R00_BL0
100
AcDbLine
 62
7
  6
CONTINUOUS
 10
140.6604065009
 20
827.9827239148
 11
140.6604065009
 21
824.4088652414
  0
LINE
  5
306
100
AcDbEntity
  8
94934430R00_BL0
100
AcDbLine
 62
7
  6
CONTINUOUS
 10
140.6604065009
 20
716.4835253552
 11
140.6604065009
 21
712.9096666818
  0
LINE
  5
307
100
AcDbEntity
  8
94934430R00_BL0
100
AcDbLine
 62
7
  6
CONTINUOUS
 10
140.6604065009
 20
711.7827239148
 11
140.6604065009
 21
708.2088652414
  0
LINE
  5
308
100
AcDbEntity
  8
94934430R00_BL0
100
AcDbLine
 62
7
  6
CONTINUOUS
 10
140.6604065009
 20
322.6835253552
 11
140.6604065009
 21
319.1096666818
  0
LINE
  5
309
100
AcDbEntity
  8
94934430R00_BL0
100
AcDbLine
 62
7
  6
CONTINUOUS
 10
140.6604065009
 20
317.9827239148
 11
140.6604065009
 21
314.4088652414
  0
LINE
  5
30A
100
AcDbEntity
  8
94934430R00_BL0
100
AcDbLine
 62
7
  6
CONTINUOUS
 10
140.6604065009
 20
206.4835253552
 11
140.6604065009
 21
202.9096666818
  0
LINE
  5
30B
100
AcDbEntity
  8
94934430R00_BL0
100
AcDbLine
 62
7
  6
CONTINUOUS
 10
140.6604065009
 20
201.7827239148
 11
140.6604065009
 21
198.2088652414
  0
LINE
  5
30C
100
AcDbEntity
  8
94934430R00_BL0
100
AcDbLine
 62
7
  6
CENTER
 10
143.8104065009
 20
1093.4461952983
 11
143.8104065009
 21
1085.0461952983
  0
LINE
  5
30D
100
AcDbEntity
  8
94934430R00_BL0
100
AcDbLine
 62
7
  6
CENTER
 10
143.8104065009
 20
997.4461952983
 11
143.8104065009
 21
989.0461952983
  0
LINE
  5
30E
100
AcDbEntity
  8
94934430R00_BL0
100
AcDbLine
 62
7
  6
CENTER
 10
143.8104065009
 20
520.4461952983
 11
143.8104065009
 21
512.0461952983
  0
LINE
  5
30F
100
AcDbEntity
  8
94934430R00_BL0
100
AcDbLine
 62
7
  6
CENTER
 10
143.8104065009
 20
520.4461952983
 11
143.8104065009
 21
528.8461952983
  0
LINE
  5
310
100
AcDbEntity
  8
94934430R00_BL0
100
AcDbLine
 62
7
  6
CENTER
 10
143.8104065009
 20
997.4461952983
 11
143.8104065009
 21
1005.8461952983
  0
LINE
  5
311
100
AcDbEntity
  8
94934430R00_BL0
100
AcDbLine
 62
7
  6
CENTER
 10
143.8104065009
 20
1093.4461952983
 11
143.8104065009
 21
1101.8461952983
  0
LINE
  5
312
100
AcDbEntity
  8
94934430R00_BL0
100
AcDbLine
 62
7
  6
CONTINUOUS
 10
145.3583236899
 20
1123.3442747658
 11
145.3583236899
 21
1121.0477097294
  0
LINE
  5
313
100
AcDbEntity
  8
94934430R00_BL0
100
AcDbLine
 62
7
  6
CONTINUOUS
 10
145.3583236899
 20
1119.8267511025
 11
145.3583236899
 21
1119.5069762239
  0
LINE
  5
314
100
AcDbEntity
  8
94934430R00_BL0
100
AcDbLine
 62
7
  6
CONTINUOUS
 10
145.5583236898
 20
1119.5069762239
 11
145.5583236898
 21
1120.0267511024
  0
LINE
  5
315
100
AcDbEntity
  8
94934430R00_BL0
100
AcDbLine
 62
7
  6
CONTINUOUS
 10
145.5583236898
 20
1120.8477097294
 11
145.5583236898
 21
1123.1442747658
  0
LINE
  5
316
100
AcDbEntity
  8
94934430R00_BL0
100
AcDbLine
 62
7
  6
CONTINUOUS
 10
146.6699867518
 20
1123.1442747658
 11
146.6699867518
 21
1119.5069762239
  0
LINE
  5
317
100
AcDbEntity
  8
94934430R00_BL0
100
AcDbLine
 62
7
  6
CONTINUOUS
 10
146.8699867517
 20
1119.5069762239
 11
146.8699867519
 21
1123.3442747658
  0
LINE
  5
318
100
AcDbEntity
  8
94934430R00_BL0
100
AcDbLine
 62
7
  6
CONTINUOUS
 10
146.9604065009
 20
198.2088652414
 11
146.9604065009
 21
201.7827239148
  0
LINE
  5
319
100
AcDbEntity
  8
94934430R00_BL0
100
AcDbLine
 62
7
  6
CONTINUOUS
 10
146.9604065009
 20
202.9096666818
 11
146.9604065009
 21
206.4835253552
  0
LINE
  5
31A
100
AcDbEntity
  8
94934430R00_BL0
100
AcDbLine
 62
7
  6
CONTINUOUS
 10
146.9604065009
 20
314.4088652414
 11
146.9604065009
 21
317.9827239148
  0
LINE
  5
31B
100
AcDbEntity
  8
94934430R00_BL0
100
AcDbLine
 62
7
  6
CONTINUOUS
 10
146.9604065009
 20
319.1096666818
 11
146.9604065009
 21
322.6835253552
  0
LINE
  5
31C
100
AcDbEntity
  8
94934430R00_BL0
100
AcDbLine
 62
7
  6
CONTINUOUS
 10
146.9604065009
 20
708.2088652414
 11
146.9604065009
 21
711.7827239148
  0
LINE
  5
31D
100
AcDbEntity
  8
94934430R00_BL0
100
AcDbLine
 62
7
  6
CONTINUOUS
 10
146.9604065009
 20
712.9096666818
 11
146.9604065009
 21
716.4835253552
  0
LINE
  5
31E
100
AcDbEntity
  8
94934430R00_BL0
100
AcDbLine
 62
7
  6
CONTINUOUS
 10
146.9604065009
 20
824.4088652414
 11
146.9604065009
 21
827.9827239148
  0
LINE
  5
31F
100
AcDbEntity
  8
94934430R00_BL0
100
AcDbLine
 62
7
  6
CONTINUOUS
 10
146.9604065009
 20
829.1096666818
 11
146.9604065009
 21
832.6835253552
  0
LINE
  5
320
100
AcDbEntity
  8
94934430R00_BL0
100
AcDbLine
 62
7
  6
CONTINUOUS
 10
146.9604065009
 20
1415.8088652414
 11
146.9604065009
 21
1419.3827239148
  0
LINE
  5
321
100
AcDbEntity
  8
94934430R00_BL0
100
AcDbLine
 62
7
  6
CONTINUOUS
 10
146.9604065009
 20
1420.5096666818
 11
146.9604065009
 21
1424.0835253552
  0
LINE
  5
322
100
AcDbEntity
  8
94934430R00_BL0
100
AcDbLine
 62
7
  6
CONTINUOUS
 10
146.9604065009
 20
1566.3088652414
 11
146.9604065009
 21
1569.8827239148
  0
LINE
  5
323
100
AcDbEntity
  8
94934430R00_BL0
100
AcDbLine
 62
7
  6
CONTINUOUS
 10
146.9604065009
 20
1571.0096666818
 11
146.9604065009
 21
1574.5835253552
  0
LINE
  5
324
100
AcDbEntity
  8
94934430R00_BL0
100
AcDbLine
 62
7
  6
CONTINUOUS
 10
146.9604065009
 20
1645.3088652414
 11
146.9604065009
 21
1648.8827239148
  0
LINE
  5
325
100
AcDbEntity
  8
94934430R00_BL0
100
AcDbLine
 62
7
  6
CONTINUOUS
 10
146.9604065009
 20
1650.0096666818
 11
146.9604065009
 21
1653.5835253552
  0
LINE
  5
326
100
AcDbEntity
  8
94934430R00_BL0
100
AcDbLine
 62
7
  6
CONTINUOUS
 10
146.9604065009
 20
1804.4088652414
 11
146.9604065009
 21
1807.9827239148
  0
LINE
  5
327
100
AcDbEntity
  8
94934430R00_BL0
100
AcDbLine
 62
7
  6
CONTINUOUS
 10
146.9604065009
 20
1809.1096666818
 11
146.9604065009
 21
1812.6835253552
  0
LINE
  5
328
100
AcDbEntity
  8
94934430R00_BL0
100
AcDbLine
 62
7
  6
CONTINUOUS
 10
148.1723426205
 20
1123.3442747658
 11
148.1723426205
 21
1119.5069762239
  0
LINE
  5
329
100
AcDbEntity
  8
94934430R00_BL0
100
AcDbLine
 62
7
  6
CONTINUOUS
 10
148.3723426206
 20
1119.5069762239
 11
148.3723426206
 21
1123.1442747658
  0
LINE
  5
32A
100
AcDbEntity
  8
94934430R00_BL0
100
AcDbLine
 62
7
  6
CONTINUOUS
 10
149.4840056826
 20
1123.1442747658
 11
149.4840056824
 21
1119.5069762239
  0
LINE
  5
32B
100
AcDbEntity
  8
94934430R00_BL0
100
AcDbLine
 62
7
  6
CONTINUOUS
 10
149.6840056825
 20
1119.5069762239
 11
149.6840056825
 21
1123.3442747658
  0
LINE
  5
32C
100
AcDbEntity
  8
94934430R00_BL0
100
AcDbLine
 62
7
  6
CONTINUOUS
 10
151.8104065009
 20
1020.1461952983
 11
151.8104065009
 21
1020.7461952983
  0
LINE
  5
32D
100
AcDbEntity
  8
94934430R00_BL0
100
AcDbLine
 62
9
  6
CONTINUOUS
 10
152.8104065009
 20
2130.4461952983
 11
152.8104065009
 21
1767.1782461059
  0
LINE
  5
32E
100
AcDbEntity
  8
94934430R00_BL0
100
AcDbLine
 62
9
  6
CONTINUOUS
 10
152.8104065009
 20
1729.7141444907
 11
152.8104065009
 21
1365.4461952983
  0
LINE
  5
32F
100
AcDbEntity
  8
94934430R00_BL0
100
AcDbLine
 62
9
  6
CONTINUOUS
 10
152.8104065009
 20
1175.4461952983
 11
152.8104065009
 21
1069.5961952983
  0
LINE
  5
330
100
AcDbEntity
  8
94934430R00_BL0
100
AcDbLine
 62
9
  6
CONTINUOUS
 10
152.8104065009
 20
1021.2961952983
 11
152.8104065009
 21
986.3661434245
  0
LINE
  5
331
100
AcDbEntity
  8
94934430R00_BL0
100
AcDbLine
 62
9
  6
CONTINUOUS
 10
152.8104065009
 20
922.3262471723
 11
152.8104065009
 21
277.1782461059
  0
LINE
  5
332
100
AcDbEntity
  8
94934430R00_BL0
100
AcDbLine
 62
9
  6
CONTINUOUS
 10
152.8104065009
 20
239.7141444907
 11
152.8104065009
 21
130.4461952983
  0
LINE
  5
333
100
AcDbEntity
  8
94934430R00_BL0
100
AcDbLine
 62
7
  6
CONTINUOUS
 10
153.8104065009
 20
1765.4461952983
 11
153.8104065009
 21
1731.4461952983
  0
LINE
  5
334
100
AcDbEntity
  8
94934430R00_BL0
100
AcDbLine
 62
7
  6
CONTINUOUS
 10
153.8104065009
 20
275.4461952983
 11
153.8104065009
 21
241.4461952983
  0
LINE
  5
335
100
AcDbEntity
  8
94934430R00_BL0
100
AcDbLine
 62
7
  6
CONTINUOUS
 10
155.4084827123
 20
1365.4461952983
 11
155.4084827123
 21
1175.4461952983
  0
LINE
  5
336
100
AcDbEntity
  8
94934430R00_BL0
100
AcDbLine
 62
7
  6
CONTINUOUS
 10
155.8104065009
 20
2130.4461952983
 11
155.8104065009
 21
1069.5961952983
  0
LINE
  5
337
100
AcDbEntity
  8
94934430R00_BL0
100
AcDbLine
 62
7
  6
CONTINUOUS
 10
155.8104065009
 20
1021.2961952983
 11
155.8104065009
 21
130.4461952983
  0
LINE
  5
338
100
AcDbEntity
  8
94934430R00_BL0
100
AcDbLine
 62
7
  6
CONTINUOUS
 10
143.2606088049
 20
1122.2744090752
 11
142.3645570752
 21
1121.6113656741
  0
LINE
  5
339
100
AcDbEntity
  8
94934430R00_BL0
100
AcDbLine
 62
7
  6
CONTINUOUS
 10
142.3287108553
 20
1121.3360403528
 11
143.54402353
 21
1122.2353244261
  0
LINE
  5
33A
100
AcDbEntity
  8
94934430R00_BL0
100
AcDbLine
 62
7
  6
CENTER
 10
143.8104065009
 20
1093.4461952983
 11
135.4104065009
 21
1093.4461952983
  0
LINE
  5
33B
100
AcDbEntity
  8
94934430R00_BL0
100
AcDbLine
 62
7
  6
CENTER
 10
143.8104065009
 20
1093.4461952983
 11
152.2104065009
 21
1093.4461952983
  0
LINE
  5
33C
100
AcDbEntity
  8
94934430R00_BL0
100
AcDbLine
 62
7
  6
CONTINUOUS
 10
141.114038939
 20
1119.8267511024
 11
142.4895042541
 21
1119.8267511024
  0
LINE
  5
33D
100
AcDbEntity
  8
94934430R00_BL0
100
AcDbLine
 62
7
  6
CONTINUOUS
 10
144.3358573189
 20
1119.8267511025
 11
145.3583236899
 21
1119.8267511025
  0
LINE
  5
33E
100
AcDbEntity
  8
94934430R00_BL0
100
AcDbLine
 62
7
  6
CONTINUOUS
 10
145.5583236898
 20
1120.0267511024
 11
144.5688853623
 21
1120.0267511024
  0
LINE
  5
33F
100
AcDbEntity
  8
94934430R00_BL0
100
AcDbLine
 62
7
  6
CONTINUOUS
 10
142.7654853639
 20
1120.0267511024
 11
141.114038939
 21
1120.0267511024
  0
LINE
  5
340
100
AcDbEntity
  8
94934430R00_BL0
100
AcDbLine
 62
7
  6
CONTINUOUS
 10
141.114038939
 20
1120.8477097294
 11
143.8962293115
 21
1120.8477097293
  0
LINE
  5
341
100
AcDbEntity
  8
94934430R00_BL0
100
AcDbLine
 62
7
  6
CONTINUOUS
 10
144.5688853623
 20
1120.8477097294
 11
145.5583236898
 21
1120.8477097294
  0
LINE
  5
342
100
AcDbEntity
  8
94934430R00_BL0
100
AcDbLine
 62
7
  6
CONTINUOUS
 10
145.3583236899
 20
1121.0477097294
 11
144.3358573189
 21
1121.0477097294
  0
LINE
  5
343
100
AcDbEntity
  8
94934430R00_BL0
100
AcDbLine
 62
7
  6
CONTINUOUS
 10
144.0644235167
 20
1121.0477097294
 11
141.114038939
 21
1121.0477097294
  0
LINE
  5
344
100
AcDbEntity
  8
94934430R00_BL0
100
AcDbLine
 62
7
  6
CONTINUOUS
 10
145.5583236898
 20
1123.1442747658
 11
146.6699867518
 21
1123.1442747658
  0
LINE
  5
345
100
AcDbEntity
  8
94934430R00_BL0
100
AcDbLine
 62
7
  6
CONTINUOUS
 10
148.3723426206
 20
1123.1442747658
 11
149.4840056826
 21
1123.1442747658
  0
LINE
  5
346
100
AcDbEntity
  8
94934430R00_BL0
100
AcDbLine
 62
7
  6
CONTINUOUS
 10
149.6840056825
 20
1123.3442747658
 11
148.1723426205
 21
1123.3442747658
  0
LINE
  5
347
100
AcDbEntity
  8
94934430R00_BL0
100
AcDbLine
 62
7
  6
CONTINUOUS
 10
146.8699867519
 20
1123.3442747658
 11
145.3583236899
 21
1123.3442747658
  0
LINE
  5
348
100
AcDbEntity
  8
94934430R00_BL0
100
AcDbLine
 62
7
  6
CONTINUOUS
 10
150.8104065009
 20
1069.5961952983
 11
148.6604065009
 21
1067.4461952983
  0
LINE
  5
349
100
AcDbEntity
  8
94934430R00_BL0
100
AcDbLine
 62
7
  6
CONTINUOUS
 10
155.4084827123
 20
1175.4461952983
 11
145.2104065009
 21
1175.4461952983
  0
LINE
  5
34A
100
AcDbEntity
  8
94934430R00_BL0
100
AcDbLine
 62
7
  6
CONTINUOUS
 10
155.4084827123
 20
1365.4461952983
 11
145.2104065009
 21
1365.4461952983
  0
LINE
  5
34B
100
AcDbEntity
  8
94934430R00_BL0
100
AcDbLine
 62
7
  6
CONTINUOUS
 10
141.8104065009
 20
1729.4461952983
 11
151.8104065009
 21
1729.4461952983
  0
LINE
  5
34C
100
AcDbEntity
  8
94934430R00_BL0
100
AcDbLine
 62
7
  6
CONTINUOUS
 10
151.8104065009
 20
1767.4461952983
 11
141.8104065009
 21
1767.4461952983
  0
LINE
  5
34D
100
AcDbEntity
  8
94934430R00_BL0
100
AcDbLine
 62
7
  6
CONTINUOUS
 10
155.8104065009
 20
2130.4461952983
 11
131.8104065009
 21
2130.4461952983
  0
LINE
  5
34E
100
AcDbEntity
  8
94934430R00_BL0
100
AcDbLine
 62
7
  6
CONTINUOUS
 10
29.9819710238
 20
130.4461952983
 11
21.9819710238
 21
130.4461952983
  0
LINE
  5
34F
100
AcDbEntity
  8
94934430R00_BL0
100
AcDbLine
 62
9
  6
CONTINUOUS
 10
21.9819710238
 20
241.4461952983
 11
22.1535438991
 21
241.4461952983
  0
LINE
  5
350
100
AcDbEntity
  8
94934430R00_BL0
100
AcDbLine
 62
9
  6
CONTINUOUS
 10
21.9819710238
 20
275.4461952983
 11
22.1535438991
 21
275.4461952983
  0
LINE
  5
351
100
AcDbEntity
  8
94934430R00_BL0
100
AcDbLine
 62
7
  6
CENTER
 10
32.1503726164
 20
520.4461952983
 11
20.9819710238
 21
520.4461952983
  0
LINE
  5
352
100
AcDbEntity
  8
94934430R00_BL0
100
AcDbLine
 62
7
  6
CENTER
 10
28.9823569866
 20
997.4461952983
 11
20.9819710238
 21
997.4461952983
  0
LWPOLYLINE
  5
353
100
AcDbEntity
  8
94934430R00_BL0
100
AcDbPolyline
 62
7
  6
CONTINUOUS
 90
11
 70
0
 10
22.0278822743
 20
276.7427153237
 10
22.0714164726
 20
276.4546693139
 10
22.0861646586
 20
276.3507071232
 10
22.1002411796
 20
276.2438638825
 10
22.1132979243
 20
276.1342928543
 10
22.1249935573
 20
276.0221352095
 10
22.1350018518
 20
275.9081384449
 10
22.1430095061
 20
275.7928661756
 10
22.1488545947
 20
275.6770112176
 10
22.1523872644
 20
275.5615643445
 10
22.1535438991
 20
275.4461952983
  0
LWPOLYLINE
  5
354
100
AcDbEntity
  8
94934430R00_BL0
100
AcDbPolyline
 62
7
  6
CONTINUOUS
 90
7
 70
0
 10
22.0278615827
 20
1730.1495379524
 10
22.0151600265
 20
1730.063461894
 10
22.0040096001
 20
1729.9825292609
 10
21.9947747326
 20
1729.9068701846
 10
21.9878246012
 20
1729.8367602276
 10
21.983478101
 20
1729.7725581971
 10
21.9819710238
 20
1729.7141444907
  0
LINE
  5
355
100
AcDbEntity
  8
94934430R00_BL0
100
AcDbLine
 62
7
  6
CONTINUOUS
 10
22.0712590264
 20
1730.4366485677
 11
22.0278615827
 21
1730.1495379524
  0
LINE
  5
356
100
AcDbEntity
  8
94934430R00_BL0
100
AcDbLine
 62
7
  6
CONTINUOUS
 10
29.9819710238
 20
1021.2961952983
 11
21.9819710238
 21
1021.2961952983
  0
LINE
  5
357
100
AcDbEntity
  8
94934430R00_BL0
100
AcDbLine
 62
7
  6
CENTER
 10
34.9819710238
 20
1045.4461952983
 11
18.9819710238
 21
1045.4461952983
  0
LINE
  5
358
100
AcDbEntity
  8
94934430R00_BL0
100
AcDbLine
 62
7
  6
CONTINUOUS
 10
29.9819710238
 20
1069.5961952983
 11
21.9819710238
 21
1069.5961952983
  0
LWPOLYLINE
  5
359
100
AcDbEntity
  8
94934430R00_BL0
100
AcDbPolyline
 62
7
  6
CONTINUOUS
 90
7
 70
0
 10
21.9819710238
 20
277.1782461059
 10
21.9834767502
 20
277.1198574053
 10
21.9878182273
 20
277.0557055461
 10
21.9947546547
 20
276.9857124779
 10
22.0039767511
 20
276.9101123512
 10
22.0151425364
 20
276.8290440185
 10
22.0278822743
 20
276.7427153237
  0
LWPOLYLINE
  5
35A
100
AcDbEntity
  8
94934430R00_BL0
100
AcDbPolyline
 62
7
  6
CONTINUOUS
 90
7
 70
0
 10
21.9819710238
 20
1767.1782461059
 10
21.9834767502
 20
1767.1198574053
 10
21.9878182273
 20
1767.0557055461
 10
21.9947546547
 20
1766.9857124779
 10
22.0039767511
 20
1766.9101123512
 10
22.0151425364
 20
1766.8290440185
 10
22.0278822743
 20
1766.7427153237
  0
LINE
  5
35B
100
AcDbEntity
  8
94934430R00_BL0
100
AcDbLine
 62
7
  6
CONTINUOUS
 10
21.9819710238
 20
2130.4461952983
 11
21.9819710238
 21
1767.1782461059
  0
LINE
  5
35C
100
AcDbEntity
  8
94934430R00_BL0
100
AcDbLine
 62
7
  6
CONTINUOUS
 10
21.9819710238
 20
1767.0329019789
 11
21.9819710238
 21
1729.8594886177
  0
LINE
  5
35D
100
AcDbEntity
  8
94934430R00_BL0
100
AcDbLine
 62
7
  6
CONTINUOUS
 10
21.9819710238
 20
1176.5461952983
 11
21.9819710238
 21
1069.4461952983
  0
LINE
  5
35E
100
AcDbEntity
  8
94934430R00_BL0
100
AcDbLine
 62
7
  6
CONTINUOUS
 10
21.9819710238
 20
1021.4461952983
 11
21.9819710238
 21
986.3642186568
  0
LINE
  5
35F
100
AcDbEntity
  8
94934430R00_BL0
100
AcDbLine
 62
7
  6
CONTINUOUS
 10
21.9819710238
 20
922.3281719398
 11
21.9819710238
 21
277.1782461059
  0
LINE
  5
360
100
AcDbEntity
  8
94934430R00_BL0
100
AcDbLine
 62
7
  6
CONTINUOUS
 10
21.9819710238
 20
277.0329019789
 11
21.9819710238
 21
239.8594886177
  0
LINE
  5
361
100
AcDbEntity
  8
94934430R00_BL0
100
AcDbLine
 62
7
  6
CONTINUOUS
 10
21.9819710238
 20
239.7141444907
 11
21.9819710238
 21
130.4461952983
  0
LINE
  5
362
100
AcDbEntity
  8
94934430R00_BL0
100
AcDbLine
 62
7
  6
CONTINUOUS
 10
21.9819710238
 20
1729.7141444907
 11
21.9836381537
 21
1279.3461952983
  0
LINE
  5
363
100
AcDbEntity
  8
94934430R00_BL0
100
AcDbLine
 62
7
  6
CONTINUOUS
 10
22.1535438991
 20
1765.4461952983
 11
22.1535438991
 21
1731.4461952983
  0
LINE
  5
364
100
AcDbEntity
  8
94934430R00_BL0
100
AcDbLine
 62
7
  6
CONTINUOUS
 10
22.1535438991
 20
275.4461952983
 11
22.1535438991
 21
241.4461952983
  0
LINE
  5
365
100
AcDbEntity
  8
94934430R00_BL0
100
AcDbLine
 62
7
  6
CONTINUOUS
 10
23.4819710238
 20
1365.4461952983
 11
23.4819710238
 21
1175.4461952983
  0
LINE
  5
366
100
AcDbEntity
  8
94934430R00_BL0
100
AcDbLine
 62
9
  6
CONTINUOUS
 10
24.9819710238
 20
2130.4461952983
 11
24.9819710238
 21
1069.5961952983
  0
LINE
  5
367
100
AcDbEntity
  8
94934430R00_BL0
100
AcDbLine
 62
9
  6
CONTINUOUS
 10
24.9819710238
 20
1021.2961952983
 11
24.9819710238
 21
130.4461952983
  0
LINE
  5
368
100
AcDbEntity
  8
94934430R00_BL0
100
AcDbLine
 62
7
  6
CONTINUOUS
 10
29.9819710238
 20
2130.4461952983
 11
29.9819710238
 21
1069.4461952983
  0
LINE
  5
369
100
AcDbEntity
  8
94934430R00_BL0
100
AcDbLine
 62
7
  6
CONTINUOUS
 10
29.9819710238
 20
1021.4461952983
 11
29.9819710238
 21
130.4461952983
  0
LWPOLYLINE
  5
36A
100
AcDbEntity
  8
94934430R00_BL0
100
AcDbPolyline
 62
7
  6
CONTINUOUS
 90
10
 70
0
 10
22.1535438991
 20
1731.4461952983
 10
22.1523801187
 20
1731.3304260957
 10
22.1488211708
 20
1731.2145547552
 10
22.1429195008
 20
1731.0981431188
 10
22.1348638571
 20
1730.9825056601
 10
22.1248634439
 20
1730.8688112723
 10
22.1131813207
 20
1730.7570585385
 10
22.1001033619
 20
1730.6474656796
 10
22.0860080277
 20
1730.5405426751
 10
22.0712590264
 20
1730.4366485677
  0
LWPOLYLINE
  5
36B
100
AcDbEntity
  8
94934430R00_BL0
100
AcDbPolyline
 62
7
  6
CONTINUOUS
 90
10
 70
0
 10
22.1535438991
 20
241.4461952983
 10
22.1523801187
 20
241.3304260957
 10
22.1488211708
 20
241.2145547552
 10
22.1429195008
 20
241.0981431188
 10
22.1348638571
 20
240.9825056601
 10
22.1248634439
 20
240.8688112723
 10
22.1131813207
 20
240.7570585385
 10
22.1001033619
 20
240.6474656796
 10
22.0860080277
 20
240.5405426751
 10
22.0712590264
 20
240.4366485677
  0
LINE
  5
36C
100
AcDbEntity
  8
94934430R00_BL0
100
AcDbLine
 62
7
  6
CENTER
 10
28.9823569866
 20
1093.4461952983
 11
20.9819710238
 21
1093.4461952983
  0
LINE
  5
36D
100
AcDbEntity
  8
94934430R00_BL0
100
AcDbLine
 62
7
  6
CONTINUOUS
 10
23.4819710238
 20
1175.4461952983
 11
21.9819710238
 21
1175.4461952983
  0
LINE
  5
36E
100
AcDbEntity
  8
94934430R00_BL0
100
AcDbLine
 62
9
  6
CONTINUOUS
 10
23.2819710238
 20
1185.9461952983
 11
23.4819710238
 21
1185.9461952983
  0
LWPOLYLINE
  5
36F
100
AcDbEntity
  8
94934430R00_BL0
100
AcDbPolyline
 62
7
  6
CONTINUOUS
 90
7
 70
0
 10
22.0278615827
 20
240.1495379524
 10
22.0151600265
 20
240.063461894
 10
22.0040096001
 20
239.9825292609
 10
21.9947747326
 20
239.9068701846
 10
21.9878246012
 20
239.8367602276
 10
21.983478101
 20
239.7725581971
 10
21.9819710238
 20
239.7141444907
  0
LINE
  5
370
100
AcDbEntity
  8
94934430R00_BL0
100
AcDbLine
 62
7
  6
CONTINUOUS
 10
22.0712590264
 20
240.4366485677
 11
22.0278615827
 21
240.1495379524
  0
LWPOLYLINE
  5
371
100
AcDbEntity
  8
94934430R00_BL0
100
AcDbPolyline
 62
7
  6
CONTINUOUS
 90
11
 70
0
 10
22.0278822743
 20
1766.7427153237
 10
22.0714164726
 20
1766.4546693139
 10
22.0861646586
 20
1766.3507071232
 10
22.1002411796
 20
1766.2438638825
 10
22.1132979243
 20
1766.1342928543
 10
22.1249935573
 20
1766.0221352095
 10
22.1350018518
 20
1765.9081384449
 10
22.1430095061
 20
1765.7928661756
 10
22.1488545947
 20
1765.6770112176
 10
22.1523872644
 20
1765.5615643445
 10
22.1535438991
 20
1765.4461952983
  0
LINE
  5
372
100
AcDbEntity
  8
94934430R00_BL0
100
AcDbLine
 62
9
  6
CONTINUOUS
 10
21.9836381537
 20
1354.9461952983
 11
23.4819710238
 21
1354.9461952983
  0
LINE
  5
373
100
AcDbEntity
  8
94934430R00_BL0
100
AcDbLine
 62
7
  6
CONTINUOUS
 10
23.4819710238
 20
1365.4461952983
 11
21.9819710238
 21
1365.4461952983
  0
LINE
  5
374
100
AcDbEntity
  8
94934430R00_BL0
100
AcDbLine
 62
9
  6
CONTINUOUS
 10
21.9819710238
 20
1731.4461952983
 11
22.1535438991
 21
1731.4461952983
  0
LINE
  5
375
100
AcDbEntity
  8
94934430R00_BL0
100
AcDbLine
 62
9
  6
CONTINUOUS
 10
21.9819710238
 20
1765.4461952983
 11
22.1535438991
 21
1765.4461952983
  0
LINE
  5
376
100
AcDbEntity
  8
94934430R00_BL0
100
AcDbLine
 62
7
  6
CONTINUOUS
 10
29.9819710238
 20
2130.4461952983
 11
21.9819710238
 21
2130.4461952983
  0
LINE
  5
377
100
AcDbEntity
  8
94934430R00_BL0
100
AcDbLine
 62
7
  6
CONTINUOUS
 10
21.9819710238
 20
83.3852671697
 11
21.9819710238
 21
101.3852671697
  0
LINE
  5
378
100
AcDbEntity
  8
94934430R00_BL0
100
AcDbLine
 62
7
  6
CONTINUOUS
 10
23.9819710238
 20
101.8852671697
 11
23.9819710238
 21
82.8852671697
  0
LINE
  5
379
100
AcDbEntity
  8
94934430R00_BL0
100
AcDbLine
 62
7
  6
CONTINUOUS
 10
25.4819710238
 20
82.5352671697
 11
25.4819710238
 21
82.3852671697
  0
LINE
  5
37A
100
AcDbEntity
  8
94934430R00_BL0
100
AcDbLine
 62
7
  6
CONTINUOUS
 10
29.9819710238
 20
80.3852671697
 11
24.9819710238
 21
80.3852671697
  0
LINE
  5
37B
100
AcDbEntity
  8
94934430R00_BL0
100
AcDbLine
 62
7
  6
CONTINUOUS
 10
24.4819710238
 20
82.3852671697
 11
29.9819710238
 21
82.3852671697
  0
LINE
  5
37C
100
AcDbEntity
  8
94934430R00_BL0
100
AcDbLine
 62
7
  6
CONTINUOUS
 10
29.9819710238
 20
104.3852671697
 11
29.9819710238
 21
102.3852671697
  0
LINE
  5
37D
100
AcDbEntity
  8
94934430R00_BL0
100
AcDbLine
 62
7
  6
CONTINUOUS
 10
29.9819710238
 20
82.3852671697
 11
29.9819710238
 21
80.3852671697
  0
LINE
  5
37E
100
AcDbEntity
  8
94934430R00_BL0
100
AcDbLine
 62
7
  6
CONTINUOUS
 10
29.9819710238
 20
102.3852671697
 11
24.4819710238
 21
102.3852671697
  0
LINE
  5
37F
100
AcDbEntity
  8
94934430R00_BL0
100
AcDbLine
 62
7
  6
CONTINUOUS
 10
24.9819710238
 20
104.3852671697
 11
29.9819710238
 21
104.3852671697
  0
ARC
  5
380
100
AcDbEntity
  8
94934430R00_BL0
100
AcDbCircle
 62
7
  6
CONTINUOUS
 10
141.8104065009
 20
275.4461952983
 40
2.0
100
AcDbArc
 50
90.0
 51
180.0
  0
ARC
  5
381
100
AcDbEntity
  8
94934430R00_BL0
100
AcDbCircle
 62
7
  6
CONTINUOUS
 10
141.8104065009
 20
241.4461952983
 40
2.0
100
AcDbArc
 50
180.0
 51
270.0
  0
CIRCLE
  5
382
100
AcDbEntity
  8
94934430R00_BL0
100
AcDbCircle
 62
7
  6
CONTINUOUS
 10
143.8104065009
 20
202.3461952983
 40
5.2
  0
CIRCLE
  5
383
100
AcDbEntity
  8
94934430R00_BL0
100
AcDbCircle
 62
7
  6
CONTINUOUS
 10
143.8104065009
 20
318.5461952983
 40
5.2
  0
ARC
  5
384
100
AcDbEntity
  8
94934430R00_BL0
100
AcDbCircle
 62
7
  6
CONTINUOUS
 10
143.8104065009
 20
318.5461952983
 40
4.9
100
AcDbArc
 50
129.2584035409
 51
130.0052008849
  0
ARC
  5
385
100
AcDbEntity
  8
94934430R00_BL0
100
AcDbCircle
 62
7
  6
CONTINUOUS
 10
143.8104065009
 20
318.5461952983
 40
4.9
100
AcDbArc
 50
49.9947991151
 51
50.7415964591
  0
ARC
  5
386
100
AcDbEntity
  8
94934430R00_BL0
100
AcDbCircle
 62
7
  6
CONTINUOUS
 10
143.8104065009
 20
318.5461952983
 40
4.9
100
AcDbArc
 50
229.9947991151
 51
230.7415964591
  0
ARC
  5
387
100
AcDbEntity
  8
94934430R00_BL0
100
AcDbCircle
 62
7
  6
CONTINUOUS
 10
143.8104065009
 20
318.5461952983
 40
4.9
100
AcDbArc
 50
309.2584035409
 51
310.0052008849
  0
ARC
  5
388
100
AcDbEntity
  8
94934430R00_BL0
100
AcDbCircle
 62
7
  6
CONTINUOUS
 10
143.8104065009
 20
202.3461952983
 40
4.9
100
AcDbArc
 50
129.2584035409
 51
130.0052008849
  0
ARC
  5
389
100
AcDbEntity
  8
94934430R00_BL0
100
AcDbCircle
 62
7
  6
CONTINUOUS
 10
143.8104065009
 20
202.3461952983
 40
4.9
100
AcDbArc
 50
49.9947991151
 51
50.7415964591
  0
ARC
  5
38A
100
AcDbEntity
  8
94934430R00_BL0
100
AcDbCircle
 62
7
  6
CONTINUOUS
 10
143.8104065009
 20
202.3461952983
 40
4.9
100
AcDbArc
 50
229.9947991151
 51
230.7415964591
  0
ARC
  5
38B
100
AcDbEntity
  8
94934430R00_BL0
100
AcDbCircle
 62
7
  6
CONTINUOUS
 10
143.8104065009
 20
202.3461952983
 40
4.9
100
AcDbArc
 50
309.2584035409
 51
310.0052008849
  0
CIRCLE
  5
38C
100
AcDbEntity
  8
94934430R00_BL0
100
AcDbCircle
 62
7
  6
CONTINUOUS
 10
143.8104065009
 20
520.4461952983
 40
4.15
  0
ARC
  5
38D
100
AcDbEntity
  8
94934430R00_BL0
100
AcDbCircle
 62
7
  6
CONTINUOUS
 10
143.8104065009
 20
318.5461952983
 40
3.2
100
AcDbArc
 50
349.8582066343
 51
10.1417933657
  0
ARC
  5
38E
100
AcDbEntity
  8
94934430R00_BL0
100
AcDbCircle
 62
7
  6
CONTINUOUS
 10
143.8104065009
 20
318.5461952983
 40
3.2
100
AcDbArc
 50
169.8582066343
 51
190.1417933657
  0
ARC
  5
38F
100
AcDbEntity
  8
94934430R00_BL0
100
AcDbCircle
 62
7
  6
CONTINUOUS
 10
143.8104065009
 20
202.3461952983
 40
3.2
100
AcDbArc
 50
349.8582066343
 51
10.1417933657
  0
ARC
  5
390
100
AcDbEntity
  8
94934430R00_BL0
100
AcDbCircle
 62
7
  6
CONTINUOUS
 10
143.8104065009
 20
202.3461952983
 40
3.2
100
AcDbArc
 50
169.8582066343
 51
190.1417933657
  0
CIRCLE
  5
391
100
AcDbEntity
  8
94934430R00_BL0
100
AcDbCircle
 62
7
  6
CONTINUOUS
 10
143.8104065009
 20
520.4461952983
 40
2.6
  0
CIRCLE
  5
392
100
AcDbEntity
  8
94934430R00_BL0
100
AcDbCircle
 62
7
  6
CONTINUOUS
 10
143.8104065009
 20
712.3461952983
 40
5.2
  0
CIRCLE
  5
393
100
AcDbEntity
  8
94934430R00_BL0
100
AcDbCircle
 62
7
  6
CONTINUOUS
 10
143.8104065009
 20
828.5461952983
 40
5.2
  0
ARC
  5
394
100
AcDbEntity
  8
94934430R00_BL0
100
AcDbCircle
 62
7
  6
CONTINUOUS
 10
143.8104065009
 20
712.3461952983
 40
4.9
100
AcDbArc
 50
129.2584035409
 51
130.0052008849
  0
ARC
  5
395
100
AcDbEntity
  8
94934430R00_BL0
100
AcDbCircle
 62
7
  6
CONTINUOUS
 10
143.8104065009
 20
712.3461952983
 40
4.9
100
AcDbArc
 50
49.9947991151
 51
50.7415964591
  0
ARC
  5
396
100
AcDbEntity
  8
94934430R00_BL0
100
AcDbCircle
 62
7
  6
CONTINUOUS
 10
143.8104065009
 20
712.3461952983
 40
4.9
100
AcDbArc
 50
229.9947991151
 51
230.7415964591
  0
ARC
  5
397
100
AcDbEntity
  8
94934430R00_BL0
100
AcDbCircle
 62
7
  6
CONTINUOUS
 10
143.8104065009
 20
712.3461952983
 40
4.9
100
AcDbArc
 50
309.2584035409
 51
310.0052008849
  0
ARC
  5
398
100
AcDbEntity
  8
94934430R00_BL0
100
AcDbCircle
 62
7
  6
CONTINUOUS
 10
143.8104065009
 20
828.5461952983
 40
4.9
100
AcDbArc
 50
129.2584035409
 51
130.0052008849
  0
ARC
  5
399
100
AcDbEntity
  8
94934430R00_BL0
100
AcDbCircle
 62
7
  6
CONTINUOUS
 10
143.8104065009
 20
828.5461952983
 40
4.9
100
AcDbArc
 50
49.9947991151
 51
50.7415964591
  0
ARC
  5
39A
100
AcDbEntity
  8
94934430R00_BL0
100
AcDbCircle
 62
7
  6
CONTINUOUS
 10
143.8104065009
 20
828.5461952983
 40
4.9
100
AcDbArc
 50
229.9947991151
 51
230.7415964591
  0
ARC
  5
39B
100
AcDbEntity
  8
94934430R00_BL0
100
AcDbCircle
 62
7
  6
CONTINUOUS
 10
143.8104065009
 20
828.5461952983
 40
4.9
100
AcDbArc
 50
309.2584035409
 51
310.0052008849
  0
CIRCLE
  5
39C
100
AcDbEntity
  8
94934430R00_BL0
100
AcDbCircle
 62
7
  6
CONTINUOUS
 10
143.8104065009
 20
997.4461952983
 40
4.15
  0
ARC
  5
39D
100
AcDbEntity
  8
94934430R00_BL0
100
AcDbCircle
 62
7
  6
CONTINUOUS
 10
143.8104065009
 20
712.3461952983
 40
3.2
100
AcDbArc
 50
349.8582066343
 51
10.1417933657
  0
ARC
  5
39E
100
AcDbEntity
  8
94934430R00_BL0
100
AcDbCircle
 62
7
  6
CONTINUOUS
 10
143.8104065009
 20
712.3461952983
 40
3.2
100
AcDbArc
 50
169.8582066343
 51
190.1417933657
  0
ARC
  5
39F
100
AcDbEntity
  8
94934430R00_BL0
100
AcDbCircle
 62
7
  6
CONTINUOUS
 10
143.8104065009
 20
828.5461952983
 40
3.2
100
AcDbArc
 50
349.8582066343
 51
10.1417933657
  0
ARC
  5
3A0
100
AcDbEntity
  8
94934430R00_BL0
100
AcDbCircle
 62
7
  6
CONTINUOUS
 10
143.8104065009
 20
828.5461952983
 40
3.2
100
AcDbArc
 50
169.8582066343
 51
190.1417933657
  0
CIRCLE
  5
3A1
100
AcDbEntity
  8
94934430R00_BL0
100
AcDbCircle
 62
7
  6
CONTINUOUS
 10
143.8104065009
 20
997.4461952983
 40
2.6
  0
ARC
  5
3A2
100
AcDbEntity
  8
94934430R00_BL0
100
AcDbCircle
 62
7
  6
CONTINUOUS
 10
141.1140389391
 20
1120.4372304159
 40
3.4791460267
100
AcDbArc
 50
353.2243027717
 51
6.7756972283
  0
ARC
  5
3A3
100
AcDbEntity
  8
94934430R00_BL0
100
AcDbCircle
 62
7
  6
CONTINUOUS
 10
141.1140389392
 20
1120.4372304159
 40
3.2791460267
100
AcDbArc
 50
349.270634005
 51
10.729365995
  0
ARC
  5
3A4
100
AcDbEntity
  8
94934430R00_BL0
100
AcDbCircle
 62
7
  6
CONTINUOUS
 10
141.0558980521
 20
1120.4372304159
 40
3.0698388335
100
AcDbArc
 50
35.854515981
 51
11.4705154501
  0
ARC
  5
3A5
100
AcDbEntity
  8
94934430R00_BL0
100
AcDbCircle
 62
7
  6
CONTINUOUS
 10
141.055898052
 20
1120.4372304159
 40
2.8698388335
100
AcDbArc
 50
39.8043394786
 51
8.2233438267
  0
ARC
  5
3A6
100
AcDbEntity
  8
94934430R00_BL0
100
AcDbCircle
 62
7
  6
CONTINUOUS
 10
141.0558980521
 20
1120.4372304158
 40
1.7581757715
100
AcDbArc
 50
41.898609461
 51
346.4986148307
  0
ARC
  5
3A7
100
AcDbEntity
  8
94934430R00_BL0
100
AcDbCircle
 62
7
  6
CONTINUOUS
 10
141.055898052
 20
1120.4372304159
 40
1.5581757715
100
AcDbArc
 50
35.2282226131
 51
336.934010569
  0
ARC
  5
3A8
100
AcDbEntity
  8
94934430R00_BL0
100
AcDbCircle
 62
7
  6
CONTINUOUS
 10
141.114038939
 20
1120.4372304159
 40
0.6104793135
100
AcDbArc
 50
90.0
 51
270.0
  0
ARC
  5
3A9
100
AcDbEntity
  8
94934430R00_BL0
100
AcDbCircle
 62
7
  6
CONTINUOUS
 10
141.9958239386
 20
1020.8211952983
 40
0.6
100
AcDbArc
 50
110.3787547774
 51
187.9711829629
  0
ARC
  5
3AA
100
AcDbEntity
  8
94934430R00_BL0
100
AcDbCircle
 62
7
  6
CONTINUOUS
 10
141.9958239386
 20
1017.5711952983
 40
0.6
100
AcDbArc
 50
171.9884804032
 51
249.6451938548
  0
ARC
  5
3AB
100
AcDbEntity
  8
94934430R00_BL0
100
AcDbCircle
 62
7
  6
CONTINUOUS
 10
141.9958239386
 20
1073.3211952983
 40
0.6
100
AcDbArc
 50
110.3787547774
 51
187.9711829629
  0
ARC
  5
3AC
100
AcDbEntity
  8
94934430R00_BL0
100
AcDbCircle
 62
7
  6
CONTINUOUS
 10
141.9958239386
 20
1070.0711952983
 40
0.6
100
AcDbArc
 50
171.9884804032
 51
249.6451938549
  0
ARC
  5
3AD
100
AcDbEntity
  8
94934430R00_BL0
100
AcDbCircle
 62
7
  6
CONTINUOUS
 10
141.114038939
 20
1120.4372304159
 40
0.4104793135
100
AcDbArc
 50
90.0000000002
 51
270.0
  0
ARC
  5
3AE
100
AcDbEntity
  8
94934430R00_BL0
100
AcDbCircle
 62
7
  6
CONTINUOUS
 10
141.8104065009
 20
1765.4461952983
 40
2.0
100
AcDbArc
 50
90.0
 51
180.0
  0
ARC
  5
3AF
100
AcDbEntity
  8
94934430R00_BL0
100
AcDbCircle
 62
7
  6
CONTINUOUS
 10
141.8104065009
 20
1731.4461952983
 40
2.0
100
AcDbArc
 50
180.0
 51
270.0
  0
CIRCLE
  5
3B0
100
AcDbEntity
  8
94934430R00_BL0
100
AcDbCircle
 62
7
  6
CONTINUOUS
 10
143.8104065009
 20
1093.4461952983
 40
4.15
  0
CIRCLE
  5
3B1
100
AcDbEntity
  8
94934430R00_BL0
100
AcDbCircle
 62
7
  6
CONTINUOUS
 10
143.8104065009
 20
1093.4461952983
 40
2.6
  0
CIRCLE
  5
3B2
100
AcDbEntity
  8
94934430R00_BL0
100
AcDbCircle
 62
7
  6
CONTINUOUS
 10
143.8104065009
 20
1330.4461952983
 40
2.25
  0
CIRCLE
  5
3B3
100
AcDbEntity
  8
94934430R00_BL0
100
AcDbCircle
 62
7
  6
CONTINUOUS
 10
143.8104065009
 20
1282.4461952983
 40
2.25
  0
CIRCLE
  5
3B4
100
AcDbEntity
  8
94934430R00_BL0
100
AcDbCircle
 62
7
  6
CONTINUOUS
 10
143.8104065009
 20
1210.4461952983
 40
2.25
  0
CIRCLE
  5
3B5
100
AcDbEntity
  8
94934430R00_BL0
100
AcDbCircle
 62
7
  6
CONTINUOUS
 10
144.8104065009
 20
1019.1961952983
 40
3.9
  0
ARC
  5
3B6
100
AcDbEntity
  8
94934430R00_BL0
100
AcDbCircle
 62
7
  6
CONTINUOUS
 10
144.8104065009
 20
1022.4461952983
 40
0.6
100
AcDbArc
 50
49.2248963635
 51
130.7951842605
  0
ARC
  5
3B7
100
AcDbEntity
  8
94934430R00_BL0
100
AcDbCircle
 62
7
  6
CONTINUOUS
 10
144.8104065009
 20
1015.9461952983
 40
0.6
100
AcDbArc
 50
229.2248963635
 51
310.7951842604
  0
CIRCLE
  5
3B8
100
AcDbEntity
  8
94934430R00_BL0
100
AcDbCircle
 62
7
  6
CONTINUOUS
 10
144.8104065009
 20
1071.6961952983
 40
3.9
  0
ARC
  5
3B9
100
AcDbEntity
  8
94934430R00_BL0
100
AcDbCircle
 62
7
  6
CONTINUOUS
 10
144.8104065009
 20
1074.9461952983
 40
0.6
100
AcDbArc
 50
49.2248963635
 51
130.7951842604
  0
ARC
  5
3BA
100
AcDbEntity
  8
94934430R00_BL0
100
AcDbCircle
 62
7
  6
CONTINUOUS
 10
144.8104065009
 20
1068.4461952983
 40
0.6
100
AcDbArc
 50
229.2248963634
 51
310.7951842604
  0
ARC
  5
3BB
100
AcDbEntity
  8
94934430R00_BL0
100
AcDbCircle
 62
7
  6
CONTINUOUS
 10
145.2104065009
 20
1354.9461952983
 40
10.5
100
AcDbArc
 50
90.0
 51
180.0
  0
ARC
  5
3BC
100
AcDbEntity
  8
94934430R00_BL0
100
AcDbCircle
 62
7
  6
CONTINUOUS
 10
145.2104065009
 20
1185.9461952983
 40
10.5
100
AcDbArc
 50
180.0
 51
270.0
  0
CIRCLE
  5
3BD
100
AcDbEntity
  8
94934430R00_BL0
100
AcDbCircle
 62
7
  6
CONTINUOUS
 10
143.8104065009
 20
1419.9461952983
 40
5.2
  0
CIRCLE
  5
3BE
100
AcDbEntity
  8
94934430R00_BL0
100
AcDbCircle
 62
7
  6
CONTINUOUS
 10
143.8104065009
 20
1808.5461952983
 40
5.2
  0
CIRCLE
  5
3BF
100
AcDbEntity
  8
94934430R00_BL0
100
AcDbCircle
 62
7
  6
CONTINUOUS
 10
143.8104065009
 20
1570.4461952983
 40
5.2
  0
CIRCLE
  5
3C0
100
AcDbEntity
  8
94934430R00_BL0
100
AcDbCircle
 62
7
  6
CONTINUOUS
 10
143.8104065009
 20
1649.4461952983
 40
5.2
  0
ARC
  5
3C1
100
AcDbEntity
  8
94934430R00_BL0
100
AcDbCircle
 62
7
  6
CONTINUOUS
 10
143.8104065009
 20
1649.4461952983
 40
4.9
100
AcDbArc
 50
129.2584035409
 51
130.0052008849
  0
ARC
  5
3C2
100
AcDbEntity
  8
94934430R00_BL0
100
AcDbCircle
 62
7
  6
CONTINUOUS
 10
143.8104065009
 20
1649.4461952983
 40
4.9
100
AcDbArc
 50
49.9947991151
 51
50.7415964591
  0
ARC
  5
3C3
100
AcDbEntity
  8
94934430R00_BL0
100
AcDbCircle
 62
7
  6
CONTINUOUS
 10
143.8104065009
 20
1649.4461952983
 40
4.9
100
AcDbArc
 50
229.9947991151
 51
230.7415964591
  0
ARC
  5
3C4
100
AcDbEntity
  8
94934430R00_BL0
100
AcDbCircle
 62
7
  6
CONTINUOUS
 10
143.8104065009
 20
1649.4461952983
 40
4.9
100
AcDbArc
 50
309.2584035409
 51
310.0052008849
  0
ARC
  5
3C5
100
AcDbEntity
  8
94934430R00_BL0
100
AcDbCircle
 62
7
  6
CONTINUOUS
 10
143.8104065009
 20
1570.4461952983
 40
4.9
100
AcDbArc
 50
129.2584035409
 51
130.0052008849
  0
ARC
  5
3C6
100
AcDbEntity
  8
94934430R00_BL0
100
AcDbCircle
 62
7
  6
CONTINUOUS
 10
143.8104065009
 20
1570.4461952983
 40
4.9
100
AcDbArc
 50
49.9947991151
 51
50.7415964591
  0
ARC
  5
3C7
100
AcDbEntity
  8
94934430R00_BL0
100
AcDbCircle
 62
7
  6
CONTINUOUS
 10
143.8104065009
 20
1570.4461952983
 40
4.9
100
AcDbArc
 50
229.9947991151
 51
230.7415964591
  0
ARC
  5
3C8
100
AcDbEntity
  8
94934430R00_BL0
100
AcDbCircle
 62
7
  6
CONTINUOUS
 10
143.8104065009
 20
1570.4461952983
 40
4.9
100
AcDbArc
 50
309.2584035409
 51
310.0052008849
  0
ARC
  5
3C9
100
AcDbEntity
  8
94934430R00_BL0
100
AcDbCircle
 62
7
  6
CONTINUOUS
 10
143.8104065009
 20
1419.9461952983
 40
4.9
100
AcDbArc
 50
129.2584035409
 51
130.0052008849
  0
ARC
  5
3CA
100
AcDbEntity
  8
94934430R00_BL0
100
AcDbCircle
 62
7
  6
CONTINUOUS
 10
143.8104065009
 20
1419.9461952983
 40
4.9
100
AcDbArc
 50
49.9947991151
 51
50.7415964591
  0
ARC
  5
3CB
100
AcDbEntity
  8
94934430R00_BL0
100
AcDbCircle
 62
7
  6
CONTINUOUS
 10
143.8104065009
 20
1419.9461952983
 40
4.9
100
AcDbArc
 50
229.9947991151
 51
230.7415964591
  0
ARC
  5
3CC
100
AcDbEntity
  8
94934430R00_BL0
100
AcDbCircle
 62
7
  6
CONTINUOUS
 10
143.8104065009
 20
1419.9461952983
 40
4.9
100
AcDbArc
 50
309.2584035409
 51
310.0052008849
  0
ARC
  5
3CD
100
AcDbEntity
  8
94934430R00_BL0
100
AcDbCircle
 62
7
  6
CONTINUOUS
 10
143.8104065009
 20
1808.5461952983
 40
4.9
100
AcDbArc
 50
129.2584035409
 51
130.0052008849
  0
ARC
  5
3CE
100
AcDbEntity
  8
94934430R00_BL0
100
AcDbCircle
 62
7
  6
CONTINUOUS
 10
143.8104065009
 20
1808.5461952983
 40
4.9
100
AcDbArc
 50
49.9947991151
 51
50.7415964591
  0
ARC
  5
3CF
100
AcDbEntity
  8
94934430R00_BL0
100
AcDbCircle
 62
7
  6
CONTINUOUS
 10
143.8104065009
 20
1808.5461952983
 40
4.9
100
AcDbArc
 50
229.9947991151
 51
230.7415964591
  0
ARC
  5
3D0
100
AcDbEntity
  8
94934430R00_BL0
100
AcDbCircle
 62
7
  6
CONTINUOUS
 10
143.8104065009
 20
1808.5461952983
 40
4.9
100
AcDbArc
 50
309.2584035409
 51
310.0052008849
  0
ARC
  5
3D1
100
AcDbEntity
  8
94934430R00_BL0
100
AcDbCircle
 62
7
  6
CONTINUOUS
 10
143.8104065009
 20
1649.4461952983
 40
3.2
100
AcDbArc
 50
349.8582066343
 51
10.1417933657
  0
ARC
  5
3D2
100
AcDbEntity
  8
94934430R00_BL0
100
AcDbCircle
 62
7
  6
CONTINUOUS
 10
143.8104065009
 20
1649.4461952983
 40
3.2
100
AcDbArc
 50
169.8582066343
 51
190.1417933657
  0
ARC
  5
3D3
100
AcDbEntity
  8
94934430R00_BL0
100
AcDbCircle
 62
7
  6
CONTINUOUS
 10
143.8104065009
 20
1570.4461952983
 40
3.2
100
AcDbArc
 50
349.8582066343
 51
10.1417933657
  0
ARC
  5
3D4
100
AcDbEntity
  8
94934430R00_BL0
100
AcDbCircle
 62
7
  6
CONTINUOUS
 10
143.8104065009
 20
1570.4461952983
 40
3.2
100
AcDbArc
 50
169.8582066343
 51
190.1417933657
  0
ARC
  5
3D5
100
AcDbEntity
  8
94934430R00_BL0
100
AcDbCircle
 62
7
  6
CONTINUOUS
 10
143.8104065009
 20
1419.9461952983
 40
3.2
100
AcDbArc
 50
349.8582066343
 51
10.1417933657
  0
ARC
  5
3D6
100
AcDbEntity
  8
94934430R00_BL0
100
AcDbCircle
 62
7
  6
CONTINUOUS
 10
143.8104065009
 20
1419.9461952983
 40
3.2
100
AcDbArc
 50
169.8582066343
 51
190.1417933657
  0
ARC
  5
3D7
100
AcDbEntity
  8
94934430R00_BL0
100
AcDbCircle
 62
7
  6
CONTINUOUS
 10
143.8104065009
 20
1808.5461952983
 40
3.2
100
AcDbArc
 50
349.8582066343
 51
10.1417933657
  0
ARC
  5
3D8
100
AcDbEntity
  8
94934430R00_BL0
100
AcDbCircle
 62
7
  6
CONTINUOUS
 10
143.8104065009
 20
1808.5461952983
 40
3.2
100
AcDbArc
 50
169.8582066343
 51
190.1417933657
  0
CIRCLE
  5
3D9
100
AcDbEntity
  8
94934430R00_BL0
100
AcDbCircle
 62
7
  6
CONTINUOUS
 10
146.8104065009
 20
300.5461952983
 40
5.65
  0
CIRCLE
  5
3DA
100
AcDbEntity
  8
94934430R00_BL0
100
AcDbCircle
 62
7
  6
CONTINUOUS
 10
146.8104065009
 20
220.3461952983
 40
5.65
  0
ARC
  5
3DB
100
AcDbEntity
  8
94934430R00_BL0
100
AcDbCircle
 62
7
  6
CONTINUOUS
 10
151.8104065009
 20
275.4461952983
 40
2.0
100
AcDbArc
 50
0.0
 51
90.0
  0
ARC
  5
3DC
100
AcDbEntity
  8
94934430R00_BL0
100
AcDbCircle
 62
7
  6
CONTINUOUS
 10
151.8104065009
 20
241.4461952983
 40
2.0
100
AcDbArc
 50
270.0
 51
360.0
  0
ARC
  5
3DD
100
AcDbEntity
  8
94934430R00_BL0
100
AcDbCircle
 62
7
  6
CONTINUOUS
 10
147.5211646862
 20
1119.5069762239
 40
2.1628409963
100
AcDbArc
 50
180.0
 51
360.0
  0
ARC
  5
3DE
100
AcDbEntity
  8
94934430R00_BL0
100
AcDbCircle
 62
7
  6
CONTINUOUS
 10
147.5211646861
 20
1119.5069762239
 40
1.9628409963
100
AcDbArc
 50
180.0
 51
360.0
  0
ARC
  5
3DF
100
AcDbEntity
  8
94934430R00_BL0
100
AcDbCircle
 62
7
  6
CONTINUOUS
 10
147.5211646862
 20
1119.5069762239
 40
0.8511779344
100
AcDbArc
 50
180.0
 51
360.0
  0
ARC
  5
3E0
100
AcDbEntity
  8
94934430R00_BL0
100
AcDbCircle
 62
7
  6
CONTINUOUS
 10
147.5211646861
 20
1119.5069762239
 40
0.6511779344
100
AcDbArc
 50
180.0
 51
360.0
  0
ARC
  5
3E1
100
AcDbEntity
  8
94934430R00_BL0
100
AcDbCircle
 62
7
  6
CONTINUOUS
 10
147.6249890632
 20
1020.8211952983
 40
0.6
100
AcDbArc
 50
351.9884804033
 51
69.6451938548
  0
ARC
  5
3E2
100
AcDbEntity
  8
94934430R00_BL0
100
AcDbCircle
 62
7
  6
CONTINUOUS
 10
147.6249890632
 20
1017.5711952983
 40
0.6
100
AcDbArc
 50
290.3787547774
 51
7.9711829628
  0
ARC
  5
3E3
100
AcDbEntity
  8
94934430R00_BL0
100
AcDbCircle
 62
7
  6
CONTINUOUS
 10
147.6249890632
 20
1073.3211952983
 40
0.6
100
AcDbArc
 50
351.9884804033
 51
69.6451938548
  0
ARC
  5
3E4
100
AcDbEntity
  8
94934430R00_BL0
100
AcDbCircle
 62
7
  6
CONTINUOUS
 10
147.6249890632
 20
1070.0711952983
 40
0.6
100
AcDbArc
 50
290.3787547774
 51
7.9711829628
  0
CIRCLE
  5
3E5
100
AcDbEntity
  8
94934430R00_BL0
100
AcDbCircle
 62
7
  6
CONTINUOUS
 10
146.8104065009
 20
1790.5461952983
 40
5.65
  0
CIRCLE
  5
3E6
100
AcDbEntity
  8
94934430R00_BL0
100
AcDbCircle
 62
7
  6
CONTINUOUS
 10
146.8104065009
 20
1710.3461952983
 40
5.65
  0
ARC
  5
3E7
100
AcDbEntity
  8
94934430R00_BL0
100
AcDbCircle
 62
7
  6
CONTINUOUS
 10
151.8104065009
 20
1765.4461952983
 40
2.0
100
AcDbArc
 50
0.0
 51
90.0
  0
ARC
  5
3E8
100
AcDbEntity
  8
94934430R00_BL0
100
AcDbCircle
 62
7
  6
CONTINUOUS
 10
151.8104065009
 20
1731.4461952983
 40
2.0
100
AcDbArc
 50
270.0
 51
360.0
  0
ARC
  5
3E9
100
AcDbEntity
  8
94934430R00_BL0
100
AcDbCircle
 62
7
  6
CONTINUOUS
 10
24.9819710238
 20
83.3852671697
 40
3.0
100
AcDbArc
 50
180.0
 51
270.0
  0
ARC
  5
3EA
100
AcDbEntity
  8
94934430R00_BL0
100
AcDbCircle
 62
7
  6
CONTINUOUS
 10
24.9819710238
 20
101.3852671697
 40
3.0
100
AcDbArc
 50
90.0
 51
180.0
  0
ARC
  5
3EB
100
AcDbEntity
  8
94934430R00_BL0
100
AcDbCircle
 62
7
  6
CONTINUOUS
 10
24.4819710238
 20
101.8852671697
 40
0.5
100
AcDbArc
 50
90.0
 51
180.0
  0
ARC
  5
3EC
100
AcDbEntity
  8
94934430R00_BL0
100
AcDbCircle
 62
7
  6
CONTINUOUS
 10
24.4819710238
 20
82.8852671697
 40
0.5
100
AcDbArc
 50
180.0
 51
270.0
  0
ENDBLK
  5
3ED
100
AcDbEntity
  8
0
  6
BYBLOCK
 62
0
100
AcDbBlockEnd
  0
BLOCK
  5
3EE
100
AcDbEntity
  8
94944601000_M2_BL1
100
AcDbBlockBegin
  2
94944601000_M2_BL1
 70
64
 10
85.4961887624
 20
202.3461952983
  3
94944601000_M2_BL1
  1

  0
LINE
  5
3EF
100
AcDbEntity
  8
94944601000_M2_BL1
100
AcDbLine
 62
7
  6
CENTER
 10
143.8104065009
 20
202.3461952983
 11
135.6104065009
 21
202.3461952983
  0
LINE
  5
3F0
100
AcDbEntity
  8
94944601000_M2_BL1
100
AcDbLine
 62
7
  6
CENTER
 10
143.8104065009
 20
202.3461952983
 11
152.0104065009
 21
202.3461952983
  0
LINE
  5
3F1
100
AcDbEntity
  8
94944601000_M2_BL1
100
AcDbLine
 62
7
  6
CONTINUOUS
 10
140.7104065009
 20
198.1712701493
 11
140.7104065009
 21
206.5211204473
  0
LINE
  5
3F2
100
AcDbEntity
  8
94944601000_M2_BL1
100
AcDbLine
 62
7
  6
CENTER
 10
143.8104065009
 20
202.3461952983
 11
143.8104065009
 21
194.1461952983
  0
LINE
  5
3F3
100
AcDbEntity
  8
94944601000_M2_BL1
100
AcDbLine
 62
7
  6
CENTER
 10
143.8104065009
 20
202.3461952983
 11
143.8104065009
 21
210.5461952983
  0
LINE
  5
3F4
100
AcDbEntity
  8
94944601000_M2_BL1
100
AcDbLine
 62
7
  6
CONTINUOUS
 10
146.9104065009
 20
198.1712701493
 11
146.9104065009
 21
206.5211204473
  0
LINE
  5
3F5
100
AcDbEntity
  8
94944601000_M2_BL1
100
AcDbLine
 62
7
  6
CENTER
 10
32.9819710238
 20
202.3461952983
 11
18.9819710238
 21
202.3461952983
  0
ARC
  5
3F6
100
AcDbEntity
  8
94944601000_M2_BL1
100
AcDbCircle
 62
7
  6
CONTINUOUS
 10
143.8104065009
 20
202.3461952983
 40
5.2
100
AcDbArc
 50
233.4050690444
 51
306.5949309556
  0
ARC
  5
3F7
100
AcDbEntity
  8
94944601000_M2_BL1
100
AcDbCircle
 62
7
  6
CONTINUOUS
 10
143.8104065009
 20
202.3461952983
 40
5.2
100
AcDbArc
 50
53.4050690444
 51
126.5949309556
  0
ARC
  5
3F8
100
AcDbEntity
  8
94944601000_M2_BL1
100
AcDbCircle
 62
7
  6
CONTINUOUS
 10
143.8104065009
 20
202.3461952983
 40
3.2812557855
100
AcDbArc
 50
199.1330091787
 51
340.8669908213
  0
ARC
  5
3F9
100
AcDbEntity
  8
94944601000_M2_BL1
100
AcDbCircle
 62
7
  6
CONTINUOUS
 10
143.8104065009
 20
202.3461952983
 40
3.2812557855
100
AcDbArc
 50
19.1330091787
 51
160.8669908213
  0
CIRCLE
  5
3FA
100
AcDbEntity
  8
94944601000_M2_BL1
100
AcDbCircle
 62
7
  6
CONTINUOUS
 10
143.8104065009
 20
202.3461952983
 40
2.6
  0
ENDBLK
  5
3FB
100
AcDbEntity
  8
0
  6
BYBLOCK
 62
0
100
AcDbBlockEnd
  0
BLOCK
  5
3FC
100
AcDbEntity
  8
94528905000_BL2
100
AcDbBlockBegin
  2
94528905000_BL2
 70
64
 10
91.1461887624
 20
220.3461952983
  3
94528905000_BL2
  1

  0
LINE
  5
3FD
100
AcDbEntity
  8
94528905000_BL2
100
AcDbLine
 62
7
  6
CONTINUOUS
 10
145.9354065009
 20
217.8306508417
 11
147.6854065009
 21
217.8306508417
  0
LINE
  5
3FE
100
AcDbEntity
  8
94528905000_BL2
100
AcDbLine
 62
7
  6
CONTINUOUS
 10
147.6854065009
 20
220.8617397549
 11
145.9354065009
 21
220.8617397549
  0
LINE
  5
3FF
100
AcDbEntity
  8
94528905000_BL2
100
AcDbLine
 62
7
  6
CONTINUOUS
 10
145.0604065009
 20
219.3461952983
 11
145.9354065009
 21
217.8306508417
  0
LINE
  5
400
100
AcDbEntity
  8
94528905000_BL2
100
AcDbLine
 62
7
  6
CONTINUOUS
 10
148.5604065009
 20
219.3461952983
 11
147.6854065009
 21
220.8617397549
  0
LINE
  5
401
100
AcDbEntity
  8
94528905000_BL2
100
AcDbLine
 62
7
  6
CONTINUOUS
 10
145.9354065009
 20
220.8617397549
 11
145.0604065009
 21
219.3461952983
  0
LINE
  5
402
100
AcDbEntity
  8
94528905000_BL2
100
AcDbLine
 62
7
  6
CONTINUOUS
 10
147.6854065009
 20
217.8306508417
 11
148.5604065009
 21
219.3461952983
  0
LINE
  5
403
100
AcDbEntity
  8
94528905000_BL2
100
AcDbLine
 62
7
  6
CONTINUOUS
 10
31.4819710238
 20
217.6801698945
 11
30.9819710238
 21
217.5461952983
  0
LINE
  5
404
100
AcDbEntity
  8
94528905000_BL2
100
AcDbLine
 62
7
  6
CONTINUOUS
 10
30.9819710238
 20
217.5461952983
 11
29.9819710238
 21
217.5461952983
  0
LINE
  5
405
100
AcDbEntity
  8
94528905000_BL2
100
AcDbLine
 62
7
  6
CONTINUOUS
 10
30.9819710238
 20
221.1461952983
 11
29.9819710238
 21
221.1461952983
  0
LINE
  5
406
100
AcDbEntity
  8
94528905000_BL2
100
AcDbLine
 62
7
  6
CONTINUOUS
 10
31.4819710238
 20
221.0122207021
 11
30.9819710238
 21
221.1461952983
  0
LINE
  5
407
100
AcDbEntity
  8
94528905000_BL2
100
AcDbLine
 62
7
  6
CONTINUOUS
 10
30.9819710238
 20
217.5461952983
 11
30.9819710238
 21
221.1461952983
  0
LINE
  5
408
100
AcDbEntity
  8
94528905000_BL2
100
AcDbLine
 62
7
  6
CONTINUOUS
 10
31.4819710238
 20
217.6801698945
 11
31.4819710238
 21
221.0122207021
  0
CIRCLE
  5
409
100
AcDbEntity
  8
94528905000_BL2
100
AcDbCircle
 62
7
  6
CONTINUOUS
 10
146.8104065009
 20
220.3461952983
 40
5.5
  0
CIRCLE
  5
40A
100
AcDbEntity
  8
94528905000_BL2
100
AcDbCircle
 62
7
  6
CONTINUOUS
 10
146.8104065009
 20
219.3461952983
 40
1.75
  0
CIRCLE
  5
40B
100
AcDbEntity
  8
94528905000_BL2
100
AcDbCircle
 62
7
  6
CONTINUOUS
 10
146.8104065009
 20
219.3461952983
 40
1.515
  0
CIRCLE
  5
40C
100
AcDbEntity
  8
94528905000_BL2
100
AcDbCircle
 62
7
  6
CONTINUOUS
 10
146.8104065009
 20
222.8461952983
 40
0.75
  0
ENDBLK
  5
40D
100
AcDbEntity
  8
0
  6
BYBLOCK
 62
0
100
AcDbBlockEnd
  0
BLOCK
  5
40E
100
AcDbEntity
  8
94621099000_BL3
100
AcDbBlockBegin
  2
94621099000_BL3
 70
64
 10
88.8766837973
 20
260.4461952983
  3
94621099000_BL3
  1

  0
LINE
  5
40F
100
AcDbEntity
  8
94621099000_BL3
100
AcDbLine
 62
7
  6
CENTER
 10
135.3494164311
 20
260.4461952983
 11
156.7713965708
 21
260.4461952983
  0
LINE
  5
410
100
AcDbEntity
  8
94621099000_BL3
100
AcDbLine
 62
7
  6
CONTINUOUS
 10
139.9104065009
 20
240.823596038
 11
139.9104065009
 21
276.0687945585
  0
LINE
  5
411
100
AcDbEntity
  8
94621099000_BL3
100
AcDbLine
 62
7
  6
CONTINUOUS
 10
140.7104065009
 20
239.776343041
 11
140.7104065009
 21
277.1160475556
  0
LINE
  5
412
100
AcDbEntity
  8
94621099000_BL3
100
AcDbLine
 62
9
  6
CONTINUOUS
 10
141.7232001579
 20
239.4461952983
 11
141.7232001579
 21
277.4461952983
  0
LINE
  5
413
100
AcDbEntity
  8
94621099000_BL3
100
AcDbLine
 62
9
  6
CONTINUOUS
 10
142.3199132951
 20
239.4461952983
 11
142.3199132951
 21
277.4461952983
  0
LINE
  5
414
100
AcDbEntity
  8
94621099000_BL3
100
AcDbLine
 62
7
  6
CENTER
 10
146.8104065009
 20
311.4461952983
 11
146.8104065009
 21
209.4461952983
  0
LINE
  5
415
100
AcDbEntity
  8
94621099000_BL3
100
AcDbLine
 62
9
  6
CONTINUOUS
 10
149.8008997068
 20
277.4461952983
 11
149.8008997068
 21
239.4461952983
  0
LINE
  5
416
100
AcDbEntity
  8
94621099000_BL3
100
AcDbLine
 62
9
  6
CONTINUOUS
 10
150.397612844
 20
277.4461952983
 11
150.397612844
 21
239.4461952983
  0
LINE
  5
417
100
AcDbEntity
  8
94621099000_BL3
100
AcDbLine
 62
7
  6
CONTINUOUS
 10
151.4104065009
 20
277.4461952983
 11
151.4104065009
 21
239.4461952983
  0
LINE
  5
418
100
AcDbEntity
  8
94621099000_BL3
100
AcDbLine
 62
7
  6
CONTINUOUS
 10
152.2104065009
 20
277.4054632893
 11
152.2104065009
 21
239.4869273072
  0
LINE
  5
419
100
AcDbEntity
  8
94621099000_BL3
100
AcDbLine
 62
7
  6
CONTINUOUS
 10
152.8104065009
 20
239.7141444907
 11
152.8104065009
 21
277.1782461059
  0
LINE
  5
41A
100
AcDbEntity
  8
94621099000_BL3
100
AcDbLine
 62
7
  6
CONTINUOUS
 10
44.0866429363
 20
229.7215937204
 11
30.4296350676
 21
229.0058602663
  0
LINE
  5
41B
100
AcDbEntity
  8
94621099000_BL3
100
AcDbLine
 62
9
  6
CONTINUOUS
 10
44.1910279503
 20
231.7188527899
 11
34.4822557664
 21
231.2100376002
  0
LINE
  5
41C
100
AcDbEntity
  8
94621099000_BL3
100
AcDbLine
 62
9
  6
CONTINUOUS
 10
34.4819710238
 20
231.2209788867
 11
30.4819763632
 21
231.0113480494
  0
LINE
  5
41D
100
AcDbEntity
  8
94621099000_BL3
100
AcDbLine
 62
9
  6
CONTINUOUS
 10
44.1910279503
 20
231.7188527899
 11
45.9819710238
 21
231.7188527899
  0
LINE
  5
41E
100
AcDbEntity
  8
94621099000_BL3
100
AcDbLine
 62
7
  6
CENTER
 10
20.9819710238
 20
260.4461952983
 11
48.9819710238
 21
260.4461952983
  0
LINE
  5
41F
100
AcDbEntity
  8
94621099000_BL3
100
AcDbLine
 62
9
  6
CONTINUOUS
 10
44.1910279503
 20
289.1735378067
 11
45.9819710238
 21
289.1735378067
  0
LINE
  5
420
100
AcDbEntity
  8
94621099000_BL3
100
AcDbLine
 62
9
  6
CONTINUOUS
 10
30.4900208052
 20
289.8806209558
 11
34.4819710238
 21
289.6714117099
  0
LINE
  5
421
100
AcDbEntity
  8
94621099000_BL3
100
AcDbLine
 62
9
  6
CONTINUOUS
 10
34.4822557664
 20
289.6823529964
 11
44.1910279503
 21
289.1735378067
  0
LINE
  5
422
100
AcDbEntity
  8
94621099000_BL3
100
AcDbLine
 62
7
  6
CONTINUOUS
 10
30.4296350676
 20
291.8865303302
 11
44.0866429363
 21
291.1707968762
  0
LWPOLYLINE
  5
423
100
AcDbEntity
  8
94621099000_BL3
100
AcDbPolyline
 62
7
  6
CONTINUOUS
 90
13
 70
0
 10
34.4818273777
 20
291.67416393
 10
34.4944128375
 20
291.6565185076
 10
34.5052324358
 20
291.6052724954
 10
34.5137722693
 20
291.5212991709
 10
34.5199859187
 20
291.4060031239
 10
34.5237860619
 20
291.2613239513
 10
34.5250826218
 20
291.0897064289
 10
34.5238812469
 20
290.8940510849
 10
34.5201679935
 20
290.6776751238
 10
34.5140415634
 20
290.4442471496
 10
34.5055653379
 20
290.1977327435
 10
34.4949404957
 20
289.9423189337
 10
34.4822557664
 20
289.6823529964
  0
LWPOLYLINE
  5
424
100
AcDbEntity
  8
94621099000_BL3
100
AcDbPolyline
 62
7
  6
CONTINUOUS
 90
7
 70
0
 10
29.9819710238
 20
290.6267023545
 10
30.0608601133
 20
290.4991999779
 10
30.1427720432
 20
290.3725929978
 10
30.2262329234
 20
290.2471944137
 10
30.3118143844
 20
290.1233121451
 10
30.3997720848
 20
290.0011428426
 10
30.4900208052
 20
289.8806209558
  0
LINE
  5
425
100
AcDbEntity
  8
94621099000_BL3
100
AcDbLine
 62
9
  6
CONTINUOUS
 10
30.4819660065
 20
289.88104309
 11
30.4296350676
 21
291.8865303302
  0
LINE
  5
426
100
AcDbEntity
  8
94621099000_BL3
100
AcDbLine
 62
7
  6
CONTINUOUS
 10
34.4819710238
 20
289.6714117099
 11
34.4819710238
 21
231.2209788867
  0
LINE
  5
427
100
AcDbEntity
  8
94621099000_BL3
100
AcDbLine
 62
9
  6
CONTINUOUS
 10
44.1910279503
 20
231.7188527899
 11
44.1910279503
 21
289.1735378067
  0
LINE
  5
428
100
AcDbEntity
  8
94621099000_BL3
100
AcDbLine
 62
7
  6
CONTINUOUS
 10
45.9819710238
 20
231.7188527899
 11
45.9819710238
 21
289.1735378067
  0
LINE
  5
429
100
AcDbEntity
  8
94621099000_BL3
100
AcDbLine
 62
9
  6
CONTINUOUS
 10
30.4296350676
 20
229.0058602663
 11
30.4819660065
 21
231.0113475066
  0
LWPOLYLINE
  5
42A
100
AcDbEntity
  8
94621099000_BL3
100
AcDbPolyline
 62
9
  6
CONTINUOUS
 90
15
 70
0
 10
44.1910279503
 20
289.1735378067
 10
44.2012688972
 20
289.3961908453
 10
44.2087773469
 20
289.6161661977
 10
44.2134559141
 20
289.8307372791
 10
44.2152422277
 20
290.0371443384
 10
44.2141133734
 20
290.2327376908
 10
44.2100849432
 20
290.4150971956
 10
44.2032082479
 20
290.581944374
 10
44.1935701938
 20
290.7311945607
 10
44.181295777
 20
290.8609827615
 10
44.1665288218
 20
290.969687883
 10
44.1494406948
 20
291.0559594573
 10
44.1302600539
 20
291.1186978225
 10
44.1092407509
 20
291.1571250782
 10
44.0866429363
 20
291.1707968762
  0
LWPOLYLINE
  5
42B
100
AcDbEntity
  8
94621099000_BL3
100
AcDbPolyline
 62
7
  6
CONTINUOUS
 90
7
 70
0
 10
30.4819763632
 20
231.0113480494
 10
30.3959956127
 20
230.8900053246
 10
30.3105525947
 20
230.7672554802
 10
30.225312383
 20
230.6431330149
 10
30.1412797567
 20
230.5175344322
 10
30.0590550823
 20
230.3903186789
 10
29.9819710238
 20
230.2656038368
  0
LWPOLYLINE
  5
42C
100
AcDbEntity
  8
94621099000_BL3
100
AcDbPolyline
 62
7
  6
CONTINUOUS
 90
13
 70
0
 10
34.4818273777
 20
229.2182266665
 10
34.4946371016
 20
229.2358838421
 10
34.5052324358
 20
229.2871181012
 10
34.5137638771
 20
229.3710909858
 10
34.5199859187
 20
229.4863874727
 10
34.5237725551
 20
229.6310659374
 10
34.5250826218
 20
229.8026841677
 10
34.5238635079
 20
229.998338582
 10
34.5201679935
 20
230.2147154728
 10
34.5140208057
 20
230.4481423591
 10
34.5055653379
 20
230.6946578531
 10
34.4948862
 20
230.9500688174
 10
34.4822557664
 20
231.2100376002
  0
LWPOLYLINE
  5
42D
100
AcDbEntity
  8
94621099000_BL3
100
AcDbPolyline
 62
9
  6
CONTINUOUS
 90
15
 70
0
 10
44.0866429363
 20
229.7215937204
 10
44.1092407509
 20
229.7352655183
 10
44.1302600539
 20
229.7736927741
 10
44.1494406948
 20
229.8364311393
 10
44.1665288218
 20
229.9227027135
 10
44.181295777
 20
230.0314078351
 10
44.1935701938
 20
230.1611960358
 10
44.2032082479
 20
230.3104462226
 10
44.2100849432
 20
230.477293401
 10
44.2141133734
 20
230.6596529058
 10
44.2152422277
 20
230.8552462581
 10
44.2134559141
 20
231.0616533175
 10
44.2087773469
 20
231.2762243988
 10
44.2012688972
 20
231.4961997513
 10
44.1910279503
 20
231.7188527899
  0
ARC
  5
42E
100
AcDbEntity
  8
94621099000_BL3
100
AcDbCircle
 62
7
  6
CONTINUOUS
 10
43.9819710238
 20
231.7188527899
 40
2.0
100
AcDbArc
 50
273.0
 51
360.0
  0
ARC
  5
42F
100
AcDbEntity
  8
94621099000_BL3
100
AcDbCircle
 62
7
  6
CONTINUOUS
 10
43.9819710238
 20
289.1735378067
 40
2.0
100
AcDbArc
 50
0.0
 51
87.0
  0
ARC
  5
430
100
AcDbEntity
  8
94621099000_BL3
100
AcDbCircle
 62
7
  6
CONTINUOUS
 10
30.4819710238
 20
228.0072840245
 40
0.9999822601
100
AcDbArc
 50
93.0001598141
 51
120.04079121
  0
ARC
  5
431
100
AcDbEntity
  8
94621099000_BL3
100
AcDbCircle
 62
7
  6
CONTINUOUS
 10
30.4819710238
 20
292.8851065721
 40
0.9999822601
100
AcDbArc
 50
239.9592103599
 51
266.9998401859
  0
ELLIPSE
  5
432
100
AcDbEntity
  8
94621099000_BL3
100
AcDbEllipse
 62
7
  6
CONTINUOUS
 10
53.5106999323
 20
232.2182323114
 30
0.0
 11
19.02843458
 21
1.0083771
 31
0.0
 40
0.1049569824
 41
3.1360307076
 42
3.1415013319
  0
ELLIPSE
  5
433
100
AcDbEntity
  8
94621099000_BL3
100
AcDbEllipse
 62
7
  6
CONTINUOUS
 10
53.5106999323
 20
288.6741582852
 30
0.0
 11
19.02843458
 21
-1.0083771
 31
0.0
 40
0.1049569824
 41
-3.1415013319
 42
-3.1360307076
  0
ENDBLK
  5
434
100
AcDbEntity
  8
0
  6
BYBLOCK
 62
0
100
AcDbBlockEnd
  0
BLOCK
  5
435
100
AcDbEntity
  8
94528905000_BL4
100
AcDbBlockBegin
  2
94528905000_BL4
 70
64
 10
91.1461887624
 20
300.5461952983
  3
94528905000_BL4
  1

  0
LINE
  5
436
100
AcDbEntity
  8
94528905000_BL4
100
AcDbLine
 62
7
  6
CONTINUOUS
 10
145.9354065009
 20
300.0306508417
 11
147.6854065009
 21
300.0306508417
  0
LINE
  5
437
100
AcDbEntity
  8
94528905000_BL4
100
AcDbLine
 62
7
  6
CONTINUOUS
 10
147.6854065009
 20
303.0617397549
 11
145.9354065009
 21
303.0617397549
  0
LINE
  5
438
100
AcDbEntity
  8
94528905000_BL4
100
AcDbLine
 62
7
  6
CONTINUOUS
 10
145.0604065009
 20
301.5461952983
 11
145.9354065009
 21
300.0306508417
  0
LINE
  5
439
100
AcDbEntity
  8
94528905000_BL4
100
AcDbLine
 62
7
  6
CONTINUOUS
 10
148.5604065009
 20
301.5461952983
 11
147.6854065009
 21
303.0617397549
  0
LINE
  5
43A
100
AcDbEntity
  8
94528905000_BL4
100
AcDbLine
 62
7
  6
CONTINUOUS
 10
145.9354065009
 20
303.0617397549
 11
145.0604065009
 21
301.5461952983
  0
LINE
  5
43B
100
AcDbEntity
  8
94528905000_BL4
100
AcDbLine
 62
7
  6
CONTINUOUS
 10
147.6854065009
 20
300.0306508417
 11
148.5604065009
 21
301.5461952983
  0
LINE
  5
43C
100
AcDbEntity
  8
94528905000_BL4
100
AcDbLine
 62
7
  6
CONTINUOUS
 10
31.4819710238
 20
299.8801698945
 11
30.9819710238
 21
299.7461952983
  0
LINE
  5
43D
100
AcDbEntity
  8
94528905000_BL4
100
AcDbLine
 62
7
  6
CONTINUOUS
 10
30.9819710238
 20
299.7461952983
 11
29.9819710238
 21
299.7461952983
  0
LINE
  5
43E
100
AcDbEntity
  8
94528905000_BL4
100
AcDbLine
 62
7
  6
CONTINUOUS
 10
30.9819710238
 20
303.3461952983
 11
29.9819710238
 21
303.3461952983
  0
LINE
  5
43F
100
AcDbEntity
  8
94528905000_BL4
100
AcDbLine
 62
7
  6
CONTINUOUS
 10
31.4819710238
 20
303.2122207021
 11
30.9819710238
 21
303.3461952983
  0
LINE
  5
440
100
AcDbEntity
  8
94528905000_BL4
100
AcDbLine
 62
7
  6
CONTINUOUS
 10
30.9819710238
 20
303.3461952983
 11
30.9819710238
 21
299.7461952983
  0
LINE
  5
441
100
AcDbEntity
  8
94528905000_BL4
100
AcDbLine
 62
7
  6
CONTINUOUS
 10
31.4819710238
 20
303.2122207021
 11
31.4819710238
 21
299.8801698945
  0
CIRCLE
  5
442
100
AcDbEntity
  8
94528905000_BL4
100
AcDbCircle
 62
7
  6
CONTINUOUS
 10
146.8104065009
 20
300.5461952983
 40
5.5
  0
CIRCLE
  5
443
100
AcDbEntity
  8
94528905000_BL4
100
AcDbCircle
 62
7
  6
CONTINUOUS
 10
146.8104065009
 20
301.5461952983
 40
1.75
  0
CIRCLE
  5
444
100
AcDbEntity
  8
94528905000_BL4
100
AcDbCircle
 62
7
  6
CONTINUOUS
 10
146.8104065009
 20
301.5461952983
 40
1.515
  0
CIRCLE
  5
445
100
AcDbEntity
  8
94528905000_BL4
100
AcDbCircle
 62
7
  6
CONTINUOUS
 10
146.8104065009
 20
298.0461952983
 40
0.75
  0
ENDBLK
  5
446
100
AcDbEntity
  8
0
  6
BYBLOCK
 62
0
100
AcDbBlockEnd
  0
BLOCK
  5
447
100
AcDbEntity
  8
94944601000_M2_BL5
100
AcDbBlockBegin
  2
94944601000_M2_BL5
 70
64
 10
85.4961887624
 20
318.5461952983
  3
94944601000_M2_BL5
  1

  0
LINE
  5
448
100
AcDbEntity
  8
94944601000_M2_BL5
100
AcDbLine
 62
7
  6
CENTER
 10
143.8104065009
 20
318.5461952983
 11
135.6104065009
 21
318.5461952983
  0
LINE
  5
449
100
AcDbEntity
  8
94944601000_M2_BL5
100
AcDbLine
 62
7
  6
CENTER
 10
143.8104065009
 20
318.5461952983
 11
152.0104065009
 21
318.5461952983
  0
LINE
  5
44A
100
AcDbEntity
  8
94944601000_M2_BL5
100
AcDbLine
 62
7
  6
CONTINUOUS
 10
140.7104065009
 20
314.3712701493
 11
140.7104065009
 21
322.7211204473
  0
LINE
  5
44B
100
AcDbEntity
  8
94944601000_M2_BL5
100
AcDbLine
 62
7
  6
CENTER
 10
143.8104065009
 20
318.5461952983
 11
143.8104065009
 21
310.3461952983
  0
LINE
  5
44C
100
AcDbEntity
  8
94944601000_M2_BL5
100
AcDbLine
 62
7
  6
CENTER
 10
143.8104065009
 20
318.5461952983
 11
143.8104065009
 21
326.7461952983
  0
LINE
  5
44D
100
AcDbEntity
  8
94944601000_M2_BL5
100
AcDbLine
 62
7
  6
CONTINUOUS
 10
146.9104065009
 20
314.3712701493
 11
146.9104065009
 21
322.7211204473
  0
LINE
  5
44E
100
AcDbEntity
  8
94944601000_M2_BL5
100
AcDbLine
 62
7
  6
CENTER
 10
32.9819710238
 20
318.5461952983
 11
18.9819710238
 21
318.5461952983
  0
ARC
  5
44F
100
AcDbEntity
  8
94944601000_M2_BL5
100
AcDbCircle
 62
7
  6
CONTINUOUS
 10
143.8104065009
 20
318.5461952983
 40
5.2
100
AcDbArc
 50
233.4050690444
 51
306.5949309556
  0
ARC
  5
450
100
AcDbEntity
  8
94944601000_M2_BL5
100
AcDbCircle
 62
7
  6
CONTINUOUS
 10
143.8104065009
 20
318.5461952983
 40
5.2
100
AcDbArc
 50
53.4050690444
 51
126.5949309556
  0
ARC
  5
451
100
AcDbEntity
  8
94944601000_M2_BL5
100
AcDbCircle
 62
7
  6
CONTINUOUS
 10
143.8104065009
 20
318.5461952983
 40
3.2812557855
100
AcDbArc
 50
199.1330091787
 51
340.8669908213
  0
ARC
  5
452
100
AcDbEntity
  8
94944601000_M2_BL5
100
AcDbCircle
 62
7
  6
CONTINUOUS
 10
143.8104065009
 20
318.5461952983
 40
3.2812557855
100
AcDbArc
 50
19.1330091787
 51
160.8669908213
  0
CIRCLE
  5
453
100
AcDbEntity
  8
94944601000_M2_BL5
100
AcDbCircle
 62
7
  6
CONTINUOUS
 10
143.8104065009
 20
318.5461952983
 40
2.6
  0
ENDBLK
  5
454
100
AcDbEntity
  8
0
  6
BYBLOCK
 62
0
100
AcDbBlockEnd
  0
BLOCK
  5
455
100
AcDbEntity
  8
94944601000_M2_BL6
100
AcDbBlockBegin
  2
94944601000_M2_BL6
 70
64
 10
85.4961887624
 20
712.3461952983
  3
94944601000_M2_BL6
  1

  0
LINE
  5
456
100
AcDbEntity
  8
94944601000_M2_BL6
100
AcDbLine
 62
7
  6
CENTER
 10
143.8104065009
 20
712.3461952983
 11
135.6104065009
 21
712.3461952983
  0
LINE
  5
457
100
AcDbEntity
  8
94944601000_M2_BL6
100
AcDbLine
 62
7
  6
CENTER
 10
143.8104065009
 20
712.3461952983
 11
152.0104065009
 21
712.3461952983
  0
LINE
  5
458
100
AcDbEntity
  8
94944601000_M2_BL6
100
AcDbLine
 62
7
  6
CONTINUOUS
 10
140.7104065009
 20
708.1712701493
 11
140.7104065009
 21
716.5211204473
  0
LINE
  5
459
100
AcDbEntity
  8
94944601000_M2_BL6
100
AcDbLine
 62
7
  6
CENTER
 10
143.8104065009
 20
712.3461952983
 11
143.8104065009
 21
704.1461952983
  0
LINE
  5
45A
100
AcDbEntity
  8
94944601000_M2_BL6
100
AcDbLine
 62
7
  6
CENTER
 10
143.8104065009
 20
712.3461952983
 11
143.8104065009
 21
720.5461952983
  0
LINE
  5
45B
100
AcDbEntity
  8
94944601000_M2_BL6
100
AcDbLine
 62
7
  6
CONTINUOUS
 10
146.9104065009
 20
708.1712701493
 11
146.9104065009
 21
716.5211204473
  0
LINE
  5
45C
100
AcDbEntity
  8
94944601000_M2_BL6
100
AcDbLine
 62
7
  6
CENTER
 10
32.9819710238
 20
712.3461952983
 11
18.9819710238
 21
712.3461952983
  0
ARC
  5
45D
100
AcDbEntity
  8
94944601000_M2_BL6
100
AcDbCircle
 62
7
  6
CONTINUOUS
 10
143.8104065009
 20
712.3461952983
 40
5.2
100
AcDbArc
 50
233.4050690444
 51
306.5949309556
  0
ARC
  5
45E
100
AcDbEntity
  8
94944601000_M2_BL6
100
AcDbCircle
 62
7
  6
CONTINUOUS
 10
143.8104065009
 20
712.3461952983
 40
5.2
100
AcDbArc
 50
53.4050690444
 51
126.5949309556
  0
ARC
  5
45F
100
AcDbEntity
  8
94944601000_M2_BL6
100
AcDbCircle
 62
7
  6
CONTINUOUS
 10
143.8104065009
 20
712.3461952983
 40
3.2812557855
100
AcDbArc
 50
199.1330091787
 51
340.8669908213
  0
ARC
  5
460
100
AcDbEntity
  8
94944601000_M2_BL6
100
AcDbCircle
 62
7
  6
CONTINUOUS
 10
143.8104065009
 20
712.3461952983
 40
3.2812557855
100
AcDbArc
 50
19.1330091787
 51
160.8669908213
  0
CIRCLE
  5
461
100
AcDbEntity
  8
94944601000_M2_BL6
100
AcDbCircle
 62
7
  6
CONTINUOUS
 10
143.8104065009
 20
712.3461952983
 40
2.6
  0
ENDBLK
  5
462
100
AcDbEntity
  8
0
  6
BYBLOCK
 62
0
100
AcDbBlockEnd
  0
BLOCK
  5
463
100
AcDbEntity
  8
94528905000_BL7
100
AcDbBlockBegin
  2
94528905000_BL7
 70
64
 10
91.1461887624
 20
941.815731234
  3
94528905000_BL7
  1

  0
LINE
  5
464
100
AcDbEntity
  8
94528905000_BL7
100
AcDbLine
 62
7
  6
CONTINUOUS
 10
145.9354065009
 20
1793.0617397549
 11
145.0604065009
 21
1791.5461952983
  0
LINE
  5
465
100
AcDbEntity
  8
94528905000_BL7
100
AcDbLine
 62
7
  6
CONTINUOUS
 10
147.6854065009
 20
1790.0306508417
 11
148.5604065009
 21
1791.5461952983
  0
LINE
  5
466
100
AcDbEntity
  8
94528905000_BL7
100
AcDbLine
 62
7
  6
CONTINUOUS
 10
145.0604065009
 20
1791.5461952983
 11
145.9354065009
 21
1790.0306508417
  0
LINE
  5
467
100
AcDbEntity
  8
94528905000_BL7
100
AcDbLine
 62
7
  6
CONTINUOUS
 10
148.5604065009
 20
1791.5461952983
 11
147.6854065009
 21
1793.0617397549
  0
LINE
  5
468
100
AcDbEntity
  8
94528905000_BL7
100
AcDbLine
 62
7
  6
CONTINUOUS
 10
145.9354065009
 20
1790.0306508417
 11
147.6854065009
 21
1790.0306508417
  0
LINE
  5
469
100
AcDbEntity
  8
94528905000_BL7
100
AcDbLine
 62
7
  6
CONTINUOUS
 10
147.6854065009
 20
1793.0617397549
 11
145.9354065009
 21
1793.0617397549
  0
LINE
  5
46A
100
AcDbEntity
  8
94528905000_BL7
100
AcDbLine
 62
7
  6
CONTINUOUS
 10
30.9819710238
 20
1793.3461952983
 11
30.9819710238
 21
1789.7461952983
  0
LINE
  5
46B
100
AcDbEntity
  8
94528905000_BL7
100
AcDbLine
 62
7
  6
CONTINUOUS
 10
31.4819710238
 20
1793.2122207021
 11
31.4819710238
 21
1789.8801698945
  0
LINE
  5
46C
100
AcDbEntity
  8
94528905000_BL7
100
AcDbLine
 62
7
  6
CONTINUOUS
 10
31.4819710238
 20
1789.8801698945
 11
30.9819710238
 21
1789.7461952983
  0
LINE
  5
46D
100
AcDbEntity
  8
94528905000_BL7
100
AcDbLine
 62
7
  6
CONTINUOUS
 10
30.9819710238
 20
1789.7461952983
 11
29.9819710238
 21
1789.7461952983
  0
LINE
  5
46E
100
AcDbEntity
  8
94528905000_BL7
100
AcDbLine
 62
7
  6
CONTINUOUS
 10
30.9819710238
 20
1793.3461952983
 11
29.9819710238
 21
1793.3461952983
  0
LINE
  5
46F
100
AcDbEntity
  8
94528905000_BL7
100
AcDbLine
 62
7
  6
CONTINUOUS
 10
31.4819710238
 20
1793.2122207021
 11
30.9819710238
 21
1793.3461952983
  0
LINE
  5
470
100
AcDbEntity
  8
94528905000_BL7
100
AcDbLine
 62
7
  6
CONTINUOUS
 10
30.9819710238
 20
87.5852671697
 11
30.9819710238
 21
91.1852671697
  0
LINE
  5
471
100
AcDbEntity
  8
94528905000_BL7
100
AcDbLine
 62
7
  6
CONTINUOUS
 10
31.4819710238
 20
87.7192417659
 11
31.4819710238
 21
91.0512925735
  0
LINE
  5
472
100
AcDbEntity
  8
94528905000_BL7
100
AcDbLine
 62
7
  6
CONTINUOUS
 10
31.4819710238
 20
87.7192417659
 11
30.9819710238
 21
87.5852671697
  0
LINE
  5
473
100
AcDbEntity
  8
94528905000_BL7
100
AcDbLine
 62
7
  6
CONTINUOUS
 10
30.9819710238
 20
87.5852671697
 11
29.9819710238
 21
87.5852671697
  0
LINE
  5
474
100
AcDbEntity
  8
94528905000_BL7
100
AcDbLine
 62
7
  6
CONTINUOUS
 10
30.9819710238
 20
91.1852671697
 11
29.9819710238
 21
91.1852671697
  0
LINE
  5
475
100
AcDbEntity
  8
94528905000_BL7
100
AcDbLine
 62
7
  6
CONTINUOUS
 10
31.4819710238
 20
91.0512925735
 11
30.9819710238
 21
91.1852671697
  0
CIRCLE
  5
476
100
AcDbEntity
  8
94528905000_BL7
100
AcDbCircle
 62
7
  6
CONTINUOUS
 10
146.8104065009
 20
1790.5461952983
 40
5.5
  0
CIRCLE
  5
477
100
AcDbEntity
  8
94528905000_BL7
100
AcDbCircle
 62
7
  6
CONTINUOUS
 10
146.8104065009
 20
1791.5461952983
 40
1.75
  0
CIRCLE
  5
478
100
AcDbEntity
  8
94528905000_BL7
100
AcDbCircle
 62
7
  6
CONTINUOUS
 10
146.8104065009
 20
1791.5461952983
 40
1.515
  0
CIRCLE
  5
479
100
AcDbEntity
  8
94528905000_BL7
100
AcDbCircle
 62
7
  6
CONTINUOUS
 10
146.8104065009
 20
1788.0461952983
 40
0.75
  0
ENDBLK
  5
47A
100
AcDbEntity
  8
0
  6
BYBLOCK
 62
0
100
AcDbBlockEnd
  0
BLOCK
  5
47B
100
AcDbEntity
  8
94528905000_BL8
100
AcDbBlockBegin
  2
94528905000_BL8
 70
64
 10
91.1461887624
 20
1710.3461952983
  3
94528905000_BL8
  1

  0
LINE
  5
47C
100
AcDbEntity
  8
94528905000_BL8
100
AcDbLine
 62
7
  6
CONTINUOUS
 10
145.9354065009
 20
1710.8617397549
 11
145.0604065009
 21
1709.3461952983
  0
LINE
  5
47D
100
AcDbEntity
  8
94528905000_BL8
100
AcDbLine
 62
7
  6
CONTINUOUS
 10
147.6854065009
 20
1707.8306508417
 11
148.5604065009
 21
1709.3461952983
  0
LINE
  5
47E
100
AcDbEntity
  8
94528905000_BL8
100
AcDbLine
 62
7
  6
CONTINUOUS
 10
145.0604065009
 20
1709.3461952983
 11
145.9354065009
 21
1707.8306508417
  0
LINE
  5
47F
100
AcDbEntity
  8
94528905000_BL8
100
AcDbLine
 62
7
  6
CONTINUOUS
 10
148.5604065009
 20
1709.3461952983
 11
147.6854065009
 21
1710.8617397549
  0
LINE
  5
480
100
AcDbEntity
  8
94528905000_BL8
100
AcDbLine
 62
7
  6
CONTINUOUS
 10
145.9354065009
 20
1707.8306508417
 11
147.6854065009
 21
1707.8306508417
  0
LINE
  5
481
100
AcDbEntity
  8
94528905000_BL8
100
AcDbLine
 62
7
  6
CONTINUOUS
 10
147.6854065009
 20
1710.8617397549
 11
145.9354065009
 21
1710.8617397549
  0
LINE
  5
482
100
AcDbEntity
  8
94528905000_BL8
100
AcDbLine
 62
7
  6
CONTINUOUS
 10
30.9819710238
 20
1707.5461952983
 11
30.9819710238
 21
1711.1461952983
  0
LINE
  5
483
100
AcDbEntity
  8
94528905000_BL8
100
AcDbLine
 62
7
  6
CONTINUOUS
 10
31.4819710238
 20
1707.6801698945
 11
31.4819710238
 21
1711.0122207021
  0
LINE
  5
484
100
AcDbEntity
  8
94528905000_BL8
100
AcDbLine
 62
7
  6
CONTINUOUS
 10
31.4819710238
 20
1707.6801698945
 11
30.9819710238
 21
1707.5461952983
  0
LINE
  5
485
100
AcDbEntity
  8
94528905000_BL8
100
AcDbLine
 62
7
  6
CONTINUOUS
 10
30.9819710238
 20
1707.5461952983
 11
29.9819710238
 21
1707.5461952983
  0
LINE
  5
486
100
AcDbEntity
  8
94528905000_BL8
100
AcDbLine
 62
7
  6
CONTINUOUS
 10
30.9819710238
 20
1711.1461952983
 11
29.9819710238
 21
1711.1461952983
  0
LINE
  5
487
100
AcDbEntity
  8
94528905000_BL8
100
AcDbLine
 62
7
  6
CONTINUOUS
 10
31.4819710238
 20
1711.0122207021
 11
30.9819710238
 21
1711.1461952983
  0
CIRCLE
  5
488
100
AcDbEntity
  8
94528905000_BL8
100
AcDbCircle
 62
7
  6
CONTINUOUS
 10
146.8104065009
 20
1710.3461952983
 40
5.5
  0
CIRCLE
  5
489
100
AcDbEntity
  8
94528905000_BL8
100
AcDbCircle
 62
7
  6
CONTINUOUS
 10
146.8104065009
 20
1709.3461952983
 40
1.75
  0
CIRCLE
  5
48A
100
AcDbEntity
  8
94528905000_BL8
100
AcDbCircle
 62
7
  6
CONTINUOUS
 10
146.8104065009
 20
1709.3461952983
 40
1.515
  0
CIRCLE
  5
48B
100
AcDbEntity
  8
94528905000_BL8
100
AcDbCircle
 62
7
  6
CONTINUOUS
 10
146.8104065009
 20
1712.8461952983
 40
0.75
  0
ENDBLK
  5
48C
100
AcDbEntity
  8
0
  6
BYBLOCK
 62
0
100
AcDbBlockEnd
  0
BLOCK
  5
48D
100
AcDbEntity
  8
94944601000_M2_BL9
100
AcDbBlockBegin
  2
94944601000_M2_BL9
 70
64
 10
85.4961887624
 20
828.5461952983
  3
94944601000_M2_BL9
  1

  0
LINE
  5
48E
100
AcDbEntity
  8
94944601000_M2_BL9
100
AcDbLine
 62
7
  6
CENTER
 10
143.8104065009
 20
828.5461952983
 11
135.6104065009
 21
828.5461952983
  0
LINE
  5
48F
100
AcDbEntity
  8
94944601000_M2_BL9
100
AcDbLine
 62
7
  6
CENTER
 10
143.8104065009
 20
828.5461952983
 11
152.0104065009
 21
828.5461952983
  0
LINE
  5
490
100
AcDbEntity
  8
94944601000_M2_BL9
100
AcDbLine
 62
7
  6
CONTINUOUS
 10
140.7104065009
 20
824.3712701493
 11
140.7104065009
 21
832.7211204473
  0
LINE
  5
491
100
AcDbEntity
  8
94944601000_M2_BL9
100
AcDbLine
 62
7
  6
CENTER
 10
143.8104065009
 20
828.5461952983
 11
143.8104065009
 21
820.3461952983
  0
LINE
  5
492
100
AcDbEntity
  8
94944601000_M2_BL9
100
AcDbLine
 62
7
  6
CENTER
 10
143.8104065009
 20
828.5461952983
 11
143.8104065009
 21
836.7461952983
  0
LINE
  5
493
100
AcDbEntity
  8
94944601000_M2_BL9
100
AcDbLine
 62
7
  6
CONTINUOUS
 10
146.9104065009
 20
824.3712701493
 11
146.9104065009
 21
832.7211204473
  0
LINE
  5
494
100
AcDbEntity
  8
94944601000_M2_BL9
100
AcDbLine
 62
7
  6
CENTER
 10
32.9819710238
 20
828.5461952983
 11
18.9819710238
 21
828.5461952983
  0
ARC
  5
495
100
AcDbEntity
  8
94944601000_M2_BL9
100
AcDbCircle
 62
7
  6
CONTINUOUS
 10
143.8104065009
 20
828.5461952983
 40
5.2
100
AcDbArc
 50
233.4050690444
 51
306.5949309556
  0
ARC
  5
496
100
AcDbEntity
  8
94944601000_M2_BL9
100
AcDbCircle
 62
7
  6
CONTINUOUS
 10
143.8104065009
 20
828.5461952983
 40
5.2
100
AcDbArc
 50
53.4050690444
 51
126.5949309556
  0
ARC
  5
497
100
AcDbEntity
  8
94944601000_M2_BL9
100
AcDbCircle
 62
7
  6
CONTINUOUS
 10
143.8104065009
 20
828.5461952983
 40
3.2812557855
100
AcDbArc
 50
199.1330091787
 51
340.8669908213
  0
ARC
  5
498
100
AcDbEntity
  8
94944601000_M2_BL9
100
AcDbCircle
 62
7
  6
CONTINUOUS
 10
143.8104065009
 20
828.5461952983
 40
3.2812557855
100
AcDbArc
 50
19.1330091787
 51
160.8669908213
  0
CIRCLE
  5
499
100
AcDbEntity
  8
94944601000_M2_BL9
100
AcDbCircle
 62
7
  6
CONTINUOUS
 10
143.8104065009
 20
828.5461952983
 40
2.6
  0
ENDBLK
  5
49A
100
AcDbEntity
  8
0
  6
BYBLOCK
 62
0
100
AcDbBlockEnd
  0
BLOCK
  5
49B
100
AcDbEntity
  8
94855303000_BL10
100
AcDbBlockBegin
  2
94855303000_BL10
 70
64
 10
86.5611127884
 20
534.7856467632
  3
94855303000_BL10
  1

  0
LINE
  5
49C
100
AcDbEntity
  8
94855303000_BL10
100
AcDbLine
 62
7
  6
CONTINUOUS
 10
141.5104065009
 20
922.1961952983
 11
152.1104065009
 21
922.1961952983
  0
LINE
  5
49D
100
AcDbEntity
  8
94855303000_BL10
100
AcDbLine
 62
9
  6
CONTINUOUS
 10
141.5104065009
 20
922.6961952983
 11
152.1104065009
 21
922.6961952983
  0
LINE
  5
49E
100
AcDbEntity
  8
94855303000_BL10
100
AcDbLine
 62
9
  6
CONTINUOUS
 10
152.0380478634
 20
923.8961952983
 11
141.5827651385
 21
923.8961952983
  0
LINE
  5
49F
100
AcDbEntity
  8
94855303000_BL10
100
AcDbLine
 62
7
  6
CONTINUOUS
 10
152.0380478634
 20
924.1961952983
 11
141.5827651378
 21
924.1961952983
  0
LINE
  5
4A0
100
AcDbEntity
  8
94855303000_BL10
100
AcDbLine
 62
9
  6
CONTINUOUS
 10
140.0104065009
 20
924.1961952983
 11
139.5104065009
 21
924.1961953172
  0
LINE
  5
4A1
100
AcDbEntity
  8
94855303000_BL10
100
AcDbLine
 62
9
  6
CONTINUOUS
 10
153.6104065009
 20
924.1961952983
 11
154.1104065009
 21
924.1961952983
  0
LINE
  5
4A2
100
AcDbEntity
  8
94855303000_BL10
100
AcDbLine
 62
9
  6
CONTINUOUS
 10
140.9715351215
 20
924.4961952983
 11
141.5104065009
 21
924.4961952983
  0
LINE
  5
4A3
100
AcDbEntity
  8
94855303000_BL10
100
AcDbLine
 62
9
  6
CONTINUOUS
 10
152.1104065009
 20
924.4961952983
 11
152.6492778804
 21
924.4961952983
  0
LINE
  5
4A4
100
AcDbEntity
  8
94855303000_BL10
100
AcDbLine
 62
7
  6
CONTINUOUS
 10
151.8104065009
 20
925.0961952983
 11
150.8104065009
 21
925.0961952983
  0
LINE
  5
4A5
100
AcDbEntity
  8
94855303000_BL10
100
AcDbLine
 62
7
  6
CONTINUOUS
 10
142.8104065009
 20
925.0961952983
 11
141.8104065009
 21
925.0961952983
  0
LINE
  5
4A6
100
AcDbEntity
  8
94855303000_BL10
100
AcDbLine
 62
9
  6
CONTINUOUS
 10
142.8104065009
 20
925.3961952983
 11
141.5104065009
 21
925.396195298
  0
LINE
  5
4A7
100
AcDbEntity
  8
94855303000_BL10
100
AcDbLine
 62
9
  6
CONTINUOUS
 10
150.8104065009
 20
925.3961952983
 11
152.1104065009
 21
925.3961952983
  0
LWPOLYLINE
  5
4A8
100
AcDbEntity
  8
94855303000_BL10
100
AcDbPolyline
 62
9
  6
CONTINUOUS
 90
9
 70
0
 10
141.5827651385
 20
924.1961952983
 10
141.5199807528
 20
924.2021335908
 10
141.4600852089
 20
924.2196137031
 10
141.4051568345
 20
924.2478054688
 10
141.3573136413
 20
924.2854795917
 10
141.3183419706
 20
924.3310606532
 10
141.2895551685
 20
924.3827312448
 10
141.2719628304
 20
924.4384902946
 10
141.2660232765
 20
924.4961952983
  0
LWPOLYLINE
  5
4A9
100
AcDbEntity
  8
94855303000_BL10
100
AcDbPolyline
 62
9
  6
CONTINUOUS
 90
9
 70
0
 10
141.5827651385
 20
923.8961952983
 10
141.4596180648
 20
923.9090151966
 10
141.3460649486
 20
923.9430474419
 10
141.240281753
 20
923.9996698602
 10
141.1477405884
 20
924.0747489736
 10
141.0728034406
 20
924.1660493832
 10
141.0169766472
 20
924.2692546787
 10
140.9835905824
 20
924.3786706242
 10
140.9715351215
 20
924.4961952983
  0
LWPOLYLINE
  5
4AA
100
AcDbEntity
  8
94855303000_BL10
100
AcDbPolyline
 62
9
  6
CONTINUOUS
 90
9
 70
0
 10
141.8104065009
 20
983.4419221473
 10
141.7518794043
 20
983.4362453059
 10
141.6956014712
 20
983.4194329394
 10
141.643735431
 20
983.3921311376
 10
141.5982744666
 20
983.3553890935
 10
141.5609656172
 20
983.3106187833
 10
141.5332426412
 20
983.2595407048
 10
141.5161709168
 20
983.2041177599
 10
141.5104065009
 20
983.1464798214
  0
LWPOLYLINE
  5
4AB
100
AcDbEntity
  8
94855303000_BL10
100
AcDbPolyline
 62
9
  6
CONTINUOUS
 90
27
 70
0
 10
152.0379347264
 20
984.7930327655
 10
152.0823244073
 20
984.7932394698
 10
152.12448439
 20
984.7901656107
 10
152.1642630896
 20
984.7835031067
 10
152.2021152605
 20
984.7741762017
 10
152.2384231229
 20
984.7630606309
 10
152.2732526938
 20
984.7499938383
 10
152.3068216709
 20
984.7350810325
 10
152.339057232
 20
984.718394654
 10
152.3699609275
 20
984.700032185
 10
152.3995273381
 20
984.6800237085
 10
152.4277619822
 20
984.6584275847
 10
152.4546335981
 20
984.6352564641
 10
152.4801539999
 20
984.6105090536
 10
152.5041994794
 20
984.5842855441
 10
152.5266854702
 20
984.5566391714
 10
152.5475063614
 20
984.5277095083
 10
152.5665496978
 20
984.4976061845
 10
152.5837514468
 20
984.4664722656
 10
152.5990209162
 20
984.4344405605
 10
152.6123256307
 20
984.4016514693
 10
152.6236053407
 20
984.3682455561
 10
152.6328526775
 20
984.3343551376
 10
152.6400363416
 20
984.3001421352
 10
152.6451678755
 20
984.2656582991
 10
152.6482485271
 20
984.231022569
 10
152.6492778804
 20
984.1961952983
  0
LINE
  5
4AC
100
AcDbEntity
  8
94855303000_BL10
100
AcDbLine
 62
7
  6
CENTER
 10
146.8104065009
 20
954.4461952983
 11
138.4805541303
 21
954.4461952983
  0
LINE
  5
4AD
100
AcDbEntity
  8
94855303000_BL10
100
AcDbLine
 62
7
  6
CENTER
 10
146.8104065009
 20
954.4461952983
 11
155.1402588716
 21
954.4461952983
  0
LINE
  5
4AE
100
AcDbEntity
  8
94855303000_BL10
100
AcDbLine
 62
9
  6
CONTINUOUS
 10
141.5104065009
 20
983.1464798214
 11
152.1104065009
 21
983.1464798214
  0
LINE
  5
4AF
100
AcDbEntity
  8
94855303000_BL10
100
AcDbLine
 62
9
  6
CONTINUOUS
 10
141.8104065009
 20
983.4419221473
 11
151.8104065009
 21
983.4419221473
  0
LINE
  5
4B0
100
AcDbEntity
  8
94855303000_BL10
100
AcDbLine
 62
9
  6
CONTINUOUS
 10
141.5104065009
 20
984.1961952983
 11
140.9715351215
 21
984.1961952983
  0
LINE
  5
4B1
100
AcDbEntity
  8
94855303000_BL10
100
AcDbLine
 62
9
  6
CONTINUOUS
 10
152.1104065009
 20
984.1961952983
 11
152.6492778804
 21
984.1961952983
  0
LINE
  5
4B2
100
AcDbEntity
  8
94855303000_BL10
100
AcDbLine
 62
7
  6
CONTINUOUS
 10
152.0380478634
 20
984.4961952983
 11
141.5827651385
 21
984.4961952983
  0
LINE
  5
4B3
100
AcDbEntity
  8
94855303000_BL10
100
AcDbLine
 62
9
  6
CONTINUOUS
 10
140.0104065009
 20
984.4961952983
 11
139.5104065009
 21
984.4961952983
  0
LINE
  5
4B4
100
AcDbEntity
  8
94855303000_BL10
100
AcDbLine
 62
9
  6
CONTINUOUS
 10
153.6104065009
 20
984.4961952983
 11
154.1104065009
 21
984.4961952794
  0
LINE
  5
4B5
100
AcDbEntity
  8
94855303000_BL10
100
AcDbLine
 62
9
  6
CONTINUOUS
 10
152.1104065009
 20
985.9961952983
 11
141.5104065009
 21
985.9961952983
  0
LINE
  5
4B6
100
AcDbEntity
  8
94855303000_BL10
100
AcDbLine
 62
7
  6
CONTINUOUS
 10
152.1104065009
 20
986.4961952983
 11
141.5104065009
 21
986.4961952983
  0
LINE
  5
4B7
100
AcDbEntity
  8
94855303000_BL10
100
AcDbLine
 62
7
  6
CONTINUOUS
 10
152.0379347264
 20
984.7930327655
 11
141.5827626994
 21
984.7961951573
  0
LWPOLYLINE
  5
4B8
100
AcDbEntity
  8
94855303000_BL10
100
AcDbPolyline
 62
9
  6
CONTINUOUS
 90
29
 70
0
 10
152.0380489254
 20
984.4961952983
 10
152.059378353
 20
984.495514425
 10
152.0797736993
 20
984.4935808121
 10
152.0990870291
 20
984.4905720227
 10
152.1175224252
 20
984.4865982409
 10
152.1352325172
 20
984.4817250188
 10
152.152261392
 20
984.476012818
 10
152.1687110702
 20
984.4694795384
 10
152.1845589267
 20
984.462172263
 10
152.1998186266
 20
984.4541170434
 10
152.2144842997
 20
984.4453419678
 10
152.228553164
 20
984.4358678875
 10
152.2420237558
 20
984.4257076593
 10
152.2548990083
 20
984.4148624395
 10
152.267145405
 20
984.4033573204
 10
152.2787456337
 20
984.3912009697
 10
152.2896471275
 20
984.3784391108
 10
152.2998113598
 20
984.3651089652
 10
152.3091948964
 20
984.3512628676
 10
152.3177602844
 20
984.3369545272
 10
152.3254782037
 20
984.3222371818
 10
152.3323221911
 20
984.3071684956
 10
152.3382744383
 20
984.2918022717
 10
152.3433194267
 20
984.2761971991
 10
152.3474501977
 20
984.2604028204
 10
152.3506599779
 20
984.2444817621
 10
152.3529532343
 20
984.2284539124
 10
152.3543306688
 20
984.2123398114
 10
152.3547897253
 20
984.1961952983
  0
LWPOLYLINE
  5
4B9
100
AcDbEntity
  8
94855303000_BL10
100
AcDbPolyline
 62
9
  6
CONTINUOUS
 90
9
 70
0
 10
152.1104065009
 20
983.1464798214
 10
152.1046154527
 20
983.2042494595
 10
152.0873263225
 20
983.2601191791
 10
152.0588696766
 20
983.3120507265
 10
152.0206025229
 20
983.3572784497
 10
151.9747905786
 20
983.3936211974
 10
151.9231572849
 20
983.4202621522
 10
151.8676340902
 20
983.4364969316
 10
151.8104065009
 20
983.4419221473
  0
LINE
  5
4BA
100
AcDbEntity
  8
94855303000_BL10
100
AcDbLine
 62
7
  6
CONTINUOUS
 10
139.5104065009
 20
984.4961952983
 11
139.5104065009
 21
924.1961952983
  0
LINE
  5
4BB
100
AcDbEntity
  8
94855303000_BL10
100
AcDbLine
 62
9
  6
CONTINUOUS
 10
140.0104065009
 20
984.4961952983
 11
140.0104065009
 21
924.1961952983
  0
LINE
  5
4BC
100
AcDbEntity
  8
94855303000_BL10
100
AcDbLine
 62
9
  6
CONTINUOUS
 10
140.9715351215
 20
924.4961952983
 11
140.9715351215
 21
984.1961952983
  0
LINE
  5
4BD
100
AcDbEntity
  8
94855303000_BL10
100
AcDbLine
 62
9
  6
CONTINUOUS
 10
141.2660232765
 20
924.4961952983
 11
141.2660232765
 21
984.1961952983
  0
LINE
  5
4BE
100
AcDbEntity
  8
94855303000_BL10
100
AcDbLine
 62
9
  6
CONTINUOUS
 10
141.5104065009
 20
922.6961952983
 11
141.5104065009
 21
922.1961952983
  0
LINE
  5
4BF
100
AcDbEntity
  8
94855303000_BL10
100
AcDbLine
 62
7
  6
CONTINUOUS
 10
141.5104065009
 20
924.4961952983
 11
141.5104065009
 21
984.1961952983
  0
LINE
  5
4C0
100
AcDbEntity
  8
94855303000_BL10
100
AcDbLine
 62
9
  6
CONTINUOUS
 10
141.5104065009
 20
985.9961952983
 11
141.5104065199
 21
986.4961952983
  0
LINE
  5
4C1
100
AcDbEntity
  8
94855303000_BL10
100
AcDbLine
 62
9
  6
CONTINUOUS
 10
141.5827651385
 20
923.8961952983
 11
141.5827651378
 21
924.1961952983
  0
LINE
  5
4C2
100
AcDbEntity
  8
94855303000_BL10
100
AcDbLine
 62
9
  6
CONTINUOUS
 10
141.5827651385
 20
984.4961952983
 11
141.5827651385
 21
984.7961951558
  0
LINE
  5
4C3
100
AcDbEntity
  8
94855303000_BL10
100
AcDbLine
 62
9
  6
CONTINUOUS
 10
141.8104065009
 20
925.0961952983
 11
141.8104065009
 21
984.4961952983
  0
LINE
  5
4C4
100
AcDbEntity
  8
94855303000_BL10
100
AcDbLine
 62
7
  6
CONTINUOUS
 10
142.8104065009
 20
925.3961952983
 11
142.8104065009
 21
925.0961952983
  0
LINE
  5
4C5
100
AcDbEntity
  8
94855303000_BL10
100
AcDbLine
 62
7
  6
CONTINUOUS
 10
142.8104065009
 20
924.1961952983
 11
142.8104065009
 21
925.0961952983
  0
LINE
  5
4C6
100
AcDbEntity
  8
94855303000_BL10
100
AcDbLine
 62
7
  6
CENTER
 10
146.8104065009
 20
954.4461952983
 11
146.8104065009
 21
921.1296829843
  0
LINE
  5
4C7
100
AcDbEntity
  8
94855303000_BL10
100
AcDbLine
 62
7
  6
CENTER
 10
146.8104065009
 20
954.4461952983
 11
146.8104065009
 21
987.4860263567
  0
LINE
  5
4C8
100
AcDbEntity
  8
94855303000_BL10
100
AcDbLine
 62
7
  6
CONTINUOUS
 10
150.8104065009
 20
925.0961952983
 11
150.8104065009
 21
924.1961952983
  0
LINE
  5
4C9
100
AcDbEntity
  8
94855303000_BL10
100
AcDbLine
 62
7
  6
CONTINUOUS
 10
150.8104065009
 20
925.0961952983
 11
150.8104065009
 21
925.3961952983
  0
LINE
  5
4CA
100
AcDbEntity
  8
94855303000_BL10
100
AcDbLine
 62
9
  6
CONTINUOUS
 10
151.8104065009
 20
984.4961952983
 11
151.8104064997
 21
925.0961952983
  0
LINE
  5
4CB
100
AcDbEntity
  8
94855303000_BL10
100
AcDbLine
 62
9
  6
CONTINUOUS
 10
152.0380478634
 20
923.8961952983
 11
152.0380478634
 21
924.1961952983
  0
LINE
  5
4CC
100
AcDbEntity
  8
94855303000_BL10
100
AcDbLine
 62
9
  6
CONTINUOUS
 10
152.0380478634
 20
984.4961952983
 11
152.0380478634
 21
984.7898700958
  0
LINE
  5
4CD
100
AcDbEntity
  8
94855303000_BL10
100
AcDbLine
 62
7
  6
CONTINUOUS
 10
152.1104065009
 20
984.1961952983
 11
152.1104065009
 21
924.4961952983
  0
LINE
  5
4CE
100
AcDbEntity
  8
94855303000_BL10
100
AcDbLine
 62
9
  6
CONTINUOUS
 10
152.1104065009
 20
985.9961952983
 11
152.1104065009
 21
986.4961952983
  0
LINE
  5
4CF
100
AcDbEntity
  8
94855303000_BL10
100
AcDbLine
 62
9
  6
CONTINUOUS
 10
152.1104065009
 20
922.6961952983
 11
152.110406482
 21
922.1961952983
  0
LINE
  5
4D0
100
AcDbEntity
  8
94855303000_BL10
100
AcDbLine
 62
9
  6
CONTINUOUS
 10
152.3547897253
 20
984.1961952983
 11
152.3547897253
 21
924.4961952983
  0
LINE
  5
4D1
100
AcDbEntity
  8
94855303000_BL10
100
AcDbLine
 62
9
  6
CONTINUOUS
 10
152.6492778804
 20
984.1961952983
 11
152.6492778804
 21
924.4961952983
  0
LINE
  5
4D2
100
AcDbEntity
  8
94855303000_BL10
100
AcDbLine
 62
9
  6
CONTINUOUS
 10
153.6104065009
 20
924.1961952983
 11
153.6104065009
 21
984.4961952983
  0
LINE
  5
4D3
100
AcDbEntity
  8
94855303000_BL10
100
AcDbLine
 62
7
  6
CONTINUOUS
 10
154.1104065009
 20
924.1961952983
 11
154.1104065009
 21
984.4961952983
  0
LWPOLYLINE
  5
4D4
100
AcDbEntity
  8
94855303000_BL10
100
AcDbPolyline
 62
9
  6
CONTINUOUS
 90
27
 70
0
 10
141.2660232765
 20
984.1961952983
 10
141.26688401
 20
984.218191984
 10
141.2692752144
 20
984.2390732706
 10
141.2729639606
 20
984.2586606721
 10
141.2777877326
 20
984.2771976495
 10
141.2836405684
 20
984.2948551764
 10
141.290453637
 20
984.3117287612
 10
141.298216191
 20
984.3279724598
 10
141.306874329
 20
984.3435655407
 10
141.316407553
 20
984.3585388631
 10
141.3267852116
 20
984.372881715
 10
141.33798742
 20
984.386590728
 10
141.3500042193
 20
984.3996608585
 10
141.3628405643
 20
984.4120911461
 10
141.3764665638
 20
984.4238375816
 10
141.3908726901
 20
984.4348728533
 10
141.4060029551
 20
984.4451346365
 10
141.4218111769
 20
984.4545748613
 10
141.4382330147
 20
984.4631416823
 10
141.4552042282
 20
984.4707910864
 10
141.472651806
 20
984.4774832702
 10
141.4905056827
 20
984.4831869222
 10
141.5086720597
 20
984.4878718423
 10
141.5270506907
 20
984.4915177832
 10
141.5455756601
 20
984.4941202544
 10
141.5641657191
 20
984.4956777229
 10
141.5827665493
 20
984.4961952983
  0
LWPOLYLINE
  5
4D5
100
AcDbEntity
  8
94855303000_BL10
100
AcDbPolyline
 62
9
  6
CONTINUOUS
 90
27
 70
0
 10
140.9715351215
 20
984.1961952983
 10
140.9734038948
 20
984.2402607277
 10
140.9778106853
 20
984.2819503484
 10
140.9848889935
 20
984.3211193284
 10
140.9942383176
 20
984.3582021635
 10
141.005506272
 20
984.3935211039
 10
141.0186820083
 20
984.4272680541
 10
141.0336530857
 20
984.4597579848
 10
141.050371896
 20
984.4909439479
 10
141.0687646597
 20
984.5208932772
 10
141.08879745
 20
984.549578097
 10
141.110412274
 20
984.5770005058
 10
141.1336075509
 20
984.6031379138
 10
141.1583801932
 20
984.6280003587
 10
141.1846767275
 20
984.651492056
 10
141.212481717
 20
984.6735602949
 10
141.2416779649
 20
984.6940858925
 10
141.2721887438
 20
984.7129619291
 10
141.3038772086
 20
984.7300989044
 10
141.3366314833
 20
984.7453919787
 10
141.3702999338
 20
984.7587802508
 10
141.4047566104
 20
984.7701792712
 10
141.4398125835
 20
984.7795548445
 10
141.4752823597
 20
984.7868409823
 10
141.5110296818
 20
984.7920486138
 10
141.5468317007
 20
984.7951652888
 10
141.5827626994
 20
984.7961951573
  0
LWPOLYLINE
  5
4D6
100
AcDbEntity
  8
94855303000_BL10
100
AcDbPolyline
 62
9
  6
CONTINUOUS
 90
9
 70
0
 10
152.6492778804
 20
924.4961952983
 10
152.6371615872
 20
924.3785173266
 10
152.6037391364
 20
924.2690346152
 10
152.547887086
 20
924.1658671556
 10
152.4729757623
 20
924.0746549733
 10
152.3806037716
 20
923.9996808391
 10
152.2749628316
 20
923.9431365088
 10
152.1613681022
 20
923.9090937468
 10
152.0380478634
 20
923.8961952983
  0
LWPOLYLINE
  5
4D7
100
AcDbEntity
  8
94855303000_BL10
100
AcDbPolyline
 62
9
  6
CONTINUOUS
 90
9
 70
0
 10
152.3547897253
 20
924.4961952983
 10
152.3488333745
 20
924.4384144991
 10
152.3312122997
 20
924.382626394
 10
152.3024093725
 20
924.3309719968
 10
152.263453668
 20
924.2854356642
 10
152.2156939365
 20
924.2478291929
 10
152.1608490835
 20
924.2196618866
 10
152.1009363698
 20
924.2021535971
 10
152.0380478634
 20
924.1961952983
  0
LINE
  5
4D8
100
AcDbEntity
  8
94855303000_BL10
100
AcDbLine
 62
7
  6
CONTINUOUS
 10
37.9819710238
 20
918.4961952983
 11
33.9819710238
 21
918.4961952983
  0
LINE
  5
4D9
100
AcDbEntity
  8
94855303000_BL10
100
AcDbLine
 62
7
  6
CONTINUOUS
 10
21.9819710238
 20
922.1961952983
 11
21.4819710238
 21
922.1961952983
  0
LINE
  5
4DA
100
AcDbEntity
  8
94855303000_BL10
100
AcDbLine
 62
7
  6
CONTINUOUS
 10
41.4819710238
 20
923.4961952983
 11
38.4819710238
 21
923.4961952983
  0
LINE
  5
4DB
100
AcDbEntity
  8
94855303000_BL10
100
AcDbLine
 62
7
  6
CONTINUOUS
 10
33.4819710238
 20
923.4961952983
 11
29.9819710238
 21
923.4961952983
  0
LINE
  5
4DC
100
AcDbEntity
  8
94855303000_BL10
100
AcDbLine
 62
9
  6
CONTINUOUS
 10
41.9819710238
 20
923.9961952983
 11
38.4819710238
 21
923.9961952983
  0
LINE
  5
4DD
100
AcDbEntity
  8
94855303000_BL10
100
AcDbLine
 62
9
  6
CONTINUOUS
 10
20.9819710238
 20
924.1961952983
 11
21.9819710238
 21
924.1961952983
  0
LINE
  5
4DE
100
AcDbEntity
  8
94855303000_BL10
100
AcDbLine
 62
9
  6
CONTINUOUS
 10
33.4819710238
 20
924.9961952983
 11
29.9819710238
 21
924.9961952983
  0
LINE
  5
4DF
100
AcDbEntity
  8
94855303000_BL10
100
AcDbLine
 62
7
  6
CENTER
 10
17.9819667051
 20
954.4461952983
 11
44.9819710238
 21
954.4461952983
  0
LINE
  5
4E0
100
AcDbEntity
  8
94855303000_BL10
100
AcDbLine
 62
9
  6
CONTINUOUS
 10
40.4819710238
 20
982.7269300059
 11
41.9819710238
 21
982.7269300059
  0
LINE
  5
4E1
100
AcDbEntity
  8
94855303000_BL10
100
AcDbLine
 62
9
  6
CONTINUOUS
 10
33.1070843886
 20
983.8961952983
 11
29.9819710238
 21
983.8961952983
  0
LINE
  5
4E2
100
AcDbEntity
  8
94855303000_BL10
100
AcDbLine
 62
9
  6
CONTINUOUS
 10
20.9819710238
 20
984.4961952983
 11
21.9819710238
 21
984.4961952983
  0
LINE
  5
4E3
100
AcDbEntity
  8
94855303000_BL10
100
AcDbLine
 62
7
  6
CONTINUOUS
 10
33.1070843886
 20
985.3961952983
 11
29.9819710238
 21
985.3961952983
  0
LINE
  5
4E4
100
AcDbEntity
  8
94855303000_BL10
100
AcDbLine
 62
7
  6
CONTINUOUS
 10
21.9819710238
 20
986.4961952983
 11
21.4819710238
 21
986.4961952983
  0
LINE
  5
4E5
100
AcDbEntity
  8
94855303000_BL10
100
AcDbLine
 62
7
  6
CONTINUOUS
 10
33.1070843885
 20
985.3961952983
 11
34.8435661652
 21
985.2442728284
  0
LINE
  5
4E6
100
AcDbEntity
  8
94855303000_BL10
100
AcDbLine
 62
9
  6
CONTINUOUS
 10
40.4819710238
 20
982.7269300059
 11
34.5830938987
 21
983.7670611989
  0
LINE
  5
4E7
100
AcDbEntity
  8
94855303000_BL10
100
AcDbLine
 62
7
  6
CONTINUOUS
 10
40.7424432903
 20
984.2041416354
 11
34.8435661652
 21
985.2442728284
  0
LINE
  5
4E8
100
AcDbEntity
  8
94855303000_BL10
100
AcDbLine
 62
7
  6
CONTINUOUS
 10
20.9819710238
 20
922.6961952983
 11
20.9819710238
 21
985.9961952983
  0
LINE
  5
4E9
100
AcDbEntity
  8
94855303000_BL10
100
AcDbLine
 62
9
  6
CONTINUOUS
 10
21.4819710238
 20
922.1961952983
 11
21.4819710238
 21
986.4961952983
  0
LINE
  5
4EA
100
AcDbEntity
  8
94855303000_BL10
100
AcDbLine
 62
7
  6
CONTINUOUS
 10
21.9819710238
 20
922.3281719398
 11
21.9819710238
 21
986.3642186568
  0
LINE
  5
4EB
100
AcDbEntity
  8
94855303000_BL10
100
AcDbLine
 62
9
  6
CONTINUOUS
 10
33.1070843886
 20
983.8961952983
 11
33.1070843886
 21
985.3961952983
  0
LINE
  5
4EC
100
AcDbEntity
  8
94855303000_BL10
100
AcDbLine
 62
7
  6
CONTINUOUS
 10
33.4819710238
 20
924.9961952983
 11
33.4819710238
 21
922.9963325129
  0
LINE
  5
4ED
100
AcDbEntity
  8
94855303000_BL10
100
AcDbLine
 62
7
  6
CONTINUOUS
 10
38.4819710238
 20
922.9963325129
 11
38.4819710238
 21
923.9961952983
  0
LINE
  5
4EE
100
AcDbEntity
  8
94855303000_BL10
100
AcDbLine
 62
9
  6
CONTINUOUS
 10
40.4819710238
 20
923.4961952983
 11
40.4819710238
 21
982.7269300059
  0
LINE
  5
4EF
100
AcDbEntity
  8
94855303000_BL10
100
AcDbLine
 62
7
  6
CONTINUOUS
 10
41.9819710238
 20
982.7269300059
 11
41.9819710238
 21
923.9961952983
  0
LINE
  5
4F0
100
AcDbEntity
  8
94855303000_BL10
100
AcDbLine
 62
7
  6
CONTINUOUS
 10
33.9819710238
 20
918.4961952983
 11
33.4819710238
 21
922.9963325129
  0
LINE
  5
4F1
100
AcDbEntity
  8
94855303000_BL10
100
AcDbLine
 62
7
  6
CONTINUOUS
 10
38.4819710238
 20
922.9963325129
 11
37.9819710238
 21
918.4961952983
  0
LINE
  5
4F2
100
AcDbEntity
  8
94855303000_BL10
100
AcDbLine
 62
9
  6
CONTINUOUS
 10
34.5830938987
 20
983.7670611989
 11
34.8435661652
 21
985.2442728284
  0
LINE
  5
4F3
100
AcDbEntity
  8
94855303000_BL10
100
AcDbLine
 62
9
  6
CONTINUOUS
 10
40.7424432903
 20
984.2041416354
 11
40.4819710238
 21
982.7269300059
  0
LINE
  5
4F4
100
AcDbEntity
  8
94855303000_BL10
100
AcDbLine
 62
7
  6
CONTINUOUS
 10
20.9819710238
 20
82.5852671697
 11
20.9819710238
 21
96.1852671697
  0
LINE
  5
4F5
100
AcDbEntity
  8
94855303000_BL10
100
AcDbLine
 62
9
  6
CONTINUOUS
 10
21.4819710238
 20
82.0852671697
 11
21.4819710238
 21
83.4852671697
  0
LINE
  5
4F6
100
AcDbEntity
  8
94855303000_BL10
100
AcDbLine
 62
7
  6
CONTINUOUS
 10
21.9819710238
 20
82.671373831
 11
21.9819710238
 21
82.0852671697
  0
LINE
  5
4F7
100
AcDbEntity
  8
94855303000_BL10
100
AcDbLine
 62
7
  6
CONTINUOUS
 10
21.9819710238
 20
82.0852671697
 11
21.4819710238
 21
82.0852671697
  0
LINE
  5
4F8
100
AcDbEntity
  8
94855303000_BL10
100
AcDbLine
 62
7
  6
CONTINUOUS
 10
40.4819710238
 20
83.3852671697
 11
34.5830938987
 21
83.3852671697
  0
LINE
  5
4F9
100
AcDbEntity
  8
94855303000_BL10
100
AcDbLine
 62
9
  6
CONTINUOUS
 10
20.9819710238
 20
84.0852671697
 11
21.2819710238
 21
84.0852671697
  0
LINE
  5
4FA
100
AcDbEntity
  8
94855303000_BL10
100
AcDbLine
 62
9
  6
CONTINUOUS
 10
34.5830938987
 20
83.3852671697
 11
34.6136247992
 21
83.3991045391
  0
LWPOLYLINE
  5
4FB
100
AcDbEntity
  8
94855303000_BL10
100
AcDbPolyline
 62
9
  6
CONTINUOUS
 90
8
 70
0
 10
40.696405028
 20
84.0384305033
 10
40.692697514
 20
84.0035892913
 10
40.6661527298
 20
83.8246069979
 10
40.6350727807
 20
83.6717416781
 10
40.6002229582
 20
83.5487573834
 10
40.5624613807
 20
83.4586823953
 10
40.5227178635
 20
83.4037346588
 10
40.4819710238
 20
83.3852671697
  0
LINE
  5
4FC
100
AcDbEntity
  8
94855303000_BL10
100
AcDbLine
 62
9
  6
CONTINUOUS
 10
20.9819710238
 20
94.6852671697
 11
21.2819710238
 21
94.6852671698
  0
ARC
  5
4FD
100
AcDbEntity
  8
94855303000_BL10
100
AcDbCircle
 62
7
  6
CONTINUOUS
 10
141.5104065009
 20
984.4961952983
 40
2.0
100
AcDbArc
 50
90.0
 51
180.0
  0
ARC
  5
4FE
100
AcDbEntity
  8
94855303000_BL10
100
AcDbCircle
 62
7
  6
CONTINUOUS
 10
141.5104065009
 20
924.1961952983
 40
2.0
100
AcDbArc
 50
180.0
 51
270.0
  0
ARC
  5
4FF
100
AcDbEntity
  8
94855303000_BL10
100
AcDbCircle
 62
9
  6
CONTINUOUS
 10
141.5104065009
 20
924.1961952983
 40
1.5
100
AcDbArc
 50
180.0
 51
270.0
  0
ARC
  5
500
100
AcDbEntity
  8
94855303000_BL10
100
AcDbCircle
 62
9
  6
CONTINUOUS
 10
141.5104065009
 20
984.4961952983
 40
1.5
100
AcDbArc
 50
90.0
 51
180.0
  0
ARC
  5
501
100
AcDbEntity
  8
94855303000_BL10
100
AcDbCircle
 62
7
  6
CONTINUOUS
 10
141.8104065009
 20
984.1961952983
 40
0.3
100
AcDbArc
 50
104.9676092806
 51
180.0
  0
ARC
  5
502
100
AcDbEntity
  8
94855303000_BL10
100
AcDbCircle
 62
7
  6
CONTINUOUS
 10
141.8104065009
 20
925.3961952983
 40
0.3
100
AcDbArc
 50
180.0
 51
270.0
  0
ARC
  5
503
100
AcDbEntity
  8
94855303000_BL10
100
AcDbCircle
 62
7
  6
CONTINUOUS
 10
141.8104065009
 20
924.4961952983
 40
0.3
100
AcDbArc
 50
180.0
 51
255.0323907194
  0
ARC
  5
504
100
AcDbEntity
  8
94855303000_BL10
100
AcDbCircle
 62
7
  6
CONTINUOUS
 10
152.1104065009
 20
984.4961952983
 40
2.0
100
AcDbArc
 50
0.0
 51
90.0
  0
ARC
  5
505
100
AcDbEntity
  8
94855303000_BL10
100
AcDbCircle
 62
7
  6
CONTINUOUS
 10
152.1104065009
 20
924.1961952983
 40
2.0
100
AcDbArc
 50
270.0
 51
360.0
  0
ARC
  5
506
100
AcDbEntity
  8
94855303000_BL10
100
AcDbCircle
 62
9
  6
CONTINUOUS
 10
152.1104065009
 20
924.1961952983
 40
1.5
100
AcDbArc
 50
270.0
 51
360.0
  0
ARC
  5
507
100
AcDbEntity
  8
94855303000_BL10
100
AcDbCircle
 62
9
  6
CONTINUOUS
 10
152.1104065009
 20
984.4961952983
 40
1.5
100
AcDbArc
 50
0.0
 51
90.0
  0
ARC
  5
508
100
AcDbEntity
  8
94855303000_BL10
100
AcDbCircle
 62
7
  6
CONTINUOUS
 10
151.8104065009
 20
984.1961952983
 40
0.3
100
AcDbArc
 50
0.0
 51
75.0323907194
  0
ARC
  5
509
100
AcDbEntity
  8
94855303000_BL10
100
AcDbCircle
 62
7
  6
CONTINUOUS
 10
151.8104065009
 20
925.3961952983
 40
0.3
100
AcDbArc
 50
270.0
 51
360.0
  0
ARC
  5
50A
100
AcDbEntity
  8
94855303000_BL10
100
AcDbCircle
 62
7
  6
CONTINUOUS
 10
151.8104065009
 20
924.4961952983
 40
0.3
100
AcDbArc
 50
284.9676092806
 51
360.0
  0
ARC
  5
50B
100
AcDbEntity
  8
94855303000_BL10
100
AcDbCircle
 62
7
  6
CONTINUOUS
 10
33.1070843886
 20
975.3961952983
 40
10.0
100
AcDbArc
 50
80.0
 51
90.0
  0
ARC
  5
50C
100
AcDbEntity
  8
94855303000_BL10
100
AcDbCircle
 62
9
  6
CONTINUOUS
 10
33.1070843886
 20
975.3961952983
 40
8.5
100
AcDbArc
 50
80.0
 51
90.0
  0
ARC
  5
50D
100
AcDbEntity
  8
94855303000_BL10
100
AcDbCircle
 62
7
  6
CONTINUOUS
 10
40.4819710238
 20
982.7269300059
 40
1.5
100
AcDbArc
 50
0.0
 51
80.0
  0
ARC
  5
50E
100
AcDbEntity
  8
94855303000_BL10
100
AcDbCircle
 62
7
  6
CONTINUOUS
 10
41.4819710238
 20
923.9961952983
 40
0.5
100
AcDbArc
 50
270.0
 51
360.0
  0
ARC
  5
50F
100
AcDbEntity
  8
94855303000_BL10
100
AcDbCircle
 62
7
  6
CONTINUOUS
 10
21.4819710238
 20
985.9961952983
 40
0.5
100
AcDbArc
 50
90.0
 51
180.0
  0
ARC
  5
510
100
AcDbEntity
  8
94855303000_BL10
100
AcDbCircle
 62
7
  6
CONTINUOUS
 10
21.4819710238
 20
922.6961952983
 40
0.5
100
AcDbArc
 50
180.0
 51
270.0
  0
ARC
  5
511
100
AcDbEntity
  8
94855303000_BL10
100
AcDbCircle
 62
7
  6
CONTINUOUS
 10
40.4819710238
 20
84.8852671697
 40
1.5
100
AcDbArc
 50
270.0
 51
330.7044785349
  0
ARC
  5
512
100
AcDbEntity
  8
94855303000_BL10
100
AcDbCircle
 62
7
  6
CONTINUOUS
 10
21.4819710238
 20
96.1852671697
 40
0.5
100
AcDbArc
 50
113.6268146857
 51
180.0
  0
ARC
  5
513
100
AcDbEntity
  8
94855303000_BL10
100
AcDbCircle
 62
7
  6
CONTINUOUS
 10
21.4819710238
 20
82.5852671697
 40
0.5
100
AcDbArc
 50
180.0
 51
270.0
  0
ENDBLK
  5
514
100
AcDbEntity
  8
0
  6
BYBLOCK
 62
0
100
AcDbBlockEnd
  0
BLOCK
  5
515
100
AcDbEntity
  8
94625701000_BL11
100
AcDbBlockBegin
  2
94625701000_BL11
 70
64
 10
88.8961887624
 20
574.915731234
  3
94625701000_BL11
  1

  0
LINE
  5
516
100
AcDbEntity
  8
94625701000_BL11
100
AcDbLine
 62
7
  6
CONTINUOUS
 10
155.3104065009
 20
1021.4461952983
 11
153.3246200633
 21
1021.4461952983
  0
LINE
  5
517
100
AcDbEntity
  8
94625701000_BL11
100
AcDbLine
 62
7
  6
CONTINUOUS
 10
138.3104065009
 20
1024.3461952983
 11
146.6104065009
 21
1024.3461952983
  0
LINE
  5
518
100
AcDbEntity
  8
94625701000_BL11
100
AcDbLine
 62
7
  6
CONTINUOUS
 10
146.6104065009
 20
1024.3461952983
 11
150.0104065009
 21
1024.3461952983
  0
LINE
  5
519
100
AcDbEntity
  8
94625701000_BL11
100
AcDbLine
 62
7
  6
CONTINUOUS
 10
146.6104065009
 20
1025.9461952983
 11
152.3104065009
 21
1025.9461952983
  0
LINE
  5
51A
100
AcDbEntity
  8
94625701000_BL11
100
AcDbLine
 62
7
  6
CONTINUOUS
 10
140.9104065009
 20
1027.0961952983
 11
143.9104065009
 21
1027.0961952983
  0
LINE
  5
51B
100
AcDbEntity
  8
94625701000_BL11
100
AcDbLine
 62
7
  6
CONTINUOUS
 10
146.7604065009
 20
1029.9461952983
 11
152.3104065009
 21
1029.9461952983
  0
LINE
  5
51C
100
AcDbEntity
  8
94625701000_BL11
100
AcDbLine
 62
7
  6
CONTINUOUS
 10
143.9104065009
 20
1032.7961952983
 11
140.9104065009
 21
1032.7961952983
  0
LINE
  5
51D
100
AcDbEntity
  8
94625701000_BL11
100
AcDbLine
 62
7
  6
CONTINUOUS
 10
141.1104065009
 20
1042.5961952983
 11
143.0104065009
 21
1042.5961952983
  0
LINE
  5
51E
100
AcDbEntity
  8
94625701000_BL11
100
AcDbLine
 62
7
  6
CONTINUOUS
 10
143.0104065009
 20
1043.3961952983
 11
141.1104065009
 21
1043.3961952983
  0
LINE
  5
51F
100
AcDbEntity
  8
94625701000_BL11
100
AcDbLine
 62
7
  6
CONTINUOUS
 10
141.1104065009
 20
1043.7961952983
 11
143.0104065009
 21
1043.7961952983
  0
LINE
  5
520
100
AcDbEntity
  8
94625701000_BL11
100
AcDbLine
 62
7
  6
CONTINUOUS
 10
143.0104065009
 20
1044.5961952983
 11
141.9104065009
 21
1044.5961952983
  0
LINE
  5
521
100
AcDbEntity
  8
94625701000_BL11
100
AcDbLine
 62
7
  6
CONTINUOUS
 10
141.3104065009
 20
1044.5961952983
 11
141.1104065009
 21
1044.5961952983
  0
LINE
  5
522
100
AcDbEntity
  8
94625701000_BL11
100
AcDbLine
 62
7
  6
CONTINUOUS
 10
141.3104065009
 20
1045.0961952983
 11
141.9104065009
 21
1045.0961952983
  0
LINE
  5
523
100
AcDbEntity
  8
94625701000_BL11
100
AcDbLine
 62
7
  6
CONTINUOUS
 10
141.9104065009
 20
1047.0961952983
 11
141.3104065009
 21
1047.0961952983
  0
LINE
  5
524
100
AcDbEntity
  8
94625701000_BL11
100
AcDbLine
 62
7
  6
CONTINUOUS
 10
143.9104065009
 20
1058.0961952983
 11
140.9104065009
 21
1058.0961952983
  0
LINE
  5
525
100
AcDbEntity
  8
94625701000_BL11
100
AcDbLine
 62
7
  6
CONTINUOUS
 10
146.7604065009
 20
1060.9461952983
 11
152.3104065009
 21
1060.9461952983
  0
LINE
  5
526
100
AcDbEntity
  8
94625701000_BL11
100
AcDbLine
 62
7
  6
CONTINUOUS
 10
140.9104065009
 20
1063.7961952983
 11
143.9104065009
 21
1063.7961952983
  0
LINE
  5
527
100
AcDbEntity
  8
94625701000_BL11
100
AcDbLine
 62
7
  6
CONTINUOUS
 10
152.3104065009
 20
1064.9461942119
 11
146.6104065009
 21
1064.9461952983
  0
LINE
  5
528
100
AcDbEntity
  8
94625701000_BL11
100
AcDbLine
 62
7
  6
CONTINUOUS
 10
138.3104065009
 20
1066.5461952983
 11
146.6104065009
 21
1066.5461952983
  0
LINE
  5
529
100
AcDbEntity
  8
94625701000_BL11
100
AcDbLine
 62
7
  6
CONTINUOUS
 10
146.6104065009
 20
1066.5461952983
 11
150.0104065009
 21
1066.5461952983
  0
LINE
  5
52A
100
AcDbEntity
  8
94625701000_BL11
100
AcDbLine
 62
7
  6
CONTINUOUS
 10
155.3104065009
 20
1069.4461952983
 11
153.3246200633
 21
1069.4461952983
  0
LINE
  5
52B
100
AcDbEntity
  8
94625701000_BL11
100
AcDbLine
 62
7
  6
CONTINUOUS
 10
152.6175132821
 20
1021.7390885171
 11
152.3104065009
 21
1022.0461952983
  0
LINE
  5
52C
100
AcDbEntity
  8
94625701000_BL11
100
AcDbLine
 62
7
  6
CONTINUOUS
 10
150.0104065009
 20
1024.3461952983
 11
152.3104065009
 21
1022.0461952983
  0
LINE
  5
52D
100
AcDbEntity
  8
94625701000_BL11
100
AcDbLine
 62
7
  6
CONTINUOUS
 10
142.1407365868
 20
1046.2658652124
 11
142.6710666727
 21
1045.7355351265
  0
LINE
  5
52E
100
AcDbEntity
  8
94625701000_BL11
100
AcDbLine
 62
7
  6
CONTINUOUS
 10
137.8104065009
 20
1066.0461952983
 11
137.8104065009
 21
1024.8461952983
  0
LINE
  5
52F
100
AcDbEntity
  8
94625701000_BL11
100
AcDbLine
 62
9
  6
CONTINUOUS
 10
140.9104065009
 20
1058.8474673419
 11
140.9104065009
 21
1058.0961952983
  0
LINE
  5
530
100
AcDbEntity
  8
94625701000_BL11
100
AcDbLine
 62
9
  6
CONTINUOUS
 10
140.9104065009
 20
1027.8474673419
 11
140.9104065009
 21
1027.0961952983
  0
LINE
  5
531
100
AcDbEntity
  8
94625701000_BL11
100
AcDbLine
 62
9
  6
CONTINUOUS
 10
140.9104065009
 20
1032.0449232546
 11
140.9104065009
 21
1032.7961952983
  0
LINE
  5
532
100
AcDbEntity
  8
94625701000_BL11
100
AcDbLine
 62
9
  6
CONTINUOUS
 10
140.9104065009
 20
1063.0449232546
 11
140.9104065009
 21
1063.7961952983
  0
LINE
  5
533
100
AcDbEntity
  8
94625701000_BL11
100
AcDbLine
 62
7
  6
CONTINUOUS
 10
141.3104065009
 20
1045.0961952983
 11
141.3104065009
 21
1044.5961952983
  0
LINE
  5
534
100
AcDbEntity
  8
94625701000_BL11
100
AcDbLine
 62
7
  6
CONTINUOUS
 10
141.3104065009
 20
1047.0961952983
 11
141.3104065009
 21
1046.108808944
  0
LINE
  5
535
100
AcDbEntity
  8
94625701000_BL11
100
AcDbLine
 62
7
  6
CONTINUOUS
 10
141.9104065009
 20
1044.5961952983
 11
141.9104065009
 21
1045.0961952983
  0
LINE
  5
536
100
AcDbEntity
  8
94625701000_BL11
100
AcDbLine
 62
7
  6
CONTINUOUS
 10
141.9104065009
 20
1045.3265014526
 11
141.9104065009
 21
1047.0961952983
  0
LINE
  5
537
100
AcDbEntity
  8
94625701000_BL11
100
AcDbLine
 62
7
  6
CONTINUOUS
 10
143.0104065009
 20
1043.7961952983
 11
143.0104065009
 21
1044.5961952983
  0
LINE
  5
538
100
AcDbEntity
  8
94625701000_BL11
100
AcDbLine
 62
7
  6
CONTINUOUS
 10
143.0104065009
 20
1042.5961952983
 11
143.0104065009
 21
1043.3961952983
  0
LINE
  5
539
100
AcDbEntity
  8
94625701000_BL11
100
AcDbLine
 62
9
  6
CONTINUOUS
 10
143.9104065009
 20
1058.3442715096
 11
143.9104065009
 21
1058.0961952983
  0
LINE
  5
53A
100
AcDbEntity
  8
94625701000_BL11
100
AcDbLine
 62
9
  6
CONTINUOUS
 10
143.9104065009
 20
1027.3442715096
 11
143.9104065009
 21
1027.0961952983
  0
LINE
  5
53B
100
AcDbEntity
  8
94625701000_BL11
100
AcDbLine
 62
9
  6
CONTINUOUS
 10
143.9104065009
 20
1032.5481190869
 11
143.9104065009
 21
1032.7961952983
  0
LINE
  5
53C
100
AcDbEntity
  8
94625701000_BL11
100
AcDbLine
 62
9
  6
CONTINUOUS
 10
143.9104065009
 20
1063.5481190869
 11
143.9104065009
 21
1063.7961952983
  0
LINE
  5
53D
100
AcDbEntity
  8
94625701000_BL11
100
AcDbLine
 62
7
  6
CONTINUOUS
 10
146.6104065009
 20
1060.0337809187
 11
146.6104065009
 21
1030.8586096778
  0
LINE
  5
53E
100
AcDbEntity
  8
94625701000_BL11
100
AcDbLine
 62
7
  6
CONTINUOUS
 10
146.6104065009
 20
1024.3461952983
 11
146.6104065009
 21
1029.0337809187
  0
LINE
  5
53F
100
AcDbEntity
  8
94625701000_BL11
100
AcDbLine
 62
7
  6
CONTINUOUS
 10
146.6104065009
 20
1061.8586096778
 11
146.6104065009
 21
1066.5461952983
  0
LINE
  5
540
100
AcDbEntity
  8
94625701000_BL11
100
AcDbLine
 62
7
  6
CONTINUOUS
 10
150.6104065009
 20
1023.7461952983
 11
150.6104065009
 21
1067.1461952983
  0
LINE
  5
541
100
AcDbEntity
  8
94625701000_BL11
100
AcDbLine
 62
9
  6
CONTINUOUS
 10
151.3104065009
 20
1023.0461952983
 11
151.3104065009
 21
1067.8461952983
  0
LINE
  5
542
100
AcDbEntity
  8
94625701000_BL11
100
AcDbLine
 62
7
  6
CONTINUOUS
 10
152.3104065009
 20
1022.0461952983
 11
152.3104065009
 21
1068.8461952983
  0
LINE
  5
543
100
AcDbEntity
  8
94625701000_BL11
100
AcDbLine
 62
9
  6
CONTINUOUS
 10
152.8104065009
 20
1021.5885217455
 11
152.8104065009
 21
1069.3038688511
  0
LINE
  5
544
100
AcDbEntity
  8
94625701000_BL11
100
AcDbLine
 62
9
  6
CONTINUOUS
 10
153.3104065009
 20
1069.4460942805
 11
153.3104065009
 21
1021.4462963161
  0
LINE
  5
545
100
AcDbEntity
  8
94625701000_BL11
100
AcDbLine
 62
7
  6
CONTINUOUS
 10
155.8104065009
 20
1068.9461952983
 11
155.8104065009
 21
1021.9461952983
  0
LINE
  5
546
100
AcDbEntity
  8
94625701000_BL11
100
AcDbLine
 62
7
  6
CONTINUOUS
 10
152.3104065009
 20
1068.8461952983
 11
152.6175132821
 21
1069.1533020795
  0
LINE
  5
547
100
AcDbEntity
  8
94625701000_BL11
100
AcDbLine
 62
7
  6
CONTINUOUS
 10
150.0104065009
 20
1066.5461952983
 11
152.3104065009
 21
1068.8461952983
  0
LINE
  5
548
100
AcDbEntity
  8
94625701000_BL11
100
AcDbLine
 62
7
  6
CONTINUOUS
 10
29.9819710238
 20
1021.4461952983
 11
22.9819710238
 21
1021.4461952983
  0
LINE
  5
549
100
AcDbEntity
  8
94625701000_BL11
100
AcDbLine
 62
7
  6
CONTINUOUS
 10
29.9819710238
 20
1021.4461952983
 11
21.9820114292
 21
1021.4461952983
  0
LINE
  5
54A
100
AcDbEntity
  8
94625701000_BL11
100
AcDbLine
 62
9
  6
CONTINUOUS
 10
29.9819710238
 20
1021.9461952983
 11
24.4819710238
 21
1021.9461952983
  0
LINE
  5
54B
100
AcDbEntity
  8
94625701000_BL11
100
AcDbLine
 62
9
  6
CONTINUOUS
 10
24.4819710238
 20
1068.9461952983
 11
29.9819710238
 21
1068.9461952983
  0
LINE
  5
54C
100
AcDbEntity
  8
94625701000_BL11
100
AcDbLine
 62
7
  6
CONTINUOUS
 10
22.9819710238
 20
1069.4461952983
 11
29.9819710238
 21
1069.4461952983
  0
LINE
  5
54D
100
AcDbEntity
  8
94625701000_BL11
100
AcDbLine
 62
7
  6
CONTINUOUS
 10
21.9820114292
 20
1069.4461952983
 11
29.9819710238
 21
1069.4461952983
  0
LWPOLYLINE
  5
54E
100
AcDbEntity
  8
94625701000_BL11
100
AcDbPolyline
 62
7
  6
CONTINUOUS
 90
14
 70
0
 10
22.9819710238
 20
1069.4461952983
 10
23.0723265269
 20
1069.442050675
 10
23.1637793214
 20
1069.4305153176
 10
23.2564755494
 20
1069.4130265909
 10
23.3499767844
 20
1069.3906542837
 10
23.4439758739
 20
1069.3642047452
 10
23.5382251374
 20
1069.3344720653
 10
23.6323629635
 20
1069.3020678823
 10
23.7264239926
 20
1069.2675006219
 10
23.8202653318
 20
1069.2311605051
 10
23.9140579705
 20
1069.1933542844
 10
24.0078850326
 20
1069.1542882544
 10
24.1018672226
 20
1069.1141833129
 10
24.1960910014
 20
1069.0731977418
  0
LWPOLYLINE
  5
54F
100
AcDbEntity
  8
94625701000_BL11
100
AcDbPolyline
 62
7
  6
CONTINUOUS
 90
3
 70
0
 10
24.1960910014
 20
1069.0731977418
 10
24.3860623989
 20
1068.9889935166
 10
24.4819710238
 20
1068.9461952983
  0
LINE
  5
550
100
AcDbEntity
  8
94625701000_BL11
100
AcDbLine
 62
7
  6
CONTINUOUS
 10
21.9819710238
 20
1069.4460942805
 11
21.9819710238
 21
1021.4462963161
  0
LINE
  5
551
100
AcDbEntity
  8
94625701000_BL11
100
AcDbLine
 62
9
  6
CONTINUOUS
 10
24.4819710238
 20
1068.9461952983
 11
24.4819710238
 21
1021.9461952983
  0
LINE
  5
552
100
AcDbEntity
  8
94625701000_BL11
100
AcDbLine
 62
7
  6
CONTINUOUS
 10
29.9819710238
 20
1069.4461952983
 11
29.9819710238
 21
1021.4461952983
  0
LWPOLYLINE
  5
553
100
AcDbEntity
  8
94625701000_BL11
100
AcDbPolyline
 62
7
  6
CONTINUOUS
 90
16
 70
0
 10
24.4819710238
 20
1021.9461952983
 10
24.2898709396
 20
1021.8605402806
 10
24.1942580102
 20
1021.818389579
 10
24.0988844956
 20
1021.7769213846
 10
24.0036801861
 20
1021.7363278521
 10
23.9086997307
 20
1021.6968403444
 10
23.8139720881
 20
1021.6587410258
 10
23.7195041188
 20
1021.6222791305
 10
23.6252792613
 20
1021.58780103
 10
23.5313967408
 20
1021.5556670694
 10
23.4378835193
 20
1021.5263677278
 10
23.3449398249
 20
1021.5004238157
 10
23.2527242888
 20
1021.4785598063
 10
23.1613886624
 20
1021.4614966847
 10
23.0711631526
 20
1021.4502390993
 10
22.9819710238
 20
1021.4461952983
  0
LINE
  5
554
100
AcDbEntity
  8
94625701000_BL11
100
AcDbLine
 62
7
  6
CONTINUOUS
 10
21.9819710238
 20
82.8852671697
 11
21.9819710238
 21
83.3852671697
  0
LINE
  5
555
100
AcDbEntity
  8
94625701000_BL11
100
AcDbLine
 62
7
  6
CONTINUOUS
 10
24.4819710238
 20
80.3852671697
 11
24.9819710238
 21
80.3852671697
  0
LINE
  5
556
100
AcDbEntity
  8
94625701000_BL11
100
AcDbLine
 62
9
  6
CONTINUOUS
 10
22.9819710238
 20
80.8852671697
 11
23.3247610869
 21
80.8852671697
  0
LINE
  5
557
100
AcDbEntity
  8
94625701000_BL11
100
AcDbLine
 62
9
  6
CONTINUOUS
 10
29.9819710238
 20
82.8710536073
 11
29.8819710238
 21
82.8710536073
  0
LINE
  5
558
100
AcDbEntity
  8
94625701000_BL11
100
AcDbLine
 62
9
  6
CONTINUOUS
 10
22.0272346895
 20
82.8710536073
 11
21.9820114292
 21
82.8710536073
  0
LINE
  5
559
100
AcDbEntity
  8
94625701000_BL11
100
AcDbLine
 62
7
  6
CONTINUOUS
 10
29.9819710238
 20
83.1852671697
 11
29.9819710238
 21
82.3852671697
  0
ARC
  5
55A
100
AcDbEntity
  8
94625701000_BL11
100
AcDbCircle
 62
7
  6
CONTINUOUS
 10
140.9104065009
 20
1060.9461952983
 40
2.85
100
AcDbArc
 50
90.0
 51
270.0
  0
ARC
  5
55B
100
AcDbEntity
  8
94625701000_BL11
100
AcDbCircle
 62
7
  6
CONTINUOUS
 10
140.9104065009
 20
1029.9461952983
 40
2.85
100
AcDbArc
 50
90.0
 51
270.0
  0
ARC
  5
55C
100
AcDbEntity
  8
94625701000_BL11
100
AcDbCircle
 62
7
  6
CONTINUOUS
 10
140.9104065009
 20
1060.9461952983
 40
1.85
100
AcDbArc
 50
97.8711078436
 51
262.1288930586
  0
ARC
  5
55D
100
AcDbEntity
  8
94625701000_BL11
100
AcDbCircle
 62
7
  6
CONTINUOUS
 10
140.9104065009
 20
1029.9461952983
 40
1.85
100
AcDbArc
 50
97.8711069414
 51
262.1288921564
  0
ARC
  5
55E
100
AcDbEntity
  8
94625701000_BL11
100
AcDbCircle
 62
7
  6
CONTINUOUS
 10
141.6104065009
 20
1046.7961952983
 40
1.5
100
AcDbArc
 50
315.0
 51
281.5369590328
  0
ARC
  5
55F
100
AcDbEntity
  8
94625701000_BL11
100
AcDbCircle
 62
7
  6
CONTINUOUS
 10
141.1104065009
 20
1043.5961952983
 40
1.0
100
AcDbArc
 50
90.0
 51
270.0
  0
ARC
  5
560
100
AcDbEntity
  8
94625701000_BL11
100
AcDbCircle
 62
7
  6
CONTINUOUS
 10
141.6104065009
 20
1046.7961952983
 40
0.75
100
AcDbArc
 50
315.0
 51
246.4218215218
  0
ARC
  5
561
100
AcDbEntity
  8
94625701000_BL11
100
AcDbCircle
 62
7
  6
CONTINUOUS
 10
138.3104065009
 20
1024.8461952983
 40
0.5
100
AcDbArc
 50
180.0
 51
270.0
  0
ARC
  5
562
100
AcDbEntity
  8
94625701000_BL11
100
AcDbCircle
 62
7
  6
CONTINUOUS
 10
138.3104065009
 20
1066.0461952983
 40
0.5
100
AcDbArc
 50
90.0
 51
180.0
  0
ARC
  5
563
100
AcDbEntity
  8
94625701000_BL11
100
AcDbCircle
 62
7
  6
CONTINUOUS
 10
141.1104065009
 20
1043.5961952983
 40
0.2
100
AcDbArc
 50
90.0
 51
270.0
  0
ARC
  5
564
100
AcDbEntity
  8
94625701000_BL11
100
AcDbCircle
 62
7
  6
CONTINUOUS
 10
143.9104065009
 20
1029.9461952983
 40
2.85
100
AcDbArc
 50
270.0
 51
90.0
  0
ARC
  5
565
100
AcDbEntity
  8
94625701000_BL11
100
AcDbCircle
 62
7
  6
CONTINUOUS
 10
143.9104065009
 20
1029.9461952983
 40
1.85
100
AcDbArc
 50
325.5437398243
 51
34.456259786
  0
ARC
  5
566
100
AcDbEntity
  8
94625701000_BL11
100
AcDbCircle
 62
7
  6
CONTINUOUS
 10
143.9104065009
 20
1060.9461952983
 40
2.85
100
AcDbArc
 50
270.0
 51
90.0
  0
ARC
  5
567
100
AcDbEntity
  8
94625701000_BL11
100
AcDbCircle
 62
7
  6
CONTINUOUS
 10
143.9104065009
 20
1060.9461952983
 40
1.85
100
AcDbArc
 50
325.543740214
 51
34.4562601757
  0
ARC
  5
568
100
AcDbEntity
  8
94625701000_BL11
100
AcDbCircle
 62
7
  6
CONTINUOUS
 10
153.3246200633
 20
1068.4461952983
 40
1.0
100
AcDbArc
 50
90.0
 51
135.0
  0
ARC
  5
569
100
AcDbEntity
  8
94625701000_BL11
100
AcDbCircle
 62
7
  6
CONTINUOUS
 10
153.3246200633
 20
1022.4461952983
 40
1.0
100
AcDbArc
 50
225.0
 51
270.0
  0
ARC
  5
56A
100
AcDbEntity
  8
94625701000_BL11
100
AcDbCircle
 62
7
  6
CONTINUOUS
 10
155.3104065009
 20
1021.9461952983
 40
0.5
100
AcDbArc
 50
270.0
 51
360.0
  0
ARC
  5
56B
100
AcDbEntity
  8
94625701000_BL11
100
AcDbCircle
 62
7
  6
CONTINUOUS
 10
155.3104065009
 20
1068.9461952983
 40
0.5
100
AcDbArc
 50
0.0
 51
90.0
  0
ARC
  5
56C
100
AcDbEntity
  8
94625701000_BL11
100
AcDbCircle
 62
7
  6
CONTINUOUS
 10
24.4819710238
 20
82.8852671697
 40
2.5
100
AcDbArc
 50
180.0
 51
233.1301023542
  0
ARC
  5
56D
100
AcDbEntity
  8
94625701000_BL11
100
AcDbCircle
 62
7
  6
CONTINUOUS
 10
24.4819710238
 20
82.8852671697
 40
2.5
100
AcDbArc
 50
233.1301023542
 51
270.0
  0
ENDBLK
  5
56E
100
AcDbEntity
  8
0
  6
BYBLOCK
 62
0
100
AcDbBlockEnd
  0
BLOCK
  5
56F
100
AcDbEntity
  8
93894201000_BL12
100
AcDbBlockBegin
  2
93894201000_BL12
 70
64
 10
87.8961887624
 20
575.990731234
  3
93894201000_BL12
  1

  0
LINE
  5
570
100
AcDbEntity
  8
93894201000_BL12
100
AcDbLine
 62
7
  6
CONTINUOUS
 10
149.1604065009
 20
1023.9461952983
 11
137.8104065009
 21
1023.9461952983
  0
LINE
  5
571
100
AcDbEntity
  8
93894201000_BL12
100
AcDbLine
 62
7
  6
CONTINUOUS
 10
137.8104065009
 20
1066.9461952983
 11
149.1604065009
 21
1066.9461952983
  0
LWPOLYLINE
  5
572
100
AcDbEntity
  8
93894201000_BL12
100
AcDbPolyline
 62
7
  6
CONTINUOUS
 90
8
 70
0
 10
145.9139598915
 20
1023.9461952983
 10
145.8437360793
 20
1023.9564408156
 10
145.7786718373
 20
1023.9842491058
 10
145.7176924077
 20
1024.0306121692
 10
145.6640220634
 20
1024.0925540052
 10
145.6201237783
 20
1024.1687302242
 10
145.5872066912
 20
1024.2552379938
 10
145.5677656965
 20
1024.3461952983
  0
LINE
  5
573
100
AcDbEntity
  8
93894201000_BL12
100
AcDbLine
 62
7
  6
CONTINUOUS
 10
138.4104065009
 20
1024.3461952983
 11
138.8104065009
 21
1023.9461952983
  0
LINE
  5
574
100
AcDbEntity
  8
93894201000_BL12
100
AcDbLine
 62
7
  6
CONTINUOUS
 10
139.4104065009
 20
1024.3461952983
 11
139.8104065009
 21
1023.9461952983
  0
LINE
  5
575
100
AcDbEntity
  8
93894201000_BL12
100
AcDbLine
 62
7
  6
CONTINUOUS
 10
140.4104065009
 20
1024.3461952983
 11
140.8104065009
 21
1023.9461952983
  0
LINE
  5
576
100
AcDbEntity
  8
93894201000_BL12
100
AcDbLine
 62
7
  6
CONTINUOUS
 10
141.4104065009
 20
1024.3461952983
 11
141.8104065009
 21
1023.9461952983
  0
LINE
  5
577
100
AcDbEntity
  8
93894201000_BL12
100
AcDbLine
 62
7
  6
CONTINUOUS
 10
142.4104065009
 20
1024.3461952983
 11
142.8104065009
 21
1023.9461952983
  0
LINE
  5
578
100
AcDbEntity
  8
93894201000_BL12
100
AcDbLine
 62
7
  6
CONTINUOUS
 10
143.4104065009
 20
1024.3461952983
 11
143.8104065009
 21
1023.9461952983
  0
LINE
  5
579
100
AcDbEntity
  8
93894201000_BL12
100
AcDbLine
 62
7
  6
CONTINUOUS
 10
144.4104065009
 20
1024.3461952983
 11
144.8104065009
 21
1023.9461952983
  0
LINE
  5
57A
100
AcDbEntity
  8
93894201000_BL12
100
AcDbLine
 62
7
  6
CONTINUOUS
 10
149.1604065009
 20
1023.9461952983
 11
151.8104065009
 21
1021.2961952983
  0
LINE
  5
57B
100
AcDbEntity
  8
93894201000_BL12
100
AcDbLine
 62
7
  6
CONTINUOUS
 10
137.8104065009
 20
1067.4461952983
 11
137.8104065009
 21
1066.0461952983
  0
LINE
  5
57C
100
AcDbEntity
  8
93894201000_BL12
100
AcDbLine
 62
7
  6
CONTINUOUS
 10
137.8104065009
 20
1024.8461952983
 11
137.8104065009
 21
1023.4461952983
  0
LINE
  5
57D
100
AcDbEntity
  8
93894201000_BL12
100
AcDbLine
 62
7
  6
CONTINUOUS
 10
138.8104065009
 20
1066.9461952983
 11
138.8104065009
 21
1066.5461952983
  0
LINE
  5
57E
100
AcDbEntity
  8
93894201000_BL12
100
AcDbLine
 62
7
  6
CONTINUOUS
 10
138.8104065009
 20
1024.3461952983
 11
138.8104065009
 21
1023.9461952983
  0
LINE
  5
57F
100
AcDbEntity
  8
93894201000_BL12
100
AcDbLine
 62
7
  6
CONTINUOUS
 10
139.3104065009
 20
1029.0273874937
 11
139.3104065009
 21
1030.8650030581
  0
LINE
  5
580
100
AcDbEntity
  8
93894201000_BL12
100
AcDbLine
 62
7
  6
CONTINUOUS
 10
139.3104065009
 20
1060.0273875384
 11
139.3104065009
 21
1061.8650031029
  0
LINE
  5
581
100
AcDbEntity
  8
93894201000_BL12
100
AcDbLine
 62
7
  6
CONTINUOUS
 10
139.8104065009
 20
1066.9461952983
 11
139.8104065009
 21
1066.5461952983
  0
LINE
  5
582
100
AcDbEntity
  8
93894201000_BL12
100
AcDbLine
 62
7
  6
CONTINUOUS
 10
139.8104065009
 20
1062.4320998722
 11
139.8104065009
 21
1059.4602907795
  0
LINE
  5
583
100
AcDbEntity
  8
93894201000_BL12
100
AcDbLine
 62
7
  6
CONTINUOUS
 10
139.8104065009
 20
1031.432099817
 11
139.8104065009
 21
1028.4602907243
  0
LINE
  5
584
100
AcDbEntity
  8
93894201000_BL12
100
AcDbLine
 62
7
  6
CONTINUOUS
 10
139.8104065009
 20
1024.3461952983
 11
139.8104065009
 21
1023.9461952983
  0
LINE
  5
585
100
AcDbEntity
  8
93894201000_BL12
100
AcDbLine
 62
7
  6
CONTINUOUS
 10
140.3104065009
 20
1028.198480513
 11
140.3104065009
 21
1028.5994791512
  0
LINE
  5
586
100
AcDbEntity
  8
93894201000_BL12
100
AcDbLine
 62
7
  6
CONTINUOUS
 10
140.3104065009
 20
1031.2929114454
 11
140.3104065009
 21
1031.6939100475
  0
LINE
  5
587
100
AcDbEntity
  8
93894201000_BL12
100
AcDbLine
 62
7
  6
CONTINUOUS
 10
140.3104065009
 20
1059.1984805491
 11
140.3104065009
 21
1059.5994791512
  0
LINE
  5
588
100
AcDbEntity
  8
93894201000_BL12
100
AcDbLine
 62
7
  6
CONTINUOUS
 10
140.3104065009
 20
1062.2929114454
 11
140.3104065009
 21
1062.6939100836
  0
LINE
  5
589
100
AcDbEntity
  8
93894201000_BL12
100
AcDbLine
 62
7
  6
CONTINUOUS
 10
140.8104065009
 20
1066.9461952983
 11
140.8104065009
 21
1066.5461952983
  0
LINE
  5
58A
100
AcDbEntity
  8
93894201000_BL12
100
AcDbLine
 62
7
  6
CONTINUOUS
 10
140.8104065009
 20
1024.3461952983
 11
140.8104065009
 21
1023.9461952983
  0
LINE
  5
58B
100
AcDbEntity
  8
93894201000_BL12
100
AcDbLine
 62
7
  6
CONTINUOUS
 10
141.8104065009
 20
1066.9461952983
 11
141.8104065009
 21
1066.5461952983
  0
LINE
  5
58C
100
AcDbEntity
  8
93894201000_BL12
100
AcDbLine
 62
7
  6
CONTINUOUS
 10
141.8104065009
 20
1024.3461952983
 11
141.8104065009
 21
1023.9461952983
  0
LINE
  5
58D
100
AcDbEntity
  8
93894201000_BL12
100
AcDbLine
 62
7
  6
CONTINUOUS
 10
142.8104065009
 20
1066.9461952983
 11
142.8104065009
 21
1066.5461952983
  0
LINE
  5
58E
100
AcDbEntity
  8
93894201000_BL12
100
AcDbLine
 62
7
  6
CONTINUOUS
 10
142.8104065009
 20
1024.3461952983
 11
142.8104065009
 21
1023.9461952983
  0
LINE
  5
58F
100
AcDbEntity
  8
93894201000_BL12
100
AcDbLine
 62
7
  6
CONTINUOUS
 10
143.8104065009
 20
1066.9461952983
 11
143.8104065009
 21
1066.5461952983
  0
LINE
  5
590
100
AcDbEntity
  8
93894201000_BL12
100
AcDbLine
 62
7
  6
CONTINUOUS
 10
143.8104065009
 20
1024.3461952983
 11
143.8104065009
 21
1023.9461952983
  0
LINE
  5
591
100
AcDbEntity
  8
93894201000_BL12
100
AcDbLine
 62
7
  6
CONTINUOUS
 10
144.8104065009
 20
1066.9461952983
 11
144.8104065009
 21
1066.5461952983
  0
LINE
  5
592
100
AcDbEntity
  8
93894201000_BL12
100
AcDbLine
 62
7
  6
CONTINUOUS
 10
144.8104065009
 20
1024.3461952983
 11
144.8104065009
 21
1023.9461952983
  0
LINE
  5
593
100
AcDbEntity
  8
93894201000_BL12
100
AcDbLine
 62
7
  6
CONTINUOUS
 10
145.3104065009
 20
1023.9461952983
 11
145.3104065009
 21
1024.3461952983
  0
LINE
  5
594
100
AcDbEntity
  8
93894201000_BL12
100
AcDbLine
 62
7
  6
CONTINUOUS
 10
145.3104065009
 20
1066.5461952983
 11
145.3104065009
 21
1066.9461952983
  0
LINE
  5
595
100
AcDbEntity
  8
93894201000_BL12
100
AcDbLine
 62
7
  6
CONTINUOUS
 10
145.5604065009
 20
1061.7820971989
 11
145.5604065009
 21
1061.6691750028
  0
LINE
  5
596
100
AcDbEntity
  8
93894201000_BL12
100
AcDbLine
 62
7
  6
CONTINUOUS
 10
145.5604065009
 20
1060.2232155938
 11
145.5604065009
 21
1060.1102934959
  0
LINE
  5
597
100
AcDbEntity
  8
93894201000_BL12
100
AcDbLine
 62
7
  6
CONTINUOUS
 10
145.5604065009
 20
1030.7820971007
 11
145.5604065009
 21
1030.6691750028
  0
LINE
  5
598
100
AcDbEntity
  8
93894201000_BL12
100
AcDbLine
 62
7
  6
CONTINUOUS
 10
145.5604065009
 20
1029.2232155938
 11
145.5604065009
 21
1029.1102933977
  0
LINE
  5
599
100
AcDbEntity
  8
93894201000_BL12
100
AcDbLine
 62
7
  6
CONTINUOUS
 10
137.8104065009
 20
1066.9461952983
 11
138.219753112
 21
1066.5368486872
  0
LINE
  5
59A
100
AcDbEntity
  8
93894201000_BL12
100
AcDbLine
 62
7
  6
CONTINUOUS
 10
138.8104065009
 20
1066.9461952983
 11
139.2104065009
 21
1066.5461952983
  0
LINE
  5
59B
100
AcDbEntity
  8
93894201000_BL12
100
AcDbLine
 62
7
  6
CONTINUOUS
 10
139.8104065009
 20
1066.9461952983
 11
140.2104065009
 21
1066.5461952983
  0
LINE
  5
59C
100
AcDbEntity
  8
93894201000_BL12
100
AcDbLine
 62
7
  6
CONTINUOUS
 10
140.8104065009
 20
1066.9461952983
 11
141.2104065009
 21
1066.5461952983
  0
LINE
  5
59D
100
AcDbEntity
  8
93894201000_BL12
100
AcDbLine
 62
7
  6
CONTINUOUS
 10
141.8104065009
 20
1066.9461952983
 11
142.2104065009
 21
1066.5461952983
  0
LINE
  5
59E
100
AcDbEntity
  8
93894201000_BL12
100
AcDbLine
 62
7
  6
CONTINUOUS
 10
142.8104065009
 20
1066.9461952983
 11
143.2104065009
 21
1066.5461952983
  0
LINE
  5
59F
100
AcDbEntity
  8
93894201000_BL12
100
AcDbLine
 62
7
  6
CONTINUOUS
 10
143.8104065009
 20
1066.9461952983
 11
144.2104065009
 21
1066.5461952983
  0
LWPOLYLINE
  5
5A0
100
AcDbEntity
  8
93894201000_BL12
100
AcDbPolyline
 62
7
  6
CONTINUOUS
 90
8
 70
0
 10
145.5677656965
 20
1066.5461952983
 10
145.5872066912
 20
1066.6371526028
 10
145.6201237783
 20
1066.7236603724
 10
145.6640220634
 20
1066.7998365914
 10
145.7176924077
 20
1066.8617784274
 10
145.7786718373
 20
1066.9081414908
 10
145.8437360793
 20
1066.935949781
 10
145.9139598915
 20
1066.9461952983
  0
LINE
  5
5A1
100
AcDbEntity
  8
93894201000_BL12
100
AcDbLine
 62
7
  6
CONTINUOUS
 10
138.4104065009
 20
1066.5461952983
 11
138.8104065009
 21
1066.9461952983
  0
LINE
  5
5A2
100
AcDbEntity
  8
93894201000_BL12
100
AcDbLine
 62
7
  6
CONTINUOUS
 10
139.4104065009
 20
1066.5461952983
 11
139.8104065009
 21
1066.9461952983
  0
LINE
  5
5A3
100
AcDbEntity
  8
93894201000_BL12
100
AcDbLine
 62
7
  6
CONTINUOUS
 10
140.4104065009
 20
1066.5461952983
 11
140.8104065009
 21
1066.9461952983
  0
LINE
  5
5A4
100
AcDbEntity
  8
93894201000_BL12
100
AcDbLine
 62
7
  6
CONTINUOUS
 10
141.4104065009
 20
1066.5461952983
 11
141.8104065009
 21
1066.9461952983
  0
LINE
  5
5A5
100
AcDbEntity
  8
93894201000_BL12
100
AcDbLine
 62
7
  6
CONTINUOUS
 10
142.4104065009
 20
1066.5461952983
 11
142.8104065009
 21
1066.9461952983
  0
LINE
  5
5A6
100
AcDbEntity
  8
93894201000_BL12
100
AcDbLine
 62
7
  6
CONTINUOUS
 10
143.4104065009
 20
1066.5461952983
 11
143.8104065009
 21
1066.9461952983
  0
LINE
  5
5A7
100
AcDbEntity
  8
93894201000_BL12
100
AcDbLine
 62
7
  6
CONTINUOUS
 10
144.4104065009
 20
1066.5461952983
 11
144.8104065009
 21
1066.9461952983
  0
LINE
  5
5A8
100
AcDbEntity
  8
93894201000_BL12
100
AcDbLine
 62
7
  6
CONTINUOUS
 10
151.8104065009
 20
1069.5961952983
 11
149.1604065009
 21
1066.9461952983
  0
LINE
  5
5A9
100
AcDbEntity
  8
93894201000_BL12
100
AcDbLine
 62
7
  6
CONTINUOUS
 10
137.8104065009
 20
1023.9461952983
 11
138.219753112
 21
1024.3555419094
  0
LINE
  5
5AA
100
AcDbEntity
  8
93894201000_BL12
100
AcDbLine
 62
7
  6
CONTINUOUS
 10
138.8104065009
 20
1023.9461952983
 11
139.2104065009
 21
1024.3461952983
  0
LINE
  5
5AB
100
AcDbEntity
  8
93894201000_BL12
100
AcDbLine
 62
7
  6
CONTINUOUS
 10
139.8104065009
 20
1023.9461952983
 11
140.2104065009
 21
1024.3461952983
  0
LINE
  5
5AC
100
AcDbEntity
  8
93894201000_BL12
100
AcDbLine
 62
7
  6
CONTINUOUS
 10
140.8104065009
 20
1023.9461952983
 11
141.2104065009
 21
1024.3461952983
  0
LINE
  5
5AD
100
AcDbEntity
  8
93894201000_BL12
100
AcDbLine
 62
7
  6
CONTINUOUS
 10
141.8104065009
 20
1023.9461952983
 11
142.2104065009
 21
1024.3461952983
  0
LINE
  5
5AE
100
AcDbEntity
  8
93894201000_BL12
100
AcDbLine
 62
7
  6
CONTINUOUS
 10
142.8104065009
 20
1023.9461952983
 11
143.2104065009
 21
1024.3461952983
  0
LINE
  5
5AF
100
AcDbEntity
  8
93894201000_BL12
100
AcDbLine
 62
7
  6
CONTINUOUS
 10
143.8104065009
 20
1023.9461952983
 11
144.2104065009
 21
1024.3461952983
  0
LINE
  5
5B0
100
AcDbEntity
  8
93894201000_BL12
100
AcDbLine
 62
7
  6
CONTINUOUS
 10
23.9819710238
 20
1069.5961952983
 11
23.9819710238
 21
1069.4461952983
  0
LINE
  5
5B1
100
AcDbEntity
  8
93894201000_BL12
100
AcDbLine
 62
7
  6
CONTINUOUS
 10
23.9819710238
 20
1021.4461952983
 11
23.9819710238
 21
1021.2961952983
  0
LINE
  5
5B2
100
AcDbEntity
  8
93894201000_BL12
100
AcDbLine
 62
7
  6
CONTINUOUS
 10
27.9819710238
 20
1069.5961952983
 11
27.9819710238
 21
1069.4461952983
  0
LINE
  5
5B3
100
AcDbEntity
  8
93894201000_BL12
100
AcDbLine
 62
7
  6
CONTINUOUS
 10
27.9819710238
 20
1021.4461952983
 11
27.9819710238
 21
1021.2961952983
  0
LINE
  5
5B4
100
AcDbEntity
  8
93894201000_BL12
100
AcDbLine
 62
7
  6
CONTINUOUS
 10
27.9819710238
 20
82.5352671697
 11
27.9819710238
 21
82.3852671697
  0
ARC
  5
5B5
100
AcDbEntity
  8
93894201000_BL12
100
AcDbCircle
 62
7
  6
CONTINUOUS
 10
147.8104065009
 20
1024.4461952983
 40
0.5
100
AcDbArc
 50
191.5504554011
 51
270.0
  0
ARC
  5
5B6
100
AcDbEntity
  8
93894201000_BL12
100
AcDbCircle
 62
7
  6
CONTINUOUS
 10
147.8104065009
 20
1066.4461952983
 40
0.5
100
AcDbArc
 50
90.0
 51
168.4495445989
  0
ARC
  5
5B7
100
AcDbEntity
  8
93894201000_BL12
100
AcDbCircle
 62
7
  6
CONTINUOUS
 10
27.9819710238
 20
87.3852671697
 40
5.0
100
AcDbArc
 50
256.071872371
 51
270.0
  0
ENDBLK
  5
5B8
100
AcDbEntity
  8
0
  6
BYBLOCK
 62
0
100
AcDbBlockEnd
  0
BLOCK
  5
5B9
100
AcDbEntity
  8
93780800R00_BL13
100
AcDbBlockBegin
  2
93780800R00_BL13
 70
64
 10
142.8104065009
 20
1029.9461952983
  3
93780800R00_BL13
  1

  0
LINE
  5
5BA
100
AcDbEntity
  8
93780800R00_BL13
100
AcDbLine
 62
7
  6
CONTINUOUS
 10
143.566648821
 20
1029.9461952983
 11
143.2841282377
 21
1029.9461952983
  0
LINE
  5
5BB
100
AcDbEntity
  8
93780800R00_BL13
100
AcDbLine
 62
7
  6
CONTINUOUS
 10
142.0541641808
 20
1029.9461952983
 11
142.3366847641
 21
1029.9461952983
  0
LINE
  5
5BC
100
AcDbEntity
  8
93780800R00_BL13
100
AcDbLine
 62
7
  6
CONTINUOUS
 10
142.9015606183
 20
1029.1549621909
 11
142.8104065009
 21
1029.1899529782
  0
LINE
  5
5BD
100
AcDbEntity
  8
93780800R00_BL13
100
AcDbLine
 62
7
  6
CONTINUOUS
 10
142.7192523835
 20
1030.7374284057
 11
142.8104065009
 21
1030.7024376184
  0
LINE
  5
5BE
100
AcDbEntity
  8
93780800R00_BL13
100
AcDbLine
 62
7
  6
CONTINUOUS
 10
142.8859210615
 20
1029.4408848169
 11
142.8104065009
 21
1029.4724735615
  0
LINE
  5
5BF
100
AcDbEntity
  8
93780800R00_BL13
100
AcDbLine
 62
7
  6
CONTINUOUS
 10
142.7348919403
 20
1030.4515057797
 11
142.8104065009
 21
1030.4199170351
  0
LINE
  5
5C0
100
AcDbEntity
  8
93780800R00_BL13
100
AcDbLine
 62
7
  6
CONTINUOUS
 10
142.9627799208
 20
1029.4079945303
 11
142.8859210615
 21
1029.4408848169
  0
LINE
  5
5C1
100
AcDbEntity
  8
93780800R00_BL13
100
AcDbLine
 62
7
  6
CONTINUOUS
 10
142.6580330811
 20
1030.4843960662
 11
142.7348919403
 21
1030.4515057797
  0
LINE
  5
5C2
100
AcDbEntity
  8
93780800R00_BL13
100
AcDbLine
 62
7
  6
CONTINUOUS
 10
143.0410505641
 20
1029.373917547
 11
142.9627799208
 21
1029.4079945303
  0
LINE
  5
5C3
100
AcDbEntity
  8
93780800R00_BL13
100
AcDbLine
 62
7
  6
CONTINUOUS
 10
142.5797624377
 20
1030.5184730496
 11
142.6580330811
 21
1030.4843960662
  0
LINE
  5
5C4
100
AcDbEntity
  8
93780800R00_BL13
100
AcDbLine
 62
7
  6
CONTINUOUS
 10
142.2239884798
 20
1030.1897910792
 11
141.4634725697
 21
1030.6617382048
  0
LINE
  5
5C5
100
AcDbEntity
  8
93780800R00_BL13
100
AcDbLine
 62
7
  6
CONTINUOUS
 10
143.3968245221
 20
1029.7025995173
 11
144.1573404321
 21
1029.2306523917
  0
LINE
  5
5C6
100
AcDbEntity
  8
93780800R00_BL13
100
AcDbLine
 62
7
  6
CONTINUOUS
 10
142.0191733935
 20
1029.8550411809
 11
142.2381287496
 21
1029.7155512351
  0
LINE
  5
5C7
100
AcDbEntity
  8
93780800R00_BL13
100
AcDbLine
 62
7
  6
CONTINUOUS
 10
143.6016396084
 20
1030.0373494157
 11
143.3826842523
 21
1030.1768393615
  0
LWPOLYLINE
  5
5C8
100
AcDbEntity
  8
93780800R00_BL13
100
AcDbPolyline
 62
7
  6
CONTINUOUS
 90
5
 70
0
 10
141.4634725697
 20
1030.6617382048
 10
141.3972347265
 20
1030.7098146442
 10
141.3182470156
 20
1030.7766132382
 10
141.2265094368
 20
1030.8621339867
 10
141.1220219902
 20
1030.9663768899
  0
LWPOLYLINE
  5
5C9
100
AcDbEntity
  8
93780800R00_BL13
100
AcDbPolyline
 62
7
  6
CONTINUOUS
 90
5
 70
0
 10
144.1573404321
 20
1029.2306523917
 10
144.2235782753
 20
1029.1825759524
 10
144.3025659863
 20
1029.1157773584
 10
144.3943035651
 20
1029.0302566098
 10
144.4987910117
 20
1028.9260137067
  0
LINE
  5
5CA
100
AcDbEntity
  8
93780800R00_BL13
100
AcDbLine
 62
7
  6
CONTINUOUS
 10
142.2381287496
 20
1030.1768393615
 11
142.2239884798
 21
1030.1897910792
  0
LINE
  5
5CB
100
AcDbEntity
  8
93780800R00_BL13
100
AcDbLine
 62
7
  6
CONTINUOUS
 10
143.3826842523
 20
1029.7155512351
 11
143.3968245221
 21
1029.7025995173
  0
LINE
  5
5CC
100
AcDbEntity
  8
93780800R00_BL13
100
AcDbLine
 62
7
  6
CONTINUOUS
 10
143.8305880925
 20
1028.2578107875
 11
142.9015606183
 21
1029.1549621909
  0
LINE
  5
5CD
100
AcDbEntity
  8
93780800R00_BL13
100
AcDbLine
 62
7
  6
CONTINUOUS
 10
141.7902249093
 20
1031.634579809
 11
142.7192523835
 21
1030.7374284057
  0
LWPOLYLINE
  5
5CE
100
AcDbEntity
  8
93780800R00_BL13
100
AcDbPolyline
 62
7
  6
CONTINUOUS
 90
5
 70
0
 10
143.8305880925
 20
1028.2578107875
 10
143.7262965368
 20
1028.3623528327
 10
143.6407595708
 20
1028.454108611
 10
143.5739771943
 20
1028.5330781225
 10
143.5259494075
 20
1028.5992613671
  0
LWPOLYLINE
  5
5CF
100
AcDbEntity
  8
93780800R00_BL13
100
AcDbPolyline
 62
7
  6
CONTINUOUS
 90
5
 70
0
 10
141.7902249093
 20
1031.634579809
 10
141.894516465
 20
1031.5300377639
 10
141.9800534311
 20
1031.4382819855
 10
142.0468358075
 20
1031.3593124741
 10
142.0948635944
 20
1031.2931292295
  0
LINE
  5
5D0
100
AcDbEntity
  8
93780800R00_BL13
100
AcDbLine
 62
7
  6
CONTINUOUS
 10
142.0191733935
 20
1030.0373494157
 11
141.1220219902
 21
1030.9663768899
  0
LINE
  5
5D1
100
AcDbEntity
  8
93780800R00_BL13
100
AcDbLine
 62
7
  6
CONTINUOUS
 10
143.6016396084
 20
1029.8550411809
 11
144.4987910117
 21
1028.9260137067
  0
LINE
  5
5D2
100
AcDbEntity
  8
93780800R00_BL13
100
AcDbLine
 62
7
  6
CONTINUOUS
 10
143.0540022819
 20
1029.3597772772
 11
143.0410505641
 21
1029.373917547
  0
LINE
  5
5D3
100
AcDbEntity
  8
93780800R00_BL13
100
AcDbLine
 62
7
  6
CONTINUOUS
 10
142.56681072
 20
1030.5326133194
 11
142.5797624377
 21
1030.5184730496
  0
LINE
  5
5D4
100
AcDbEntity
  8
93780800R00_BL13
100
AcDbLine
 62
7
  6
CONTINUOUS
 10
142.7192523835
 20
1029.1549621909
 11
142.5797624377
 21
1029.373917547
  0
LINE
  5
5D5
100
AcDbEntity
  8
93780800R00_BL13
100
AcDbLine
 62
7
  6
CONTINUOUS
 10
142.8104065009
 20
1030.7024376184
 11
142.8104065009
 21
1030.4199170351
  0
LINE
  5
5D6
100
AcDbEntity
  8
93780800R00_BL13
100
AcDbLine
 62
7
  6
CONTINUOUS
 10
142.8104065009
 20
1029.1899529782
 11
142.8104065009
 21
1029.4724735615
  0
LINE
  5
5D7
100
AcDbEntity
  8
93780800R00_BL13
100
AcDbLine
 62
7
  6
CONTINUOUS
 10
142.9015606183
 20
1030.7374284057
 11
143.0410505641
 21
1030.5184730496
  0
LINE
  5
5D8
100
AcDbEntity
  8
93780800R00_BL13
100
AcDbLine
 62
7
  6
CONTINUOUS
 10
143.5259494075
 20
1028.5992613671
 11
143.0540022819
 21
1029.3597772772
  0
LINE
  5
5D9
100
AcDbEntity
  8
93780800R00_BL13
100
AcDbLine
 62
7
  6
CONTINUOUS
 10
142.0948635944
 20
1031.2931292295
 11
142.56681072
 21
1030.5326133194
  0
LINE
  5
5DA
100
AcDbEntity
  8
93780800R00_BL13
100
AcDbLine
 62
7
  6
CONTINUOUS
 10
142.2721931004
 20
1030.0985979614
 11
142.2381287496
 21
1030.1768393615
  0
LINE
  5
5DB
100
AcDbEntity
  8
93780800R00_BL13
100
AcDbLine
 62
7
  6
CONTINUOUS
 10
143.3486199014
 20
1029.7937926352
 11
143.3826842523
 21
1029.7155512351
  0
LINE
  5
5DC
100
AcDbEntity
  8
93780800R00_BL13
100
AcDbLine
 62
7
  6
CONTINUOUS
 10
142.3050815791
 20
1030.0217439574
 11
142.2721931004
 21
1030.0985979614
  0
LINE
  5
5DD
100
AcDbEntity
  8
93780800R00_BL13
100
AcDbLine
 62
7
  6
CONTINUOUS
 10
143.3157314228
 20
1029.8706466392
 11
143.3486199014
 21
1029.7937926352
  0
LINE
  5
5DE
100
AcDbEntity
  8
93780800R00_BL13
100
AcDbLine
 62
7
  6
CONTINUOUS
 10
142.3366847641
 20
1029.9461952983
 11
142.3050815791
 21
1030.0217439574
  0
LINE
  5
5DF
100
AcDbEntity
  8
93780800R00_BL13
100
AcDbLine
 62
7
  6
CONTINUOUS
 10
143.2841282377
 20
1029.9461952983
 11
143.3157314228
 21
1029.8706466392
  0
LINE
  5
5E0
100
AcDbEntity
  8
93780800R00_BL13
100
AcDbLine
 62
7
  6
CONTINUOUS
 10
142.0541641808
 20
1029.9461952983
 11
142.0191733935
 21
1030.0373494157
  0
LINE
  5
5E1
100
AcDbEntity
  8
93780800R00_BL13
100
AcDbLine
 62
7
  6
CONTINUOUS
 10
143.566648821
 20
1029.9461952983
 11
143.6016396084
 21
1029.8550411809
  0
LINE
  5
5E2
100
AcDbEntity
  8
93780800R00_BL13
100
AcDbLine
 62
7
  6
CONTINUOUS
 10
142.0191733935
 20
1029.8550411809
 11
142.0541641808
 21
1029.9461952983
  0
LINE
  5
5E3
100
AcDbEntity
  8
93780800R00_BL13
100
AcDbLine
 62
7
  6
CONTINUOUS
 10
143.6016396084
 20
1030.0373494157
 11
143.566648821
 21
1029.9461952983
  0
LINE
  5
5E4
100
AcDbEntity
  8
93780800R00_BL13
100
AcDbLine
 62
7
  6
CONTINUOUS
 10
142.3050958191
 20
1029.8706802643
 11
142.3366847641
 21
1029.9461952983
  0
LINE
  5
5E5
100
AcDbEntity
  8
93780800R00_BL13
100
AcDbLine
 62
7
  6
CONTINUOUS
 10
143.3157171828
 20
1030.0217103323
 11
143.2841282377
 21
1029.9461952983
  0
LINE
  5
5E6
100
AcDbEntity
  8
93780800R00_BL13
100
AcDbLine
 62
7
  6
CONTINUOUS
 10
142.2722062453
 20
1029.7938230644
 11
142.3050958191
 21
1029.8706802643
  0
LINE
  5
5E7
100
AcDbEntity
  8
93780800R00_BL13
100
AcDbLine
 62
7
  6
CONTINUOUS
 10
143.3486067566
 20
1030.0985675322
 11
143.3157171828
 21
1030.0217103323
  0
LINE
  5
5E8
100
AcDbEntity
  8
93780800R00_BL13
100
AcDbLine
 62
7
  6
CONTINUOUS
 10
142.2381287496
 20
1029.7155512351
 11
142.2722062453
 21
1029.7938230644
  0
LINE
  5
5E9
100
AcDbEntity
  8
93780800R00_BL13
100
AcDbLine
 62
7
  6
CONTINUOUS
 10
143.3826842523
 20
1030.1768393615
 11
143.3486067566
 21
1030.0985675322
  0
LINE
  5
5EA
100
AcDbEntity
  8
93780800R00_BL13
100
AcDbLine
 62
7
  6
CONTINUOUS
 10
143.0540022819
 20
1030.5326133194
 11
143.5259494075
 21
1031.2931292295
  0
LINE
  5
5EB
100
AcDbEntity
  8
93780800R00_BL13
100
AcDbLine
 62
7
  6
CONTINUOUS
 10
142.56681072
 20
1029.3597772772
 11
142.0948635944
 21
1028.5992613671
  0
LINE
  5
5EC
100
AcDbEntity
  8
93780800R00_BL13
100
AcDbLine
 62
7
  6
CONTINUOUS
 10
142.7192523835
 20
1030.7374284057
 11
142.5797624377
 21
1030.5184730496
  0
LINE
  5
5ED
100
AcDbEntity
  8
93780800R00_BL13
100
AcDbLine
 62
7
  6
CONTINUOUS
 10
142.9015606183
 20
1029.1549621909
 11
143.0410505641
 21
1029.373917547
  0
LWPOLYLINE
  5
5EE
100
AcDbEntity
  8
93780800R00_BL13
100
AcDbPolyline
 62
7
  6
CONTINUOUS
 90
5
 70
0
 10
143.5259494075
 20
1031.2931292295
 10
143.5740258469
 20
1031.3593670727
 10
143.6408244408
 20
1031.4383547837
 10
143.7263451894
 20
1031.5300923624
 10
143.8305880925
 20
1031.634579809
  0
LWPOLYLINE
  5
5EF
100
AcDbEntity
  8
93780800R00_BL13
100
AcDbPolyline
 62
7
  6
CONTINUOUS
 90
5
 70
0
 10
142.0948635944
 20
1028.5992613671
 10
142.046787155
 20
1028.5330235239
 10
141.979988561
 20
1028.4540358129
 10
141.8944678125
 20
1028.3622982341
 10
141.7902249093
 20
1028.2578107875
  0
LINE
  5
5F0
100
AcDbEntity
  8
93780800R00_BL13
100
AcDbLine
 62
7
  6
CONTINUOUS
 10
143.0410505641
 20
1030.5184730496
 11
143.0540022819
 21
1030.5326133194
  0
LINE
  5
5F1
100
AcDbEntity
  8
93780800R00_BL13
100
AcDbLine
 62
7
  6
CONTINUOUS
 10
142.5797624377
 20
1029.373917547
 11
142.56681072
 21
1029.3597772772
  0
LINE
  5
5F2
100
AcDbEntity
  8
93780800R00_BL13
100
AcDbLine
 62
7
  6
CONTINUOUS
 10
141.1220219902
 20
1028.9260137067
 11
142.0191733935
 21
1029.8550411809
  0
LINE
  5
5F3
100
AcDbEntity
  8
93780800R00_BL13
100
AcDbLine
 62
7
  6
CONTINUOUS
 10
144.4987910117
 20
1030.9663768899
 11
143.6016396084
 21
1030.0373494157
  0
LWPOLYLINE
  5
5F4
100
AcDbEntity
  8
93780800R00_BL13
100
AcDbPolyline
 62
7
  6
CONTINUOUS
 90
5
 70
0
 10
141.1220219902
 20
1028.9260137067
 10
141.2265640354
 20
1029.0303052624
 10
141.3183198137
 20
1029.1158422284
 10
141.3972893251
 20
1029.1826246049
 10
141.4634725697
 20
1029.2306523917
  0
LWPOLYLINE
  5
5F5
100
AcDbEntity
  8
93780800R00_BL13
100
AcDbPolyline
 62
7
  6
CONTINUOUS
 90
5
 70
0
 10
144.4987910117
 20
1030.9663768899
 10
144.3942489665
 20
1030.8620853342
 10
144.3024931882
 20
1030.7765483681
 10
144.2235236767
 20
1030.7097659917
 10
144.1573404321
 20
1030.6617382048
  0
LINE
  5
5F6
100
AcDbEntity
  8
93780800R00_BL13
100
AcDbLine
 62
7
  6
CONTINUOUS
 10
142.9015606183
 20
1030.7374284057
 11
143.8305880925
 21
1031.634579809
  0
LINE
  5
5F7
100
AcDbEntity
  8
93780800R00_BL13
100
AcDbLine
 62
7
  6
CONTINUOUS
 10
142.7192523835
 20
1029.1549621909
 11
141.7902249093
 21
1028.2578107875
  0
LINE
  5
5F8
100
AcDbEntity
  8
93780800R00_BL13
100
AcDbLine
 62
7
  6
CONTINUOUS
 10
142.2239884798
 20
1029.7025995173
 11
142.2381287496
 21
1029.7155512351
  0
LINE
  5
5F9
100
AcDbEntity
  8
93780800R00_BL13
100
AcDbLine
 62
7
  6
CONTINUOUS
 10
143.3968245221
 20
1030.1897910792
 11
143.3826842523
 21
1030.1768393615
  0
LINE
  5
5FA
100
AcDbEntity
  8
93780800R00_BL13
100
AcDbLine
 62
7
  6
CONTINUOUS
 10
142.0191733935
 20
1030.0373494157
 11
142.2381287496
 21
1030.1768393615
  0
LINE
  5
5FB
100
AcDbEntity
  8
93780800R00_BL13
100
AcDbLine
 62
7
  6
CONTINUOUS
 10
143.6016396084
 20
1029.8550411809
 11
143.3826842523
 21
1029.7155512351
  0
LINE
  5
5FC
100
AcDbEntity
  8
93780800R00_BL13
100
AcDbLine
 62
7
  6
CONTINUOUS
 10
141.4634725697
 20
1029.2306523917
 11
142.2239884798
 21
1029.7025995173
  0
LINE
  5
5FD
100
AcDbEntity
  8
93780800R00_BL13
100
AcDbLine
 62
7
  6
CONTINUOUS
 10
144.1573404321
 20
1030.6617382048
 11
143.3968245221
 21
1030.1897910792
  0
LINE
  5
5FE
100
AcDbEntity
  8
93780800R00_BL13
100
AcDbLine
 62
7
  6
CONTINUOUS
 10
142.9628076963
 20
1030.4844080647
 11
143.0410505641
 21
1030.5184730496
  0
LINE
  5
5FF
100
AcDbEntity
  8
93780800R00_BL13
100
AcDbLine
 62
7
  6
CONTINUOUS
 10
142.6580053056
 20
1029.4079825319
 11
142.5797624377
 21
1029.373917547
  0
LINE
  5
600
100
AcDbEntity
  8
93780800R00_BL13
100
AcDbLine
 62
7
  6
CONTINUOUS
 10
142.8859564534
 20
1030.4515207678
 11
142.9628076963
 21
1030.4844080647
  0
LINE
  5
601
100
AcDbEntity
  8
93780800R00_BL13
100
AcDbLine
 62
7
  6
CONTINUOUS
 10
142.7348565485
 20
1029.4408698287
 11
142.6580053056
 21
1029.4079825319
  0
LINE
  5
602
100
AcDbEntity
  8
93780800R00_BL13
100
AcDbLine
 62
7
  6
CONTINUOUS
 10
142.8104065009
 20
1030.4199170351
 11
142.8859564534
 21
1030.4515207678
  0
LINE
  5
603
100
AcDbEntity
  8
93780800R00_BL13
100
AcDbLine
 62
7
  6
CONTINUOUS
 10
142.8104065009
 20
1029.4724735615
 11
142.7348565485
 21
1029.4408698287
  0
LINE
  5
604
100
AcDbEntity
  8
93780800R00_BL13
100
AcDbLine
 62
7
  6
CONTINUOUS
 10
142.8104065009
 20
1030.7024376184
 11
142.9015606183
 21
1030.7374284057
  0
LINE
  5
605
100
AcDbEntity
  8
93780800R00_BL13
100
AcDbLine
 62
7
  6
CONTINUOUS
 10
142.8104065009
 20
1029.1899529782
 11
142.7192523835
 21
1029.1549621909
  0
CIRCLE
  5
606
100
AcDbEntity
  8
93780800R00_BL13
100
AcDbCircle
 62
7
  6
CONTINUOUS
 10
142.8104065009
 20
1029.9461952983
 40
2.85
  0
ARC
  5
607
100
AcDbEntity
  8
93780800R00_BL13
100
AcDbCircle
 62
9
  6
CONTINUOUS
 10
142.8104065009
 20
1029.9461952983
 40
1.9726664026
100
AcDbArc
 50
121.1528667687
 51
148.8529794039
  0
ARC
  5
608
100
AcDbEntity
  8
93780800R00_BL13
100
AcDbCircle
 62
9
  6
CONTINUOUS
 10
142.8104065009
 20
1029.9461952983
 40
1.9726664026
100
AcDbArc
 50
31.14168669
 51
58.8742098283
  0
ARC
  5
609
100
AcDbEntity
  8
93780800R00_BL13
100
AcDbCircle
 62
9
  6
CONTINUOUS
 10
142.8104065009
 20
1029.9461952983
 40
1.9726664026
100
AcDbArc
 50
301.1402786404
 51
328.8739772223
  0
ARC
  5
60A
100
AcDbEntity
  8
93780800R00_BL13
100
AcDbCircle
 62
9
  6
CONTINUOUS
 10
142.8104065009
 20
1029.9461952983
 40
1.9726664026
100
AcDbArc
 50
211.1234299516
 51
238.8466423422
  0
ARC
  5
60B
100
AcDbEntity
  8
93780800R00_BL13
100
AcDbCircle
 62
9
  6
CONTINUOUS
 10
142.8104065009
 20
1029.9461952983
 40
1.5251992218
100
AcDbArc
 50
117.9789520644
 51
152.0210479356
  0
ARC
  5
60C
100
AcDbEntity
  8
93780800R00_BL13
100
AcDbCircle
 62
9
  6
CONTINUOUS
 10
142.8104065009
 20
1029.9461952983
 40
1.5251992218
100
AcDbArc
 50
27.9789520644
 51
62.0210479356
  0
ARC
  5
60D
100
AcDbEntity
  8
93780800R00_BL13
100
AcDbCircle
 62
9
  6
CONTINUOUS
 10
142.8104065009
 20
1029.9461952983
 40
1.5251992218
100
AcDbArc
 50
297.9789520644
 51
332.0210479356
  0
ARC
  5
60E
100
AcDbEntity
  8
93780800R00_BL13
100
AcDbCircle
 62
9
  6
CONTINUOUS
 10
142.8104065009
 20
1029.9461952983
 40
1.5251992218
100
AcDbArc
 50
207.9789520644
 51
242.0210479356
  0
ARC
  5
60F
100
AcDbEntity
  8
93780800R00_BL13
100
AcDbCircle
 62
7
  6
CONTINUOUS
 10
142.8104065009
 20
1029.9461952983
 40
0.635
100
AcDbArc
 50
112.5578096573
 51
157.4421903427
  0
ARC
  5
610
100
AcDbEntity
  8
93780800R00_BL13
100
AcDbCircle
 62
7
  6
CONTINUOUS
 10
142.8104065009
 20
1029.9461952983
 40
0.635
100
AcDbArc
 50
202.5578096573
 51
247.4421903427
  0
ARC
  5
611
100
AcDbEntity
  8
93780800R00_BL13
100
AcDbCircle
 62
7
  6
CONTINUOUS
 10
142.8104065009
 20
1029.9461952983
 40
0.635
100
AcDbArc
 50
22.5578096573
 51
67.4421903427
  0
ARC
  5
612
100
AcDbEntity
  8
93780800R00_BL13
100
AcDbCircle
 62
7
  6
CONTINUOUS
 10
142.8104065009
 20
1029.9461952983
 40
0.635
100
AcDbArc
 50
292.5578096573
 51
337.4421903427
  0
ENDBLK
  5
613
100
AcDbEntity
  8
0
  6
BYBLOCK
 62
0
100
AcDbBlockEnd
  0
BLOCK
  5
614
100
AcDbEntity
  8
62890228000_BL14
100
AcDbBlockBegin
  2
62890228000_BL14
 70
64
 10
146.8104065009
 20
1045.4461952983
  3
62890228000_BL14
  1

  0
LINE
  5
615
100
AcDbEntity
  8
62890228000_BL14
100
AcDbLine
 62
7
  6
CENTER
 10
134.8104065009
 20
1045.4461952983
 11
158.8104065009
 21
1045.4461952983
  0
ENDBLK
  5
616
100
AcDbEntity
  8
0
  6
BYBLOCK
 62
0
100
AcDbBlockEnd
  0
BLOCK
  5
617
100
AcDbEntity
  8
93780800R00_BL15
100
AcDbBlockBegin
  2
93780800R00_BL15
 70
64
 10
142.8104065009
 20
1060.9461952983
  3
93780800R00_BL15
  1

  0
LINE
  5
618
100
AcDbEntity
  8
93780800R00_BL15
100
AcDbLine
 62
7
  6
CONTINUOUS
 10
143.566648821
 20
1060.9461952983
 11
143.2841282377
 21
1060.9461952983
  0
LINE
  5
619
100
AcDbEntity
  8
93780800R00_BL15
100
AcDbLine
 62
7
  6
CONTINUOUS
 10
142.0541641808
 20
1060.9461952983
 11
142.3366847641
 21
1060.9461952983
  0
LINE
  5
61A
100
AcDbEntity
  8
93780800R00_BL15
100
AcDbLine
 62
7
  6
CONTINUOUS
 10
142.9015606183
 20
1060.1549621909
 11
142.8104065009
 21
1060.1899529782
  0
LINE
  5
61B
100
AcDbEntity
  8
93780800R00_BL15
100
AcDbLine
 62
7
  6
CONTINUOUS
 10
142.7192523835
 20
1061.7374284057
 11
142.8104065009
 21
1061.7024376184
  0
LINE
  5
61C
100
AcDbEntity
  8
93780800R00_BL15
100
AcDbLine
 62
7
  6
CONTINUOUS
 10
142.8859210615
 20
1060.4408848169
 11
142.8104065009
 21
1060.4724735615
  0
LINE
  5
61D
100
AcDbEntity
  8
93780800R00_BL15
100
AcDbLine
 62
7
  6
CONTINUOUS
 10
142.7348919403
 20
1061.4515057797
 11
142.8104065009
 21
1061.4199170351
  0
LINE
  5
61E
100
AcDbEntity
  8
93780800R00_BL15
100
AcDbLine
 62
7
  6
CONTINUOUS
 10
142.9627799208
 20
1060.4079945303
 11
142.8859210615
 21
1060.4408848169
  0
LINE
  5
61F
100
AcDbEntity
  8
93780800R00_BL15
100
AcDbLine
 62
7
  6
CONTINUOUS
 10
142.6580330811
 20
1061.4843960662
 11
142.7348919403
 21
1061.4515057797
  0
LINE
  5
620
100
AcDbEntity
  8
93780800R00_BL15
100
AcDbLine
 62
7
  6
CONTINUOUS
 10
143.0410505641
 20
1060.373917547
 11
142.9627799208
 21
1060.4079945303
  0
LINE
  5
621
100
AcDbEntity
  8
93780800R00_BL15
100
AcDbLine
 62
7
  6
CONTINUOUS
 10
142.5797624377
 20
1061.5184730496
 11
142.6580330811
 21
1061.4843960662
  0
LINE
  5
622
100
AcDbEntity
  8
93780800R00_BL15
100
AcDbLine
 62
7
  6
CONTINUOUS
 10
142.2239884798
 20
1061.1897910792
 11
141.4634725697
 21
1061.6617382048
  0
LINE
  5
623
100
AcDbEntity
  8
93780800R00_BL15
100
AcDbLine
 62
7
  6
CONTINUOUS
 10
143.3968245221
 20
1060.7025995173
 11
144.1573404321
 21
1060.2306523917
  0
LINE
  5
624
100
AcDbEntity
  8
93780800R00_BL15
100
AcDbLine
 62
7
  6
CONTINUOUS
 10
142.0191733935
 20
1060.8550411809
 11
142.2381287496
 21
1060.7155512351
  0
LINE
  5
625
100
AcDbEntity
  8
93780800R00_BL15
100
AcDbLine
 62
7
  6
CONTINUOUS
 10
143.6016396084
 20
1061.0373494157
 11
143.3826842523
 21
1061.1768393615
  0
LWPOLYLINE
  5
626
100
AcDbEntity
  8
93780800R00_BL15
100
AcDbPolyline
 62
7
  6
CONTINUOUS
 90
5
 70
0
 10
141.4634725697
 20
1061.6617382048
 10
141.3972347265
 20
1061.7098146442
 10
141.3182470156
 20
1061.7766132382
 10
141.2265094368
 20
1061.8621339867
 10
141.1220219902
 20
1061.9663768899
  0
LWPOLYLINE
  5
627
100
AcDbEntity
  8
93780800R00_BL15
100
AcDbPolyline
 62
7
  6
CONTINUOUS
 90
5
 70
0
 10
144.1573404321
 20
1060.2306523917
 10
144.2235782753
 20
1060.1825759524
 10
144.3025659863
 20
1060.1157773584
 10
144.3943035651
 20
1060.0302566098
 10
144.4987910117
 20
1059.9260137067
  0
LINE
  5
628
100
AcDbEntity
  8
93780800R00_BL15
100
AcDbLine
 62
7
  6
CONTINUOUS
 10
142.8104065009
 20
1061.7024376184
 11
142.8104065009
 21
1061.4199170351
  0
LINE
  5
629
100
AcDbEntity
  8
93780800R00_BL15
100
AcDbLine
 62
7
  6
CONTINUOUS
 10
142.8104065009
 20
1060.1899529782
 11
142.8104065009
 21
1060.4724735615
  0
LINE
  5
62A
100
AcDbEntity
  8
93780800R00_BL15
100
AcDbLine
 62
7
  6
CONTINUOUS
 10
142.2381287496
 20
1061.1768393615
 11
142.2239884798
 21
1061.1897910792
  0
LINE
  5
62B
100
AcDbEntity
  8
93780800R00_BL15
100
AcDbLine
 62
7
  6
CONTINUOUS
 10
143.3826842523
 20
1060.7155512351
 11
143.3968245221
 21
1060.7025995173
  0
LINE
  5
62C
100
AcDbEntity
  8
93780800R00_BL15
100
AcDbLine
 62
7
  6
CONTINUOUS
 10
143.8305880925
 20
1059.2578107875
 11
142.9015606183
 21
1060.1549621909
  0
LINE
  5
62D
100
AcDbEntity
  8
93780800R00_BL15
100
AcDbLine
 62
7
  6
CONTINUOUS
 10
141.7902249093
 20
1062.634579809
 11
142.7192523835
 21
1061.7374284057
  0
LWPOLYLINE
  5
62E
100
AcDbEntity
  8
93780800R00_BL15
100
AcDbPolyline
 62
7
  6
CONTINUOUS
 90
5
 70
0
 10
143.8305880925
 20
1059.2578107875
 10
143.7262965368
 20
1059.3623528327
 10
143.6407595708
 20
1059.454108611
 10
143.5739771943
 20
1059.5330781225
 10
143.5259494075
 20
1059.5992613671
  0
LWPOLYLINE
  5
62F
100
AcDbEntity
  8
93780800R00_BL15
100
AcDbPolyline
 62
7
  6
CONTINUOUS
 90
5
 70
0
 10
141.7902249093
 20
1062.634579809
 10
141.894516465
 20
1062.5300377639
 10
141.9800534311
 20
1062.4382819855
 10
142.0468358075
 20
1062.3593124741
 10
142.0948635944
 20
1062.2931292295
  0
LINE
  5
630
100
AcDbEntity
  8
93780800R00_BL15
100
AcDbLine
 62
7
  6
CONTINUOUS
 10
142.0191733935
 20
1061.0373494157
 11
141.1220219902
 21
1061.9663768899
  0
LINE
  5
631
100
AcDbEntity
  8
93780800R00_BL15
100
AcDbLine
 62
7
  6
CONTINUOUS
 10
143.6016396084
 20
1060.8550411809
 11
144.4987910117
 21
1059.9260137067
  0
LINE
  5
632
100
AcDbEntity
  8
93780800R00_BL15
100
AcDbLine
 62
7
  6
CONTINUOUS
 10
143.0540022819
 20
1060.3597772772
 11
143.0410505641
 21
1060.373917547
  0
LINE
  5
633
100
AcDbEntity
  8
93780800R00_BL15
100
AcDbLine
 62
7
  6
CONTINUOUS
 10
142.56681072
 20
1061.5326133194
 11
142.5797624377
 21
1061.5184730496
  0
LINE
  5
634
100
AcDbEntity
  8
93780800R00_BL15
100
AcDbLine
 62
7
  6
CONTINUOUS
 10
142.7192523835
 20
1060.1549621909
 11
142.5797624377
 21
1060.373917547
  0
LINE
  5
635
100
AcDbEntity
  8
93780800R00_BL15
100
AcDbLine
 62
7
  6
CONTINUOUS
 10
142.9015606183
 20
1061.7374284057
 11
143.0410505641
 21
1061.5184730496
  0
LINE
  5
636
100
AcDbEntity
  8
93780800R00_BL15
100
AcDbLine
 62
7
  6
CONTINUOUS
 10
143.5259494075
 20
1059.5992613671
 11
143.0540022819
 21
1060.3597772772
  0
LINE
  5
637
100
AcDbEntity
  8
93780800R00_BL15
100
AcDbLine
 62
7
  6
CONTINUOUS
 10
142.0948635944
 20
1062.2931292295
 11
142.56681072
 21
1061.5326133194
  0
LINE
  5
638
100
AcDbEntity
  8
93780800R00_BL15
100
AcDbLine
 62
7
  6
CONTINUOUS
 10
142.2721931004
 20
1061.0985979614
 11
142.2381287496
 21
1061.1768393615
  0
LINE
  5
639
100
AcDbEntity
  8
93780800R00_BL15
100
AcDbLine
 62
7
  6
CONTINUOUS
 10
143.3486199014
 20
1060.7937926352
 11
143.3826842523
 21
1060.7155512351
  0
LINE
  5
63A
100
AcDbEntity
  8
93780800R00_BL15
100
AcDbLine
 62
7
  6
CONTINUOUS
 10
142.3050815791
 20
1061.0217439574
 11
142.2721931004
 21
1061.0985979614
  0
LINE
  5
63B
100
AcDbEntity
  8
93780800R00_BL15
100
AcDbLine
 62
7
  6
CONTINUOUS
 10
143.3157314228
 20
1060.8706466392
 11
143.3486199014
 21
1060.7937926352
  0
LINE
  5
63C
100
AcDbEntity
  8
93780800R00_BL15
100
AcDbLine
 62
7
  6
CONTINUOUS
 10
142.3366847641
 20
1060.9461952983
 11
142.3050815791
 21
1061.0217439574
  0
LINE
  5
63D
100
AcDbEntity
  8
93780800R00_BL15
100
AcDbLine
 62
7
  6
CONTINUOUS
 10
143.2841282377
 20
1060.9461952983
 11
143.3157314228
 21
1060.8706466392
  0
LINE
  5
63E
100
AcDbEntity
  8
93780800R00_BL15
100
AcDbLine
 62
7
  6
CONTINUOUS
 10
142.0541641808
 20
1060.9461952983
 11
142.0191733935
 21
1061.0373494157
  0
LINE
  5
63F
100
AcDbEntity
  8
93780800R00_BL15
100
AcDbLine
 62
7
  6
CONTINUOUS
 10
143.566648821
 20
1060.9461952983
 11
143.6016396084
 21
1060.8550411809
  0
LINE
  5
640
100
AcDbEntity
  8
93780800R00_BL15
100
AcDbLine
 62
7
  6
CONTINUOUS
 10
142.0191733935
 20
1060.8550411809
 11
142.0541641808
 21
1060.9461952983
  0
LINE
  5
641
100
AcDbEntity
  8
93780800R00_BL15
100
AcDbLine
 62
7
  6
CONTINUOUS
 10
143.6016396084
 20
1061.0373494157
 11
143.566648821
 21
1060.9461952983
  0
LINE
  5
642
100
AcDbEntity
  8
93780800R00_BL15
100
AcDbLine
 62
7
  6
CONTINUOUS
 10
142.3050958191
 20
1060.8706802643
 11
142.3366847641
 21
1060.9461952983
  0
LINE
  5
643
100
AcDbEntity
  8
93780800R00_BL15
100
AcDbLine
 62
7
  6
CONTINUOUS
 10
143.3157171828
 20
1061.0217103323
 11
143.2841282377
 21
1060.9461952983
  0
LINE
  5
644
100
AcDbEntity
  8
93780800R00_BL15
100
AcDbLine
 62
7
  6
CONTINUOUS
 10
142.2722062453
 20
1060.7938230644
 11
142.3050958191
 21
1060.8706802643
  0
LINE
  5
645
100
AcDbEntity
  8
93780800R00_BL15
100
AcDbLine
 62
7
  6
CONTINUOUS
 10
143.3486067566
 20
1061.0985675322
 11
143.3157171828
 21
1061.0217103323
  0
LINE
  5
646
100
AcDbEntity
  8
93780800R00_BL15
100
AcDbLine
 62
7
  6
CONTINUOUS
 10
142.2381287496
 20
1060.7155512351
 11
142.2722062453
 21
1060.7938230644
  0
LINE
  5
647
100
AcDbEntity
  8
93780800R00_BL15
100
AcDbLine
 62
7
  6
CONTINUOUS
 10
143.3826842523
 20
1061.1768393615
 11
143.3486067566
 21
1061.0985675322
  0
LINE
  5
648
100
AcDbEntity
  8
93780800R00_BL15
100
AcDbLine
 62
7
  6
CONTINUOUS
 10
143.0540022819
 20
1061.5326133194
 11
143.5259494075
 21
1062.2931292295
  0
LINE
  5
649
100
AcDbEntity
  8
93780800R00_BL15
100
AcDbLine
 62
7
  6
CONTINUOUS
 10
142.56681072
 20
1060.3597772772
 11
142.0948635944
 21
1059.5992613671
  0
LINE
  5
64A
100
AcDbEntity
  8
93780800R00_BL15
100
AcDbLine
 62
7
  6
CONTINUOUS
 10
142.7192523835
 20
1061.7374284057
 11
142.5797624377
 21
1061.5184730496
  0
LINE
  5
64B
100
AcDbEntity
  8
93780800R00_BL15
100
AcDbLine
 62
7
  6
CONTINUOUS
 10
142.9015606183
 20
1060.1549621909
 11
143.0410505641
 21
1060.373917547
  0
LWPOLYLINE
  5
64C
100
AcDbEntity
  8
93780800R00_BL15
100
AcDbPolyline
 62
7
  6
CONTINUOUS
 90
5
 70
0
 10
143.5259494075
 20
1062.2931292295
 10
143.5740258469
 20
1062.3593670727
 10
143.6408244408
 20
1062.4383547837
 10
143.7263451894
 20
1062.5300923624
 10
143.8305880925
 20
1062.634579809
  0
LWPOLYLINE
  5
64D
100
AcDbEntity
  8
93780800R00_BL15
100
AcDbPolyline
 62
7
  6
CONTINUOUS
 90
5
 70
0
 10
142.0948635944
 20
1059.5992613671
 10
142.046787155
 20
1059.5330235239
 10
141.979988561
 20
1059.4540358129
 10
141.8944678125
 20
1059.3622982341
 10
141.7902249093
 20
1059.2578107875
  0
LINE
  5
64E
100
AcDbEntity
  8
93780800R00_BL15
100
AcDbLine
 62
7
  6
CONTINUOUS
 10
143.0410505641
 20
1061.5184730496
 11
143.0540022819
 21
1061.5326133194
  0
LINE
  5
64F
100
AcDbEntity
  8
93780800R00_BL15
100
AcDbLine
 62
7
  6
CONTINUOUS
 10
142.5797624377
 20
1060.373917547
 11
142.56681072
 21
1060.3597772772
  0
LINE
  5
650
100
AcDbEntity
  8
93780800R00_BL15
100
AcDbLine
 62
7
  6
CONTINUOUS
 10
141.1220219902
 20
1059.9260137067
 11
142.0191733935
 21
1060.8550411809
  0
LINE
  5
651
100
AcDbEntity
  8
93780800R00_BL15
100
AcDbLine
 62
7
  6
CONTINUOUS
 10
144.4987910117
 20
1061.9663768899
 11
143.6016396084
 21
1061.0373494157
  0
LWPOLYLINE
  5
652
100
AcDbEntity
  8
93780800R00_BL15
100
AcDbPolyline
 62
7
  6
CONTINUOUS
 90
5
 70
0
 10
141.1220219902
 20
1059.9260137067
 10
141.2265640354
 20
1060.0303052624
 10
141.3183198137
 20
1060.1158422284
 10
141.3972893251
 20
1060.1826246049
 10
141.4634725697
 20
1060.2306523917
  0
LWPOLYLINE
  5
653
100
AcDbEntity
  8
93780800R00_BL15
100
AcDbPolyline
 62
7
  6
CONTINUOUS
 90
5
 70
0
 10
144.4987910117
 20
1061.9663768899
 10
144.3942489665
 20
1061.8620853342
 10
144.3024931882
 20
1061.7765483681
 10
144.2235236767
 20
1061.7097659917
 10
144.1573404321
 20
1061.6617382048
  0
LINE
  5
654
100
AcDbEntity
  8
93780800R00_BL15
100
AcDbLine
 62
7
  6
CONTINUOUS
 10
142.9015606183
 20
1061.7374284057
 11
143.8305880925
 21
1062.634579809
  0
LINE
  5
655
100
AcDbEntity
  8
93780800R00_BL15
100
AcDbLine
 62
7
  6
CONTINUOUS
 10
142.7192523835
 20
1060.1549621909
 11
141.7902249093
 21
1059.2578107875
  0
LINE
  5
656
100
AcDbEntity
  8
93780800R00_BL15
100
AcDbLine
 62
7
  6
CONTINUOUS
 10
142.2239884798
 20
1060.7025995173
 11
142.2381287496
 21
1060.7155512351
  0
LINE
  5
657
100
AcDbEntity
  8
93780800R00_BL15
100
AcDbLine
 62
7
  6
CONTINUOUS
 10
143.3968245221
 20
1061.1897910792
 11
143.3826842523
 21
1061.1768393615
  0
LINE
  5
658
100
AcDbEntity
  8
93780800R00_BL15
100
AcDbLine
 62
7
  6
CONTINUOUS
 10
142.0191733935
 20
1061.0373494157
 11
142.2381287496
 21
1061.1768393615
  0
LINE
  5
659
100
AcDbEntity
  8
93780800R00_BL15
100
AcDbLine
 62
7
  6
CONTINUOUS
 10
143.6016396084
 20
1060.8550411809
 11
143.3826842523
 21
1060.7155512351
  0
LINE
  5
65A
100
AcDbEntity
  8
93780800R00_BL15
100
AcDbLine
 62
7
  6
CONTINUOUS
 10
141.4634725697
 20
1060.2306523917
 11
142.2239884798
 21
1060.7025995173
  0
LINE
  5
65B
100
AcDbEntity
  8
93780800R00_BL15
100
AcDbLine
 62
7
  6
CONTINUOUS
 10
144.1573404321
 20
1061.6617382048
 11
143.3968245221
 21
1061.1897910792
  0
LINE
  5
65C
100
AcDbEntity
  8
93780800R00_BL15
100
AcDbLine
 62
7
  6
CONTINUOUS
 10
142.9628076963
 20
1061.4844080647
 11
143.0410505641
 21
1061.5184730496
  0
LINE
  5
65D
100
AcDbEntity
  8
93780800R00_BL15
100
AcDbLine
 62
7
  6
CONTINUOUS
 10
142.6580053056
 20
1060.4079825319
 11
142.5797624377
 21
1060.373917547
  0
LINE
  5
65E
100
AcDbEntity
  8
93780800R00_BL15
100
AcDbLine
 62
7
  6
CONTINUOUS
 10
142.8859564534
 20
1061.4515207678
 11
142.9628076963
 21
1061.4844080647
  0
LINE
  5
65F
100
AcDbEntity
  8
93780800R00_BL15
100
AcDbLine
 62
7
  6
CONTINUOUS
 10
142.7348565485
 20
1060.4408698287
 11
142.6580053056
 21
1060.4079825319
  0
LINE
  5
660
100
AcDbEntity
  8
93780800R00_BL15
100
AcDbLine
 62
7
  6
CONTINUOUS
 10
142.8104065009
 20
1061.4199170351
 11
142.8859564534
 21
1061.4515207678
  0
LINE
  5
661
100
AcDbEntity
  8
93780800R00_BL15
100
AcDbLine
 62
7
  6
CONTINUOUS
 10
142.8104065009
 20
1060.4724735615
 11
142.7348565485
 21
1060.4408698287
  0
LINE
  5
662
100
AcDbEntity
  8
93780800R00_BL15
100
AcDbLine
 62
7
  6
CONTINUOUS
 10
142.8104065009
 20
1061.7024376184
 11
142.9015606183
 21
1061.7374284057
  0
LINE
  5
663
100
AcDbEntity
  8
93780800R00_BL15
100
AcDbLine
 62
7
  6
CONTINUOUS
 10
142.8104065009
 20
1060.1899529782
 11
142.7192523835
 21
1060.1549621909
  0
CIRCLE
  5
664
100
AcDbEntity
  8
93780800R00_BL15
100
AcDbCircle
 62
7
  6
CONTINUOUS
 10
142.8104065009
 20
1060.9461952983
 40
2.85
  0
ARC
  5
665
100
AcDbEntity
  8
93780800R00_BL15
100
AcDbCircle
 62
9
  6
CONTINUOUS
 10
142.8104065009
 20
1060.9461952983
 40
1.9726664026
100
AcDbArc
 50
301.1528667687
 51
328.8529794039
  0
ARC
  5
666
100
AcDbEntity
  8
93780800R00_BL15
100
AcDbCircle
 62
9
  6
CONTINUOUS
 10
142.8104065009
 20
1060.9461952983
 40
1.9726664026
100
AcDbArc
 50
211.14168669
 51
238.8742098283
  0
ARC
  5
667
100
AcDbEntity
  8
93780800R00_BL15
100
AcDbCircle
 62
9
  6
CONTINUOUS
 10
142.8104065009
 20
1060.9461952983
 40
1.9726664026
100
AcDbArc
 50
121.1402786404
 51
148.8739772223
  0
ARC
  5
668
100
AcDbEntity
  8
93780800R00_BL15
100
AcDbCircle
 62
9
  6
CONTINUOUS
 10
142.8104065009
 20
1060.9461952983
 40
1.9726664026
100
AcDbArc
 50
31.1234299516
 51
58.8466423422
  0
ARC
  5
669
100
AcDbEntity
  8
93780800R00_BL15
100
AcDbCircle
 62
9
  6
CONTINUOUS
 10
142.8104065009
 20
1060.9461952983
 40
1.5251992218
100
AcDbArc
 50
297.9789520644
 51
332.0210479356
  0
ARC
  5
66A
100
AcDbEntity
  8
93780800R00_BL15
100
AcDbCircle
 62
9
  6
CONTINUOUS
 10
142.8104065009
 20
1060.9461952983
 40
1.5251992218
100
AcDbArc
 50
207.9789520644
 51
242.0210479356
  0
ARC
  5
66B
100
AcDbEntity
  8
93780800R00_BL15
100
AcDbCircle
 62
9
  6
CONTINUOUS
 10
142.8104065009
 20
1060.9461952983
 40
1.5251992218
100
AcDbArc
 50
117.9789520644
 51
152.0210479356
  0
ARC
  5
66C
100
AcDbEntity
  8
93780800R00_BL15
100
AcDbCircle
 62
9
  6
CONTINUOUS
 10
142.8104065009
 20
1060.9461952983
 40
1.5251992218
100
AcDbArc
 50
27.9789520644
 51
62.0210479356
  0
ARC
  5
66D
100
AcDbEntity
  8
93780800R00_BL15
100
AcDbCircle
 62
7
  6
CONTINUOUS
 10
142.8104065009
 20
1060.9461952983
 40
0.635
100
AcDbArc
 50
292.5578096573
 51
337.4421903427
  0
ARC
  5
66E
100
AcDbEntity
  8
93780800R00_BL15
100
AcDbCircle
 62
7
  6
CONTINUOUS
 10
142.8104065009
 20
1060.9461952983
 40
0.635
100
AcDbArc
 50
22.5578096573
 51
67.4421903427
  0
ARC
  5
66F
100
AcDbEntity
  8
93780800R00_BL15
100
AcDbCircle
 62
7
  6
CONTINUOUS
 10
142.8104065009
 20
1060.9461952983
 40
0.635
100
AcDbArc
 50
202.5578096573
 51
247.4421903427
  0
ARC
  5
670
100
AcDbEntity
  8
93780800R00_BL15
100
AcDbCircle
 62
7
  6
CONTINUOUS
 10
142.8104065009
 20
1060.9461952983
 40
0.635
100
AcDbArc
 50
112.5578096573
 51
157.4421903427
  0
ENDBLK
  5
671
100
AcDbEntity
  8
0
  6
BYBLOCK
 62
0
100
AcDbBlockEnd
  0
BLOCK
  5
672
100
AcDbEntity
  8
94322000000_BL16
100
AcDbBlockBegin
  2
94322000000_BL16
 70
64
 10
86.9961887624
 20
681.4157552244
  3
94322000000_BL16
  1

  0
LINE
  5
673
100
AcDbEntity
  8
94322000000_BL16
100
AcDbLine
 62
7
  6
CONTINUOUS
 10
134.9104065009
 20
1185.4461952983
 11
134.9104065009
 21
1270.4461952983
  0
LINE
  5
674
100
AcDbEntity
  8
94322000000_BL16
100
AcDbLine
 62
7
  6
CONTINUOUS
 10
139.8104065009
 20
1210.4461952983
 11
139.8104065009
 21
1185.4461952983
  0
LINE
  5
675
100
AcDbEntity
  8
94322000000_BL16
100
AcDbLine
 62
7
  6
CONTINUOUS
 10
147.8104065009
 20
1185.4461952983
 11
147.8104065009
 21
1210.4461952983
  0
LINE
  5
676
100
AcDbEntity
  8
94322000000_BL16
100
AcDbLine
 62
7
  6
CONTINUOUS
 10
152.7104065009
 20
1270.4461952983
 11
152.7104065009
 21
1185.4461952983
  0
LINE
  5
677
100
AcDbEntity
  8
94322000000_BL16
100
AcDbLine
 62
7
  6
CONTINUOUS
 10
21.2819710238
 20
1279.3461952983
 11
21.2819710238
 21
1176.5461952983
  0
LINE
  5
678
100
AcDbEntity
  8
94322000000_BL16
100
AcDbLine
 62
7
  6
CONTINUOUS
 10
23.2819710238
 20
1279.3462432792
 11
23.2819710238
 21
1176.5461473174
  0
LINE
  5
679
100
AcDbEntity
  8
94322000000_BL16
100
AcDbLine
 62
7
  6
CONTINUOUS
 10
21.2819710238
 20
1176.5461952983
 11
23.2819710238
 21
1176.5461952983
  0
LINE
  5
67A
100
AcDbEntity
  8
94322000000_BL16
100
AcDbLine
 62
9
  6
CONTINUOUS
 10
21.2819710238
 20
1185.4461952983
 11
23.2819710238
 21
1185.4461952983
  0
LINE
  5
67B
100
AcDbEntity
  8
94322000000_BL16
100
AcDbLine
 62
9
  6
CONTINUOUS
 10
21.2819710238
 20
1270.4461952983
 11
23.2819710238
 21
1270.4461952983
  0
LINE
  5
67C
100
AcDbEntity
  8
94322000000_BL16
100
AcDbLine
 62
7
  6
CONTINUOUS
 10
21.2819710238
 20
1279.3461952983
 11
23.2819710238
 21
1279.3461952983
  0
LINE
  5
67D
100
AcDbEntity
  8
94322000000_BL16
100
AcDbLine
 62
7
  6
CONTINUOUS
 10
21.2819710238
 20
101.2852671697
 11
21.2819710238
 21
83.4852671697
  0
LINE
  5
67E
100
AcDbEntity
  8
94322000000_BL16
100
AcDbLine
 62
7
  6
CONTINUOUS
 10
21.2819710238
 20
83.4852671697
 11
21.9819710238
 21
83.4852671697
  0
LINE
  5
67F
100
AcDbEntity
  8
94322000000_BL16
100
AcDbLine
 62
7
  6
CONTINUOUS
 10
21.2819710238
 20
101.2852671697
 11
21.9819710238
 21
101.2852671697
  0
ARC
  5
680
100
AcDbEntity
  8
94322000000_BL16
100
AcDbCircle
 62
7
  6
CONTINUOUS
 10
143.8104065009
 20
1270.4461952983
 40
8.9
100
AcDbArc
 50
0.0
 51
180.0
  0
ARC
  5
681
100
AcDbEntity
  8
94322000000_BL16
100
AcDbCircle
 62
7
  6
CONTINUOUS
 10
143.8104065009
 20
1185.4461952983
 40
8.9
100
AcDbArc
 50
180.0
 51
360.0
  0
ARC
  5
682
100
AcDbEntity
  8
94322000000_BL16
100
AcDbCircle
 62
7
  6
CONTINUOUS
 10
143.8104065009
 20
1185.4461952983
 40
4.0
100
AcDbArc
 50
180.0
 51
360.0
  0
ARC
  5
683
100
AcDbEntity
  8
94322000000_BL16
100
AcDbCircle
 62
7
  6
CONTINUOUS
 10
143.8104065009
 20
1210.4461952983
 40
4.0
100
AcDbArc
 50
0.0
 51
180.0
  0
ENDBLK
  5
684
100
AcDbEntity
  8
0
  6
BYBLOCK
 62
0
100
AcDbBlockEnd
  0
BLOCK
  5
685
100
AcDbEntity
  8
94621099000_BL17
100
AcDbBlockBegin
  2
94621099000_BL17
 70
64
 10
88.8766837973
 20
942.415731234
  3
94621099000_BL17
  1

  0
LINE
  5
686
100
AcDbEntity
  8
94621099000_BL17
100
AcDbLine
 62
7
  6
CONTINUOUS
 10
139.9104065009
 20
1730.823596038
 11
139.9104065009
 21
1766.0687945585
  0
LINE
  5
687
100
AcDbEntity
  8
94621099000_BL17
100
AcDbLine
 62
7
  6
CONTINUOUS
 10
140.7104065009
 20
1729.776343041
 11
140.7104065009
 21
1767.1160475556
  0
LINE
  5
688
100
AcDbEntity
  8
94621099000_BL17
100
AcDbLine
 62
9
  6
CONTINUOUS
 10
141.7232001579
 20
1729.4461952983
 11
141.7232001579
 21
1767.4461952983
  0
LINE
  5
689
100
AcDbEntity
  8
94621099000_BL17
100
AcDbLine
 62
9
  6
CONTINUOUS
 10
142.3199132951
 20
1729.4461952983
 11
142.3199132951
 21
1767.4461952983
  0
LINE
  5
68A
100
AcDbEntity
  8
94621099000_BL17
100
AcDbLine
 62
7
  6
CENTER
 10
146.8104065009
 20
1801.4461952983
 11
146.8104065009
 21
1699.4461952983
  0
LINE
  5
68B
100
AcDbEntity
  8
94621099000_BL17
100
AcDbLine
 62
9
  6
CONTINUOUS
 10
149.8008997068
 20
1767.4461952983
 11
149.8008997068
 21
1729.4461952983
  0
LINE
  5
68C
100
AcDbEntity
  8
94621099000_BL17
100
AcDbLine
 62
9
  6
CONTINUOUS
 10
150.397612844
 20
1767.4461952983
 11
150.397612844
 21
1729.4461952983
  0
LINE
  5
68D
100
AcDbEntity
  8
94621099000_BL17
100
AcDbLine
 62
7
  6
CONTINUOUS
 10
151.4104065009
 20
1767.4461952983
 11
151.4104065009
 21
1729.4461952983
  0
LINE
  5
68E
100
AcDbEntity
  8
94621099000_BL17
100
AcDbLine
 62
7
  6
CONTINUOUS
 10
152.2104065009
 20
1767.4054632893
 11
152.2104065009
 21
1729.4869273072
  0
LINE
  5
68F
100
AcDbEntity
  8
94621099000_BL17
100
AcDbLine
 62
7
  6
CONTINUOUS
 10
152.8104065009
 20
1729.7141444907
 11
152.8104065009
 21
1767.1782461059
  0
LINE
  5
690
100
AcDbEntity
  8
94621099000_BL17
100
AcDbLine
 62
7
  6
CENTER
 10
135.3494164311
 20
1750.4461952983
 11
156.7713965708
 21
1750.4461952983
  0
LWPOLYLINE
  5
691
100
AcDbEntity
  8
94621099000_BL17
100
AcDbPolyline
 62
9
  6
CONTINUOUS
 90
15
 70
0
 10
44.0866429363
 20
1719.7215937204
 10
44.1092407509
 20
1719.7352655183
 10
44.1302600539
 20
1719.7736927741
 10
44.1494406948
 20
1719.8364311393
 10
44.1665288218
 20
1719.9227027135
 10
44.181295777
 20
1720.0314078351
 10
44.1935701938
 20
1720.1611960358
 10
44.2032082479
 20
1720.3104462226
 10
44.2100849432
 20
1720.477293401
 10
44.2141133734
 20
1720.6596529058
 10
44.2152422277
 20
1720.8552462581
 10
44.2134559141
 20
1721.0616533175
 10
44.2087773469
 20
1721.2762243988
 10
44.2012688972
 20
1721.4961997513
 10
44.1910279503
 20
1721.7188527899
  0
LWPOLYLINE
  5
692
100
AcDbEntity
  8
94621099000_BL17
100
AcDbPolyline
 62
7
  6
CONTINUOUS
 90
7
 70
0
 10
30.4819763632
 20
1721.0113480494
 10
30.3959956127
 20
1720.8900053246
 10
30.3105525947
 20
1720.7672554802
 10
30.225312383
 20
1720.6431330149
 10
30.1412797567
 20
1720.5175344322
 10
30.0590550823
 20
1720.3903186789
 10
29.9819710238
 20
1720.2656038368
  0
LWPOLYLINE
  5
693
100
AcDbEntity
  8
94621099000_BL17
100
AcDbPolyline
 62
7
  6
CONTINUOUS
 90
13
 70
0
 10
34.4818273777
 20
1719.2182266665
 10
34.4946371016
 20
1719.2358838421
 10
34.5052324358
 20
1719.2871181012
 10
34.5137638771
 20
1719.3710909858
 10
34.5199859187
 20
1719.4863874727
 10
34.5237725551
 20
1719.6310659374
 10
34.5250826218
 20
1719.8026841677
 10
34.5238635079
 20
1719.998338582
 10
34.5201679935
 20
1720.2147154728
 10
34.5140208057
 20
1720.4481423591
 10
34.5055653379
 20
1720.6946578531
 10
34.4948862
 20
1720.9500688174
 10
34.4822557664
 20
1721.2100376002
  0
LINE
  5
694
100
AcDbEntity
  8
94621099000_BL17
100
AcDbLine
 62
7
  6
CONTINUOUS
 10
34.4819710238
 20
1779.6714117099
 11
34.4819710238
 21
1721.2209788867
  0
LINE
  5
695
100
AcDbEntity
  8
94621099000_BL17
100
AcDbLine
 62
9
  6
CONTINUOUS
 10
30.4296350676
 20
1719.0058602663
 11
30.4819660065
 21
1721.0113475066
  0
LWPOLYLINE
  5
696
100
AcDbEntity
  8
94621099000_BL17
100
AcDbPolyline
 62
9
  6
CONTINUOUS
 90
15
 70
0
 10
44.1910279503
 20
1779.1735378067
 10
44.2012688972
 20
1779.3961908453
 10
44.2087773469
 20
1779.6161661977
 10
44.2134559141
 20
1779.8307372791
 10
44.2152422277
 20
1780.0371443384
 10
44.2141133734
 20
1780.2327376908
 10
44.2100849432
 20
1780.4150971956
 10
44.2032082479
 20
1780.581944374
 10
44.1935701938
 20
1780.7311945607
 10
44.181295777
 20
1780.8609827615
 10
44.1665288218
 20
1780.969687883
 10
44.1494406948
 20
1781.0559594573
 10
44.1302600539
 20
1781.1186978225
 10
44.1092407509
 20
1781.1571250782
 10
44.0866429363
 20
1781.1707968762
  0
LINE
  5
697
100
AcDbEntity
  8
94621099000_BL17
100
AcDbLine
 62
9
  6
CONTINUOUS
 10
30.4819660065
 20
1779.88104309
 11
30.4296350676
 21
1781.8865303302
  0
LINE
  5
698
100
AcDbEntity
  8
94621099000_BL17
100
AcDbLine
 62
9
  6
CONTINUOUS
 10
44.1910279503
 20
1721.7188527899
 11
44.1910279503
 21
1779.1735378067
  0
LINE
  5
699
100
AcDbEntity
  8
94621099000_BL17
100
AcDbLine
 62
7
  6
CONTINUOUS
 10
45.9819710238
 20
1721.7188527899
 11
45.9819710238
 21
1779.1735378067
  0
LWPOLYLINE
  5
69A
100
AcDbEntity
  8
94621099000_BL17
100
AcDbPolyline
 62
7
  6
CONTINUOUS
 90
7
 70
0
 10
29.9819710238
 20
1780.6267023545
 10
30.0608601133
 20
1780.4991999779
 10
30.1427720432
 20
1780.3725929978
 10
30.2262329234
 20
1780.2471944137
 10
30.3118143844
 20
1780.1233121451
 10
30.3997720848
 20
1780.0011428426
 10
30.4900208052
 20
1779.8806209558
  0
LWPOLYLINE
  5
69B
100
AcDbEntity
  8
94621099000_BL17
100
AcDbPolyline
 62
7
  6
CONTINUOUS
 90
13
 70
0
 10
34.4818273777
 20
1781.67416393
 10
34.4944128375
 20
1781.6565185076
 10
34.5052324358
 20
1781.6052724954
 10
34.5137722693
 20
1781.5212991709
 10
34.5199859187
 20
1781.4060031239
 10
34.5237860619
 20
1781.2613239513
 10
34.5250826218
 20
1781.0897064289
 10
34.5238812469
 20
1780.8940510849
 10
34.5201679935
 20
1780.6776751238
 10
34.5140415634
 20
1780.4442471496
 10
34.5055653379
 20
1780.1977327435
 10
34.4949404957
 20
1779.9423189337
 10
34.4822557664
 20
1779.6823529964
  0
LINE
  5
69C
100
AcDbEntity
  8
94621099000_BL17
100
AcDbLine
 62
7
  6
CONTINUOUS
 10
44.0866429363
 20
1719.7215937204
 11
30.4296350676
 21
1719.0058602663
  0
LINE
  5
69D
100
AcDbEntity
  8
94621099000_BL17
100
AcDbLine
 62
9
  6
CONTINUOUS
 10
44.1910279503
 20
1721.7188527899
 11
34.4822557664
 21
1721.2100376002
  0
LINE
  5
69E
100
AcDbEntity
  8
94621099000_BL17
100
AcDbLine
 62
9
  6
CONTINUOUS
 10
34.4819710238
 20
1721.2209788867
 11
30.4819763632
 21
1721.0113480494
  0
LINE
  5
69F
100
AcDbEntity
  8
94621099000_BL17
100
AcDbLine
 62
9
  6
CONTINUOUS
 10
44.1910279503
 20
1721.7188527899
 11
45.9819710238
 21
1721.7188527899
  0
LINE
  5
6A0
100
AcDbEntity
  8
94621099000_BL17
100
AcDbLine
 62
7
  6
CENTER
 10
20.9819710238
 20
1750.4461952983
 11
48.9819710238
 21
1750.4461952983
  0
LINE
  5
6A1
100
AcDbEntity
  8
94621099000_BL17
100
AcDbLine
 62
9
  6
CONTINUOUS
 10
44.1910279503
 20
1779.1735378067
 11
45.9819710238
 21
1779.1735378067
  0
LINE
  5
6A2
100
AcDbEntity
  8
94621099000_BL17
100
AcDbLine
 62
9
  6
CONTINUOUS
 10
30.4900208052
 20
1779.8806209558
 11
34.4819710238
 21
1779.6714117099
  0
LINE
  5
6A3
100
AcDbEntity
  8
94621099000_BL17
100
AcDbLine
 62
9
  6
CONTINUOUS
 10
34.4822557664
 20
1779.6823529964
 11
44.1910279503
 21
1779.1735378067
  0
LINE
  5
6A4
100
AcDbEntity
  8
94621099000_BL17
100
AcDbLine
 62
7
  6
CONTINUOUS
 10
30.4296350676
 20
1781.8865303302
 11
44.0866429363
 21
1781.1707968762
  0
LINE
  5
6A5
100
AcDbEntity
  8
94621099000_BL17
100
AcDbLine
 62
7
  6
CONTINUOUS
 10
27.4819710238
 20
83.3852671697
 11
27.4819710238
 21
89.2852671697
  0
LINE
  5
6A6
100
AcDbEntity
  8
94621099000_BL17
100
AcDbLine
 62
7
  6
CONTINUOUS
 10
27.4819710238
 20
95.4852671697
 11
27.4819710238
 21
96.8852671697
  0
LINE
  5
6A7
100
AcDbEntity
  8
94621099000_BL17
100
AcDbLine
 62
7
  6
CONTINUOUS
 10
34.4819710238
 20
83.3852671697
 11
44.1910279503
 21
84.4057301731
  0
LINE
  5
6A8
100
AcDbEntity
  8
94621099000_BL17
100
AcDbLine
 62
7
  6
CONTINUOUS
 10
27.4819710238
 20
83.3852671697
 11
27.5819710238
 21
83.3852671697
  0
LINE
  5
6A9
100
AcDbEntity
  8
94621099000_BL17
100
AcDbLine
 62
7
  6
CONTINUOUS
 10
29.9819710238
 20
83.3852671697
 11
34.4819710238
 21
83.3852671697
  0
LWPOLYLINE
  5
6AA
100
AcDbEntity
  8
94621099000_BL17
100
AcDbPolyline
 62
9
  6
CONTINUOUS
 90
9
 70
0
 10
30.4819660065
 20
83.3852671697
 10
30.476037509
 20
83.3976796853
 10
30.4703778469
 20
83.4349635059
 10
30.4647274074
 20
83.4970503936
 10
30.4592767581
 20
83.5831502325
 10
30.4541363606
 20
83.6917311487
 10
30.4493411637
 20
83.8215764009
 10
30.4449661346
 20
83.9712413879
 10
30.4410438327
 20
84.1387043298
  0
LINE
  5
6AB
100
AcDbEntity
  8
94621099000_BL17
100
AcDbLine
 62
9
  6
CONTINUOUS
 10
30.4410438327
 20
84.1387043298
 11
30.4348105118
 21
84.5180043454
  0
LINE
  5
6AC
100
AcDbEntity
  8
94621099000_BL17
100
AcDbLine
 62
9
  6
CONTINUOUS
 10
30.4348105118
 20
84.5180043454
 11
30.430937616
 21
84.9417636696
  0
LINE
  5
6AD
100
AcDbEntity
  8
94621099000_BL17
100
AcDbLine
 62
9
  6
CONTINUOUS
 10
30.430937616
 20
84.9417636696
 11
30.4296350676
 21
85.3852671697
  0
LINE
  5
6AE
100
AcDbEntity
  8
94621099000_BL17
100
AcDbLine
 62
9
  6
CONTINUOUS
 10
30.4296350676
 20
85.3852671697
 11
30.4296350676
 21
87.5852671697
  0
LINE
  5
6AF
100
AcDbEntity
  8
94621099000_BL17
100
AcDbLine
 62
9
  6
CONTINUOUS
 10
30.4296350676
 20
91.1852671697
 11
30.4299737192
 21
95.1080746194
  0
LINE
  5
6B0
100
AcDbEntity
  8
94621099000_BL17
100
AcDbLine
 62
9
  6
CONTINUOUS
 10
30.4299737192
 20
95.1080746194
 11
30.4325751488
 21
95.544678264
  0
LWPOLYLINE
  5
6B1
100
AcDbEntity
  8
94621099000_BL17
100
AcDbPolyline
 62
9
  6
CONTINUOUS
 90
11
 70
0
 10
30.4325751488
 20
95.544678264
 10
30.437653375
 20
95.948827109
 10
30.4410423416
 20
96.1317583746
 10
30.4449641589
 20
96.299217312
 10
30.4493386674
 20
96.4488816749
 10
30.4541333155
 20
96.5787300103
 10
30.4592731551
 20
96.6873178171
 10
30.4647228624
 20
96.7734240365
 10
30.4703731623
 20
96.8355301036
 10
30.4760344878
 20
96.8728414404
 10
30.4819660065
 20
96.8852671697
  0
LINE
  5
6B2
100
AcDbEntity
  8
94621099000_BL17
100
AcDbLine
 62
9
  6
CONTINUOUS
 10
34.4818273777
 20
85.3852671697
 11
44.0866429363
 21
86.3947739639
  0
LINE
  5
6B3
100
AcDbEntity
  8
94621099000_BL17
100
AcDbLine
 62
9
  6
CONTINUOUS
 10
29.9819710238
 20
85.3852671715
 11
34.4818273777
 21
85.3852671697
  0
LINE
  5
6B4
100
AcDbEntity
  8
94621099000_BL17
100
AcDbLine
 62
9
  6
CONTINUOUS
 10
44.0866429363
 20
86.3947739639
 11
45.9819710238
 21
86.3947739639
  0
LINE
  5
6B5
100
AcDbEntity
  8
94621099000_BL17
100
AcDbLine
 62
7
  6
CONTINUOUS
 10
27.4819710238
 20
86.8852671697
 11
26.9819710238
 21
86.8852671697
  0
LINE
  5
6B6
100
AcDbEntity
  8
94621099000_BL17
100
AcDbLine
 62
9
  6
CONTINUOUS
 10
27.4819710238
 20
88.3852671697
 11
27.5819710238
 21
88.3852671697
  0
LWPOLYLINE
  5
6B7
100
AcDbEntity
  8
94621099000_BL17
100
AcDbPolyline
 62
7
  6
CONTINUOUS
 90
13
 70
0
 10
34.4818273777
 20
85.3852671697
 10
34.4944128375
 20
85.1253274594
 10
34.5052324358
 20
84.8697844902
 10
34.5137722693
 20
84.622943793
 10
34.5199859187
 20
84.3890055024
 10
34.5237860619
 20
84.1719464763
 10
34.5250826218
 20
83.9754610202
 10
34.5238812469
 20
83.8029007402
 10
34.5201679935
 20
83.6572087973
 10
34.5140415634
 20
83.5408800749
 10
34.5055653379
 20
83.4559031951
 10
34.4949404957
 20
83.4037447004
 10
34.4822557664
 20
83.3852970974
  0
LWPOLYLINE
  5
6B8
100
AcDbEntity
  8
94621099000_BL17
100
AcDbPolyline
 62
7
  6
CONTINUOUS
 90
13
 70
0
 10
34.4818273777
 20
94.8852671697
 10
34.4946371016
 20
95.1451951268
 10
34.5052324358
 20
95.4007498493
 10
34.5137638771
 20
95.6475909862
 10
34.5199859187
 20
95.881528837
 10
34.5237725551
 20
96.0985885709
 10
34.5250826218
 20
96.2950733192
 10
34.5238635079
 20
96.4676345289
 10
34.5201679935
 20
96.6133255422
 10
34.5140208057
 20
96.7296553524
 10
34.5055653379
 20
96.8146311443
 10
34.4948862
 20
96.8667924845
 10
34.4822557664
 20
96.885237242
  0
LINE
  5
6B9
100
AcDbEntity
  8
94621099000_BL17
100
AcDbLine
 62
9
  6
CONTINUOUS
 10
44.0866429363
 20
93.8757603756
 11
45.9819710238
 21
93.8757603756
  0
LINE
  5
6BA
100
AcDbEntity
  8
94621099000_BL17
100
AcDbLine
 62
9
  6
CONTINUOUS
 10
34.4818273777
 20
94.8852671697
 11
29.9819710238
 21
94.8852671633
  0
LINE
  5
6BB
100
AcDbEntity
  8
94621099000_BL17
100
AcDbLine
 62
9
  6
CONTINUOUS
 10
44.0866429363
 20
93.8757603756
 11
34.4818273777
 21
94.8852671697
  0
LINE
  5
6BC
100
AcDbEntity
  8
94621099000_BL17
100
AcDbLine
 62
7
  6
CONTINUOUS
 10
34.4819710238
 20
96.8852671697
 11
29.9819710238
 21
96.8852671697
  0
LINE
  5
6BD
100
AcDbEntity
  8
94621099000_BL17
100
AcDbLine
 62
7
  6
CONTINUOUS
 10
27.5819710238
 20
96.8852671697
 11
27.4819710238
 21
96.8852671697
  0
LINE
  5
6BE
100
AcDbEntity
  8
94621099000_BL17
100
AcDbLine
 62
7
  6
CONTINUOUS
 10
44.1910279503
 20
95.8648041663
 11
34.4822557664
 21
96.885237242
  0
LINE
  5
6BF
100
AcDbEntity
  8
94621099000_BL17
100
AcDbLine
 62
9
  6
CONTINUOUS
 10
44.0866429363
 20
86.3947739639
 11
44.0866429363
 21
93.8757603756
  0
LWPOLYLINE
  5
6C0
100
AcDbEntity
  8
94621099000_BL17
100
AcDbPolyline
 62
9
  6
CONTINUOUS
 90
15
 70
0
 10
44.0866429363
 20
93.8757603756
 10
44.1092407509
 20
94.0975349294
 10
44.1302600539
 20
94.3166264286
 10
44.1494406948
 20
94.5303156743
 10
44.1665288218
 20
94.7358669521
 10
44.181295777
 20
94.9306533405
 10
44.1935701938
 20
95.1122599622
 10
44.2032082479
 20
95.2784167953
 10
44.2100849432
 20
95.4270483319
 10
44.2141133734
 20
95.5562976513
 10
44.2152422277
 20
95.6645499953
 10
44.2134559141
 20
95.7504613114
 10
44.2087773469
 20
95.8129333155
 10
44.2012688972
 20
95.8511930034
 10
44.1910279503
 20
95.8648041663
  0
LWPOLYLINE
  5
6C1
100
AcDbEntity
  8
94621099000_BL17
100
AcDbPolyline
 62
9
  6
CONTINUOUS
 90
15
 70
0
 10
44.1910279503
 20
84.4057301731
 10
44.2012688972
 20
84.419341336
 10
44.2087773469
 20
84.4576010239
 10
44.2134559141
 20
84.520073028
 10
44.2152422277
 20
84.6059843441
 10
44.2141133734
 20
84.7142366882
 10
44.2100849432
 20
84.8434860075
 10
44.2032082479
 20
84.9921175441
 10
44.1935701938
 20
85.1582743772
 10
44.181295777
 20
85.3398809989
 10
44.1665288218
 20
85.5346673873
 10
44.1494406948
 20
85.7402186651
 10
44.1302600539
 20
85.9539079108
 10
44.1092407509
 20
86.17299941
 10
44.0866429363
 20
86.3947739639
  0
LINE
  5
6C2
100
AcDbEntity
  8
94621099000_BL17
100
AcDbLine
 62
7
  6
CONTINUOUS
 10
45.9819710238
 20
86.3947739639
 11
45.9819710238
 21
93.8757603756
  0
ARC
  5
6C3
100
AcDbEntity
  8
94621099000_BL17
100
AcDbCircle
 62
7
  6
CONTINUOUS
 10
43.9819710238
 20
1721.7188527899
 40
2.0
100
AcDbArc
 50
273.0
 51
360.0
  0
ARC
  5
6C4
100
AcDbEntity
  8
94621099000_BL17
100
AcDbCircle
 62
7
  6
CONTINUOUS
 10
43.9819710238
 20
1779.1735378067
 40
2.0
100
AcDbArc
 50
0.0
 51
87.0
  0
ARC
  5
6C5
100
AcDbEntity
  8
94621099000_BL17
100
AcDbCircle
 62
7
  6
CONTINUOUS
 10
30.4819710238
 20
1718.0072840245
 40
0.9999822601
100
AcDbArc
 50
93.0001598141
 51
120.04079121
  0
ARC
  5
6C6
100
AcDbEntity
  8
94621099000_BL17
100
AcDbCircle
 62
7
  6
CONTINUOUS
 10
30.4819710238
 20
1782.8851065721
 40
0.9999822601
100
AcDbArc
 50
239.9592103599
 51
266.9998401859
  0
ARC
  5
6C7
100
AcDbEntity
  8
94621099000_BL17
100
AcDbCircle
 62
7
  6
CONTINUOUS
 10
43.9819710238
 20
86.3947739639
 40
2.0
100
AcDbArc
 50
276.0
 51
360.0
  0
ARC
  5
6C8
100
AcDbEntity
  8
94621099000_BL17
100
AcDbCircle
 62
7
  6
CONTINUOUS
 10
43.9819710238
 20
93.8757603756
 40
2.0
100
AcDbArc
 50
0.0
 51
84.0
  0
ELLIPSE
  5
6C9
100
AcDbEntity
  8
94621099000_BL17
100
AcDbEllipse
 62
7
  6
CONTINUOUS
 10
53.5106999323
 20
1722.2182323114
 30
0.0
 11
19.02843458
 21
1.0083771
 31
0.0
 40
0.1049569824
 41
3.1360307076
 42
3.1415013319
  0
ELLIPSE
  5
6CA
100
AcDbEntity
  8
94621099000_BL17
100
AcDbEllipse
 62
7
  6
CONTINUOUS
 10
53.5106999323
 20
1778.6741582852
 30
0.0
 11
19.02843458
 21
-1.0083771
 31
0.0
 40
0.1049569824
 41
-3.1415013319
 42
-3.1360307076
  0
ENDBLK
  5
6CB
100
AcDbEntity
  8
0
  6
BYBLOCK
 62
0
100
AcDbBlockEnd
  0
BLOCK
  5
6CC
100
AcDbEntity
  8
94944601000_M2_BL18
100
AcDbBlockBegin
  2
94944601000_M2_BL18
 70
64
 10
85.1798512109
 20
1419.9461952983
  3
94944601000_M2_BL18
  1

  0
LINE
  5
6CD
100
AcDbEntity
  8
94944601000_M2_BL18
100
AcDbLine
 62
7
  6
CONTINUOUS
 10
140.7104065009
 20
1415.7712701493
 11
140.7104065009
 21
1424.1211204473
  0
LINE
  5
6CE
100
AcDbEntity
  8
94944601000_M2_BL18
100
AcDbLine
 62
7
  6
CENTER
 10
143.8104065009
 20
1419.9461952983
 11
143.8104065009
 21
1412.3788704011
  0
LINE
  5
6CF
100
AcDbEntity
  8
94944601000_M2_BL18
100
AcDbLine
 62
7
  6
CENTER
 10
143.8104065009
 20
1419.9461952983
 11
143.8104065009
 21
1427.5135201954
  0
LINE
  5
6D0
100
AcDbEntity
  8
94944601000_M2_BL18
100
AcDbLine
 62
7
  6
CONTINUOUS
 10
146.9104065009
 20
1415.7712701493
 11
146.9104065009
 21
1424.1211204473
  0
LINE
  5
6D1
100
AcDbEntity
  8
94944601000_M2_BL18
100
AcDbLine
 62
7
  6
CENTER
 10
143.8104065009
 20
1419.9461952983
 11
136.2430816038
 21
1419.9461952983
  0
LINE
  5
6D2
100
AcDbEntity
  8
94944601000_M2_BL18
100
AcDbLine
 62
7
  6
CENTER
 10
143.8104065009
 20
1419.9461952983
 11
151.3777313981
 21
1419.9461952983
  0
LINE
  5
6D3
100
AcDbEntity
  8
94944601000_M2_BL18
100
AcDbLine
 62
7
  6
CENTER
 10
32.9819710238
 20
1419.9461952983
 11
18.9819710238
 21
1419.9461952983
  0
ARC
  5
6D4
100
AcDbEntity
  8
94944601000_M2_BL18
100
AcDbCircle
 62
7
  6
CONTINUOUS
 10
143.8104065009
 20
1419.9461952983
 40
5.2
100
AcDbArc
 50
233.4050690444
 51
306.5949309556
  0
ARC
  5
6D5
100
AcDbEntity
  8
94944601000_M2_BL18
100
AcDbCircle
 62
7
  6
CONTINUOUS
 10
143.8104065009
 20
1419.9461952983
 40
5.2
100
AcDbArc
 50
53.4050690444
 51
126.5949309556
  0
ARC
  5
6D6
100
AcDbEntity
  8
94944601000_M2_BL18
100
AcDbCircle
 62
7
  6
CONTINUOUS
 10
143.8104065009
 20
1419.9461952983
 40
3.2812557855
100
AcDbArc
 50
199.1330091787
 51
340.8669908213
  0
ARC
  5
6D7
100
AcDbEntity
  8
94944601000_M2_BL18
100
AcDbCircle
 62
7
  6
CONTINUOUS
 10
143.8104065009
 20
1419.9461952983
 40
3.2812557855
100
AcDbArc
 50
19.1330091787
 51
160.8669908213
  0
CIRCLE
  5
6D8
100
AcDbEntity
  8
94944601000_M2_BL18
100
AcDbCircle
 62
7
  6
CONTINUOUS
 10
143.8104065009
 20
1419.9461952983
 40
2.6
  0
ENDBLK
  5
6D9
100
AcDbEntity
  8
0
  6
BYBLOCK
 62
0
100
AcDbBlockEnd
  0
BLOCK
  5
6DA
100
AcDbEntity
  8
94944601000_M2_BL19
100
AcDbBlockBegin
  2
94944601000_M2_BL19
 70
64
 10
85.4961887624
 20
1570.4461952983
  3
94944601000_M2_BL19
  1

  0
LINE
  5
6DB
100
AcDbEntity
  8
94944601000_M2_BL19
100
AcDbLine
 62
7
  6
CONTINUOUS
 10
140.7104065009
 20
1566.2712701493
 11
140.7104065009
 21
1574.6211204473
  0
LINE
  5
6DC
100
AcDbEntity
  8
94944601000_M2_BL19
100
AcDbLine
 62
7
  6
CENTER
 10
143.8104065009
 20
1570.4461952983
 11
143.8104065009
 21
1562.2461952983
  0
LINE
  5
6DD
100
AcDbEntity
  8
94944601000_M2_BL19
100
AcDbLine
 62
7
  6
CENTER
 10
143.8104065009
 20
1570.4461952983
 11
143.8104065009
 21
1578.6461952983
  0
LINE
  5
6DE
100
AcDbEntity
  8
94944601000_M2_BL19
100
AcDbLine
 62
7
  6
CONTINUOUS
 10
146.9104065009
 20
1566.2712701493
 11
146.9104065009
 21
1574.6211204473
  0
LINE
  5
6DF
100
AcDbEntity
  8
94944601000_M2_BL19
100
AcDbLine
 62
7
  6
CENTER
 10
143.8104065009
 20
1570.4461952983
 11
135.6104065009
 21
1570.4461952983
  0
LINE
  5
6E0
100
AcDbEntity
  8
94944601000_M2_BL19
100
AcDbLine
 62
7
  6
CENTER
 10
143.8104065009
 20
1570.4461952983
 11
152.0104065009
 21
1570.4461952983
  0
LINE
  5
6E1
100
AcDbEntity
  8
94944601000_M2_BL19
100
AcDbLine
 62
7
  6
CENTER
 10
32.9819710238
 20
1570.4461952983
 11
18.9819710238
 21
1570.4461952983
  0
ARC
  5
6E2
100
AcDbEntity
  8
94944601000_M2_BL19
100
AcDbCircle
 62
7
  6
CONTINUOUS
 10
143.8104065009
 20
1570.4461952983
 40
5.2
100
AcDbArc
 50
233.4050690444
 51
306.5949309556
  0
ARC
  5
6E3
100
AcDbEntity
  8
94944601000_M2_BL19
100
AcDbCircle
 62
7
  6
CONTINUOUS
 10
143.8104065009
 20
1570.4461952983
 40
5.2
100
AcDbArc
 50
53.4050690444
 51
126.5949309556
  0
ARC
  5
6E4
100
AcDbEntity
  8
94944601000_M2_BL19
100
AcDbCircle
 62
7
  6
CONTINUOUS
 10
143.8104065009
 20
1570.4461952983
 40
3.2812557855
100
AcDbArc
 50
199.1330091787
 51
340.8669908213
  0
ARC
  5
6E5
100
AcDbEntity
  8
94944601000_M2_BL19
100
AcDbCircle
 62
7
  6
CONTINUOUS
 10
143.8104065009
 20
1570.4461952983
 40
3.2812557855
100
AcDbArc
 50
19.1330091787
 51
160.8669908213
  0
CIRCLE
  5
6E6
100
AcDbEntity
  8
94944601000_M2_BL19
100
AcDbCircle
 62
7
  6
CONTINUOUS
 10
143.8104065009
 20
1570.4461952983
 40
2.6
  0
ENDBLK
  5
6E7
100
AcDbEntity
  8
0
  6
BYBLOCK
 62
0
100
AcDbBlockEnd
  0
BLOCK
  5
6E8
100
AcDbEntity
  8
94944601000_M2_BL20
100
AcDbBlockBegin
  2
94944601000_M2_BL20
 70
64
 10
85.4961887624
 20
1649.4461952983
  3
94944601000_M2_BL20
  1

  0
LINE
  5
6E9
100
AcDbEntity
  8
94944601000_M2_BL20
100
AcDbLine
 62
7
  6
CONTINUOUS
 10
140.7104065009
 20
1645.2712701493
 11
140.7104065009
 21
1653.6211204473
  0
LINE
  5
6EA
100
AcDbEntity
  8
94944601000_M2_BL20
100
AcDbLine
 62
7
  6
CENTER
 10
143.8104065009
 20
1649.4461952983
 11
143.8104065009
 21
1641.2461952983
  0
LINE
  5
6EB
100
AcDbEntity
  8
94944601000_M2_BL20
100
AcDbLine
 62
7
  6
CENTER
 10
143.8104065009
 20
1649.4461952983
 11
143.8104065009
 21
1657.6461952983
  0
LINE
  5
6EC
100
AcDbEntity
  8
94944601000_M2_BL20
100
AcDbLine
 62
7
  6
CONTINUOUS
 10
146.9104065009
 20
1645.2712701493
 11
146.9104065009
 21
1653.6211204473
  0
LINE
  5
6ED
100
AcDbEntity
  8
94944601000_M2_BL20
100
AcDbLine
 62
7
  6
CENTER
 10
143.8104065009
 20
1649.4461952983
 11
135.6104065009
 21
1649.4461952983
  0
LINE
  5
6EE
100
AcDbEntity
  8
94944601000_M2_BL20
100
AcDbLine
 62
7
  6
CENTER
 10
143.8104065009
 20
1649.4461952983
 11
152.0104065009
 21
1649.4461952983
  0
LINE
  5
6EF
100
AcDbEntity
  8
94944601000_M2_BL20
100
AcDbLine
 62
7
  6
CENTER
 10
32.9819710238
 20
1649.4461952983
 11
18.9819710238
 21
1649.4461952983
  0
ARC
  5
6F0
100
AcDbEntity
  8
94944601000_M2_BL20
100
AcDbCircle
 62
7
  6
CONTINUOUS
 10
143.8104065009
 20
1649.4461952983
 40
5.2
100
AcDbArc
 50
233.4050690444
 51
306.5949309556
  0
ARC
  5
6F1
100
AcDbEntity
  8
94944601000_M2_BL20
100
AcDbCircle
 62
7
  6
CONTINUOUS
 10
143.8104065009
 20
1649.4461952983
 40
5.2
100
AcDbArc
 50
53.4050690444
 51
126.5949309556
  0
ARC
  5
6F2
100
AcDbEntity
  8
94944601000_M2_BL20
100
AcDbCircle
 62
7
  6
CONTINUOUS
 10
143.8104065009
 20
1649.4461952983
 40
3.2812557855
100
AcDbArc
 50
199.1330091787
 51
340.8669908213
  0
ARC
  5
6F3
100
AcDbEntity
  8
94944601000_M2_BL20
100
AcDbCircle
 62
7
  6
CONTINUOUS
 10
143.8104065009
 20
1649.4461952983
 40
3.2812557855
100
AcDbArc
 50
19.1330091787
 51
160.8669908213
  0
CIRCLE
  5
6F4
100
AcDbEntity
  8
94944601000_M2_BL20
100
AcDbCircle
 62
7
  6
CONTINUOUS
 10
143.8104065009
 20
1649.4461952983
 40
2.6
  0
ENDBLK
  5
6F5
100
AcDbEntity
  8
0
  6
BYBLOCK
 62
0
100
AcDbBlockEnd
  0
BLOCK
  5
6F6
100
AcDbEntity
  8
94944601000_M2_BL21
100
AcDbBlockBegin
  2
94944601000_M2_BL21
 70
64
 10
85.4961887624
 20
949.815731234
  3
94944601000_M2_BL21
  1

  0
LINE
  5
6F7
100
AcDbEntity
  8
94944601000_M2_BL21
100
AcDbLine
 62
7
  6
CONTINUOUS
 10
140.7104065009
 20
1804.3712701493
 11
140.7104065009
 21
1812.7211204473
  0
LINE
  5
6F8
100
AcDbEntity
  8
94944601000_M2_BL21
100
AcDbLine
 62
7
  6
CENTER
 10
143.8104065009
 20
1808.5461952983
 11
143.8104065009
 21
1800.3461952983
  0
LINE
  5
6F9
100
AcDbEntity
  8
94944601000_M2_BL21
100
AcDbLine
 62
7
  6
CENTER
 10
143.8104065009
 20
1808.5461952983
 11
143.8104065009
 21
1816.7461952983
  0
LINE
  5
6FA
100
AcDbEntity
  8
94944601000_M2_BL21
100
AcDbLine
 62
7
  6
CONTINUOUS
 10
146.9104065009
 20
1804.3712701493
 11
146.9104065009
 21
1812.7211204473
  0
LINE
  5
6FB
100
AcDbEntity
  8
94944601000_M2_BL21
100
AcDbLine
 62
7
  6
CENTER
 10
143.8104065009
 20
1808.5461952983
 11
135.6104065009
 21
1808.5461952983
  0
LINE
  5
6FC
100
AcDbEntity
  8
94944601000_M2_BL21
100
AcDbLine
 62
7
  6
CENTER
 10
143.8104065009
 20
1808.5461952983
 11
152.0104065009
 21
1808.5461952983
  0
LINE
  5
6FD
100
AcDbEntity
  8
94944601000_M2_BL21
100
AcDbLine
 62
7
  6
CENTER
 10
32.9819710238
 20
1808.5461952983
 11
18.9819710238
 21
1808.5461952983
  0
LINE
  5
6FE
100
AcDbEntity
  8
94944601000_M2_BL21
100
AcDbLine
 62
7
  6
CONTINUOUS
 10
27.5819710238
 20
83.1852671697
 11
27.5819710238
 21
101.5852671697
  0
LINE
  5
6FF
100
AcDbEntity
  8
94944601000_M2_BL21
100
AcDbLine
 62
9
  6
CONTINUOUS
 10
27.8819710238
 20
82.8852671697
 11
27.8819710238
 21
101.8852671697
  0
LINE
  5
700
100
AcDbEntity
  8
94944601000_M2_BL21
100
AcDbLine
 62
7
  6
CONTINUOUS
 10
27.8819710238
 20
82.8852671697
 11
29.6819710238
 21
82.8852671697
  0
LINE
  5
701
100
AcDbEntity
  8
94944601000_M2_BL21
100
AcDbLine
 62
9
  6
CONTINUOUS
 10
29.6819710238
 20
101.8852671697
 11
29.6819710238
 21
82.8852671697
  0
LINE
  5
702
100
AcDbEntity
  8
94944601000_M2_BL21
100
AcDbLine
 62
7
  6
CONTINUOUS
 10
29.9819710238
 20
101.5852671697
 11
29.9819710238
 21
83.1852671697
  0
LINE
  5
703
100
AcDbEntity
  8
94944601000_M2_BL21
100
AcDbLine
 62
9
  6
CONTINUOUS
 10
27.5819710238
 20
84.3852671697
 11
29.9819710238
 21
84.3852671697
  0
LINE
  5
704
100
AcDbEntity
  8
94944601000_M2_BL21
100
AcDbLine
 62
7
  6
CONTINUOUS
 10
26.9819710238
 20
89.2852671697
 11
27.5819710238
 21
89.2852671697
  0
LINE
  5
705
100
AcDbEntity
  8
94944601000_M2_BL21
100
AcDbLine
 62
9
  6
CONTINUOUS
 10
26.9819710238
 20
89.7852671697
 11
27.5819710238
 21
89.7852671697
  0
LINE
  5
706
100
AcDbEntity
  8
94944601000_M2_BL21
100
AcDbLine
 62
9
  6
CONTINUOUS
 10
26.9819710238
 20
94.9852671697
 11
27.5819710238
 21
94.9852671697
  0
LINE
  5
707
100
AcDbEntity
  8
94944601000_M2_BL21
100
AcDbLine
 62
7
  6
CONTINUOUS
 10
26.9819710238
 20
95.4852671697
 11
27.5819710238
 21
95.4852671697
  0
LINE
  5
708
100
AcDbEntity
  8
94944601000_M2_BL21
100
AcDbLine
 62
9
  6
CONTINUOUS
 10
27.5819710238
 20
100.3852671697
 11
29.9819710238
 21
100.3852671697
  0
LINE
  5
709
100
AcDbEntity
  8
94944601000_M2_BL21
100
AcDbLine
 62
7
  6
CONTINUOUS
 10
27.8819710238
 20
101.8852671697
 11
29.6819710238
 21
101.8852671697
  0
ARC
  5
70A
100
AcDbEntity
  8
94944601000_M2_BL21
100
AcDbCircle
 62
7
  6
CONTINUOUS
 10
143.8104065009
 20
1808.5461952983
 40
5.2
100
AcDbArc
 50
233.4050690444
 51
306.5949309556
  0
ARC
  5
70B
100
AcDbEntity
  8
94944601000_M2_BL21
100
AcDbCircle
 62
7
  6
CONTINUOUS
 10
143.8104065009
 20
1808.5461952983
 40
5.2
100
AcDbArc
 50
53.4050690444
 51
126.5949309556
  0
ARC
  5
70C
100
AcDbEntity
  8
94944601000_M2_BL21
100
AcDbCircle
 62
7
  6
CONTINUOUS
 10
143.8104065009
 20
1808.5461952983
 40
3.2812557855
100
AcDbArc
 50
199.1330091787
 51
340.8669908213
  0
ARC
  5
70D
100
AcDbEntity
  8
94944601000_M2_BL21
100
AcDbCircle
 62
7
  6
CONTINUOUS
 10
143.8104065009
 20
1808.5461952983
 40
3.2812557855
100
AcDbArc
 50
19.1330091787
 51
160.8669908213
  0
CIRCLE
  5
70E
100
AcDbEntity
  8
94944601000_M2_BL21
100
AcDbCircle
 62
7
  6
CONTINUOUS
 10
143.8104065009
 20
1808.5461952983
 40
2.6
  0
ARC
  5
70F
100
AcDbEntity
  8
94944601000_M2_BL21
100
AcDbCircle
 62
7
  6
CONTINUOUS
 10
27.8819710238
 20
83.1852671697
 40
0.3
100
AcDbArc
 50
180.0
 51
270.0
  0
ARC
  5
710
100
AcDbEntity
  8
94944601000_M2_BL21
100
AcDbCircle
 62
7
  6
CONTINUOUS
 10
29.6819710238
 20
83.1852671697
 40
0.3
100
AcDbArc
 50
270.0
 51
360.0
  0
ARC
  5
711
100
AcDbEntity
  8
94944601000_M2_BL21
100
AcDbCircle
 62
7
  6
CONTINUOUS
 10
29.6819710238
 20
101.5852671697
 40
0.3
100
AcDbArc
 50
0.0
 51
90.0
  0
ARC
  5
712
100
AcDbEntity
  8
94944601000_M2_BL21
100
AcDbCircle
 62
7
  6
CONTINUOUS
 10
27.8819710238
 20
101.5852671697
 40
0.3
100
AcDbArc
 50
90.0
 51
180.0
  0
ENDBLK
  5
713
100
AcDbEntity
  8
0
  6
BYBLOCK
 62
0
100
AcDbBlockEnd
  0
BLOCK
  5
714
100
AcDbEntity
  8
94320001000_M1_BL22
100
AcDbBlockBegin
  2
94320001000_M1_BL22
 70
64
 10
87.9211887624
 20
1330.4461952983
  3
94320001000_M1_BL22
  1

  0
LINE
  5
715
100
AcDbEntity
  8
94320001000_M1_BL22
100
AcDbLine
 62
7
  6
CONTINUOUS
 10
30.3819710238
 20
1328.6961952983
 11
30.0819710238
 21
1328.3961952983
  0
LINE
  5
716
100
AcDbEntity
  8
94320001000_M1_BL22
100
AcDbLine
 62
7
  6
CONTINUOUS
 10
30.0819710238
 20
1332.4961952983
 11
30.0819710238
 21
1328.3961952983
  0
LINE
  5
717
100
AcDbEntity
  8
94320001000_M1_BL22
100
AcDbLine
 62
7
  6
CONTINUOUS
 10
30.3819710238
 20
1332.1961952983
 11
30.3819710238
 21
1328.6961952983
  0
LINE
  5
718
100
AcDbEntity
  8
94320001000_M1_BL22
100
AcDbLine
 62
7
  6
CONTINUOUS
 10
30.3819710238
 20
1332.1961952983
 11
30.0819710238
 21
1332.4961952983
  0
LINE
  5
719
100
AcDbEntity
  8
94320001000_M1_BL22
100
AcDbLine
 62
7
  6
CONTINUOUS
 10
30.0819710238
 20
1328.3961952983
 11
29.9819710238
 21
1328.3961952983
  0
LINE
  5
71A
100
AcDbEntity
  8
94320001000_M1_BL22
100
AcDbLine
 62
7
  6
CONTINUOUS
 10
29.9819710238
 20
1328.3961952983
 11
30.0819710238
 21
1328.3961952983
  0
LINE
  5
71B
100
AcDbEntity
  8
94320001000_M1_BL22
100
AcDbLine
 62
7
  6
CONTINUOUS
 10
30.0819710238
 20
1332.4961952983
 11
29.9819710238
 21
1332.4961952983
  0
LINE
  5
71C
100
AcDbEntity
  8
94320001000_M1_BL22
100
AcDbLine
 62
7
  6
CONTINUOUS
 10
29.9819710238
 20
1332.4961952983
 11
30.0819710238
 21
1332.4961952983
  0
CIRCLE
  5
71D
100
AcDbEntity
  8
94320001000_M1_BL22
100
AcDbCircle
 62
7
  6
CONTINUOUS
 10
143.8104065009
 20
1330.4461952983
 40
2.05
  0
ENDBLK
  5
71E
100
AcDbEntity
  8
0
  6
BYBLOCK
 62
0
100
AcDbBlockEnd
  0
BLOCK
  5
71F
100
AcDbEntity
  8
94320001000_M1_BL23
100
AcDbBlockBegin
  2
94320001000_M1_BL23
 70
64
 10
87.9211887624
 20
1282.4461952983
  3
94320001000_M1_BL23
  1

  0
LINE
  5
720
100
AcDbEntity
  8
94320001000_M1_BL23
100
AcDbLine
 62
7
  6
CONTINUOUS
 10
30.3819710238
 20
1280.6961952983
 11
30.0819710238
 21
1280.3961952983
  0
LINE
  5
721
100
AcDbEntity
  8
94320001000_M1_BL23
100
AcDbLine
 62
7
  6
CONTINUOUS
 10
30.0819710238
 20
1284.4961952983
 11
30.0819710238
 21
1280.3961952983
  0
LINE
  5
722
100
AcDbEntity
  8
94320001000_M1_BL23
100
AcDbLine
 62
7
  6
CONTINUOUS
 10
30.3819710238
 20
1284.1961952983
 11
30.3819710238
 21
1280.6961952983
  0
LINE
  5
723
100
AcDbEntity
  8
94320001000_M1_BL23
100
AcDbLine
 62
7
  6
CONTINUOUS
 10
30.3819710238
 20
1284.1961952983
 11
30.0819710238
 21
1284.4961952983
  0
LINE
  5
724
100
AcDbEntity
  8
94320001000_M1_BL23
100
AcDbLine
 62
7
  6
CONTINUOUS
 10
30.0819710238
 20
1280.3961952983
 11
29.9819710238
 21
1280.3961952983
  0
LINE
  5
725
100
AcDbEntity
  8
94320001000_M1_BL23
100
AcDbLine
 62
7
  6
CONTINUOUS
 10
29.9819710238
 20
1280.3961952983
 11
30.0819710238
 21
1280.3961952983
  0
LINE
  5
726
100
AcDbEntity
  8
94320001000_M1_BL23
100
AcDbLine
 62
7
  6
CONTINUOUS
 10
30.0819710238
 20
1284.4961952983
 11
29.9819710238
 21
1284.4961952983
  0
LINE
  5
727
100
AcDbEntity
  8
94320001000_M1_BL23
100
AcDbLine
 62
7
  6
CONTINUOUS
 10
29.9819710238
 20
1284.4961952983
 11
30.0819710238
 21
1284.4961952983
  0
CIRCLE
  5
728
100
AcDbEntity
  8
94320001000_M1_BL23
100
AcDbCircle
 62
7
  6
CONTINUOUS
 10
143.8104065009
 20
1282.4461952983
 40
2.05
  0
ENDBLK
  5
729
100
AcDbEntity
  8
0
  6
BYBLOCK
 62
0
100
AcDbBlockEnd
  0
BLOCK
  5
72A
100
AcDbEntity
  8
94320001000_M1_BL24
100
AcDbBlockBegin
  2
94320001000_M1_BL24
 70
64
 10
30.1819710238
 20
1258.4461952983
  3
94320001000_M1_BL24
  1

  0
LINE
  5
72B
100
AcDbEntity
  8
94320001000_M1_BL24
100
AcDbLine
 62
7
  6
CONTINUOUS
 10
30.3819710238
 20
1256.6961952983
 11
30.0819710238
 21
1256.3961952983
  0
LINE
  5
72C
100
AcDbEntity
  8
94320001000_M1_BL24
100
AcDbLine
 62
7
  6
CONTINUOUS
 10
30.0819710238
 20
1260.4961952983
 11
30.0819710238
 21
1256.3961952983
  0
LINE
  5
72D
100
AcDbEntity
  8
94320001000_M1_BL24
100
AcDbLine
 62
7
  6
CONTINUOUS
 10
30.3819710238
 20
1260.1961952983
 11
30.3819710238
 21
1256.6961952983
  0
LINE
  5
72E
100
AcDbEntity
  8
94320001000_M1_BL24
100
AcDbLine
 62
7
  6
CONTINUOUS
 10
30.0819710238
 20
1256.3961952983
 11
29.9819710238
 21
1256.3961952983
  0
LINE
  5
72F
100
AcDbEntity
  8
94320001000_M1_BL24
100
AcDbLine
 62
7
  6
CONTINUOUS
 10
29.9819710238
 20
1256.3961952983
 11
30.0819710238
 21
1256.3961952983
  0
LINE
  5
730
100
AcDbEntity
  8
94320001000_M1_BL24
100
AcDbLine
 62
7
  6
CONTINUOUS
 10
30.0819710238
 20
1260.4961952983
 11
29.9819710238
 21
1260.4961952983
  0
LINE
  5
731
100
AcDbEntity
  8
94320001000_M1_BL24
100
AcDbLine
 62
7
  6
CONTINUOUS
 10
29.9819710238
 20
1260.4961952983
 11
30.0819710238
 21
1260.4961952983
  0
LINE
  5
732
100
AcDbEntity
  8
94320001000_M1_BL24
100
AcDbLine
 62
7
  6
CONTINUOUS
 10
30.3819710238
 20
1260.1961952983
 11
30.0819710238
 21
1260.4961952983
  0
ENDBLK
  5
733
100
AcDbEntity
  8
0
  6
BYBLOCK
 62
0
100
AcDbBlockEnd
  0
BLOCK
  5
734
100
AcDbEntity
  8
91324208R00_BL25
100
AcDbBlockBegin
  2
91324208R00_BL25
 70
64
 10
89.2711887624
 20
1019.1961952983
  3
91324208R00_BL25
  1

  0
LINE
  5
735
100
AcDbEntity
  8
91324208R00_BL25
100
AcDbLine
 62
7
  6
CONTINUOUS
 10
30.0819710238
 20
1020.6961952983
 11
29.9819710238
 21
1020.7539303252
  0
LINE
  5
736
100
AcDbEntity
  8
91324208R00_BL25
100
AcDbLine
 62
7
  6
CONTINUOUS
 10
30.0819710238
 20
1017.6961952983
 11
30.0819710238
 21
1020.6961952983
  0
LINE
  5
737
100
AcDbEntity
  8
91324208R00_BL25
100
AcDbLine
 62
7
  6
CONTINUOUS
 10
30.0819710238
 20
1017.6961952983
 11
29.9819710238
 21
1017.6384602714
  0
ARC
  5
738
100
AcDbEntity
  8
91324208R00_BL25
100
AcDbCircle
 62
7
  6
CONTINUOUS
 10
143.1354065009
 20
1019.1961952983
 40
0.475
100
AcDbArc
 50
308.5850691499
 51
51.4149308501
  0
ARC
  5
739
100
AcDbEntity
  8
91324208R00_BL25
100
AcDbCircle
 62
7
  6
CONTINUOUS
 10
143.9041041184
 20
1017.6525904294
 40
0.59
100
AcDbArc
 50
12.9620900983
 51
105.8657622929
  0
ARC
  5
73A
100
AcDbEntity
  8
91324208R00_BL25
100
AcDbCircle
 62
7
  6
CONTINUOUS
 10
143.9041041184
 20
1020.7398001672
 40
0.59
100
AcDbArc
 50
254.1342377071
 51
347.0379099017
  0
ARC
  5
73B
100
AcDbEntity
  8
91324208R00_BL25
100
AcDbCircle
 62
7
  6
CONTINUOUS
 10
143.6479810354
 20
1018.5537609807
 40
0.3468603931
100
AcDbArc
 50
128.58506915
 51
200.9627847462
  0
ARC
  5
73C
100
AcDbEntity
  8
91324208R00_BL25
100
AcDbCircle
 62
7
  6
CONTINUOUS
 10
143.6479810354
 20
1018.5537609807
 40
0.3468603931
100
AcDbArc
 50
224.2742065745
 51
285.8657622928
  0
ARC
  5
73D
100
AcDbEntity
  8
91324208R00_BL25
100
AcDbCircle
 62
7
  6
CONTINUOUS
 10
143.6479810354
 20
1019.8386296159
 40
0.3468603931
100
AcDbArc
 50
74.1342377072
 51
135.7045435659
  0
ARC
  5
73E
100
AcDbEntity
  8
91324208R00_BL25
100
AcDbCircle
 62
7
  6
CONTINUOUS
 10
143.6479810354
 20
1019.8386296159
 40
0.3468603931
100
AcDbArc
 50
159.3384694045
 51
231.41493085
  0
CIRCLE
  5
73F
100
AcDbEntity
  8
91324208R00_BL25
100
AcDbCircle
 62
7
  6
CONTINUOUS
 10
144.8104065009
 20
1019.1961952983
 40
3.75
  0
CIRCLE
  5
740
100
AcDbEntity
  8
91324208R00_BL25
100
AcDbCircle
 62
7
  6
CONTINUOUS
 10
144.8104065009
 20
1019.1961952983
 40
1.675
  0
ARC
  5
741
100
AcDbEntity
  8
91324208R00_BL25
100
AcDbCircle
 62
7
  6
CONTINUOUS
 10
144.8104065009
 20
1017.8611952983
 40
0.34
100
AcDbArc
 50
192.9620900983
 51
256.3608518627
  0
ARC
  5
742
100
AcDbEntity
  8
91324208R00_BL25
100
AcDbCircle
 62
7
  6
CONTINUOUS
 10
144.8104065009
 20
1017.8611952983
 40
0.34
100
AcDbArc
 50
283.5024466018
 51
347.0379099017
  0
ARC
  5
743
100
AcDbEntity
  8
91324208R00_BL25
100
AcDbCircle
 62
7
  6
CONTINUOUS
 10
144.8104065009
 20
1020.5311952983
 40
0.34
100
AcDbArc
 50
12.9620900983
 51
76.3608518627
  0
ARC
  5
744
100
AcDbEntity
  8
91324208R00_BL25
100
AcDbCircle
 62
7
  6
CONTINUOUS
 10
144.8104065009
 20
1020.5311952983
 40
0.34
100
AcDbArc
 50
103.5024466018
 51
167.0379099017
  0
ARC
  5
745
100
AcDbEntity
  8
91324208R00_BL25
100
AcDbCircle
 62
7
  6
CONTINUOUS
 10
145.7167088835
 20
1020.7398001672
 40
0.59
100
AcDbArc
 50
192.9620900983
 51
285.8657622929
  0
ARC
  5
746
100
AcDbEntity
  8
91324208R00_BL25
100
AcDbCircle
 62
7
  6
CONTINUOUS
 10
145.7167088835
 20
1017.6525904294
 40
0.59
100
AcDbArc
 50
74.1342377071
 51
167.0379099017
  0
ARC
  5
747
100
AcDbEntity
  8
91324208R00_BL25
100
AcDbCircle
 62
7
  6
CONTINUOUS
 10
146.4854065009
 20
1019.1961952983
 40
0.475
100
AcDbArc
 50
128.5850691499
 51
231.4149308501
  0
ARC
  5
748
100
AcDbEntity
  8
91324208R00_BL25
100
AcDbCircle
 62
7
  6
CONTINUOUS
 10
145.9728319665
 20
1019.8386296159
 40
0.3468603931
100
AcDbArc
 50
308.58506915
 51
20.9627847462
  0
ARC
  5
749
100
AcDbEntity
  8
91324208R00_BL25
100
AcDbCircle
 62
7
  6
CONTINUOUS
 10
145.9728319665
 20
1019.8386296159
 40
0.3468603931
100
AcDbArc
 50
44.2742065745
 51
105.8657622928
  0
ARC
  5
74A
100
AcDbEntity
  8
91324208R00_BL25
100
AcDbCircle
 62
7
  6
CONTINUOUS
 10
145.9728319665
 20
1018.5537609807
 40
0.3468603931
100
AcDbArc
 50
254.1342377072
 51
315.7045435659
  0
ARC
  5
74B
100
AcDbEntity
  8
91324208R00_BL25
100
AcDbCircle
 62
7
  6
CONTINUOUS
 10
145.9728319665
 20
1018.5537609807
 40
0.3468603931
100
AcDbArc
 50
339.3384694045
 51
51.41493085
  0
ENDBLK
  5
74C
100
AcDbEntity
  8
0
  6
BYBLOCK
 62
0
100
AcDbBlockEnd
  0
BLOCK
  5
74D
100
AcDbEntity
  8
94996201000_BL26
100
AcDbBlockBegin
  2
94996201000_BL26
 70
64
 10
28.9819710238
 20
585.940731234
  3
94996201000_BL26
  1

  0
LINE
  5
74E
100
AcDbEntity
  8
94996201000_BL26
100
AcDbLine
 62
7
  6
CONTINUOUS
 10
28.9819710238
 20
1069.5961952983
 11
28.9819710238
 21
1069.4461952983
  0
LINE
  5
74F
100
AcDbEntity
  8
94996201000_BL26
100
AcDbLine
 62
7
  6
CONTINUOUS
 10
28.9819710238
 20
1021.4461952983
 11
28.9819710238
 21
1021.2961952983
  0
LINE
  5
750
100
AcDbEntity
  8
94996201000_BL26
100
AcDbLine
 62
3
  6
CONTINUOUS
 10
28.9819710238
 20
102.2852671697
 11
28.9819710238
 21
102.3852671697
  0
ENDBLK
  5
751
100
AcDbEntity
  8
0
  6
BYBLOCK
 62
0
100
AcDbBlockEnd
  0
BLOCK
  5
752
100
AcDbEntity
  8
94320001000_M1_BL27
100
AcDbBlockBegin
  2
94320001000_M1_BL27
 70
64
 10
87.9211887624
 20
1210.4461952983
  3
94320001000_M1_BL27
  1

  0
LINE
  5
753
100
AcDbEntity
  8
94320001000_M1_BL27
100
AcDbLine
 62
7
  6
CONTINUOUS
 10
30.0819710238
 20
1212.4961952983
 11
30.0819710238
 21
1208.3961952983
  0
LINE
  5
754
100
AcDbEntity
  8
94320001000_M1_BL27
100
AcDbLine
 62
7
  6
CONTINUOUS
 10
30.3819710238
 20
1212.1961952983
 11
30.3819710238
 21
1208.6961952983
  0
LINE
  5
755
100
AcDbEntity
  8
94320001000_M1_BL27
100
AcDbLine
 62
7
  6
CONTINUOUS
 10
30.3819710238
 20
1208.6961952983
 11
30.0819710238
 21
1208.3961952983
  0
LINE
  5
756
100
AcDbEntity
  8
94320001000_M1_BL27
100
AcDbLine
 62
7
  6
CONTINUOUS
 10
30.3819710238
 20
1212.1961952983
 11
30.0819710238
 21
1212.4961952983
  0
LINE
  5
757
100
AcDbEntity
  8
94320001000_M1_BL27
100
AcDbLine
 62
7
  6
CONTINUOUS
 10
30.0819710238
 20
1208.3961952983
 11
29.9819710238
 21
1208.3961952983
  0
LINE
  5
758
100
AcDbEntity
  8
94320001000_M1_BL27
100
AcDbLine
 62
7
  6
CONTINUOUS
 10
29.9819710238
 20
1208.3961952983
 11
30.0819710238
 21
1208.3961952983
  0
LINE
  5
759
100
AcDbEntity
  8
94320001000_M1_BL27
100
AcDbLine
 62
7
  6
CONTINUOUS
 10
30.0819710238
 20
1212.4961952983
 11
29.9819710238
 21
1212.4961952983
  0
LINE
  5
75A
100
AcDbEntity
  8
94320001000_M1_BL27
100
AcDbLine
 62
7
  6
CONTINUOUS
 10
29.9819710238
 20
1212.4961952983
 11
30.0819710238
 21
1212.4961952983
  0
CIRCLE
  5
75B
100
AcDbEntity
  8
94320001000_M1_BL27
100
AcDbCircle
 62
7
  6
CONTINUOUS
 10
143.8104065009
 20
1210.4461952983
 40
2.05
  0
ENDBLK
  5
75C
100
AcDbEntity
  8
0
  6
BYBLOCK
 62
0
100
AcDbBlockEnd
  0
BLOCK
  5
75D
100
AcDbEntity
  8
91324208R00_BL28
100
AcDbBlockBegin
  2
91324208R00_BL28
 70
64
 10
89.2711887624
 20
1071.6961952983
  3
91324208R00_BL28
  1

  0
LINE
  5
75E
100
AcDbEntity
  8
91324208R00_BL28
100
AcDbLine
 62
7
  6
CONTINUOUS
 10
30.0819710238
 20
1070.1961952983
 11
30.0819710238
 21
1073.1961952983
  0
LINE
  5
75F
100
AcDbEntity
  8
91324208R00_BL28
100
AcDbLine
 62
7
  6
CONTINUOUS
 10
30.0819710238
 20
1073.1961952983
 11
29.9819710238
 21
1073.2539303252
  0
LINE
  5
760
100
AcDbEntity
  8
91324208R00_BL28
100
AcDbLine
 62
7
  6
CONTINUOUS
 10
30.0819710238
 20
1070.1961952983
 11
29.9819710238
 21
1070.1384602714
  0
ARC
  5
761
100
AcDbEntity
  8
91324208R00_BL28
100
AcDbCircle
 62
7
  6
CONTINUOUS
 10
143.1354065009
 20
1071.6961952983
 40
0.475
100
AcDbArc
 50
308.5850691499
 51
51.4149308501
  0
ARC
  5
762
100
AcDbEntity
  8
91324208R00_BL28
100
AcDbCircle
 62
7
  6
CONTINUOUS
 10
143.9041041184
 20
1070.1525904294
 40
0.59
100
AcDbArc
 50
12.9620900983
 51
105.8657622928
  0
ARC
  5
763
100
AcDbEntity
  8
91324208R00_BL28
100
AcDbCircle
 62
7
  6
CONTINUOUS
 10
143.9041041184
 20
1073.2398001672
 40
0.59
100
AcDbArc
 50
254.1342377072
 51
347.0379099017
  0
ARC
  5
764
100
AcDbEntity
  8
91324208R00_BL28
100
AcDbCircle
 62
7
  6
CONTINUOUS
 10
143.6479810354
 20
1071.0537609807
 40
0.3468603931
100
AcDbArc
 50
128.58506915
 51
200.9627847462
  0
ARC
  5
765
100
AcDbEntity
  8
91324208R00_BL28
100
AcDbCircle
 62
7
  6
CONTINUOUS
 10
143.6479810354
 20
1071.0537609807
 40
0.3468603931
100
AcDbArc
 50
224.2742065745
 51
285.8657622928
  0
ARC
  5
766
100
AcDbEntity
  8
91324208R00_BL28
100
AcDbCircle
 62
7
  6
CONTINUOUS
 10
143.6479810354
 20
1072.3386296159
 40
0.3468603931
100
AcDbArc
 50
74.1342377072
 51
135.7045435659
  0
ARC
  5
767
100
AcDbEntity
  8
91324208R00_BL28
100
AcDbCircle
 62
7
  6
CONTINUOUS
 10
143.6479810354
 20
1072.3386296159
 40
0.3468603931
100
AcDbArc
 50
159.3384694045
 51
231.41493085
  0
CIRCLE
  5
768
100
AcDbEntity
  8
91324208R00_BL28
100
AcDbCircle
 62
7
  6
CONTINUOUS
 10
144.8104065009
 20
1071.6961952983
 40
3.75
  0
CIRCLE
  5
769
100
AcDbEntity
  8
91324208R00_BL28
100
AcDbCircle
 62
7
  6
CONTINUOUS
 10
144.8104065009
 20
1071.6961952983
 40
1.675
  0
ARC
  5
76A
100
AcDbEntity
  8
91324208R00_BL28
100
AcDbCircle
 62
7
  6
CONTINUOUS
 10
144.8104065009
 20
1070.3611952983
 40
0.34
100
AcDbArc
 50
192.9620900983
 51
256.3608518627
  0
ARC
  5
76B
100
AcDbEntity
  8
91324208R00_BL28
100
AcDbCircle
 62
7
  6
CONTINUOUS
 10
144.8104065009
 20
1070.3611952983
 40
0.34
100
AcDbArc
 50
283.5024466018
 51
347.0379099017
  0
ARC
  5
76C
100
AcDbEntity
  8
91324208R00_BL28
100
AcDbCircle
 62
7
  6
CONTINUOUS
 10
144.8104065009
 20
1073.0311952983
 40
0.34
100
AcDbArc
 50
12.9620900983
 51
76.3608518627
  0
ARC
  5
76D
100
AcDbEntity
  8
91324208R00_BL28
100
AcDbCircle
 62
7
  6
CONTINUOUS
 10
144.8104065009
 20
1073.0311952983
 40
0.34
100
AcDbArc
 50
103.5024466018
 51
167.0379099017
  0
ARC
  5
76E
100
AcDbEntity
  8
91324208R00_BL28
100
AcDbCircle
 62
7
  6
CONTINUOUS
 10
145.7167088835
 20
1073.2398001672
 40
0.59
100
AcDbArc
 50
192.9620900983
 51
285.8657622928
  0
ARC
  5
76F
100
AcDbEntity
  8
91324208R00_BL28
100
AcDbCircle
 62
7
  6
CONTINUOUS
 10
145.7167088835
 20
1070.1525904294
 40
0.59
100
AcDbArc
 50
74.1342377072
 51
167.0379099017
  0
ARC
  5
770
100
AcDbEntity
  8
91324208R00_BL28
100
AcDbCircle
 62
7
  6
CONTINUOUS
 10
146.4854065009
 20
1071.6961952983
 40
0.475
100
AcDbArc
 50
128.5850691499
 51
231.4149308501
  0
ARC
  5
771
100
AcDbEntity
  8
91324208R00_BL28
100
AcDbCircle
 62
7
  6
CONTINUOUS
 10
145.9728319665
 20
1072.3386296159
 40
0.3468603931
100
AcDbArc
 50
308.58506915
 51
20.9627847462
  0
ARC
  5
772
100
AcDbEntity
  8
91324208R00_BL28
100
AcDbCircle
 62
7
  6
CONTINUOUS
 10
145.9728319665
 20
1072.3386296159
 40
0.3468603931
100
AcDbArc
 50
44.2742065745
 51
105.8657622928
  0
ARC
  5
773
100
AcDbEntity
  8
91324208R00_BL28
100
AcDbCircle
 62
7
  6
CONTINUOUS
 10
145.9728319665
 20
1071.0537609807
 40
0.3468603931
100
AcDbArc
 50
254.1342377072
 51
315.7045435659
  0
ARC
  5
774
100
AcDbEntity
  8
91324208R00_BL28
100
AcDbCircle
 62
7
  6
CONTINUOUS
 10
145.9728319665
 20
1071.0537609807
 40
0.3468603931
100
AcDbArc
 50
339.3384694045
 51
51.41493085
  0
ENDBLK
  5
775
100
AcDbEntity
  8
0
  6
BYBLOCK
 62
0
100
AcDbBlockEnd
  0
BLOCK
  5
776
100
AcDbEntity
  8
94342601000_M_BL29
100
AcDbBlockBegin
  2
94342601000_M_BL29
 70
64
 10
26.6371310185
 20
1270.4461952983
  3
94342601000_M_BL29
  1

  0
LINE
  5
777
100
AcDbEntity
  8
94342601000_M_BL29
100
AcDbLine
 62
7
  6
CONTINUOUS
 10
23.4819710238
 20
1267.9461952983
 11
23.2819710238
 21
1267.9461952983
  0
LINE
  5
778
100
AcDbEntity
  8
94342601000_M_BL29
100
AcDbLine
 62
7
  6
CONTINUOUS
 10
23.4819710238
 20
1272.9461952983
 11
23.2819710238
 21
1272.9461952983
  0
ARC
  5
779
100
AcDbEntity
  8
94342601000_M_BL29
100
AcDbCircle
 62
7
  6
CONTINUOUS
 10
24.9819710238
 20
1270.4461952983
 40
5.5
100
AcDbArc
 50
335.6393652803
 51
24.3606347197
  0
ARC
  5
77A
100
AcDbEntity
  8
94342601000_M_BL29
100
AcDbCircle
 62
7
  6
CONTINUOUS
 10
24.9819710238
 20
1270.4461952983
 40
5.5
100
AcDbArc
 50
335.386066375
 51
24.613933625
  0
ENDBLK
  5
77B
100
AcDbEntity
  8
0
  6
BYBLOCK
 62
0
100
AcDbBlockEnd
  0
BLOCK
  5
77C
100
AcDbEntity
  8
94923403000_BL30
100
AcDbBlockBegin
  2
94923403000_BL30
 70
64
 10
25.4819710238
 20
92.3852671697
  3
94923403000_BL30
  1

  0
LINE
  5
77D
100
AcDbEntity
  8
94923403000_BL30
100
AcDbLine
 62
7
  6
CONTINUOUS
 10
23.9819710238
 20
89.2102671697
 11
23.9819710238
 21
95.5602671697
  0
LINE
  5
77E
100
AcDbEntity
  8
94923403000_BL30
100
AcDbLine
 62
7
  6
CONTINUOUS
 10
26.9819710238
 20
82.8852671697
 11
26.9819710238
 21
101.8852671697
  0
LINE
  5
77F
100
AcDbEntity
  8
94923403000_BL30
100
AcDbLine
 62
7
  6
CONTINUOUS
 10
26.9819710238
 20
82.8852671697
 11
23.9819710238
 21
82.8852671697
  0
LINE
  5
780
100
AcDbEntity
  8
94923403000_BL30
100
AcDbLine
 62
7
  6
CONTINUOUS
 10
23.9819710238
 20
85.1399477719
 11
26.9819710238
 21
85.1399477719
  0
LINE
  5
781
100
AcDbEntity
  8
94923403000_BL30
100
AcDbLine
 62
7
  6
CONTINUOUS
 10
23.9819710238
 20
88.3602671697
 11
26.9819710238
 21
88.3602671697
  0
LINE
  5
782
100
AcDbEntity
  8
94923403000_BL30
100
AcDbLine
 62
7
  6
CONTINUOUS
 10
23.9819710238
 20
89.2102671697
 11
26.9819710238
 21
89.2102671697
  0
LINE
  5
783
100
AcDbEntity
  8
94923403000_BL30
100
AcDbLine
 62
7
  6
CONTINUOUS
 10
23.9819710238
 20
95.5602671697
 11
26.9819710238
 21
95.5602671697
  0
LINE
  5
784
100
AcDbEntity
  8
94923403000_BL30
100
AcDbLine
 62
7
  6
CONTINUOUS
 10
23.9819710238
 20
96.4102671697
 11
26.9819710238
 21
96.4102671697
  0
LINE
  5
785
100
AcDbEntity
  8
94923403000_BL30
100
AcDbLine
 62
7
  6
CONTINUOUS
 10
23.9819710238
 20
99.6305865675
 11
26.9819710238
 21
99.6305865675
  0
LINE
  5
786
100
AcDbEntity
  8
94923403000_BL30
100
AcDbLine
 62
7
  6
CONTINUOUS
 10
23.9819710238
 20
101.8852671697
 11
26.9819710238
 21
101.8852671697
  0
ENDBLK
  5
787
100
AcDbEntity
  8
0
  6
BYBLOCK
 62
0
100
AcDbBlockEnd
  0
BLOCK
  5
788
100
AcDbEntity
  8
94968401R00_BL31
100
AcDbBlockBegin
  2
94968401R00_BL31
 70
64
 10
26.3319710238
 20
92.3852671787
  3
94968401R00_BL31
  1

  0
LINE
  5
789
100
AcDbEntity
  8
94968401R00_BL31
100
AcDbLine
 62
7
  6
CONTINUOUS
 10
24.1819710238
 20
82.5352671697
 11
24.1819710238
 21
82.8852671697
  0
LINE
  5
78A
100
AcDbEntity
  8
94968401R00_BL31
100
AcDbLine
 62
7
  6
CONTINUOUS
 10
24.1819710238
 20
101.8852671697
 11
24.1819710238
 21
102.2352671697
  0
LINE
  5
78B
100
AcDbEntity
  8
94968401R00_BL31
100
AcDbLine
 62
3
  6
CONTINUOUS
 10
27.1819710238
 20
102.2352671697
 11
27.1819710238
 21
95.4852671697
  0
LINE
  5
78C
100
AcDbEntity
  8
94968401R00_BL31
100
AcDbLine
 62
3
  6
CONTINUOUS
 10
27.1819710238
 20
82.5352671697
 11
27.1819710238
 21
86.8852671697
  0
LINE
  5
78D
100
AcDbEntity
  8
94968401R00_BL31
100
AcDbLine
 62
9
  6
CONTINUOUS
 10
27.4499202162
 20
102.2352671697
 11
27.4499202162
 21
95.4852671697
  0
LINE
  5
78E
100
AcDbEntity
  8
94968401R00_BL31
100
AcDbLine
 62
9
  6
CONTINUOUS
 10
27.4499202162
 20
86.8852671697
 11
27.4499202162
 21
82.5352671697
  0
LINE
  5
78F
100
AcDbEntity
  8
94968401R00_BL31
100
AcDbLine
 62
9
  6
CONTINUOUS
 10
27.8120980427
 20
102.2352671697
 11
27.8120980427
 21
101.8852671697
  0
LINE
  5
790
100
AcDbEntity
  8
94968401R00_BL31
100
AcDbLine
 62
9
  6
CONTINUOUS
 10
27.8120980427
 20
82.8852671697
 11
27.8120980427
 21
82.5352671697
  0
LINE
  5
791
100
AcDbEntity
  8
94968401R00_BL31
100
AcDbLine
 62
3
  6
CONTINUOUS
 10
28.4819710238
 20
102.2352671697
 11
28.4819710238
 21
101.8852671697
  0
LINE
  5
792
100
AcDbEntity
  8
94968401R00_BL31
100
AcDbLine
 62
3
  6
CONTINUOUS
 10
28.4819710238
 20
82.8852671697
 11
28.4819710238
 21
82.5352671697
  0
LINE
  5
793
100
AcDbEntity
  8
94968401R00_BL31
100
AcDbLine
 62
7
  6
CONTINUOUS
 10
27.1819710238
 20
82.5352671697
 11
24.1819710238
 21
82.5352671697
  0
LINE
  5
794
100
AcDbEntity
  8
94968401R00_BL31
100
AcDbLine
 62
3
  6
CONTINUOUS
 10
27.1819710238
 20
82.5352671697
 11
28.4819710238
 21
82.5352671697
  0
LINE
  5
795
100
AcDbEntity
  8
94968401R00_BL31
100
AcDbLine
 62
9
  6
CONTINUOUS
 10
27.1819710238
 20
83.5352671697
 11
26.9819710238
 21
83.5352671697
  0
LWPOLYLINE
  5
796
100
AcDbEntity
  8
94968401R00_BL31
100
AcDbPolyline
 62
7
  6
CONTINUOUS
 90
8
 70
0
 10
24.3313270931
 20
101.8852671697
 10
24.3111168709
 20
101.9424413078
 10
24.2760770437
 20
102.030348157
 10
24.2442325289
 20
102.1040769732
 10
24.2176656187
 20
102.1616165096
 10
24.1979143207
 20
102.2029866544
 10
24.1860008141
 20
102.2274555646
 10
24.1819710238
 20
102.2352671877
  0
LINE
  5
797
100
AcDbEntity
  8
94968401R00_BL31
100
AcDbLine
 62
9
  6
CONTINUOUS
 10
27.1819710238
 20
101.2352671697
 11
26.9819710238
 21
101.2352671697
  0
LINE
  5
798
100
AcDbEntity
  8
94968401R00_BL31
100
AcDbLine
 62
7
  6
CONTINUOUS
 10
27.1819710238
 20
102.2352671697
 11
24.1819710238
 21
102.2352671697
  0
LINE
  5
799
100
AcDbEntity
  8
94968401R00_BL31
100
AcDbLine
 62
3
  6
CONTINUOUS
 10
27.1819710238
 20
102.2352671697
 11
28.4819710238
 21
102.2352671697
  0
ENDBLK
  5
79A
100
AcDbEntity
  8
0
  6
BYBLOCK
 62
0
100
AcDbBlockEnd
  0
BLOCK
  5
79B
100
AcDbEntity
  8
94319401000_BL32
100
AcDbBlockBegin
  2
94319401000_BL32
 70
64
 10
29.2819710238
 20
92.3852671697
  3
94319401000_BL32
  1

  0
LINE
  5
79C
100
AcDbEntity
  8
94319401000_BL32
100
AcDbLine
 62
7
  6
CONTINUOUS
 10
29.8819710238
 20
82.4852671697
 11
28.6819710238
 21
82.4852671697
  0
LINE
  5
79D
100
AcDbEntity
  8
94319401000_BL32
100
AcDbLine
 62
7
  6
CONTINUOUS
 10
28.6819710238
 20
102.2852671697
 11
28.6819710238
 21
101.8852671697
  0
LINE
  5
79E
100
AcDbEntity
  8
94319401000_BL32
100
AcDbLine
 62
7
  6
CONTINUOUS
 10
28.6819710238
 20
82.8852671697
 11
28.6819710238
 21
82.4852671697
  0
LINE
  5
79F
100
AcDbEntity
  8
94319401000_BL32
100
AcDbLine
 62
3
  6
CONTINUOUS
 10
29.8819710238
 20
102.2852671697
 11
29.8819710238
 21
101.8067084414
  0
LINE
  5
7A0
100
AcDbEntity
  8
94319401000_BL32
100
AcDbLine
 62
3
  6
CONTINUOUS
 10
29.8819710238
 20
82.963825898
 11
29.8819710238
 21
82.4852671697
  0
LINE
  5
7A1
100
AcDbEntity
  8
94319401000_BL32
100
AcDbLine
 62
7
  6
CONTINUOUS
 10
29.8819710238
 20
102.2852671697
 11
28.6819710238
 21
102.2852671697
  0
ENDBLK
  5
7A2
100
AcDbEntity
  8
0
  6
BYBLOCK
 62
0
100
AcDbBlockEnd
  0
BLOCK
  5
7A3
100
AcDbEntity
  8
94925801R00_BL33
100
AcDbBlockBegin
  2
94925801R00_BL33
 70
64
 10
28.5755430009
 20
92.3852671697
  3
94925801R00_BL33
  1

  0
LINE
  5
7A4
100
AcDbEntity
  8
94925801R00_BL33
100
AcDbLine
 62
3
  6
CONTINUOUS
 10
28.4819710238
 20
82.5352671697
 11
28.669114978
 21
82.5352671697
  0
LINE
  5
7A5
100
AcDbEntity
  8
94925801R00_BL33
100
AcDbLine
 62
3
  6
CONTINUOUS
 10
28.4819710238
 20
102.2352671697
 11
28.669114978
 21
102.2352671697
  0
ENDBLK
  5
7A6
100
AcDbEntity
  8
0
  6
BYBLOCK
 62
0
100
AcDbBlockEnd
  0
BLOCK
  5
7A7
100
AcDbEntity
  8
0
100
AcDbBlockBegin
  2
_FILLED
 70
64
 10
0.0
 20
0.0
  3
_FILLED
  1

  0
SOLID
  5
7A8
100
AcDbEntity
  8
0
  6
BYBLOCK
 62
0
100
AcDbTrace
 10
0.0
 20
0.0
 11
-1.0
 21
0.1428571429
 12
-1.0
 22
-0.1428571429
 13
-1.0
 23
-0.1428571429
  0
ENDBLK
  5
7A9
100
AcDbEntity
  8
0
  6
BYBLOCK
 62
0
100
AcDbBlockEnd
  0
BLOCK
  5
7AA
100
AcDbEntity
  8
0
100
AcDbBlockBegin
 62
2
  6
CONTINUOUS
  2
*D0
 70
65
 10
0.0
 20
0.0
  3
*D0
  1

  0
TEXT
  5
7AB
100
AcDbEntity
  8
0
100
AcDbText
 62
5
  6
CONTINUOUS
 10
24.9998281667
 20
2140.3560125002
  7
STANDARD
 40
2.5
  1
8
 72
5
 11
26.964113881
 21
2140.3560125002
100
AcDbText
  0
LINE
  5
7AC
100
AcDbEntity
  8
0
100
AcDbLine
 62
2
  6
CONTINUOUS
 10
21.9819710238
 20
2130.4461952983
 11
21.9819710238
 21
2140.7310125002
  0
LINE
  5
7AD
100
AcDbEntity
  8
0
100
AcDbLine
 62
2
  6
CONTINUOUS
 10
29.9819710238
 20
2130.4461952983
 11
29.9819710238
 21
2140.7310125002
  0
LINE
  5
7AE
100
AcDbEntity
  8
0
100
AcDbLine
 62
2
  6
CONTINUOUS
 10
21.9819710238
 20
2139.7310125002
 11
14.9819710238
 21
2139.7310125002
  0
LINE
  5
7AF
100
AcDbEntity
  8
0
100
AcDbLine
 62
2
  6
CONTINUOUS
 10
14.9819710238
 20
2139.7310125002
 11
25.9819710238
 21
2139.7310125002
  0
LINE
  5
7B0
100
AcDbEntity
  8
0
100
AcDbLine
 62
2
  6
CONTINUOUS
 10
29.9819710238
 20
2139.7310125002
 11
36.9819710238
 21
2139.7310125002
  0
LINE
  5
7B1
100
AcDbEntity
  8
0
100
AcDbLine
 62
2
  6
CONTINUOUS
 10
36.9819710238
 20
2139.7310125002
 11
25.9819710238
 21
2139.7310125002
  0
INSERT
  5
7B2
100
AcDbEntity
  8
0
100
AcDbBlockReference
 62
2
  6
CONTINUOUS
  2
_FILLED
 10
21.9819710238
 20
2139.7310125002
 41
3.5
 42
3.5
 43
3.5
  0
INSERT
  5
7B3
100
AcDbEntity
  8
0
100
AcDbBlockReference
 62
2
  6
CONTINUOUS
  2
_FILLED
 10
29.9819710238
 20
2139.7310125002
 41
3.5
 42
3.5
 43
3.5
 50
180.0
  0
ENDBLK
  5
7B4
100
AcDbEntity
  8
0
  6
BYBLOCK
 62
0
100
AcDbBlockEnd
  0
BLOCK
  5
7B5
100
AcDbEntity
  8
0
100
AcDbBlockBegin
 62
2
  6
CONTINUOUS
  2
*D1
 70
65
 10
0.0
 20
0.0
  3
*D1
  1

  0
TEXT
  5
7B6
100
AcDbEntity
  8
0
100
AcDbText
 62
5
  6
CONTINUOUS
 10
141.8461207866
 20
2142.4341272606
  7
STANDARD
 40
2.5
  1
24
 72
5
 11
145.7746922152
 21
2142.4341272606
100
AcDbText
  0
LINE
  5
7B7
100
AcDbEntity
  8
0
100
AcDbLine
 62
2
  6
CONTINUOUS
 10
131.8104065009
 20
2130.4461952983
 11
131.8104065009
 21
2142.8091272606
  0
LINE
  5
7B8
100
AcDbEntity
  8
0
100
AcDbLine
 62
2
  6
CONTINUOUS
 10
155.8104065009
 20
2130.4461952983
 11
155.8104065009
 21
2142.8091272606
  0
LINE
  5
7B9
100
AcDbEntity
  8
0
100
AcDbLine
 62
2
  6
CONTINUOUS
 10
131.8104065009
 20
2141.8091272606
 11
143.8104065009
 21
2141.8091272606
  0
LINE
  5
7BA
100
AcDbEntity
  8
0
100
AcDbLine
 62
2
  6
CONTINUOUS
 10
155.8104065009
 20
2141.8091272606
 11
143.8104065009
 21
2141.8091272606
  0
INSERT
  5
7BB
100
AcDbEntity
  8
0
100
AcDbBlockReference
 62
2
  6
CONTINUOUS
  2
_FILLED
 10
131.8104065009
 20
2141.8091272606
 41
3.5
 42
3.5
 43
3.5
 50
180.0
  0
INSERT
  5
7BC
100
AcDbEntity
  8
0
100
AcDbBlockReference
 62
2
  6
CONTINUOUS
  2
_FILLED
 10
155.8104065009
 20
2141.8091272606
 41
3.5
 42
3.5
 43
3.5
  0
ENDBLK
  5
7BD
100
AcDbEntity
  8
0
  6
BYBLOCK
 62
0
100
AcDbBlockEnd
  0
BLOCK
  5
7BE
100
AcDbEntity
  8
0
100
AcDbBlockBegin
 62
2
  6
CONTINUOUS
  2
*D2
 70
65
 10
0.0
 20
0.0
  3
*D2
  1

  0
TEXT
  5
7BF
100
AcDbEntity
  8
0
100
AcDbText
 62
5
  6
CONTINUOUS
 10
55.3569710238
 20
1961.6783381554
  7
STANDARD
 40
2.5
  1
332
 50
90.0
 72
5
 11
55.3569710238
 21
1967.2140524411
100
AcDbText
  0
LINE
  5
7C0
100
AcDbEntity
  8
0
100
AcDbLine
 62
2
  6
CONTINUOUS
 10
26.9819710238
 20
2130.4461952983
 11
56.9819710238
 21
2130.4461952983
  0
LINE
  5
7C1
100
AcDbEntity
  8
0
100
AcDbLine
 62
2
  6
CONTINUOUS
 10
29.9777535725
 20
1798.4461952983
 11
56.9819710238
 21
1798.4461952983
  0
LINE
  5
7C2
100
AcDbEntity
  8
0
100
AcDbLine
 62
2
  6
CONTINUOUS
 10
55.9819710238
 20
2130.4461952983
 11
55.9819710238
 21
1964.4461952983
  0
LINE
  5
7C3
100
AcDbEntity
  8
0
100
AcDbLine
 62
2
  6
CONTINUOUS
 10
55.9819710238
 20
1798.4461952983
 11
55.9819710238
 21
1964.4461952983
  0
INSERT
  5
7C4
100
AcDbEntity
  8
0
100
AcDbBlockReference
 62
2
  6
CONTINUOUS
  2
_FILLED
 10
55.9819710238
 20
2130.4461952983
 41
3.5
 42
3.5
 43
3.5
 50
90.0
  0
INSERT
  5
7C5
100
AcDbEntity
  8
0
100
AcDbBlockReference
 62
2
  6
CONTINUOUS
  2
_FILLED
 10
55.9819710238
 20
1798.4461952983
 41
3.5
 42
3.5
 43
3.5
 50
270.0
  0
ENDBLK
  5
7C6
100
AcDbEntity
  8
0
  6
BYBLOCK
 62
0
100
AcDbBlockEnd
  0
BLOCK
  5
7C7
100
AcDbEntity
  8
0
100
AcDbBlockBegin
 62
2
  6
CONTINUOUS
  2
*D3
 70
65
 10
0.0
 20
0.0
  3
*D3
  1

  0
TEXT
  5
7C8
100
AcDbEntity
  8
0
100
AcDbText
 62
5
  6
CONTINUOUS
 10
55.3569710238
 20
1748.481909584
  7
STANDARD
 40
2.5
  1
96
 50
90.0
 72
5
 11
55.3569710238
 21
1752.4104810126
100
AcDbText
  0
LINE
  5
7C9
100
AcDbEntity
  8
0
100
AcDbLine
 62
2
  6
CONTINUOUS
 10
30.0023360388
 20
1702.4461952983
 11
56.9819710238
 21
1702.4461952983
  0
LINE
  5
7CA
100
AcDbEntity
  8
0
100
AcDbLine
 62
2
  6
CONTINUOUS
 10
29.9725664533
 20
1798.4461952983
 11
56.9819710238
 21
1798.4461952983
  0
LINE
  5
7CB
100
AcDbEntity
  8
0
100
AcDbLine
 62
2
  6
CONTINUOUS
 10
55.9819710238
 20
1702.4461952983
 11
55.9819710238
 21
1750.4461952983
  0
LINE
  5
7CC
100
AcDbEntity
  8
0
100
AcDbLine
 62
2
  6
CONTINUOUS
 10
55.9819710238
 20
1798.4461952983
 11
55.9819710238
 21
1750.4461952983
  0
INSERT
  5
7CD
100
AcDbEntity
  8
0
100
AcDbBlockReference
 62
2
  6
CONTINUOUS
  2
_FILLED
 10
55.9819710238
 20
1702.4461952983
 41
3.5
 42
3.5
 43
3.5
 50
270.0
  0
INSERT
  5
7CE
100
AcDbEntity
  8
0
100
AcDbBlockReference
 62
2
  6
CONTINUOUS
  2
_FILLED
 10
55.9819710238
 20
1798.4461952983
 41
3.5
 42
3.5
 43
3.5
 50
90.0
  0
ENDBLK
  5
7CF
100
AcDbEntity
  8
0
  6
BYBLOCK
 62
0
100
AcDbBlockEnd
  0
BLOCK
  5
7D0
100
AcDbEntity
  8
0
100
AcDbBlockBegin
 62
2
  6
CONTINUOUS
  2
*D4
 70
65
 10
0.0
 20
0.0
  3
*D4
  1

  0
TEXT
  5
7D1
100
AcDbEntity
  8
0
100
AcDbText
 62
5
  6
CONTINUOUS
 10
55.3569710238
 20
1341.2426238697
  7
STANDARD
 40
2.5
  1
717
 50
90.0
 72
5
 11
55.3569710238
 21
1346.5997667269
100
AcDbText
  0
LINE
  5
7D2
100
AcDbEntity
  8
0
100
AcDbLine
 62
2
  6
CONTINUOUS
 10
33.1070843886
 20
985.3961952983
 11
56.9819710238
 21
985.3961952983
  0
LINE
  5
7D3
100
AcDbEntity
  8
0
100
AcDbLine
 62
2
  6
CONTINUOUS
 10
29.9467068463
 20
1702.4461952983
 11
56.9819710238
 21
1702.4461952983
  0
LINE
  5
7D4
100
AcDbEntity
  8
0
100
AcDbLine
 62
2
  6
CONTINUOUS
 10
55.9819710238
 20
985.3961952983
 11
55.9819710238
 21
1343.9211952983
  0
LINE
  5
7D5
100
AcDbEntity
  8
0
100
AcDbLine
 62
2
  6
CONTINUOUS
 10
55.9819710238
 20
1702.4461952983
 11
55.9819710238
 21
1343.9211952983
  0
INSERT
  5
7D6
100
AcDbEntity
  8
0
100
AcDbBlockReference
 62
2
  6
CONTINUOUS
  2
_FILLED
 10
55.9819710238
 20
985.3961952983
 41
3.5
 42
3.5
 43
3.5
 50
270.0
  0
INSERT
  5
7D7
100
AcDbEntity
  8
0
100
AcDbBlockReference
 62
2
  6
CONTINUOUS
  2
_FILLED
 10
55.9819710238
 20
1702.4461952983
 41
3.5
 42
3.5
 43
3.5
 50
90.0
  0
ENDBLK
  5
7D8
100
AcDbEntity
  8
0
  6
BYBLOCK
 62
0
100
AcDbBlockEnd
  0
BLOCK
  5
7D9
100
AcDbEntity
  8
0
100
AcDbBlockBegin
 62
2
  6
CONTINUOUS
  2
*D5
 70
65
 10
0.0
 20
0.0
  3
*D5
  1

  0
TEXT
  5
7DA
100
AcDbEntity
  8
0
100
AcDbText
 62
5
  6
CONTINUOUS
 10
55.3569710238
 20
952.481909584
  7
STANDARD
 40
2.5
  1
62
 50
90.0
 72
5
 11
55.3569710238
 21
956.4104810126
100
AcDbText
  0
LINE
  5
7DB
100
AcDbEntity
  8
0
100
AcDbLine
 62
2
  6
CONTINUOUS
 10
33.1070843886
 20
985.3961952983
 11
56.9819710238
 21
985.3961952983
  0
LINE
  5
7DC
100
AcDbEntity
  8
0
100
AcDbLine
 62
2
  6
CONTINUOUS
 10
40.4099261737
 20
923.4961952983
 11
56.9819710238
 21
923.4961952983
  0
LINE
  5
7DD
100
AcDbEntity
  8
0
100
AcDbLine
 62
2
  6
CONTINUOUS
 10
55.9819710238
 20
985.3961952983
 11
55.9819710238
 21
954.4461952983
  0
LINE
  5
7DE
100
AcDbEntity
  8
0
100
AcDbLine
 62
2
  6
CONTINUOUS
 10
55.9819710238
 20
923.4961952983
 11
55.9819710238
 21
954.4461952983
  0
INSERT
  5
7DF
100
AcDbEntity
  8
0
100
AcDbBlockReference
 62
2
  6
CONTINUOUS
  2
_FILLED
 10
55.9819710238
 20
985.3961952983
 41
3.5
 42
3.5
 43
3.5
 50
90.0
  0
INSERT
  5
7E0
100
AcDbEntity
  8
0
100
AcDbBlockReference
 62
2
  6
CONTINUOUS
  2
_FILLED
 10
55.9819710238
 20
923.4961952983
 41
3.5
 42
3.5
 43
3.5
 50
270.0
  0
ENDBLK
  5
7E1
100
AcDbEntity
  8
0
  6
BYBLOCK
 62
0
100
AcDbBlockEnd
  0
BLOCK
  5
7E2
100
AcDbEntity
  8
0
100
AcDbBlockBegin
 62
2
  6
CONTINUOUS
  2
*D6
 70
65
 10
0.0
 20
0.0
  3
*D6
  1

  0
TEXT
  5
7E3
100
AcDbEntity
  8
0
100
AcDbText
 62
5
  6
CONTINUOUS
 10
55.3569710238
 20
613.381909584
  7
STANDARD
 40
2.5
  1
615
 50
90.0
 72
5
 11
55.3569710238
 21
618.5604810126
100
AcDbText
  0
LINE
  5
7E4
100
AcDbEntity
  8
0
100
AcDbLine
 62
2
  6
CONTINUOUS
 10
40.4819710238
 20
923.4961952983
 11
56.9819710238
 21
923.4961952983
  0
LINE
  5
7E5
100
AcDbEntity
  8
0
100
AcDbLine
 62
2
  6
CONTINUOUS
 10
29.9787783597
 20
308.4461952983
 11
56.9819710238
 21
308.4461952983
  0
LINE
  5
7E6
100
AcDbEntity
  8
0
100
AcDbLine
 62
2
  6
CONTINUOUS
 10
55.9819710238
 20
923.4961952983
 11
55.9819710238
 21
615.9711952983
  0
LINE
  5
7E7
100
AcDbEntity
  8
0
100
AcDbLine
 62
2
  6
CONTINUOUS
 10
55.9819710238
 20
308.4461952983
 11
55.9819710238
 21
615.9711952983
  0
INSERT
  5
7E8
100
AcDbEntity
  8
0
100
AcDbBlockReference
 62
2
  6
CONTINUOUS
  2
_FILLED
 10
55.9819710238
 20
923.4961952983
 41
3.5
 42
3.5
 43
3.5
 50
90.0
  0
INSERT
  5
7E9
100
AcDbEntity
  8
0
100
AcDbBlockReference
 62
2
  6
CONTINUOUS
  2
_FILLED
 10
55.9819710238
 20
308.4461952983
 41
3.5
 42
3.5
 43
3.5
 50
270.0
  0
ENDBLK
  5
7EA
100
AcDbEntity
  8
0
  6
BYBLOCK
 62
0
100
AcDbBlockEnd
  0
BLOCK
  5
7EB
100
AcDbEntity
  8
0
100
AcDbBlockBegin
 62
2
  6
CONTINUOUS
  2
*D7
 70
65
 10
0.0
 20
0.0
  3
*D7
  1

  0
TEXT
  5
7EC
100
AcDbEntity
  8
0
100
AcDbText
 62
5
  6
CONTINUOUS
 10
55.3569710238
 20
258.481909584
  7
STANDARD
 40
2.5
  1
96
 50
90.0
 72
5
 11
55.3569710238
 21
262.4104810126
100
AcDbText
  0
LINE
  5
7ED
100
AcDbEntity
  8
0
100
AcDbLine
 62
2
  6
CONTINUOUS
 10
30.0354138643
 20
308.4461952983
 11
56.9819710238
 21
308.4461952983
  0
LINE
  5
7EE
100
AcDbEntity
  8
0
100
AcDbLine
 62
2
  6
CONTINUOUS
 10
29.9885000237
 20
212.4461952983
 11
56.9819710238
 21
212.4461952983
  0
LINE
  5
7EF
100
AcDbEntity
  8
0
100
AcDbLine
 62
2
  6
CONTINUOUS
 10
55.9819710238
 20
308.4461952983
 11
55.9819710238
 21
260.4461952983
  0
LINE
  5
7F0
100
AcDbEntity
  8
0
100
AcDbLine
 62
2
  6
CONTINUOUS
 10
55.9819710238
 20
212.4461952983
 11
55.9819710238
 21
260.4461952983
  0
INSERT
  5
7F1
100
AcDbEntity
  8
0
100
AcDbBlockReference
 62
2
  6
CONTINUOUS
  2
_FILLED
 10
55.9819710238
 20
308.4461952983
 41
3.5
 42
3.5
 43
3.5
 50
90.0
  0
INSERT
  5
7F2
100
AcDbEntity
  8
0
100
AcDbBlockReference
 62
2
  6
CONTINUOUS
  2
_FILLED
 10
55.9819710238
 20
212.4461952983
 41
3.5
 42
3.5
 43
3.5
 50
270.0
  0
ENDBLK
  5
7F3
100
AcDbEntity
  8
0
  6
BYBLOCK
 62
0
100
AcDbBlockEnd
  0
BLOCK
  5
7F4
100
AcDbEntity
  8
0
100
AcDbBlockBegin
 62
2
  6
CONTINUOUS
  2
*D8
 70
65
 10
0.0
 20
0.0
  3
*D8
  1

  0
TEXT
  5
7F5
100
AcDbEntity
  8
0
100
AcDbText
 62
5
  6
CONTINUOUS
 10
55.3569710238
 20
169.481909584
  7
STANDARD
 40
2.5
  1
82
 50
90.0
 72
5
 11
55.3569710238
 21
173.4104810126
100
AcDbText
  0
LINE
  5
7F6
100
AcDbEntity
  8
0
100
AcDbLine
 62
2
  6
CONTINUOUS
 10
29.995014509
 20
212.4461952983
 11
56.9819710238
 21
212.4461952983
  0
LINE
  5
7F7
100
AcDbEntity
  8
0
100
AcDbLine
 62
2
  6
CONTINUOUS
 10
26.9819710238
 20
130.4461952983
 11
56.9819710238
 21
130.4461952983
  0
LINE
  5
7F8
100
AcDbEntity
  8
0
100
AcDbLine
 62
2
  6
CONTINUOUS
 10
55.9819710238
 20
212.4461952983
 11
55.9819710238
 21
171.4461952983
  0
LINE
  5
7F9
100
AcDbEntity
  8
0
100
AcDbLine
 62
2
  6
CONTINUOUS
 10
55.9819710238
 20
130.4461952983
 11
55.9819710238
 21
171.4461952983
  0
INSERT
  5
7FA
100
AcDbEntity
  8
0
100
AcDbBlockReference
 62
2
  6
CONTINUOUS
  2
_FILLED
 10
55.9819710238
 20
212.4461952983
 41
3.5
 42
3.5
 43
3.5
 50
90.0
  0
INSERT
  5
7FB
100
AcDbEntity
  8
0
100
AcDbBlockReference
 62
2
  6
CONTINUOUS
  2
_FILLED
 10
55.9819710238
 20
130.4461952983
 41
3.5
 42
3.5
 43
3.5
 50
270.0
  0
ENDBLK
  5
7FC
100
AcDbEntity
  8
0
  6
BYBLOCK
 62
0
100
AcDbBlockEnd
  0
BLOCK
  5
7FD
100
AcDbEntity
  8
0
100
AcDbBlockBegin
 62
2
  6
CONTINUOUS
  2
*D9
 70
65
 10
0.0
 20
0.0
  3
*D9
  1

  0
TEXT
  5
7FE
100
AcDbEntity
  8
0
100
AcDbText
 62
5
  6
CONTINUOUS
 10
121.1854065009
 20
950.7747667269
  7
STANDARD
 40
2.5
  1
60.3
 50
90.0
 72
5
 11
121.1854065009
 21
957.9176238697
100
AcDbText
  0
LINE
  5
7FF
100
AcDbEntity
  8
0
100
AcDbLine
 62
2
  6
CONTINUOUS
 10
141.5827651385
 20
984.4961952983
 11
120.8104065009
 21
984.4961952983
  0
LINE
  5
800
100
AcDbEntity
  8
0
100
AcDbLine
 62
2
  6
CONTINUOUS
 10
141.5827651378
 20
924.1961952983
 11
120.8104065009
 21
924.1961952983
  0
LINE
  5
801
100
AcDbEntity
  8
0
100
AcDbLine
 62
2
  6
CONTINUOUS
 10
121.8104065009
 20
984.4961952983
 11
121.8104065009
 21
954.3461952983
  0
LINE
  5
802
100
AcDbEntity
  8
0
100
AcDbLine
 62
2
  6
CONTINUOUS
 10
121.8104065009
 20
924.1961952983
 11
121.8104065009
 21
954.3461952983
  0
INSERT
  5
803
100
AcDbEntity
  8
0
100
AcDbBlockReference
 62
2
  6
CONTINUOUS
  2
_FILLED
 10
121.8104065009
 20
984.4961952983
 41
3.5
 42
3.5
 43
3.5
 50
90.0
  0
INSERT
  5
804
100
AcDbEntity
  8
0
100
AcDbBlockReference
 62
2
  6
CONTINUOUS
  2
_FILLED
 10
121.8104065009
 20
924.1961952983
 41
3.5
 42
3.5
 43
3.5
 50
270.0
  0
ENDBLK
  5
805
100
AcDbEntity
  8
0
  6
BYBLOCK
 62
0
100
AcDbBlockEnd
  0
BLOCK
  5
806
100
AcDbEntity
  8
0
100
AcDbBlockBegin
 62
2
  6
CONTINUOUS
  2
*D10
 70
65
 10
0.0
 20
0.0
  3
*D10
  1

  0
TEXT
  5
807
100
AcDbEntity
  8
0
100
AcDbText
 62
5
  6
CONTINUOUS
 10
114.1854065009
 20
985.481909584
  7
STANDARD
 40
2.5
  1
66
 50
90.0
 72
5
 11
114.1854065009
 21
989.4104810126
100
AcDbText
  0
LINE
  5
808
100
AcDbEntity
  8
0
100
AcDbLine
 62
2
  6
CONTINUOUS
 10
138.4805541303
 20
954.4461952983
 11
123.6333741824
 21
954.4461952983
  0
LINE
  5
809
100
AcDbEntity
  8
0
100
AcDbLine
 62
2
  6
CONTINUOUS
 10
117.2428564283
 20
954.4461952983
 11
113.8104065009
 21
954.4461952983
  0
LINE
  5
80A
100
AcDbEntity
  8
0
100
AcDbLine
 62
2
  6
CONTINUOUS
 10
114.8104065009
 20
954.4461952983
 11
114.8104065009
 21
987.4461952983
  0
LINE
  5
80B
100
AcDbEntity
  8
0
100
AcDbLine
 62
2
  6
CONTINUOUS
 10
114.8104065009
 20
1020.4461952983
 11
114.8104065009
 21
987.4461952983
  0
INSERT
  5
80C
100
AcDbEntity
  8
0
100
AcDbBlockReference
 62
2
  6
CONTINUOUS
  2
_FILLED
 10
114.8104065009
 20
954.4461952983
 41
3.5
 42
3.5
 43
3.5
 50
270.0
  0
INSERT
  5
80D
100
AcDbEntity
  8
0
100
AcDbBlockReference
 62
2
  6
CONTINUOUS
  2
_FILLED
 10
114.8104065009
 20
1020.4461952983
 41
3.5
 42
3.5
 43
3.5
 50
90.0
  0
ENDBLK
  5
80E
100
AcDbEntity
  8
0
  6
BYBLOCK
 62
0
100
AcDbBlockEnd
  0
BLOCK
  5
80F
100
AcDbEntity
  8
0
100
AcDbBlockBegin
 62
2
  6
CONTINUOUS
  2
*D11
 70
65
 10
0.0
 20
0.0
  3
*D11
  1

  0
TEXT
  5
810
100
AcDbEntity
  8
0
100
AcDbText
 62
5
  6
CONTINUOUS
 10
143.4175493581
 20
905.8211952983
  7
STANDARD
 40
2.5
  1
10.6
 72
5
 11
150.2032636438
 21
905.8211952983
100
AcDbText
  0
LINE
  5
811
100
AcDbEntity
  8
0
100
AcDbLine
 62
2
  6
CONTINUOUS
 10
141.5104065009
 20
924.4961952983
 11
141.5104065009
 21
904.1961952983
  0
LINE
  5
812
100
AcDbEntity
  8
0
100
AcDbLine
 62
2
  6
CONTINUOUS
 10
152.1104065009
 20
924.4961952983
 11
152.1104065009
 21
913.7429471702
  0
LINE
  5
813
100
AcDbEntity
  8
0
100
AcDbLine
 62
2
  6
CONTINUOUS
 10
152.1104065009
 20
910.814833598
 11
152.1104065009
 21
904.1961952983
  0
LINE
  5
814
100
AcDbEntity
  8
0
100
AcDbLine
 62
2
  6
CONTINUOUS
 10
141.5104065009
 20
905.1961952983
 11
134.5104065009
 21
905.1961952983
  0
LINE
  5
815
100
AcDbEntity
  8
0
100
AcDbLine
 62
2
  6
CONTINUOUS
 10
134.5104065009
 20
905.1961952983
 11
146.8104065009
 21
905.1961952983
  0
LINE
  5
816
100
AcDbEntity
  8
0
100
AcDbLine
 62
2
  6
CONTINUOUS
 10
152.1104065009
 20
905.1961952983
 11
159.1104065009
 21
905.1961952983
  0
LINE
  5
817
100
AcDbEntity
  8
0
100
AcDbLine
 62
2
  6
CONTINUOUS
 10
159.1104065009
 20
905.1961952983
 11
146.8104065009
 21
905.1961952983
  0
INSERT
  5
818
100
AcDbEntity
  8
0
100
AcDbBlockReference
 62
2
  6
CONTINUOUS
  2
_FILLED
 10
141.5104065009
 20
905.1961952983
 41
3.5
 42
3.5
 43
3.5
  0
INSERT
  5
819
100
AcDbEntity
  8
0
100
AcDbBlockReference
 62
2
  6
CONTINUOUS
  2
_FILLED
 10
152.1104065009
 20
905.1961952983
 41
3.5
 42
3.5
 43
3.5
 50
180.0
  0
ENDBLK
  5
81A
100
AcDbEntity
  8
0
  6
BYBLOCK
 62
0
100
AcDbBlockEnd
  0
BLOCK
  5
81B
100
AcDbEntity
  8
0
100
AcDbBlockBegin
 62
2
  6
CONTINUOUS
  2
*D12
 70
65
 10
0.0
 20
0.0
  3
*D12
  1

  0
TEXT
  5
81C
100
AcDbEntity
  8
0
100
AcDbText
 62
5
  6
CONTINUOUS
 10
159.3689577027
 20
912.8211952983
  7
STANDARD
 40
2.5
  1
9
 72
5
 11
161.333243417
 21
912.8211952983
100
AcDbText
  0
LINE
  5
81D
100
AcDbEntity
  8
0
100
AcDbLine
 62
2
  6
CONTINUOUS
 10
146.8104065009
 20
921.1296829843
 11
146.8104065009
 21
911.1961952983
  0
LINE
  5
81E
100
AcDbEntity
  8
0
100
AcDbLine
 62
2
  6
CONTINUOUS
 10
146.8104065009
 20
912.1961952983
 11
151.3104065009
 21
912.1961952983
  0
LINE
  5
81F
100
AcDbEntity
  8
0
100
AcDbLine
 62
2
  6
CONTINUOUS
 10
155.8104065009
 20
912.1961952983
 11
151.3104065009
 21
912.1961952983
  0
LINE
  5
820
100
AcDbEntity
  8
0
100
AcDbLine
 62
2
  6
CONTINUOUS
 10
151.3104065009
 20
912.1961952983
 11
161.333243417
 21
912.1961952983
  0
INSERT
  5
821
100
AcDbEntity
  8
0
100
AcDbBlockReference
 62
2
  6
CONTINUOUS
  2
_FILLED
 10
146.8104065009
 20
912.1961952983
 41
3.5
 42
3.5
 43
3.5
 50
180.0
  0
INSERT
  5
822
100
AcDbEntity
  8
0
100
AcDbBlockReference
 62
2
  6
CONTINUOUS
  2
_FILLED
 10
155.8104065009
 20
912.1961952983
 41
3.5
 42
3.5
 43
3.5
  0
ENDBLK
  5
823
100
AcDbEntity
  8
0
  6
BYBLOCK
 62
0
100
AcDbBlockEnd
  0
BLOCK
  5
824
100
AcDbEntity
  8
0
100
AcDbBlockBegin
 62
2
  6
CONTINUOUS
  2
*D13
 70
65
 10
0.0
 20
0.0
  3
*D13
  1

  0
TEXT
  5
825
100
AcDbEntity
  8
0
100
AcDbText
 62
5
  6
CONTINUOUS
 10
107.1854065009
 20
637.4997667269
  7
STANDARD
 40
2.5
  1
760
 50
90.0
 72
5
 11
107.1854065009
 21
643.3926238697
100
AcDbText
  0
LINE
  5
826
100
AcDbEntity
  8
0
100
AcDbLine
 62
2
  6
CONTINUOUS
 10
135.3494164311
 20
260.4461952983
 11
106.8104065009
 21
260.4461952983
  0
LINE
  5
827
100
AcDbEntity
  8
0
100
AcDbLine
 62
2
  6
CONTINUOUS
 10
107.8104065009
 20
260.4461952983
 11
107.8104065009
 21
640.4461952983
  0
LINE
  5
828
100
AcDbEntity
  8
0
100
AcDbLine
 62
2
  6
CONTINUOUS
 10
107.8104065009
 20
1020.4461952983
 11
107.8104065009
 21
640.4461952983
  0
INSERT
  5
829
100
AcDbEntity
  8
0
100
AcDbBlockReference
 62
2
  6
CONTINUOUS
  2
_FILLED
 10
107.8104065009
 20
260.4461952983
 41
3.5
 42
3.5
 43
3.5
 50
270.0
  0
INSERT
  5
82A
100
AcDbEntity
  8
0
100
AcDbBlockReference
 62
2
  6
CONTINUOUS
  2
_FILLED
 10
107.8104065009
 20
1020.4461952983
 41
3.5
 42
3.5
 43
3.5
 50
90.0
  0
ENDBLK
  5
82B
100
AcDbEntity
  8
0
  6
BYBLOCK
 62
0
100
AcDbBlockEnd
  0
BLOCK
  5
82C
100
AcDbEntity
  8
0
100
AcDbBlockBegin
 62
2
  6
CONTINUOUS
  2
*D14
 70
65
 10
0.0
 20
0.0
  3
*D14
  1

  0
TEXT
  5
82D
100
AcDbEntity
  8
0
100
AcDbText
 62
5
  6
CONTINUOUS
 10
100.1854065009
 20
572.4997667269
  7
STANDARD
 40
2.5
  1
890
 50
90.0
 72
5
 11
100.1854065009
 21
578.3926238697
100
AcDbText
  0
LINE
  5
82E
100
AcDbEntity
  8
0
100
AcDbLine
 62
2
  6
CONTINUOUS
 10
134.8104065009
 20
130.4461952983
 11
99.8104065009
 21
130.4461952983
  0
LINE
  5
82F
100
AcDbEntity
  8
0
100
AcDbLine
 62
2
  6
CONTINUOUS
 10
99.8104065009
 20
1020.4461952983
 11
126.2663890206
 21
1020.4461952983
  0
LINE
  5
830
100
AcDbEntity
  8
0
100
AcDbLine
 62
2
  6
CONTINUOUS
 10
100.8104065009
 20
130.4461952983
 11
100.8104065009
 21
575.4461952983
  0
LINE
  5
831
100
AcDbEntity
  8
0
100
AcDbLine
 62
2
  6
CONTINUOUS
 10
100.8104065009
 20
1020.4461952983
 11
100.8104065009
 21
575.4461952983
  0
INSERT
  5
832
100
AcDbEntity
  8
0
100
AcDbBlockReference
 62
2
  6
CONTINUOUS
  2
_FILLED
 10
100.8104065009
 20
130.4461952983
 41
3.5
 42
3.5
 43
3.5
 50
270.0
  0
INSERT
  5
833
100
AcDbEntity
  8
0
100
AcDbBlockReference
 62
2
  6
CONTINUOUS
  2
_FILLED
 10
100.8104065009
 20
1020.4461952983
 41
3.5
 42
3.5
 43
3.5
 50
90.0
  0
ENDBLK
  5
834
100
AcDbEntity
  8
0
  6
BYBLOCK
 62
0
100
AcDbBlockEnd
  0
BLOCK
  5
835
100
AcDbEntity
  8
0
100
AcDbBlockBegin
 62
2
  6
CONTINUOUS
  2
*D15
 70
65
 10
0.0
 20
0.0
  3
*D15
  1

  0
TEXT
  5
836
100
AcDbEntity
  8
0
100
AcDbText
 62
5
  6
CONTINUOUS
 10
107.1854065009
 20
1382.5890524411
  7
STANDARD
 40
2.5
  1
730
 50
90.0
 72
5
 11
107.1854065009
 21
1388.3033381554
100
AcDbText
  0
LINE
  5
837
100
AcDbEntity
  8
0
100
AcDbLine
 62
2
  6
CONTINUOUS
 10
135.3494164311
 20
1750.4461952983
 11
106.8104065009
 21
1750.4461952983
  0
LINE
  5
838
100
AcDbEntity
  8
0
100
AcDbLine
 62
2
  6
CONTINUOUS
 10
107.8104065009
 20
1750.4461952983
 11
107.8104065009
 21
1385.4461952983
  0
LINE
  5
839
100
AcDbEntity
  8
0
100
AcDbLine
 62
2
  6
CONTINUOUS
 10
107.8104065009
 20
1020.4461952983
 11
107.8104065009
 21
1385.4461952983
  0
INSERT
  5
83A
100
AcDbEntity
  8
0
100
AcDbBlockReference
 62
2
  6
CONTINUOUS
  2
_FILLED
 10
107.8104065009
 20
1750.4461952983
 41
3.5
 42
3.5
 43
3.5
 50
90.0
  0
INSERT
  5
83B
100
AcDbEntity
  8
0
100
AcDbBlockReference
 62
2
  6
CONTINUOUS
  2
_FILLED
 10
107.8104065009
 20
1020.4461952983
 41
3.5
 42
3.5
 43
3.5
 50
270.0
  0
ENDBLK
  5
83C
100
AcDbEntity
  8
0
  6
BYBLOCK
 62
0
100
AcDbBlockEnd
  0
BLOCK
  5
83D
100
AcDbEntity
  8
0
100
AcDbBlockBegin
 62
2
  6
CONTINUOUS
  2
*D16
 70
65
 10
0.0
 20
0.0
  3
*D16
  1

  0
TEXT
  5
83E
100
AcDbEntity
  8
0
100
AcDbText
 62
5
  6
CONTINUOUS
 10
93.1854065009
 20
1126.5176238697
  7
STANDARD
 40
2.5
  1
2000
 50
90.0
 72
5
 11
93.1854065009
 21
1134.3747667269
100
AcDbText
  0
LINE
  5
83F
100
AcDbEntity
  8
0
100
AcDbLine
 62
2
  6
CONTINUOUS
 10
134.8104065009
 20
2130.4461952983
 11
92.8104065009
 21
2130.4461952983
  0
LINE
  5
840
100
AcDbEntity
  8
0
100
AcDbLine
 62
2
  6
CONTINUOUS
 10
134.8104065009
 20
130.4461952983
 11
92.8104065009
 21
130.4461952983
  0
LINE
  5
841
100
AcDbEntity
  8
0
100
AcDbLine
 62
2
  6
CONTINUOUS
 10
93.8104065009
 20
2130.4461952983
 11
93.8104065009
 21
1130.4461952983
  0
LINE
  5
842
100
AcDbEntity
  8
0
100
AcDbLine
 62
2
  6
CONTINUOUS
 10
93.8104065009
 20
130.4461952983
 11
93.8104065009
 21
1130.4461952983
  0
INSERT
  5
843
100
AcDbEntity
  8
0
100
AcDbBlockReference
 62
2
  6
CONTINUOUS
  2
_FILLED
 10
93.8104065009
 20
2130.4461952983
 41
3.5
 42
3.5
 43
3.5
 50
90.0
  0
INSERT
  5
844
100
AcDbEntity
  8
0
100
AcDbBlockReference
 62
2
  6
CONTINUOUS
  2
_FILLED
 10
93.8104065009
 20
130.4461952983
 41
3.5
 42
3.5
 43
3.5
 50
270.0
  0
ENDBLK
  5
845
100
AcDbEntity
  8
0
  6
BYBLOCK
 62
0
100
AcDbBlockEnd
  0
BLOCK
  5
846
100
AcDbEntity
  8
0
100
AcDbBlockBegin
 62
2
  6
CONTINUOUS
  2
*D17
 70
65
 10
0.0
 20
0.0
  3
*D17
  1

  0
TEXT
  5
847
100
AcDbEntity
  8
0
100
AcDbText
 62
5
  6
CONTINUOUS
 10
165.1854065009
 20
1007.0711952983
  7
STANDARD
 40
2.5
  1
23
 50
90.0
 72
5
 11
165.1854065009
 21
1010.8211952983
100
AcDbText
  0
LINE
  5
848
100
AcDbEntity
  8
0
100
AcDbLine
 62
2
  6
CONTINUOUS
 10
152.2104065009
 20
997.4461952983
 11
166.8104065009
 21
997.4461952983
  0
LINE
  5
849
100
AcDbEntity
  8
0
100
AcDbLine
 62
2
  6
CONTINUOUS
 10
165.8104065009
 20
997.4461952983
 11
165.8104065009
 21
1008.9461952983
  0
LINE
  5
84A
100
AcDbEntity
  8
0
100
AcDbLine
 62
2
  6
CONTINUOUS
 10
165.8104065009
 20
1020.4461952983
 11
165.8104065009
 21
1008.9461952983
  0
INSERT
  5
84B
100
AcDbEntity
  8
0
100
AcDbBlockReference
 62
2
  6
CONTINUOUS
  2
_FILLED
 10
165.8104065009
 20
997.4461952983
 41
3.5
 42
3.5
 43
3.5
 50
270.0
  0
INSERT
  5
84C
100
AcDbEntity
  8
0
100
AcDbBlockReference
 62
2
  6
CONTINUOUS
  2
_FILLED
 10
165.8104065009
 20
1020.4461952983
 41
3.5
 42
3.5
 43
3.5
 50
90.0
  0
ENDBLK
  5
84D
100
AcDbEntity
  8
0
  6
BYBLOCK
 62
0
100
AcDbBlockEnd
  0
BLOCK
  5
84E
100
AcDbEntity
  8
0
100
AcDbBlockBegin
 62
2
  6
CONTINUOUS
  2
*D18
 70
65
 10
0.0
 20
0.0
  3
*D18
  1

  0
TEXT
  5
84F
100
AcDbEntity
  8
0
100
AcDbText
 62
5
  6
CONTINUOUS
 10
172.1854065009
 20
920.3890524411
  7
STANDARD
 40
2.5
  1
191.9
 50
90.0
 72
5
 11
172.1854065009
 21
928.6033381554
100
AcDbText
  0
LINE
  5
850
100
AcDbEntity
  8
0
100
AcDbLine
 62
2
  6
CONTINUOUS
 10
152.0104065009
 20
828.5461952983
 11
173.8104065009
 21
828.5461952983
  0
LINE
  5
851
100
AcDbEntity
  8
0
100
AcDbLine
 62
2
  6
CONTINUOUS
 10
172.8104065009
 20
828.5461952983
 11
172.8104065009
 21
924.4961952983
  0
LINE
  5
852
100
AcDbEntity
  8
0
100
AcDbLine
 62
2
  6
CONTINUOUS
 10
172.8104065009
 20
1020.4461952983
 11
172.8104065009
 21
924.4961952983
  0
INSERT
  5
853
100
AcDbEntity
  8
0
100
AcDbBlockReference
 62
2
  6
CONTINUOUS
  2
_FILLED
 10
172.8104065009
 20
828.5461952983
 41
3.5
 42
3.5
 43
3.5
 50
270.0
  0
INSERT
  5
854
100
AcDbEntity
  8
0
100
AcDbBlockReference
 62
2
  6
CONTINUOUS
  2
_FILLED
 10
172.8104065009
 20
1020.4461952983
 41
3.5
 42
3.5
 43
3.5
 50
90.0
  0
ENDBLK
  5
855
100
AcDbEntity
  8
0
  6
BYBLOCK
 62
0
100
AcDbBlockEnd
  0
BLOCK
  5
856
100
AcDbEntity
  8
0
100
AcDbBlockBegin
 62
2
  6
CONTINUOUS
  2
*D19
 70
65
 10
0.0
 20
0.0
  3
*D19
  1

  0
TEXT
  5
857
100
AcDbEntity
  8
0
100
AcDbText
 62
5
  6
CONTINUOUS
 10
179.1854065009
 20
862.1104810126
  7
STANDARD
 40
2.5
  1
308.1
 50
90.0
 72
5
 11
179.1854065009
 21
870.681909584
100
AcDbText
  0
LINE
  5
858
100
AcDbEntity
  8
0
100
AcDbLine
 62
2
  6
CONTINUOUS
 10
152.0104065009
 20
712.3461952983
 11
180.8104065009
 21
712.3461952983
  0
LINE
  5
859
100
AcDbEntity
  8
0
100
AcDbLine
 62
2
  6
CONTINUOUS
 10
179.8104065009
 20
712.3461952983
 11
179.8104065009
 21
866.3961952983
  0
LINE
  5
85A
100
AcDbEntity
  8
0
100
AcDbLine
 62
2
  6
CONTINUOUS
 10
179.8104065009
 20
1020.4461952983
 11
179.8104065009
 21
866.3961952983
  0
INSERT
  5
85B
100
AcDbEntity
  8
0
100
AcDbBlockReference
 62
2
  6
CONTINUOUS
  2
_FILLED
 10
179.8104065009
 20
712.3461952983
 41
3.5
 42
3.5
 43
3.5
 50
270.0
  0
INSERT
  5
85C
100
AcDbEntity
  8
0
100
AcDbBlockReference
 62
2
  6
CONTINUOUS
  2
_FILLED
 10
179.8104065009
 20
1020.4461952983
 41
3.5
 42
3.5
 43
3.5
 50
90.0
  0
ENDBLK
  5
85D
100
AcDbEntity
  8
0
  6
BYBLOCK
 62
0
100
AcDbBlockEnd
  0
BLOCK
  5
85E
100
AcDbEntity
  8
0
100
AcDbBlockBegin
 62
2
  6
CONTINUOUS
  2
*D20
 70
65
 10
0.0
 20
0.0
  3
*D20
  1

  0
TEXT
  5
85F
100
AcDbEntity
  8
0
100
AcDbText
 62
5
  6
CONTINUOUS
 10
186.1854065009
 20
767.5890524411
  7
STANDARD
 40
2.5
  1
500
 50
90.0
 72
5
 11
186.1854065009
 21
773.3033381554
100
AcDbText
  0
LINE
  5
860
100
AcDbEntity
  8
0
100
AcDbLine
 62
2
  6
CONTINUOUS
 10
152.2104065009
 20
520.4461952983
 11
187.8104065009
 21
520.4461952983
  0
LINE
  5
861
100
AcDbEntity
  8
0
100
AcDbLine
 62
2
  6
CONTINUOUS
 10
186.8104065009
 20
520.4461952983
 11
186.8104065009
 21
770.4461952983
  0
LINE
  5
862
100
AcDbEntity
  8
0
100
AcDbLine
 62
2
  6
CONTINUOUS
 10
186.8104065009
 20
1020.4461952983
 11
186.8104065009
 21
770.4461952983
  0
INSERT
  5
863
100
AcDbEntity
  8
0
100
AcDbBlockReference
 62
2
  6
CONTINUOUS
  2
_FILLED
 10
186.8104065009
 20
520.4461952983
 41
3.5
 42
3.5
 43
3.5
 50
270.0
  0
INSERT
  5
864
100
AcDbEntity
  8
0
100
AcDbBlockReference
 62
2
  6
CONTINUOUS
  2
_FILLED
 10
186.8104065009
 20
1020.4461952983
 41
3.5
 42
3.5
 43
3.5
 50
90.0
  0
ENDBLK
  5
865
100
AcDbEntity
  8
0
  6
BYBLOCK
 62
0
100
AcDbBlockEnd
  0
BLOCK
  5
866
100
AcDbEntity
  8
0
100
AcDbBlockBegin
 62
2
  6
CONTINUOUS
  2
*D21
 70
65
 10
0.0
 20
0.0
  3
*D21
  1

  0
TEXT
  5
867
100
AcDbEntity
  8
0
100
AcDbText
 62
5
  6
CONTINUOUS
 10
193.1854065009
 20
665.1211952983
  7
STANDARD
 40
2.5
  1
701.9
 50
90.0
 72
5
 11
193.1854065009
 21
673.8711952983
100
AcDbText
  0
LINE
  5
868
100
AcDbEntity
  8
0
100
AcDbLine
 62
2
  6
CONTINUOUS
 10
152.0104065009
 20
318.5461952983
 11
194.8104065009
 21
318.5461952983
  0
LINE
  5
869
100
AcDbEntity
  8
0
100
AcDbLine
 62
2
  6
CONTINUOUS
 10
193.8104065009
 20
318.5461952983
 11
193.8104065009
 21
669.4961952983
  0
LINE
  5
86A
100
AcDbEntity
  8
0
100
AcDbLine
 62
2
  6
CONTINUOUS
 10
193.8104065009
 20
1020.4461952983
 11
193.8104065009
 21
669.4961952983
  0
INSERT
  5
86B
100
AcDbEntity
  8
0
100
AcDbBlockReference
 62
2
  6
CONTINUOUS
  2
_FILLED
 10
193.8104065009
 20
318.5461952983
 41
3.5
 42
3.5
 43
3.5
 50
270.0
  0
INSERT
  5
86C
100
AcDbEntity
  8
0
100
AcDbBlockReference
 62
2
  6
CONTINUOUS
  2
_FILLED
 10
193.8104065009
 20
1020.4461952983
 41
3.5
 42
3.5
 43
3.5
 50
90.0
  0
ENDBLK
  5
86D
100
AcDbEntity
  8
0
  6
BYBLOCK
 62
0
100
AcDbBlockEnd
  0
BLOCK
  5
86E
100
AcDbEntity
  8
0
100
AcDbBlockBegin
 62
2
  6
CONTINUOUS
  2
*D22
 70
65
 10
0.0
 20
0.0
  3
*D22
  1

  0
TEXT
  5
86F
100
AcDbEntity
  8
0
100
AcDbText
 62
5
  6
CONTINUOUS
 10
200.1854065009
 20
607.2890524411
  7
STANDARD
 40
2.5
  1
818.1
 50
90.0
 72
5
 11
200.1854065009
 21
615.5033381554
100
AcDbText
  0
LINE
  5
870
100
AcDbEntity
  8
0
100
AcDbLine
 62
2
  6
CONTINUOUS
 10
152.0104065009
 20
202.3461952983
 11
201.8104065009
 21
202.3461952983
  0
LINE
  5
871
100
AcDbEntity
  8
0
100
AcDbLine
 62
2
  6
CONTINUOUS
 10
201.8104065009
 20
1020.4461952983
 11
161.66117213
 21
1020.4461952983
  0
LINE
  5
872
100
AcDbEntity
  8
0
100
AcDbLine
 62
2
  6
CONTINUOUS
 10
200.8104065009
 20
202.3461952983
 11
200.8104065009
 21
611.3961952983
  0
LINE
  5
873
100
AcDbEntity
  8
0
100
AcDbLine
 62
2
  6
CONTINUOUS
 10
200.8104065009
 20
1020.4461952983
 11
200.8104065009
 21
611.3961952983
  0
INSERT
  5
874
100
AcDbEntity
  8
0
100
AcDbBlockReference
 62
2
  6
CONTINUOUS
  2
_FILLED
 10
200.8104065009
 20
202.3461952983
 41
3.5
 42
3.5
 43
3.5
 50
270.0
  0
INSERT
  5
875
100
AcDbEntity
  8
0
100
AcDbBlockReference
 62
2
  6
CONTINUOUS
  2
_FILLED
 10
200.8104065009
 20
1020.4461952983
 41
3.5
 42
3.5
 43
3.5
 50
90.0
  0
ENDBLK
  5
876
100
AcDbEntity
  8
0
  6
BYBLOCK
 62
0
100
AcDbBlockEnd
  0
BLOCK
  5
877
100
AcDbEntity
  8
0
100
AcDbBlockBegin
 62
2
  6
CONTINUOUS
  2
*D23
 70
65
 10
0.0
 20
0.0
  3
*D23
  1

  0
TEXT
  5
878
100
AcDbEntity
  8
0
100
AcDbText
 62
5
  6
CONTINUOUS
 10
165.1854065009
 20
1055.0711952983
  7
STANDARD
 40
2.5
  1
73
 50
90.0
 72
5
 11
165.1854065009
 21
1058.8211952983
100
AcDbText
  0
LINE
  5
879
100
AcDbEntity
  8
0
100
AcDbLine
 62
2
  6
CONTINUOUS
 10
152.2104065009
 20
1093.4461952983
 11
166.8104065009
 21
1093.4461952983
  0
LINE
  5
87A
100
AcDbEntity
  8
0
100
AcDbLine
 62
2
  6
CONTINUOUS
 10
165.8104065009
 20
1093.4461952983
 11
165.8104065009
 21
1056.9461952983
  0
LINE
  5
87B
100
AcDbEntity
  8
0
100
AcDbLine
 62
2
  6
CONTINUOUS
 10
165.8104065009
 20
1020.4461952983
 11
165.8104065009
 21
1056.9461952983
  0
INSERT
  5
87C
100
AcDbEntity
  8
0
100
AcDbBlockReference
 62
2
  6
CONTINUOUS
  2
_FILLED
 10
165.8104065009
 20
1093.4461952983
 41
3.5
 42
3.5
 43
3.5
 50
90.0
  0
INSERT
  5
87D
100
AcDbEntity
  8
0
100
AcDbBlockReference
 62
2
  6
CONTINUOUS
  2
_FILLED
 10
165.8104065009
 20
1020.4461952983
 41
3.5
 42
3.5
 43
3.5
 50
270.0
  0
ENDBLK
  5
87E
100
AcDbEntity
  8
0
  6
BYBLOCK
 62
0
100
AcDbBlockEnd
  0
BLOCK
  5
87F
100
AcDbEntity
  8
0
100
AcDbBlockBegin
 62
2
  6
CONTINUOUS
  2
*D24
 70
65
 10
0.0
 20
0.0
  3
*D24
  1

  0
TEXT
  5
880
100
AcDbEntity
  8
0
100
AcDbText
 62
5
  6
CONTINUOUS
 10
172.1854065009
 20
1215.731909584
  7
STANDARD
 40
2.5
  1
399.5
 50
90.0
 72
5
 11
172.1854065009
 21
1224.6604810126
100
AcDbText
  0
LINE
  5
881
100
AcDbEntity
  8
0
100
AcDbLine
 62
2
  6
CONTINUOUS
 10
151.3777313981
 20
1419.9461952983
 11
173.8104065009
 21
1419.9461952983
  0
LINE
  5
882
100
AcDbEntity
  8
0
100
AcDbLine
 62
2
  6
CONTINUOUS
 10
172.8104065009
 20
1419.9461952983
 11
172.8104065009
 21
1220.1961952983
  0
LINE
  5
883
100
AcDbEntity
  8
0
100
AcDbLine
 62
2
  6
CONTINUOUS
 10
172.8104065009
 20
1020.4461952983
 11
172.8104065009
 21
1220.1961952983
  0
INSERT
  5
884
100
AcDbEntity
  8
0
100
AcDbBlockReference
 62
2
  6
CONTINUOUS
  2
_FILLED
 10
172.8104065009
 20
1419.9461952983
 41
3.5
 42
3.5
 43
3.5
 50
90.0
  0
INSERT
  5
885
100
AcDbEntity
  8
0
100
AcDbBlockReference
 62
2
  6
CONTINUOUS
  2
_FILLED
 10
172.8104065009
 20
1020.4461952983
 41
3.5
 42
3.5
 43
3.5
 50
270.0
  0
ENDBLK
  5
886
100
AcDbEntity
  8
0
  6
BYBLOCK
 62
0
100
AcDbBlockEnd
  0
BLOCK
  5
887
100
AcDbEntity
  8
0
100
AcDbBlockBegin
 62
2
  6
CONTINUOUS
  2
*D25
 70
65
 10
0.0
 20
0.0
  3
*D25
  1

  0
TEXT
  5
888
100
AcDbEntity
  8
0
100
AcDbText
 62
5
  6
CONTINUOUS
 10
179.1854065009
 20
1292.6783381554
  7
STANDARD
 40
2.5
  1
550
 50
90.0
 72
5
 11
179.1854065009
 21
1298.2140524411
100
AcDbText
  0
LINE
  5
889
100
AcDbEntity
  8
0
100
AcDbLine
 62
2
  6
CONTINUOUS
 10
152.0104065009
 20
1570.4461952983
 11
180.8104065009
 21
1570.4461952983
  0
LINE
  5
88A
100
AcDbEntity
  8
0
100
AcDbLine
 62
2
  6
CONTINUOUS
 10
179.8104065009
 20
1570.4461952983
 11
179.8104065009
 21
1295.4461952983
  0
LINE
  5
88B
100
AcDbEntity
  8
0
100
AcDbLine
 62
2
  6
CONTINUOUS
 10
179.8104065009
 20
1020.4461952983
 11
179.8104065009
 21
1295.4461952983
  0
INSERT
  5
88C
100
AcDbEntity
  8
0
100
AcDbBlockReference
 62
2
  6
CONTINUOUS
  2
_FILLED
 10
179.8104065009
 20
1570.4461952983
 41
3.5
 42
3.5
 43
3.5
 50
90.0
  0
INSERT
  5
88D
100
AcDbEntity
  8
0
100
AcDbBlockReference
 62
2
  6
CONTINUOUS
  2
_FILLED
 10
179.8104065009
 20
1020.4461952983
 41
3.5
 42
3.5
 43
3.5
 50
270.0
  0
ENDBLK
  5
88E
100
AcDbEntity
  8
0
  6
BYBLOCK
 62
0
100
AcDbBlockEnd
  0
BLOCK
  5
88F
100
AcDbEntity
  8
0
100
AcDbBlockBegin
 62
2
  6
CONTINUOUS
  2
*D26
 70
65
 10
0.0
 20
0.0
  3
*D26
  1

  0
TEXT
  5
890
100
AcDbEntity
  8
0
100
AcDbText
 62
5
  6
CONTINUOUS
 10
186.1854065009
 20
1331.9997667269
  7
STANDARD
 40
2.5
  1
629
 50
90.0
 72
5
 11
186.1854065009
 21
1337.8926238697
100
AcDbText
  0
LINE
  5
891
100
AcDbEntity
  8
0
100
AcDbLine
 62
2
  6
CONTINUOUS
 10
152.0104065009
 20
1649.4461952983
 11
187.8104065009
 21
1649.4461952983
  0
LINE
  5
892
100
AcDbEntity
  8
0
100
AcDbLine
 62
2
  6
CONTINUOUS
 10
186.8104065009
 20
1649.4461952983
 11
186.8104065009
 21
1334.9461952983
  0
LINE
  5
893
100
AcDbEntity
  8
0
100
AcDbLine
 62
2
  6
CONTINUOUS
 10
186.8104065009
 20
1020.4461952983
 11
186.8104065009
 21
1334.9461952983
  0
INSERT
  5
894
100
AcDbEntity
  8
0
100
AcDbBlockReference
 62
2
  6
CONTINUOUS
  2
_FILLED
 10
186.8104065009
 20
1649.4461952983
 41
3.5
 42
3.5
 43
3.5
 50
90.0
  0
INSERT
  5
895
100
AcDbEntity
  8
0
100
AcDbBlockReference
 62
2
  6
CONTINUOUS
  2
_FILLED
 10
186.8104065009
 20
1020.4461952983
 41
3.5
 42
3.5
 43
3.5
 50
270.0
  0
ENDBLK
  5
896
100
AcDbEntity
  8
0
  6
BYBLOCK
 62
0
100
AcDbBlockEnd
  0
BLOCK
  5
897
100
AcDbEntity
  8
0
100
AcDbBlockBegin
 62
2
  6
CONTINUOUS
  2
*D27
 70
65
 10
0.0
 20
0.0
  3
*D27
  1

  0
TEXT
  5
898
100
AcDbEntity
  8
0
100
AcDbText
 62
5
  6
CONTINUOUS
 10
193.1854065009
 20
1410.1211952983
  7
STANDARD
 40
2.5
  1
788.1
 50
90.0
 72
5
 11
193.1854065009
 21
1418.8711952983
100
AcDbText
  0
LINE
  5
899
100
AcDbEntity
  8
0
100
AcDbLine
 62
2
  6
CONTINUOUS
 10
152.0104065009
 20
1808.5461952983
 11
194.8104065009
 21
1808.5461952983
  0
LINE
  5
89A
100
AcDbEntity
  8
0
100
AcDbLine
 62
2
  6
CONTINUOUS
 10
193.8104065009
 20
1808.5461952983
 11
193.8104065009
 21
1414.4961952983
  0
LINE
  5
89B
100
AcDbEntity
  8
0
100
AcDbLine
 62
2
  6
CONTINUOUS
 10
193.8104065009
 20
1020.4461952983
 11
193.8104065009
 21
1414.4961952983
  0
INSERT
  5
89C
100
AcDbEntity
  8
0
100
AcDbBlockReference
 62
2
  6
CONTINUOUS
  2
_FILLED
 10
193.8104065009
 20
1808.5461952983
 41
3.5
 42
3.5
 43
3.5
 50
90.0
  0
INSERT
  5
89D
100
AcDbEntity
  8
0
100
AcDbBlockReference
 62
2
  6
CONTINUOUS
  2
_FILLED
 10
193.8104065009
 20
1020.4461952983
 41
3.5
 42
3.5
 43
3.5
 50
270.0
  0
ENDBLK
  5
89E
100
AcDbEntity
  8
0
  6
BYBLOCK
 62
0
100
AcDbBlockEnd
  0
BLOCK
  5
89F
100
AcDbEntity
  8
0
100
AcDbBlockBegin
 62
2
  6
CONTINUOUS
  2
*D28
 70
65
 10
0.0
 20
0.0
  3
*D28
  1

  0
TEXT
  5
8A0
100
AcDbEntity
  8
0
100
AcDbText
 62
5
  6
CONTINUOUS
 10
55.7608882801
 20
86.9209814554
  7
STANDARD
 40
2.5
  1
13.5
 50
90.0
 72
5
 11
55.7608882801
 21
93.349552884
100
AcDbText
  0
LINE
  5
8A1
100
AcDbEntity
  8
0
100
AcDbLine
 62
2
  6
CONTINUOUS
 10
34.4819710238
 20
96.8852671697
 11
46.9617630264
 21
96.8852671697
  0
LINE
  5
8A2
100
AcDbEntity
  8
0
100
AcDbLine
 62
2
  6
CONTINUOUS
 10
48.5899787324
 20
96.8852671697
 11
57.3858882801
 21
96.8852671697
  0
LINE
  5
8A3
100
AcDbEntity
  8
0
100
AcDbLine
 62
2
  6
CONTINUOUS
 10
34.4819710238
 20
83.3852671697
 11
57.3858882801
 21
83.3852671697
  0
LINE
  5
8A4
100
AcDbEntity
  8
0
100
AcDbLine
 62
2
  6
CONTINUOUS
 10
56.3858882801
 20
96.8852671697
 11
56.3858882801
 21
103.8852671697
  0
LINE
  5
8A5
100
AcDbEntity
  8
0
100
AcDbLine
 62
2
  6
CONTINUOUS
 10
56.3858882801
 20
103.8852671697
 11
56.3858882801
 21
90.1352671697
  0
LINE
  5
8A6
100
AcDbEntity
  8
0
100
AcDbLine
 62
2
  6
CONTINUOUS
 10
56.3858882801
 20
83.3852671697
 11
56.3858882801
 21
76.3852671697
  0
LINE
  5
8A7
100
AcDbEntity
  8
0
100
AcDbLine
 62
2
  6
CONTINUOUS
 10
56.3858882801
 20
76.3852671697
 11
56.3858882801
 21
90.1352671697
  0
INSERT
  5
8A8
100
AcDbEntity
  8
0
100
AcDbBlockReference
 62
2
  6
CONTINUOUS
  2
_FILLED
 10
56.3858882801
 20
96.8852671697
 41
3.5
 42
3.5
 43
3.5
 50
270.0
  0
INSERT
  5
8A9
100
AcDbEntity
  8
0
100
AcDbBlockReference
 62
2
  6
CONTINUOUS
  2
_FILLED
 10
56.3858882801
 20
83.3852671697
 41
3.5
 42
3.5
 43
3.5
 50
90.0
  0
ENDBLK
  5
8AA
100
AcDbEntity
  8
0
  6
BYBLOCK
 62
0
100
AcDbBlockEnd
  0
BLOCK
  5
8AB
100
AcDbEntity
  8
0
100
AcDbBlockBegin
 62
2
  6
CONTINUOUS
  2
*D29
 70
65
 10
0.0
 20
0.0
  3
*D29
  1

  0
TEXT
  5
8AC
100
AcDbEntity
  8
0
100
AcDbText
 62
5
  6
CONTINUOUS
 10
47.2028100993
 20
109.7634061484
  7
STANDARD
 40
2.5
  1
2
 50
90.0
 72
5
 11
47.2028100993
 21
111.7276918627
100
AcDbText
  0
LINE
  5
8AD
100
AcDbEntity
  8
0
100
AcDbLine
 62
2
  6
CONTINUOUS
 10
29.9819710238
 20
102.3852671697
 11
48.8278100993
 21
102.3852671697
  0
LINE
  5
8AE
100
AcDbEntity
  8
0
100
AcDbLine
 62
2
  6
CONTINUOUS
 10
29.9819710238
 20
104.3852671697
 11
48.8278100993
 21
104.3852671697
  0
LINE
  5
8AF
100
AcDbEntity
  8
0
100
AcDbLine
 62
2
  6
CONTINUOUS
 10
47.8278100993
 20
102.3852671697
 11
47.8278100993
 21
95.3852671697
  0
LINE
  5
8B0
100
AcDbEntity
  8
0
100
AcDbLine
 62
2
  6
CONTINUOUS
 10
47.8278100993
 20
95.3852671697
 11
47.8278100993
 21
103.3852671697
  0
LINE
  5
8B1
100
AcDbEntity
  8
0
100
AcDbLine
 62
2
  6
CONTINUOUS
 10
47.8278100993
 20
104.3852671697
 11
47.8278100993
 21
111.7276918627
  0
LINE
  5
8B2
100
AcDbEntity
  8
0
100
AcDbLine
 62
2
  6
CONTINUOUS
 10
47.8278100993
 20
111.7276918627
 11
47.8278100993
 21
103.3852671697
  0
INSERT
  5
8B3
100
AcDbEntity
  8
0
100
AcDbBlockReference
 62
2
  6
CONTINUOUS
  2
_FILLED
 10
47.8278100993
 20
102.3852671697
 41
3.5
 42
3.5
 43
3.5
 50
90.0
  0
INSERT
  5
8B4
100
AcDbEntity
  8
0
100
AcDbBlockReference
 62
2
  6
CONTINUOUS
  2
_FILLED
 10
47.8278100993
 20
104.3852671697
 41
3.5
 42
3.5
 43
3.5
 50
270.0
  0
ENDBLK
  5
8B5
100
AcDbEntity
  8
0
  6
BYBLOCK
 62
0
100
AcDbBlockEnd
  0
BLOCK
  5
8B6
100
AcDbEntity
  8
0
100
AcDbBlockBegin
 62
2
  6
CONTINUOUS
  2
*D30
 70
65
 10
0.0
 20
0.0
  3
*D30
  1

  0
TEXT
  5
8B7
100
AcDbEntity
  8
0
100
AcDbText
 62
5
  6
CONTINUOUS
 10
35.286277204
 20
216.8570514375
  7
STANDARD
 40
2.5
  1
24
 72
5
 11
39.2148486326
 21
216.8570514375
100
AcDbText
  0
LINE
  5
8B8
100
AcDbEntity
  8
0
100
AcDbLine
 62
2
  6
CONTINUOUS
 10
45.9819710238
 20
231.7188527899
 11
45.9819710238
 21
215.2320514375
  0
LINE
  5
8B9
100
AcDbEntity
  8
0
100
AcDbLine
 62
2
  6
CONTINUOUS
 10
45.9819710238
 20
216.2320514375
 11
33.9819710238
 21
216.2320514375
  0
LINE
  5
8BA
100
AcDbEntity
  8
0
100
AcDbLine
 62
2
  6
CONTINUOUS
 10
21.9819710238
 20
216.2320514375
 11
33.9819710238
 21
216.2320514375
  0
INSERT
  5
8BB
100
AcDbEntity
  8
0
100
AcDbBlockReference
 62
2
  6
CONTINUOUS
  2
_FILLED
 10
45.9819710238
 20
216.2320514375
 41
3.5
 42
3.5
 43
3.5
  0
INSERT
  5
8BC
100
AcDbEntity
  8
0
100
AcDbBlockReference
 62
2
  6
CONTINUOUS
  2
_FILLED
 10
21.9819710238
 20
216.2320514375
 41
3.5
 42
3.5
 43
3.5
 50
180.0
  0
ENDBLK
  5
8BD
100
AcDbEntity
  8
0
  6
BYBLOCK
 62
0
100
AcDbBlockEnd
  0
ENDSEC
  0
SECTION
  2
ENTITIES
  0
DIMENSION
  5
8BE
100
AcDbEntity
  8
0
100
AcDbDimension
 62
2
  6
CONTINUOUS
  2
*D0
 10
29.9819710238
 20
2139.7310125002
 11
25.9819710238
 21
2139.7310125002
 70
160
 71
2
 42
8.0
  3
DIMSTYLE_1
100
AcDbAlignedDimension
 13
21.9819710238
 23
2130.4461952983
 14
29.9819710238
 24
2130.4461952983
100
AcDbRotatedDimension
  0
DIMENSION
  5
8BF
100
AcDbEntity
  8
0
100
AcDbDimension
 62
2
  6
CONTINUOUS
  2
*D1
 10
155.8104065009
 20
2141.8091272606
 11
143.8104065009
 21
2141.8091272606
 70
160
 71
2
 42
24.0
  3
DIMSTYLE_1
100
AcDbAlignedDimension
 13
131.8104065009
 23
2130.4461952983
 14
155.8104065009
 24
2130.4461952983
100
AcDbRotatedDimension
  0
DIMENSION
  5
8C0
100
AcDbEntity
  8
0
100
AcDbDimension
 62
2
  6
CONTINUOUS
  2
*D2
 10
55.9819710238
 20
1798.4461952983
 11
55.9819710238
 21
1964.4461952983
 70
160
 71
2
 42
332.0
  3
DIMSTYLE_2
100
AcDbAlignedDimension
 13
26.9819710238
 23
2130.4461952983
 14
29.9777535725
 24
1798.4461952983
 50
270.0
100
AcDbRotatedDimension
  0
DIMENSION
  5
8C1
100
AcDbEntity
  8
0
100
AcDbDimension
 62
2
  6
CONTINUOUS
  2
*D3
 10
55.9819710238
 20
1798.4461952983
 11
55.9819710238
 21
1750.4461952983
 70
160
 71
2
 42
96.0
  3
DIMSTYLE_3
100
AcDbAlignedDimension
 13
30.0023360388
 23
1702.4461952983
 14
29.9725664533
 24
1798.4461952983
 50
90.0
100
AcDbRotatedDimension
  0
DIMENSION
  5
8C2
100
AcDbEntity
  8
0
100
AcDbDimension
 62
2
  6
CONTINUOUS
  2
*D4
 10
55.9819710238
 20
1702.4461952983
 11
55.9819710238
 21
1343.9211952983
 70
160
 71
2
 42
717.05
  3
DIMSTYLE_4
100
AcDbAlignedDimension
 13
33.1070843886
 23
985.3961952983
 14
29.9467068463
 24
1702.4461952983
 50
90.0
100
AcDbRotatedDimension
  0
DIMENSION
  5
8C3
100
AcDbEntity
  8
0
100
AcDbDimension
 62
2
  6
CONTINUOUS
  2
*D5
 10
55.9819710238
 20
923.4961952983
 11
55.9819710238
 21
954.4461952983
 70
160
 71
2
 42
61.9
  3
DIMSTYLE_5
100
AcDbAlignedDimension
 13
33.1070843886
 23
985.3961952983
 14
40.4099261737
 24
923.4961952983
 50
270.0
100
AcDbRotatedDimension
  0
DIMENSION
  5
8C4
100
AcDbEntity
  8
0
100
AcDbDimension
 62
2
  6
CONTINUOUS
  2
*D6
 10
55.9819710238
 20
308.4461952983
 11
55.9819710238
 21
615.9711952983
 70
160
 71
2
 42
615.05
  3
DIMSTYLE_4
100
AcDbAlignedDimension
 13
40.4819710238
 23
923.4961952983
 14
29.9787783597
 24
308.4461952983
 50
270.0
100
AcDbRotatedDimension
  0
DIMENSION
  5
8C5
100
AcDbEntity
  8
0
100
AcDbDimension
 62
2
  6
CONTINUOUS
  2
*D7
 10
55.9819710238
 20
212.4461952983
 11
55.9819710238
 21
260.4461952983
 70
160
 71
2
 42
96.0
  3
DIMSTYLE_3
100
AcDbAlignedDimension
 13
30.0354138643
 23
308.4461952983
 14
29.9885000237
 24
212.4461952983
 50
270.0
100
AcDbRotatedDimension
  0
DIMENSION
  5
8C6
100
AcDbEntity
  8
0
100
AcDbDimension
 62
2
  6
CONTINUOUS
  2
*D8
 10
55.9819710238
 20
130.4461952983
 11
55.9819710238
 21
171.4461952983
 70
160
 71
2
 42
82.0
  3
DIMSTYLE_3
100
AcDbAlignedDimension
 13
29.995014509
 23
212.4461952983
 14
26.9819710238
 24
130.4461952983
 50
270.0
100
AcDbRotatedDimension
  0
DIMENSION
  5
8C7
100
AcDbEntity
  8
0
100
AcDbDimension
 62
2
  6
CONTINUOUS
  2
*D9
 10
121.8104065009
 20
924.1961952983
 11
121.8104065009
 21
954.3461952983
 70
160
 71
2
 42
60.3
  3
DIMSTYLE_3
100
AcDbAlignedDimension
 13
141.5827651385
 23
984.4961952983
 14
141.5827651378
 24
924.1961952983
 50
270.0
100
AcDbRotatedDimension
  0
DIMENSION
  5
8C8
100
AcDbEntity
  8
0
100
AcDbDimension
 62
2
  6
CONTINUOUS
  2
*D10
 10
114.8104065009
 20
1020.4461952983
 11
114.8104065009
 21
987.4461952983
 70
160
 71
2
 42
66.0
  3
DIMSTYLE_3
100
AcDbAlignedDimension
 13
138.4805541303
 23
954.4461952983
 14
67.9603267295
 24
1020.4461952983
 50
90.0
100
AcDbRotatedDimension
  0
DIMENSION
  5
8C9
100
AcDbEntity
  8
0
100
AcDbDimension
 62
2
  6
CONTINUOUS
  2
*D11
 10
152.1104065009
 20
905.1961952983
 11
146.8104065009
 21
905.1961952983
 70
160
 71
2
 42
10.6
  3
DIMSTYLE_1
100
AcDbAlignedDimension
 13
141.5104065009
 23
924.4961952983
 14
152.1104065009
 24
924.4961952983
100
AcDbRotatedDimension
  0
DIMENSION
  5
8CA
100
AcDbEntity
  8
0
100
AcDbDimension
 62
2
  6
CONTINUOUS
  2
*D12
 10
155.8104065009
 20
912.1961952983
 11
160.3511005599
 21
912.1961952983
 70
160
 71
1
 42
9.0
  3
DIMSTYLE_1
100
AcDbAlignedDimension
 13
146.8104065009
 23
921.1296829843
 14
155.8104065009
 24
1021.2961952983
100
AcDbRotatedDimension
  0
DIMENSION
  5
8CB
100
AcDbEntity
  8
0
100
AcDbDimension
 62
2
  6
CONTINUOUS
  2
*D13
 10
107.8104065009
 20
1020.4461952983
 11
107.8104065009
 21
640.4461952983
 70
160
 71
2
 42
760.0
  3
DIMSTYLE_6
100
AcDbAlignedDimension
 13
135.3494164311
 23
260.4461952983
 14
67.9603267295
 24
1020.4461952983
 50
90.0
100
AcDbRotatedDimension
  0
DIMENSION
  5
8CC
100
AcDbEntity
  8
0
100
AcDbDimension
 62
2
  6
CONTINUOUS
  2
*D14
 10
100.8104065009
 20
1020.4461952983
 11
100.8104065009
 21
575.4461952983
 70
160
 71
2
 42
890.0
  3
DIMSTYLE_6
100
AcDbAlignedDimension
 13
134.8104065009
 23
130.4461952983
 14
126.2663890206
 24
1020.4461952983
 50
90.0
100
AcDbRotatedDimension
  0
DIMENSION
  5
8CD
100
AcDbEntity
  8
0
100
AcDbDimension
 62
2
  6
CONTINUOUS
  2
*D15
 10
107.8104065009
 20
1020.4461952983
 11
107.8104065009
 21
1385.4461952983
 70
160
 71
2
 42
730.0
  3
DIMSTYLE_6
100
AcDbAlignedDimension
 13
135.3494164311
 23
1750.4461952983
 14
67.9603267295
 24
1020.4461952983
 50
270.0
100
AcDbRotatedDimension
  0
DIMENSION
  5
8CE
100
AcDbEntity
  8
0
100
AcDbDimension
 62
2
  6
CONTINUOUS
  2
*D16
 10
93.8104065009
 20
130.4461952983
 11
93.8104065009
 21
1130.4461952983
 70
160
 71
2
 42
2000.0
  3
DIMSTYLE_7
100
AcDbAlignedDimension
 13
134.8104065009
 23
2130.4461952983
 14
134.8104065009
 24
130.4461952983
 50
270.0
100
AcDbRotatedDimension
  0
DIMENSION
  5
8CF
100
AcDbEntity
  8
0
100
AcDbDimension
 62
2
  6
CONTINUOUS
  2
*D17
 10
165.8104065009
 20
1020.4461952983
 11
165.8104065009
 21
1008.9461952983
 70
160
 71
2
 42
23.0
  3
DIMSTYLE_1
100
AcDbAlignedDimension
 13
152.2104065009
 23
997.4461952983
 14
236.374210437
 24
1020.4461952983
 50
90.0
100
AcDbRotatedDimension
  0
DIMENSION
  5
8D0
100
AcDbEntity
  8
0
100
AcDbDimension
 62
2
  6
CONTINUOUS
  2
*D18
 10
172.8104065009
 20
1020.4461952983
 11
172.8104065009
 21
924.4961952983
 70
160
 71
2
 42
191.9
  3
DIMSTYLE_2
100
AcDbAlignedDimension
 13
152.0104065009
 23
828.5461952983
 14
236.374210437
 24
1020.4461952983
 50
90.0
100
AcDbRotatedDimension
  0
DIMENSION
  5
8D1
100
AcDbEntity
  8
0
100
AcDbDimension
 62
2
  6
CONTINUOUS
  2
*D19
 10
179.8104065009
 20
1020.4461952983
 11
179.8104065009
 21
866.3961952983
 70
160
 71
2
 42
308.1
  3
DIMSTYLE_2
100
AcDbAlignedDimension
 13
152.0104065009
 23
712.3461952983
 14
236.374210437
 24
1020.4461952983
 50
90.0
100
AcDbRotatedDimension
  0
DIMENSION
  5
8D2
100
AcDbEntity
  8
0
100
AcDbDimension
 62
2
  6
CONTINUOUS
  2
*D20
 10
186.8104065009
 20
1020.4461952983
 11
186.8104065009
 21
770.4461952983
 70
160
 71
2
 42
500.0
  3
DIMSTYLE_6
100
AcDbAlignedDimension
 13
152.2104065009
 23
520.4461952983
 14
236.374210437
 24
1020.4461952983
 50
90.0
100
AcDbRotatedDimension
  0
DIMENSION
  5
8D3
100
AcDbEntity
  8
0
100
AcDbDimension
 62
2
  6
CONTINUOUS
  2
*D21
 10
193.8104065009
 20
1020.4461952983
 11
193.8104065009
 21
669.4961952983
 70
160
 71
2
 42
701.9
  3
DIMSTYLE_6
100
AcDbAlignedDimension
 13
152.0104065009
 23
318.5461952983
 14
236.374210437
 24
1020.4461952983
 50
90.0
100
AcDbRotatedDimension
  0
DIMENSION
  5
8D4
100
AcDbEntity
  8
0
100
AcDbDimension
 62
2
  6
CONTINUOUS
  2
*D22
 10
200.8104065009
 20
1020.4461952983
 11
200.8104065009
 21
611.3961952983
 70
160
 71
2
 42
818.1
  3
DIMSTYLE_6
100
AcDbAlignedDimension
 13
152.0104065009
 23
202.3461952983
 14
161.66117213
 24
1020.4461952983
 50
90.0
100
AcDbRotatedDimension
  0
DIMENSION
  5
8D5
100
AcDbEntity
  8
0
100
AcDbDimension
 62
2
  6
CONTINUOUS
  2
*D23
 10
165.8104065009
 20
1020.4461952983
 11
165.8104065009
 21
1056.9461952983
 70
160
 71
2
 42
73.0
  3
DIMSTYLE_3
100
AcDbAlignedDimension
 13
152.2104065009
 23
1093.4461952983
 14
236.374210437
 24
1020.4461952983
 50
270.0
100
AcDbRotatedDimension
  0
DIMENSION
  5
8D6
100
AcDbEntity
  8
0
100
AcDbDimension
 62
2
  6
CONTINUOUS
  2
*D24
 10
172.8104065009
 20
1020.4461952983
 11
172.8104065009
 21
1220.1961952983
 70
160
 71
2
 42
399.5
  3
DIMSTYLE_2
100
AcDbAlignedDimension
 13
151.3777313981
 23
1419.9461952983
 14
236.374210437
 24
1020.4461952983
 50
270.0
100
AcDbRotatedDimension
  0
DIMENSION
  5
8D7
100
AcDbEntity
  8
0
100
AcDbDimension
 62
2
  6
CONTINUOUS
  2
*D25
 10
179.8104065009
 20
1020.4461952983
 11
179.8104065009
 21
1295.4461952983
 70
160
 71
2
 42
550.0
  3
DIMSTYLE_6
100
AcDbAlignedDimension
 13
152.0104065009
 23
1570.4461952983
 14
236.374210437
 24
1020.4461952983
 50
270.0
100
AcDbRotatedDimension
  0
DIMENSION
  5
8D8
100
AcDbEntity
  8
0
100
AcDbDimension
 62
2
  6
CONTINUOUS
  2
*D26
 10
186.8104065009
 20
1020.4461952983
 11
186.8104065009
 21
1334.9461952983
 70
160
 71
2
 42
629.0
  3
DIMSTYLE_6
100
AcDbAlignedDimension
 13
152.0104065009
 23
1649.4461952983
 14
236.374210437
 24
1020.4461952983
 50
270.0
100
AcDbRotatedDimension
  0
DIMENSION
  5
8D9
100
AcDbEntity
  8
0
100
AcDbDimension
 62
2
  6
CONTINUOUS
  2
*D27
 10
193.8104065009
 20
1020.4461952983
 11
193.8104065009
 21
1414.4961952983
 70
160
 71
2
 42
788.1
  3
DIMSTYLE_6
100
AcDbAlignedDimension
 13
152.0104065009
 23
1808.5461952983
 14
236.374210437
 24
1020.4461952983
 50
270.0
100
AcDbRotatedDimension
  0
DIMENSION
  5
8DA
100
AcDbEntity
  8
0
100
AcDbDimension
 62
2
  6
CONTINUOUS
  2
*D28
 10
56.3858882801
 20
83.3852671697
 11
56.3858882801
 21
90.1352671697
 70
160
 71
2
 42
13.5
  3
DIMSTYLE_1
100
AcDbAlignedDimension
 13
34.4819710238
 23
96.8852671697
 14
34.4819710238
 24
83.3852671697
 50
270.0
100
AcDbRotatedDimension
  0
DIMENSION
  5
8DB
100
AcDbEntity
  8
0
100
AcDbDimension
 62
2
  6
CONTINUOUS
  2
*D29
 10
47.8278100993
 20
104.3852671697
 11
47.8278100993
 21
110.7455490056
 70
160
 71
1
 42
2.0
  3
DIMSTYLE_8
100
AcDbAlignedDimension
 13
29.9819710238
 23
102.3852671697
 14
29.9819710238
 24
104.3852671697
 50
90.0
100
AcDbRotatedDimension
  0
DIMENSION
  5
8DC
100
AcDbEntity
  8
0
100
AcDbDimension
 62
2
  6
CONTINUOUS
  2
*D30
 10
21.9819710238
 20
216.2320514375
 11
37.2505629183
 21
216.2320514375
 70
160
 71
2
 42
24.0
  3
DIMSTYLE_1
100
AcDbAlignedDimension
 13
45.9819710238
 23
231.7188527899
 14
21.9819710238
 24
239.7141444907
 50
180.0
100
AcDbRotatedDimension
  0
INSERT
  5
8DD
100
AcDbEntity
  8
0
100
AcDbBlockReference
 62
2
  6
CONTINUOUS
  2
SYMBOL_2_BL34
 10
31.0000000239
 20
34.9999999785
  0
LINE
  5
8DE
100
AcDbEntity
  8
S-AXIS
100
AcDbLine
 62
7
  6
CENTER
 10
161.4395065555
 20
1020.4461952983
 11
125.9826570853
 21
1020.4461952983
  0
LINE
  5
8DF
100
AcDbEntity
  8
S-AXIS
100
AcDbLine
 62
7
  6
CENTER
 10
48.9819710238
 20
1020.4461952983
 11
17.9819667051
 21
1020.4461952983
  0
LINE
  5
8E0
100
AcDbEntity
  8
S-AXIS
100
AcDbLine
 62
7
  6
CENTER
 10
48.9819710238
 20
92.3852671697
 11
17.9819667051
 21
92.3852671697
  0
INSERT
  5
8E1
100
AcDbEntity
  8
94934430R00_BL0
100
AcDbBlockReference
  2
94934430R00_BL0
 10
87.3961887624
 20
1105.415731234
  0
INSERT
  5
8E2
100
AcDbEntity
  8
94944601000_M2_BL1
100
AcDbBlockReference
  2
94944601000_M2_BL1
 10
85.4961887624
 20
202.3461952983
  0
INSERT
  5
8E3
100
AcDbEntity
  8
94528905000_BL2
100
AcDbBlockReference
  2
94528905000_BL2
 10
91.1461887624
 20
220.3461952983
  0
INSERT
  5
8E4
100
AcDbEntity
  8
94621099000_BL3
100
AcDbBlockReference
  2
94621099000_BL3
 10
88.8766837973
 20
260.4461952983
  0
INSERT
  5
8E5
100
AcDbEntity
  8
94528905000_BL4
100
AcDbBlockReference
  2
94528905000_BL4
 10
91.1461887624
 20
300.5461952983
  0
INSERT
  5
8E6
100
AcDbEntity
  8
94944601000_M2_BL5
100
AcDbBlockReference
  2
94944601000_M2_BL5
 10
85.4961887624
 20
318.5461952983
  0
INSERT
  5
8E7
100
AcDbEntity
  8
94944601000_M2_BL6
100
AcDbBlockReference
  2
94944601000_M2_BL6
 10
85.4961887624
 20
712.3461952983
  0
INSERT
  5
8E8
100
AcDbEntity
  8
94528905000_BL7
100
AcDbBlockReference
  2
94528905000_BL7
 10
91.1461887624
 20
941.815731234
  0
INSERT
  5
8E9
100
AcDbEntity
  8
94528905000_BL8
100
AcDbBlockReference
  2
94528905000_BL8
 10
91.1461887624
 20
1710.3461952983
  0
INSERT
  5
8EA
100
AcDbEntity
  8
94944601000_M2_BL9
100
AcDbBlockReference
  2
94944601000_M2_BL9
 10
85.4961887624
 20
828.5461952983
  0
INSERT
  5
8EB
100
AcDbEntity
  8
94855303000_BL10
100
AcDbBlockReference
  2
94855303000_BL10
 10
86.5611127884
 20
534.7856467632
  0
INSERT
  5
8EC
100
AcDbEntity
  8
94625701000_BL11
100
AcDbBlockReference
  2
94625701000_BL11
 10
88.8961887624
 20
574.915731234
  0
INSERT
  5
8ED
100
AcDbEntity
  8
93894201000_BL12
100
AcDbBlockReference
  2
93894201000_BL12
 10
87.8961887624
 20
575.990731234
  0
INSERT
  5
8EE
100
AcDbEntity
  8
93780800R00_BL13
100
AcDbBlockReference
  2
93780800R00_BL13
 10
142.8104065009
 20
1029.9461952983
  0
INSERT
  5
8EF
100
AcDbEntity
  8
62890228000_BL14
100
AcDbBlockReference
  2
62890228000_BL14
 10
146.8104065009
 20
1045.4461952983
  0
INSERT
  5
8F0
100
AcDbEntity
  8
93780800R00_BL15
100
AcDbBlockReference
  2
93780800R00_BL15
 10
142.8104065009
 20
1060.9461952983
  0
INSERT
  5
8F1
100
AcDbEntity
  8
94322000000_BL16
100
AcDbBlockReference
  2
94322000000_BL16
 10
86.9961887624
 20
681.4157552244
  0
INSERT
  5
8F2
100
AcDbEntity
  8
94621099000_BL17
100
AcDbBlockReference
  2
94621099000_BL17
 10
88.8766837973
 20
942.415731234
  0
INSERT
  5
8F3
100
AcDbEntity
  8
94944601000_M2_BL18
100
AcDbBlockReference
  2
94944601000_M2_BL18
 10
85.1798512109
 20
1419.9461952983
  0
INSERT
  5
8F4
100
AcDbEntity
  8
94944601000_M2_BL19
100
AcDbBlockReference
  2
94944601000_M2_BL19
 10
85.4961887624
 20
1570.4461952983
  0
INSERT
  5
8F5
100
AcDbEntity
  8
94944601000_M2_BL20
100
AcDbBlockReference
  2
94944601000_M2_BL20
 10
85.4961887624
 20
1649.4461952983
  0
INSERT
  5
8F6
100
AcDbEntity
  8
94944601000_M2_BL21
100
AcDbBlockReference
  2
94944601000_M2_BL21
 10
85.4961887624
 20
949.815731234
  0
INSERT
  5
8F7
100
AcDbEntity
  8
94320001000_M1_BL22
100
AcDbBlockReference
  2
94320001000_M1_BL22
 10
87.9211887624
 20
1330.4461952983
  0
INSERT
  5
8F8
100
AcDbEntity
  8
94320001000_M1_BL23
100
AcDbBlockReference
  2
94320001000_M1_BL23
 10
87.9211887624
 20
1282.4461952983
  0
INSERT
  5
8F9
100
AcDbEntity
  8
94320001000_M1_BL24
100
AcDbBlockReference
  2
94320001000_M1_BL24
 10
30.1819710238
 20
1258.4461952983
  0
INSERT
  5
8FA
100
AcDbEntity
  8
91324208R00_BL25
100
AcDbBlockReference
  2
91324208R00_BL25
 10
89.2711887624
 20
1019.1961952983
  0
INSERT
  5
8FB
100
AcDbEntity
  8
94996201000_BL26
100
AcDbBlockReference
  2
94996201000_BL26
 10
28.9819710238
 20
585.940731234
  0
INSERT
  5
8FC
100
AcDbEntity
  8
94320001000_M1_BL27
100
AcDbBlockReference
  2
94320001000_M1_BL27
 10
87.9211887624
 20
1210.4461952983
  0
INSERT
  5
8FD
100
AcDbEntity
  8
91324208R00_BL28
100
AcDbBlockReference
  2
91324208R00_BL28
 10
89.2711887624
 20
1071.6961952983
  0
INSERT
  5
8FE
100
AcDbEntity
  8
94342601000_M_BL29
100
AcDbBlockReference
  2
94342601000_M_BL29
 10
26.6371310185
 20
1270.4461952983
  0
INSERT
  5
8FF
100
AcDbEntity
  8
94923403000_BL30
100
AcDbBlockReference
  2
94923403000_BL30
 10
25.4819710238
 20
92.3852671697
  0
INSERT
  5
900
100
AcDbEntity
  8
94968401R00_BL31
100
AcDbBlockReference
  2
94968401R00_BL31
 10
26.3319710238
 20
92.3852671787
  0
INSERT
  5
901
100
AcDbEntity
  8
94319401000_BL32
100
AcDbBlockReference
  2
94319401000_BL32
 10
29.2819710238
 20
92.3852671697
  0
INSERT
  5
902
100
AcDbEntity
  8
94925801R00_BL33
100
AcDbBlockReference
  2
94925801R00_BL33
 10
28.5755430009
 20
92.3852671697
  0
ENDSEC
  0
SECTION
  2
OBJECTS
  0
DICTIONARY
  5
C
100
AcDbDictionary
280
0
281
1
  3
ACAD_GROUP
350
D
  3
ACAD_MLINESTYLE
350
17
  3
ACAD_LAYOUT
350
1A
  3
ACAD_PLOTSETTINGS
350
19
  3
ACAD_PLOTSTYLENAME
350
E
  0
DICTIONARY
  5
D
102
{ACAD_REACTORS
330
C
102
}
100
AcDbDictionary
280
0
281
1
  0
ACDBDICTIONARYWDFLT
  5
E
102
{ACAD_REACTORS
330
C
102
}
100
AcDbDictionary
281
1
  3
Normal
350
F
100
AcDbDictionaryWithDefault
340
F
  0
DICTIONARY
  5
17
102
{ACAD_REACTORS
330
C
102
}
100
AcDbDictionary
280
0
281
1
  3
Standard
350
18
  0
DICTIONARY
  5
19
102
{ACAD_REACTORS
330
C
102
}
100
AcDbDictionary
281
1
  0
DICTIONARY
  5
1A
102
{ACAD_REACTORS
330
C
102
}
100
AcDbDictionary
281
1
  3
Model
350
903
  3
Layout1
350
904
  0
ACDBPLACEHOLDER
  5
F
102
{ACAD_REACTORS
330
E
102
}
  0
MLINESTYLE
  5
18
102
{ACAD_REACTORS
330
17
102
}
100
AcDbMlineStyle
  2
STANDARD
 70
0
  3

 62
256
 51
90.0
 52
90.0
 71
2
 49
0.5
 62
256
  6
BYLAYER
 49
-0.5
 62
256
  6
BYLAYER
  0
LAYOUT
  5
903
102
{ACAD_REACTORS
330
1A
102
}
100
AcDbPlotSettings
  1

  2
none_device
  4

  6

 40
0.0
 41
0.0
 42
0.0
 43
0.0
 44
225.0
 45
2150.0
 46
0.0
 47
0.0
 48
0.0
 49
0.0
140
0.0
141
0.0
142
1.0
143
1.0
 70
1024
 72
1
 73
0
 74
0
  7

 75
0
147
1.0
148
0.0
149
0.0
100
AcDbLayout
  1
Model
 70
0
 71
0
 10
0.0
 20
0.0
 11
225.0
 21
2150.0
 12
0.0
 22
0.0
 32
0.0
 14
0.0
 24
0.0
 34
0.0
 15
0.0
 25
0.0
 35
0.0
146
0.0
 13
0.0
 23
0.0
 33
0.0
 16
1.0
 26
0.0
 36
0.0
 17
0.0
 27
1.0
 37
0.0
 76
0
330
23C
345
0
346
0
  0
LAYOUT
  5
904
102
{ACAD_REACTORS
330
1A
102
}
100
AcDbPlotSettings
  1

  2
none_device
  4

  6

 40
0.0
 41
0.0
 42
0.0
 43
0.0
 44
225.0
 45
2150.0
 46
0.0
 47
0.0
 48
0.0
 49
0.0
140
0.0
141
0.0
142
1.0
143
1.0
 70
0
 72
1
 73
0
 74
0
  7

 75
0
147
1.0
148
0.0
149
0.0
100
AcDbLayout
  1
Layout1
 70
0
 71
1
 10
0.0
 20
0.0
 11
225.0
 21
2150.0
 12
0.0
 22
0.0
 32
0.0
 14
0.0
 24
0.0
 34
0.0
 15
0.0
 25
0.0
 35
0.0
146
0.0
 13
0.0
 23
0.0
 33
0.0
 16
1.0
 26
0.0
 36
0.0
 17
0.0
 27
1.0
 37
0.0
 76
0
330
23D
345
0
346
0
  0
ENDSEC
  0
EOF
