  0
SECTION
  2
HEADER
  9
$ACADVER
  1
AC1021
  9
$DWGCODEPAGE
  3
ANSI_1252
  9
$EXTMAX
 10
220.0
 20
2150.0
 30
0.0
  9
$EXTMIN
 10
0.0
 20
0.0
 30
0.0
  9
$LIMMIN
 10
0.0
 20
0.0
  9
$LIMMAX
 10
220.0
 20
2150.0
  9
$VIEWCTR
 10
110.0
 20
1075.0
  9
$VIEWSIZE
 40
2150.0
  9
$CLAYER
  8
0
  9
$LTSCALE
 40
140.1481481481
  9
$CELTYPE
  6
BYLAYER
  9
$DIMSCALE
 40
1.0
  9
$DIMASZ
 40
3.5
  9
$DIMEXO
 40
0.0
  9
$DIMDLI
 40
96.8296296296
  9
$DIMEXE
 40
1.0
  9
$DIMCEN
 40
22.9333333333
  9
$DIMLFAC
 40
1.0
  9
$DIMBLK
  1
_FILLED
  9
$DIMTXT
 40
2.5
  9
$DIMTOL
 70
1
  9
$DIMLIM
 70
0
  9
$DIMTFAC
 40
1.0
  9
$DIMTP
 40
0.001
  9
$DIMTM
 40
0.001
  9
$DIMGAP
 40
0.625
  9
$DIMDSEP
 70
46
  9
$PDMODE
 70
3
  9
$PDSIZE
 40
2.0
  9
$HANDSEED
  5
8DF
  9
$TILEMODE
 70
1
  9
$MEASUREMENT
 70
1
  9
$INSUNITS
 70
4
  0
ENDSEC
  0
SECTION
  2
CLASSES
  0
CLASS
  1
ACDBDICTIONARYWDFLT
  2
AcDbDictionaryWithDefault
  3
AutoCAD 2000
 90
0
 91
1
280
0
281
0
  0
CLASS
  1
ACDBPLACEHOLDER
  2
AcDbPlaceHolder
  3
AutoCAD 2000
 90
0
 91
1
280
0
281
0
  0
CLASS
  1
LAYOUT
  2
AcDbLayout
  3
AutoCAD 2000
 90
0
 91
0
280
0
281
0
  0
ENDSEC
  0
SECTION
  2
TABLES
  0
TABLE
  2
VPORT
  5
8
100
AcDbSymbolTable
 70
2
  0
VPORT
  5
1F4
100
AcDbSymbolTableRecord
100
AcDbViewportTableRecord
  2
*ACTIVE
 70
0
 10
0.0
 20
0.0
 11
1.0
 21
1.0
 12
110.0
 22
1075.0
 13
0.0
 23
0.0
 14
1.0
 24
1.0
 15
0.0
 25
0.0
 16
0.0
 26
0.0
 36
1.0
 17
0.0
 27
0.0
 37
0.0
 40
2150.0
 41
0.1023255814
 42
50.0
 43
0.0
 44
0.0
 50
0.0
 51
0.0
 71
0
 72
100
 73
1
 74
1
 75
0
 76
0
 77
0
 78
0
  0
ENDTAB
  0
TABLE
  2
LTYPE
  5
5
100
AcDbSymbolTable
 70
6
  0
LTYPE
  5
14
100
AcDbSymbolTableRecord
100
AcDbLinetypeTableRecord
  2
BYBLOCK
 70
0
  3

 72
65
 73
0
 40
0.0
  0
LTYPE
  5
15
100
AcDbSymbolTableRecord
100
AcDbLinetypeTableRecord
  2
BYLAYER
 70
0
  3

 72
65
 73
0
 40
0.0
  0
LTYPE
  5
16
100
AcDbSymbolTableRecord
100
AcDbLinetypeTableRecord
  2
CONTINUOUS
 70
64
  3
Solid line
 72
65
 73
0
 40
0.0
  0
LTYPE
  5
1F5
100
AcDbSymbolTableRecord
100
AcDbLinetypeTableRecord
  2
CENTER
 70
64
  3
____ _ ____ _ ____ _ ____ _ ____ _ ____ _ ____
 72
65
 73
4
 40
0.6
 49
0.375
 74
0
 49
-0.075
 74
0
 49
0.075
 74
0
 49
-0.075
 74
0
  0
LTYPE
  5
1F6
100
AcDbSymbolTableRecord
100
AcDbLinetypeTableRecord
  2
HIDDEN
 70
64
  3
- - - - - - - - - - - - - - - - - - - -
 72
65
 73
2
 40
0.2
 49
0.1
 74
0
 49
-0.1
 74
0
  0
LTYPE
  5
1F7
100
AcDbSymbolTableRecord
100
AcDbLinetypeTableRecord
  2
PHANTOM
 70
64
  3
_____ _ _ _____ _ _ _____ _ _ _____
 72
65
 73
6
 40
0.8
 49
0.45
 74
0
 49
-0.05
 74
0
 49
0.1
 74
0
 49
-0.05
 74
0
 49
0.1
 74
0
 49
-0.05
 74
0
  0
LTYPE
  5
1F8
100
AcDbSymbolTableRecord
100
AcDbLinetypeTableRecord
  2
DOT
 70
64
  3
. . . . . . . . . . . . . . . . . . . .
 72
65
 73
2
 40
0.2
 49
0.1
 74
0
 49
-0.1
 74
0
  0
LTYPE
  5
1F9
100
AcDbSymbolTableRecord
100
AcDbLinetypeTableRecord
  2
DASHED
 70
64
  3
- - - - - - - - - - - - - - - - - - - -
 72
65
 73
2
 40
0.2
 49
0.1
 74
0
 49
-0.1
 74
0
  0
ENDTAB
  0
TABLE
  2
LAYER
  5
2
100
AcDbSymbolTable
 70
36
  0
LAYER
  5
10
100
AcDbSymbolTableRecord
100
AcDbLayerTableRecord
  2
0
 70
0
 62
7
  6
CONTINUOUS
370
-3
390
F
  0
LAYER
  5
1FA
100
AcDbSymbolTableRecord
100
AcDbLayerTableRecord
  2
DEFAULT_1
 70
0
 62
7
  6
CENTER
370
-3
390
F
  0
LAYER
  5
1FB
100
AcDbSymbolTableRecord
100
AcDbLayerTableRecord
  2
DEFAULT_2
 70
0
 62
8
  6
HIDDEN
370
-3
390
F
  0
LAYER
  5
1FC
100
AcDbSymbolTableRecord
100
AcDbLayerTableRecord
  2
DEFAULT_3
 70
0
 62
7
  6
PHANTOM
370
-3
390
F
  0
LAYER
  5
1FD
100
AcDbSymbolTableRecord
100
AcDbLayerTableRecord
  2
ACHSEN
 70
0
 62
7
  6
CONTINUOUS
370
-3
390
F
  0
LAYER
  5
1FE
100
AcDbSymbolTableRecord
100
AcDbLayerTableRecord
  2
AXIS
 70
0
 62
7
  6
CONTINUOUS
370
-3
390
F
  0
LAYER
  5
1FF
100
AcDbSymbolTableRecord
100
AcDbLayerTableRecord
  2
COORDSYS
 70
0
 62
7
  6
CONTINUOUS
370
-3
390
F
  0
LAYER
  5
200
100
AcDbSymbolTableRecord
100
AcDbLayerTableRecord
  2
CURVES
 70
0
 62
7
  6
CONTINUOUS
370
-3
390
F
  0
LAYER
  5
201
100
AcDbSymbolTableRecord
100
AcDbLayerTableRecord
  2
EBENEN
 70
0
 62
7
  6
CONTINUOUS
370
-3
390
F
  0
LAYER
  5
202
100
AcDbSymbolTableRecord
100
AcDbLayerTableRecord
  2
EINBAUREFERENZ
 70
0
 62
7
  6
CONTINUOUS
370
-3
390
F
  0
LAYER
  5
203
100
AcDbSymbolTableRecord
100
AcDbLayerTableRecord
  2
FORM_LAGE
 70
0
 62
7
  6
CONTINUOUS
370
-3
390
F
  0
LAYER
  5
204
100
AcDbSymbolTableRecord
100
AcDbLayerTableRecord
  2
FORM_UND_LAGE
 70
0
 62
7
  6
CONTINUOUS
370
-3
390
F
  0
LAYER
  5
205
100
AcDbSymbolTableRecord
100
AcDbLayerTableRecord
  2
GRUNDBEMASSUNGEN
 70
0
 62
7
  6
CONTINUOUS
370
-3
390
F
  0
LAYER
  5
206
100
AcDbSymbolTableRecord
100
AcDbLayerTableRecord
  2
KOSMETIK
 70
0
 62
7
  6
CONTINUOUS
370
-3
390
F
  0
LAYER
  5
207
100
AcDbSymbolTableRecord
100
AcDbLayerTableRecord
  2
KOSMETIK-FUEHRUNGSSEITE
 70
0
 62
7
  6
CONTINUOUS
370
-3
390
F
  0
LAYER
  5
208
100
AcDbSymbolTableRecord
100
AcDbLayerTableRecord
  2
KOSMETIK_2
 70
0
 62
7
  6
CONTINUOUS
370
-3
390
F
  0
LAYER
  5
209
100
AcDbSymbolTableRecord
100
AcDbLayerTableRecord
  2
LASERKONTUR
 70
0
 62
7
  6
CONTINUOUS
370
-3
390
F
  0
LAYER
  5
20A
100
AcDbSymbolTableRecord
100
AcDbLayerTableRecord
  2
PLANES
 70
0
 62
7
  6
CONTINUOUS
370
-3
390
F
  0
LAYER
  5
20B
100
AcDbSymbolTableRecord
100
AcDbLayerTableRecord
  2
POINTS
 70
0
 62
7
  6
CONTINUOUS
370
-3
390
F
  0
LAYER
  5
20C
100
AcDbSymbolTableRecord
100
AcDbLayerTableRecord
  2
PROFIL-EINBAULAGE
 70
0
 62
7
  6
CONTINUOUS
370
-3
390
F
  0
LAYER
  5
20D
100
AcDbSymbolTableRecord
100
AcDbLayerTableRecord
  2
QUERSCHNITTE
 70
0
 62
7
  6
CONTINUOUS
370
-3
390
F
  0
LAYER
  5
20E
100
AcDbSymbolTableRecord
100
AcDbLayerTableRecord
  2
RSK_OEFFNUNG
 70
0
 62
7
  6
CONTINUOUS
370
-3
390
F
  0
LAYER
  5
20F
100
AcDbSymbolTableRecord
100
AcDbLayerTableRecord
  2
S-AXIS
 70
0
 62
7
  6
CONTINUOUS
370
-3
390
F
  0
LAYER
  5
210
100
AcDbSymbolTableRecord
100
AcDbLayerTableRecord
  2
S-COORD-SYS
 70
0
 62
7
  6
CONTINUOUS
370
-3
390
F
  0
LAYER
  5
211
100
AcDbSymbolTableRecord
100
AcDbLayerTableRecord
  2
S-COORDSYS
 70
0
 62
7
  6
CONTINUOUS
370
-3
390
F
  0
LAYER
  5
212
100
AcDbSymbolTableRecord
100
AcDbLayerTableRecord
  2
S-PLANES
 70
0
 62
7
  6
CONTINUOUS
370
-3
390
F
  0
LAYER
  5
213
100
AcDbSymbolTableRecord
100
AcDbLayerTableRecord
  2
SKIZZE
 70
0
 62
7
  6
CONTINUOUS
370
-3
390
F
  0
LAYER
  5
214
100
AcDbSymbolTableRecord
100
AcDbLayerTableRecord
  2
THREADS
 70
0
 62
7
  6
CONTINUOUS
370
-3
390
F
  0
LAYER
  5
215
100
AcDbSymbolTableRecord
100
AcDbLayerTableRecord
  2
XSEC_DATUMS
 70
0
 62
7
  6
CONTINUOUS
370
-3
390
F
  0
LAYER
  5
216
100
AcDbSymbolTableRecord
100
AcDbLayerTableRecord
  2
94934430L00_BL0
 70
0
 62
7
  6
CONTINUOUS
370
-3
390
F
  0
LAYER
  5
217
100
AcDbSymbolTableRecord
100
AcDbLayerTableRecord
  2
94944601000_M2_BL1
 70
0
 62
7
  6
CONTINUOUS
370
-3
390
F
  0
LAYER
  5
218
100
AcDbSymbolTableRecord
100
AcDbLayerTableRecord
  2
94528905000_BL2
 70
0
 62
7
  6
CONTINUOUS
370
-3
390
F
  0
LAYER
  5
219
100
AcDbSymbolTableRecord
100
AcDbLayerTableRecord
  2
94621099000_BL3
 70
0
 62
7
  6
CONTINUOUS
370
-3
390
F
  0
LAYER
  5
21A
100
AcDbSymbolTableRecord
100
AcDbLayerTableRecord
  2
94528905000_BL4
 70
0
 62
7
  6
CONTINUOUS
370
-3
390
F
  0
LAYER
  5
21B
100
AcDbSymbolTableRecord
100
AcDbLayerTableRecord
  2
94944601000_M2_BL5
 70
0
 62
7
  6
CONTINUOUS
370
-3
390
F
  0
LAYER
  5
21C
100
AcDbSymbolTableRecord
100
AcDbLayerTableRecord
  2
94944601000_M2_BL6
 70
0
 62
7
  6
CONTINUOUS
370
-3
390
F
  0
LAYER
  5
21D
100
AcDbSymbolTableRecord
100
AcDbLayerTableRecord
  2
94528905000_BL7
 70
0
 62
7
  6
CONTINUOUS
370
-3
390
F
  0
LAYER
  5
21E
100
AcDbSymbolTableRecord
100
AcDbLayerTableRecord
  2
94528905000_BL8
 70
0
 62
7
  6
CONTINUOUS
370
-3
390
F
  0
LAYER
  5
21F
100
AcDbSymbolTableRecord
100
AcDbLayerTableRecord
  2
94944601000_M2_BL9
 70
0
 62
7
  6
CONTINUOUS
370
-3
390
F
  0
LAYER
  5
220
100
AcDbSymbolTableRecord
100
AcDbLayerTableRecord
  2
94855303000_BL10
 70
0
 62
7
  6
CONTINUOUS
370
-3
390
F
  0
LAYER
  5
221
100
AcDbSymbolTableRecord
100
AcDbLayerTableRecord
  2
94625701000_BL11
 70
0
 62
7
  6
CONTINUOUS
370
-3
390
F
  0
LAYER
  5
222
100
AcDbSymbolTableRecord
100
AcDbLayerTableRecord
  2
93894201000_BL12
 70
0
 62
7
  6
CONTINUOUS
370
-3
390
F
  0
LAYER
  5
223
100
AcDbSymbolTableRecord
100
AcDbLayerTableRecord
  2
93780800R00_BL13
 70
0
 62
7
  6
CONTINUOUS
370
-3
390
F
  0
LAYER
  5
224
100
AcDbSymbolTableRecord
100
AcDbLayerTableRecord
  2
62890228000_BL14
 70
0
 62
7
  6
CONTINUOUS
370
-3
390
F
  0
LAYER
  5
225
100
AcDbSymbolTableRecord
100
AcDbLayerTableRecord
  2
93780800R00_BL15
 70
0
 62
7
  6
CONTINUOUS
370
-3
390
F
  0
LAYER
  5
226
100
AcDbSymbolTableRecord
100
AcDbLayerTableRecord
  2
94621099000_BL16
 70
0
 62
7
  6
CONTINUOUS
370
-3
390
F
  0
LAYER
  5
227
100
AcDbSymbolTableRecord
100
AcDbLayerTableRecord
  2
94322000000_BL17
 70
0
 62
7
  6
CONTINUOUS
370
-3
390
F
  0
LAYER
  5
228
100
AcDbSymbolTableRecord
100
AcDbLayerTableRecord
  2
94944601000_M2_BL18
 70
0
 62
7
  6
CONTINUOUS
370
-3
390
F
  0
LAYER
  5
229
100
AcDbSymbolTableRecord
100
AcDbLayerTableRecord
  2
94944601000_M2_BL19
 70
0
 62
7
  6
CONTINUOUS
370
-3
390
F
  0
LAYER
  5
22A
100
AcDbSymbolTableRecord
100
AcDbLayerTableRecord
  2
94944601000_M2_BL20
 70
0
 62
7
  6
CONTINUOUS
370
-3
390
F
  0
LAYER
  5
22B
100
AcDbSymbolTableRecord
100
AcDbLayerTableRecord
  2
94944601000_M2_BL21
 70
0
 62
7
  6
CONTINUOUS
370
-3
390
F
  0
LAYER
  5
22C
100
AcDbSymbolTableRecord
100
AcDbLayerTableRecord
  2
94320001000_M1_BL22
 70
0
 62
7
  6
CONTINUOUS
370
-3
390
F
  0
LAYER
  5
22D
100
AcDbSymbolTableRecord
100
AcDbLayerTableRecord
  2
94320001000_M1_BL23
 70
0
 62
7
  6
CONTINUOUS
370
-3
390
F
  0
LAYER
  5
22E
100
AcDbSymbolTableRecord
100
AcDbLayerTableRecord
  2
94320001000_M1_BL24
 70
0
 62
7
  6
CONTINUOUS
370
-3
390
F
  0
LAYER
  5
22F
100
AcDbSymbolTableRecord
100
AcDbLayerTableRecord
  2
91324208R00_BL25
 70
0
 62
7
  6
CONTINUOUS
370
-3
390
F
  0
LAYER
  5
230
100
AcDbSymbolTableRecord
100
AcDbLayerTableRecord
  2
94320001000_M1_BL26
 70
0
 62
7
  6
CONTINUOUS
370
-3
390
F
  0
LAYER
  5
231
100
AcDbSymbolTableRecord
100
AcDbLayerTableRecord
  2
91324208R00_BL27
 70
0
 62
7
  6
CONTINUOUS
370
-3
390
F
  0
LAYER
  5
232
100
AcDbSymbolTableRecord
100
AcDbLayerTableRecord
  2
94319401000_BL28
 70
0
 62
7
  6
CONTINUOUS
370
-3
390
F
  0
LAYER
  5
233
100
AcDbSymbolTableRecord
100
AcDbLayerTableRecord
  2
94925801L00_BL29
 70
0
 62
7
  6
CONTINUOUS
370
-3
390
F
  0
LAYER
  5
234
100
AcDbSymbolTableRecord
100
AcDbLayerTableRecord
  2
94968401L00_BL30
 70
0
 62
7
  6
CONTINUOUS
370
-3
390
F
  0
LAYER
  5
235
100
AcDbSymbolTableRecord
100
AcDbLayerTableRecord
  2
94923403000_BL31
 70
0
 62
7
  6
CONTINUOUS
370
-3
390
F
  0
LAYER
  5
236
100
AcDbSymbolTableRecord
100
AcDbLayerTableRecord
  2
94996201000_BL32
 70
0
 62
7
  6
CONTINUOUS
370
-3
390
F
  0
LAYER
  5
237
100
AcDbSymbolTableRecord
100
AcDbLayerTableRecord
  2
94342601000_M_BL33
 70
0
 62
7
  6
CONTINUOUS
370
-3
390
F
  0
ENDTAB
  0
TABLE
  2
STYLE
  5
3
100
AcDbSymbolTable
 70
1
  0
STYLE
  5
11
100
AcDbSymbolTableRecord
100
AcDbTextStyleTableRecord
  2
STANDARD
 70
0
 40
0.0
 41
0.8
 50
0.0
 71
0
 42
0.2
  3
txt
  4

  0
STYLE
  5
238
100
AcDbSymbolTableRecord
100
AcDbTextStyleTableRecord
  2
TEXTSTYLE_1
 70
0
 40
0.0
 41
0.8
 50
0.0
 71
0
 42
0.2
  3
gdt
  4

  0
STYLE
  5
239
100
AcDbSymbolTableRecord
100
AcDbTextStyleTableRecord
  2
TEXTSTYLE_2
 70
0
 40
0.0
 41
1.0
 50
0.0
 71
0
 42
0.2
  3
arialbd.ttf
  4

  0
STYLE
  5
23A
100
AcDbSymbolTableRecord
100
AcDbTextStyleTableRecord
  2
TEXTSTYLE_3
 70
0
 40
0.0
 41
1.0
 50
0.0
 71
0
 42
0.2
  3
arial.ttf
  4

  0
ENDTAB
  0
TABLE
  2
VIEW
  5
6
100
AcDbSymbolTable
 70
0
  0
ENDTAB
  0
TABLE
  2
UCS
  5
7
100
AcDbSymbolTable
 70
0
  0
ENDTAB
  0
TABLE
  2
APPID
  5
9
100
AcDbSymbolTable
 70
1
  0
APPID
  5
23B
100
AcDbSymbolTableRecord
100
AcDbRegAppTableRecord
  2
ACAD
 70
0
  0
ENDTAB
  0
TABLE
  2
BLOCK_RECORD
  5
1
100
AcDbSymbolTable
 70
0
  0
BLOCK_RECORD
  5
23C
100
AcDbSymbolTableRecord
100
AcDbBlockTableRecord
  2
*Model_Space
  0
BLOCK_RECORD
  5
23D
100
AcDbSymbolTableRecord
100
AcDbBlockTableRecord
  2
*Paper_Space
  0
BLOCK_RECORD
  5
23E
100
AcDbSymbolTableRecord
100
AcDbBlockTableRecord
  2
_FILLED
  0
BLOCK_RECORD
  5
23F
100
AcDbSymbolTableRecord
100
AcDbBlockTableRecord
  2
*D0
  0
BLOCK_RECORD
  5
240
100
AcDbSymbolTableRecord
100
AcDbBlockTableRecord
  2
*D1
  0
BLOCK_RECORD
  5
241
100
AcDbSymbolTableRecord
100
AcDbBlockTableRecord
  2
*D2
  0
BLOCK_RECORD
  5
242
100
AcDbSymbolTableRecord
100
AcDbBlockTableRecord
  2
*D3
  0
BLOCK_RECORD
  5
243
100
AcDbSymbolTableRecord
100
AcDbBlockTableRecord
  2
*D4
  0
BLOCK_RECORD
  5
244
100
AcDbSymbolTableRecord
100
AcDbBlockTableRecord
  2
*D5
  0
BLOCK_RECORD
  5
245
100
AcDbSymbolTableRecord
100
AcDbBlockTableRecord
  2
*D6
  0
BLOCK_RECORD
  5
246
100
AcDbSymbolTableRecord
100
AcDbBlockTableRecord
  2
*D7
  0
BLOCK_RECORD
  5
247
100
AcDbSymbolTableRecord
100
AcDbBlockTableRecord
  2
*D8
  0
BLOCK_RECORD
  5
248
100
AcDbSymbolTableRecord
100
AcDbBlockTableRecord
  2
*D9
  0
BLOCK_RECORD
  5
249
100
AcDbSymbolTableRecord
100
AcDbBlockTableRecord
  2
*D10
  0
BLOCK_RECORD
  5
24A
100
AcDbSymbolTableRecord
100
AcDbBlockTableRecord
  2
*D11
  0
BLOCK_RECORD
  5
24B
100
AcDbSymbolTableRecord
100
AcDbBlockTableRecord
  2
*D12
  0
BLOCK_RECORD
  5
24C
100
AcDbSymbolTableRecord
100
AcDbBlockTableRecord
  2
*D13
  0
BLOCK_RECORD
  5
24D
100
AcDbSymbolTableRecord
100
AcDbBlockTableRecord
  2
*D14
  0
BLOCK_RECORD
  5
24E
100
AcDbSymbolTableRecord
100
AcDbBlockTableRecord
  2
*D15
  0
BLOCK_RECORD
  5
24F
100
AcDbSymbolTableRecord
100
AcDbBlockTableRecord
  2
*D16
  0
BLOCK_RECORD
  5
250
100
AcDbSymbolTableRecord
100
AcDbBlockTableRecord
  2
*D17
  0
BLOCK_RECORD
  5
251
100
AcDbSymbolTableRecord
100
AcDbBlockTableRecord
  2
*D18
  0
BLOCK_RECORD
  5
252
100
AcDbSymbolTableRecord
100
AcDbBlockTableRecord
  2
*D19
  0
BLOCK_RECORD
  5
253
100
AcDbSymbolTableRecord
100
AcDbBlockTableRecord
  2
*D20
  0
BLOCK_RECORD
  5
254
100
AcDbSymbolTableRecord
100
AcDbBlockTableRecord
  2
*D21
  0
BLOCK_RECORD
  5
255
100
AcDbSymbolTableRecord
100
AcDbBlockTableRecord
  2
*D22
  0
BLOCK_RECORD
  5
256
100
AcDbSymbolTableRecord
100
AcDbBlockTableRecord
  2
*D23
  0
BLOCK_RECORD
  5
257
100
AcDbSymbolTableRecord
100
AcDbBlockTableRecord
  2
*D24
  0
BLOCK_RECORD
  5
258
100
AcDbSymbolTableRecord
100
AcDbBlockTableRecord
  2
*D25
  0
BLOCK_RECORD
  5
259
100
AcDbSymbolTableRecord
100
AcDbBlockTableRecord
  2
*D26
  0
BLOCK_RECORD
  5
25A
100
AcDbSymbolTableRecord
100
AcDbBlockTableRecord
  2
*D27
  0
BLOCK_RECORD
  5
25B
100
AcDbSymbolTableRecord
100
AcDbBlockTableRecord
  2
*D28
  0
BLOCK_RECORD
  5
25C
100
AcDbSymbolTableRecord
100
AcDbBlockTableRecord
  2
*D29
  0
BLOCK_RECORD
  5
25D
100
AcDbSymbolTableRecord
100
AcDbBlockTableRecord
  2
*D30
  0
BLOCK_RECORD
  5
25E
100
AcDbSymbolTableRecord
100
AcDbBlockTableRecord
  2
*D31
  0
BLOCK_RECORD
  5
25F
100
AcDbSymbolTableRecord
100
AcDbBlockTableRecord
  2
*D32
  0
BLOCK_RECORD
  5
260
100
AcDbSymbolTableRecord
100
AcDbBlockTableRecord
  2
SYMBOL_2_BL34
  0
BLOCK_RECORD
  5
261
100
AcDbSymbolTableRecord
100
AcDbBlockTableRecord
  2
94934430L00_BL0
  0
BLOCK_RECORD
  5
262
100
AcDbSymbolTableRecord
100
AcDbBlockTableRecord
  2
94944601000_M2_BL1
  0
BLOCK_RECORD
  5
263
100
AcDbSymbolTableRecord
100
AcDbBlockTableRecord
  2
94528905000_BL2
  0
BLOCK_RECORD
  5
264
100
AcDbSymbolTableRecord
100
AcDbBlockTableRecord
  2
94621099000_BL3
  0
BLOCK_RECORD
  5
265
100
AcDbSymbolTableRecord
100
AcDbBlockTableRecord
  2
94528905000_BL4
  0
BLOCK_RECORD
  5
266
100
AcDbSymbolTableRecord
100
AcDbBlockTableRecord
  2
94944601000_M2_BL5
  0
BLOCK_RECORD
  5
267
100
AcDbSymbolTableRecord
100
AcDbBlockTableRecord
  2
94944601000_M2_BL6
  0
BLOCK_RECORD
  5
268
100
AcDbSymbolTableRecord
100
AcDbBlockTableRecord
  2
94528905000_BL7
  0
BLOCK_RECORD
  5
269
100
AcDbSymbolTableRecord
100
AcDbBlockTableRecord
  2
94528905000_BL8
  0
BLOCK_RECORD
  5
26A
100
AcDbSymbolTableRecord
100
AcDbBlockTableRecord
  2
94944601000_M2_BL9
  0
BLOCK_RECORD
  5
26B
100
AcDbSymbolTableRecord
100
AcDbBlockTableRecord
  2
94855303000_BL10
  0
BLOCK_RECORD
  5
26C
100
AcDbSymbolTableRecord
100
AcDbBlockTableRecord
  2
94625701000_BL11
  0
BLOCK_RECORD
  5
26D
100
AcDbSymbolTableRecord
100
AcDbBlockTableRecord
  2
93894201000_BL12
  0
BLOCK_RECORD
  5
26E
100
AcDbSymbolTableRecord
100
AcDbBlockTableRecord
  2
93780800R00_BL13
  0
BLOCK_RECORD
  5
26F
100
AcDbSymbolTableRecord
100
AcDbBlockTableRecord
  2
62890228000_BL14
  0
BLOCK_RECORD
  5
270
100
AcDbSymbolTableRecord
100
AcDbBlockTableRecord
  2
93780800R00_BL15
  0
BLOCK_RECORD
  5
271
100
AcDbSymbolTableRecord
100
AcDbBlockTableRecord
  2
94621099000_BL16
  0
BLOCK_RECORD
  5
272
100
AcDbSymbolTableRecord
100
AcDbBlockTableRecord
  2
94322000000_BL17
  0
BLOCK_RECORD
  5
273
100
AcDbSymbolTableRecord
100
AcDbBlockTableRecord
  2
94944601000_M2_BL18
  0
BLOCK_RECORD
  5
274
100
AcDbSymbolTableRecord
100
AcDbBlockTableRecord
  2
94944601000_M2_BL19
  0
BLOCK_RECORD
  5
275
100
AcDbSymbolTableRecord
100
AcDbBlockTableRecord
  2
94944601000_M2_BL20
  0
BLOCK_RECORD
  5
276
100
AcDbSymbolTableRecord
100
AcDbBlockTableRecord
  2
94944601000_M2_BL21
  0
BLOCK_RECORD
  5
277
100
AcDbSymbolTableRecord
100
AcDbBlockTableRecord
  2
94320001000_M1_BL22
  0
BLOCK_RECORD
  5
278
100
AcDbSymbolTableRecord
100
AcDbBlockTableRecord
  2
94320001000_M1_BL23
  0
BLOCK_RECORD
  5
279
100
AcDbSymbolTableRecord
100
AcDbBlockTableRecord
  2
94320001000_M1_BL24
  0
BLOCK_RECORD
  5
27A
100
AcDbSymbolTableRecord
100
AcDbBlockTableRecord
  2
91324208R00_BL25
  0
BLOCK_RECORD
  5
27B
100
AcDbSymbolTableRecord
100
AcDbBlockTableRecord
  2
94320001000_M1_BL26
  0
BLOCK_RECORD
  5
27C
100
AcDbSymbolTableRecord
100
AcDbBlockTableRecord
  2
91324208R00_BL27
  0
BLOCK_RECORD
  5
27D
100
AcDbSymbolTableRecord
100
AcDbBlockTableRecord
  2
94319401000_BL28
  0
BLOCK_RECORD
  5
27E
100
AcDbSymbolTableRecord
100
AcDbBlockTableRecord
  2
94925801L00_BL29
  0
BLOCK_RECORD
  5
27F
100
AcDbSymbolTableRecord
100
AcDbBlockTableRecord
  2
94968401L00_BL30
  0
BLOCK_RECORD
  5
280
100
AcDbSymbolTableRecord
100
AcDbBlockTableRecord
  2
94923403000_BL31
  0
BLOCK_RECORD
  5
281
100
AcDbSymbolTableRecord
100
AcDbBlockTableRecord
  2
94996201000_BL32
  0
BLOCK_RECORD
  5
282
100
AcDbSymbolTableRecord
100
AcDbBlockTableRecord
  2
94342601000_M_BL33
  0
ENDTAB
  0
TABLE
  2
DIMSTYLE
  5
A
100
AcDbSymbolTable
 70
1
100
AcDbDimStyleTable
 71
0
  0
DIMSTYLE
105
283
100
AcDbSymbolTableRecord
100
AcDbDimStyleTableRecord
  2
STANDARD
 70
0
  3

  4

 40
1.0
 41
3.5
 42
0.0
 43
0.38
 44
1.0
 45
0.0
 46
0.0
 47
0.001
 48
0.001
140
2.5
141
0.09
142
0.0
143
25.4
144
1.0
145
0.0
146
1.0
147
0.625
 71
1.0
 72
0.0
 73
0
 74
0
 75
0
 76
0
 77
1
 78
8
170
0
171
2
172
0
173
0
174
0
175
0
176
0
177
0
178
5
270
2
271
3
272
3
273
2
274
2
275
0
280
0
281
0
282
0
283
1
284
8
285
0
286
0
287
3
288
0
340
11
278
46
341
23E
342
23E
343
23E
344
23E
  0
DIMSTYLE
105
284
100
AcDbSymbolTableRecord
100
AcDbDimStyleTableRecord
  2
DIMSTYLE_1
 70
0
  3

  4

 40
1.0
 41
3.5
 42
0.0
 43
0.38
 44
1.0
 45
0.0
 46
0.0
 47
0.2
 48
0.2
140
2.5
141
0.09
142
0.0
143
25.4
144
1.0
145
0.0
146
1.0
147
0.625
 71
0.0
 72
0.0
 73
0
 74
0
 75
0
 76
0
 77
1
 78
8
170
0
171
2
172
0
173
0
174
0
175
0
176
0
177
0
178
5
270
2
271
3
272
3
273
2
274
2
275
0
280
0
281
0
282
0
283
1
284
8
285
0
286
0
287
3
288
0
340
11
278
46
341
23E
342
23E
343
23E
344
23E
  0
DIMSTYLE
105
285
100
AcDbSymbolTableRecord
100
AcDbDimStyleTableRecord
  2
DIMSTYLE_2
 70
0
  3

  4

 40
1.0
 41
3.5
 42
0.0
 43
0.38
 44
1.0
 45
0.0
 46
0.0
 47
0.3
 48
0.3
140
2.5
141
0.09
142
0.0
143
25.4
144
1.0
145
0.0
146
1.0
147
0.625
 71
0.0
 72
0.0
 73
0
 74
0
 75
0
 76
0
 77
1
 78
8
170
0
171
2
172
0
173
0
174
0
175
0
176
0
177
0
178
5
270
2
271
3
272
3
273
2
274
2
275
0
280
0
281
0
282
0
283
1
284
8
285
0
286
0
287
3
288
0
340
11
278
46
341
23E
342
23E
343
23E
344
23E
  0
DIMSTYLE
105
286
100
AcDbSymbolTableRecord
100
AcDbDimStyleTableRecord
  2
DIMSTYLE_3
 70
0
  3

  4

 40
1.0
 41
3.5
 42
0.0
 43
0.38
 44
1.0
 45
0.0
 46
0.0
 47
0.5
 48
0.5
140
2.5
141
0.09
142
0.0
143
25.4
144
1.0
145
0.0
146
1.0
147
0.625
 71
0.0
 72
0.0
 73
0
 74
0
 75
0
 76
0
 77
1
 78
8
170
0
171
2
172
0
173
0
174
0
175
0
176
0
177
0
178
5
270
2
271
0
272
0
273
2
274
2
275
0
280
0
281
0
282
0
283
1
284
8
285
0
286
0
287
3
288
0
340
11
278
46
341
23E
342
23E
343
23E
344
23E
  0
DIMSTYLE
105
287
100
AcDbSymbolTableRecord
100
AcDbDimStyleTableRecord
  2
DIMSTYLE_4
 70
0
  3

  4

 40
1.0
 41
3.5
 42
0.0
 43
0.38
 44
1.0
 45
0.0
 46
0.0
 47
0.8
 48
0.8
140
2.5
141
0.09
142
0.0
143
25.4
144
1.0
145
0.0
146
1.0
147
0.625
 71
0.0
 72
0.0
 73
0
 74
0
 75
0
 76
0
 77
1
 78
8
170
0
171
2
172
0
173
0
174
0
175
0
176
0
177
0
178
5
270
2
271
3
272
3
273
2
274
2
275
0
280
0
281
0
282
0
283
1
284
8
285
0
286
0
287
3
288
0
340
11
278
46
341
23E
342
23E
343
23E
344
23E
  0
DIMSTYLE
105
288
100
AcDbSymbolTableRecord
100
AcDbDimStyleTableRecord
  2
DIMSTYLE_5
 70
0
  3

  4

 40
1.0
 41
3.5
 42
0.0
 43
0.38
 44
1.0
 45
0.0
 46
0.0
 47
0.8
 48
0.8
140
2.5
141
0.09
142
0.0
143
25.4
144
1.0
145
0.0
146
1.0
147
0.625
 71
0.0
 72
0.0
 73
0
 74
0
 75
0
 76
0
 77
1
 78
8
170
0
171
2
172
0
173
0
174
0
175
0
176
0
177
0
178
5
270
2
271
0
272
0
273
2
274
2
275
0
280
0
281
0
282
0
283
1
284
8
285
0
286
0
287
3
288
0
340
11
278
46
341
23E
342
23E
343
23E
344
23E
  0
DIMSTYLE
105
289
100
AcDbSymbolTableRecord
100
AcDbDimStyleTableRecord
  2
DIMSTYLE_6
 70
0
  3

  4

 40
1.0
 41
3.5
 42
0.0
 43
0.38
 44
1.0
 45
0.0
 46
0.0
 47
1.2
 48
1.2
140
2.5
141
0.09
142
0.0
143
25.4
144
1.0
145
0.0
146
1.0
147
0.625
 71
0.0
 72
0.0
 73
0
 74
0
 75
0
 76
0
 77
1
 78
8
170
0
171
2
172
0
173
0
174
0
175
0
176
0
177
0
178
5
270
2
271
3
272
3
273
2
274
2
275
0
280
0
281
0
282
0
283
1
284
8
285
0
286
0
287
3
288
0
340
11
278
46
341
23E
342
23E
343
23E
344
23E
  0
DIMSTYLE
105
28A
100
AcDbSymbolTableRecord
100
AcDbDimStyleTableRecord
  2
DIMSTYLE_7
 70
0
  3

  4

 40
1.0
 41
3.5
 42
0.0
 43
0.38
 44
1.0
 45
0.0
 46
0.0
 47
0.5
 48
0.5
140
2.5
141
0.09
142
0.0
143
25.4
144
1.0
145
0.0
146
1.0
147
0.625
 71
0.0
 72
0.0
 73
0
 74
0
 75
0
 76
0
 77
1
 78
8
170
0
171
2
172
0
173
0
174
0
175
0
176
0
177
0
178
5
270
2
271
3
272
3
273
2
274
2
275
0
280
0
281
0
282
0
283
1
284
8
285
0
286
0
287
3
288
0
340
11
278
46
341
23E
342
23E
343
23E
344
23E
  0
DIMSTYLE
105
28B
100
AcDbSymbolTableRecord
100
AcDbDimStyleTableRecord
  2
DIMSTYLE_8
 70
0
  3

  4

 40
1.0
 41
3.5
 42
0.0
 43
0.38
 44
1.0
 45
0.0
 46
0.0
 47
0.1
 48
0.1
140
2.5
141
0.09
142
0.0
143
25.4
144
1.0
145
0.0
146
1.0
147
0.625
 71
0.0
 72
0.0
 73
0
 74
0
 75
0
 76
0
 77
1
 78
8
170
0
171
2
172
0
173
0
174
0
175
0
176
0
177
0
178
5
270
2
271
3
272
3
273
2
274
2
275
0
280
0
281
0
282
0
283
1
284
8
285
0
286
0
287
3
288
0
340
11
278
46
341
23E
342
23E
343
23E
344
23E
  0
DIMSTYLE
105
28C
100
AcDbSymbolTableRecord
100
AcDbDimStyleTableRecord
  2
DIMSTYLE_9
 70
0
  3

  4

 40
1.0
 41
3.5
 42
0.0
 43
0.38
 44
1.0
 45
0.0
 46
0.0
 47
0.3
 48
0.3
140
2.5
141
0.09
142
0.0
143
25.4
144
1.0
145
0.0
146
1.0
147
0.625
 71
0.0
 72
0.0
 73
0
 74
0
 75
0
 76
0
 77
1
 78
8
170
0
171
2
172
0
173
0
174
0
175
0
176
0
177
0
178
5
270
2
271
0
272
0
273
2
274
2
275
0
280
0
281
0
282
0
283
1
284
8
285
0
286
0
287
3
288
0
340
11
278
46
341
23E
342
23E
343
23E
344
23E
  0
ENDTAB
  0
ENDSEC
  0
SECTION
  2
BLOCKS
  0
BLOCK
  5
20
100
AcDbEntity
  8
0
100
AcDbBlockBegin
  2
*Model_Space
 70
0
 10
0.0
 20
0.0
 30
0.0
  3
*Model_Space
  1

  0
ENDBLK
  5
21
100
AcDbEntity
  8
0
100
AcDbBlockEnd
  0
BLOCK
  5
1C
100
AcDbEntity
  8
0
100
AcDbBlockBegin
  2
*Paper_Space
 70
0
 10
0.0
 20
0.0
 30
0.0
  3
*Paper_Space
  1

  0
ENDBLK
  5
1D
100
AcDbEntity
  8
0
100
AcDbBlockEnd
  0
BLOCK
  5
28D
100
AcDbEntity
  8
0
100
AcDbBlockBegin
 62
2
  6
CONTINUOUS
  2
SYMBOL_2_BL34
 70
64
 10
31.0000000239
 20
34.9999999785
  3
SYMBOL_2_BL34
  1

  0
TEXT
  5
28E
100
AcDbEntity
  8
0
100
AcDbText
 62
5
  6
CONTINUOUS
 10
11.6434778505
 20
32.1908716548
  7
TEXTSTYLE_2
 40
4.0
  1
6-37900-30-L
 72
5
 11
45.4873440215
 21
32.1908716548
100
AcDbText
  0
TEXT
  5
28F
100
AcDbEntity
  8
0
100
AcDbText
 62
5
  6
CONTINUOUS
 10
10.9089559916
 20
24.1776342906
  7
TEXTSTYLE_3
 40
2.5
  1
Scale
 72
5
 11
19.6357217908
 21
24.1776342906
100
AcDbText
  0
TEXT
  5
290
100
AcDbEntity
  8
0
100
AcDbText
 62
5
  6
CONTINUOUS
 10
10.9089559916
 20
20.4276342906
  7
TEXTSTYLE_3
 40
2.5
  1
1:1
 72
5
 11
15.7602571068
 21
20.4276342906
100
AcDbText
  0
TEXT
  5
291
100
AcDbEntity
  8
0
100
AcDbText
 62
5
  6
CONTINUOUS
 10
10.9089559916
 20
13.0518233866
  7
TEXTSTYLE_3
 40
2.5
  1
Draft
 72
5
 11
18.4647180733
 21
13.0518233866
100
AcDbText
  0
TEXT
  5
292
100
AcDbEntity
  8
0
100
AcDbText
 62
5
  6
CONTINUOUS
 10
23.3811982505
 20
13.113338109
  7
TEXTSTYLE_3
 40
2.5
  1
09.01.2018
 72
5
 11
40.8533172096
 21
13.113338109
100
AcDbText
  0
TEXT
  5
293
100
AcDbEntity
  8
0
100
AcDbText
 62
5
  6
CONTINUOUS
 10
45.4434300913
 20
13.1067461609
  7
TEXTSTYLE_3
 40
2.5
  1
Ko
 72
5
 11
49.7092293478
 21
13.1067461609
100
AcDbText
  0
LINE
  5
294
100
AcDbEntity
  8
0
100
AcDbLine
 62
2
  6
CONTINUOUS
 10
10.0000000239
 20
59.9999999785
 11
52.0000000239
 21
59.9999999785
  0
LINE
  5
295
100
AcDbEntity
  8
0
100
AcDbLine
 62
2
  6
CONTINUOUS
 10
52.0000000239
 20
59.9999999785
 11
52.0000000239
 21
9.9999999785
  0
LINE
  5
296
100
AcDbEntity
  8
0
100
AcDbLine
 62
2
  6
CONTINUOUS
 10
10.0000000239
 20
9.9999999785
 11
52.0000000239
 21
9.9999999785
  0
LINE
  5
297
100
AcDbEntity
  8
0
100
AcDbLine
 62
2
  6
CONTINUOUS
 10
10.0000000239
 20
39.9999999785
 11
21.0000000239
 21
39.9999999785
  0
LINE
  5
298
100
AcDbEntity
  8
0
100
AcDbLine
 62
2
  6
CONTINUOUS
 10
10.0000000239
 20
27.9999999785
 11
21.0000000239
 21
27.9999999785
  0
LINE
  5
299
100
AcDbEntity
  8
0
100
AcDbLine
 62
2
  6
CONTINUOUS
 10
10.0000000239
 20
18.9999999785
 11
21.0000000239
 21
18.9999999785
  0
LINE
  5
29A
100
AcDbEntity
  8
0
100
AcDbLine
 62
2
  6
CONTINUOUS
 10
21.0000000239
 20
39.9999999785
 11
43.0000000239
 21
39.9999999785
  0
LINE
  5
29B
100
AcDbEntity
  8
0
100
AcDbLine
 62
2
  6
CONTINUOUS
 10
43.0000000239
 20
39.9999999785
 11
52.0000000239
 21
39.9999999785
  0
LINE
  5
29C
100
AcDbEntity
  8
0
100
AcDbLine
 62
2
  6
CONTINUOUS
 10
21.0000000239
 20
27.9999999785
 11
43.0000000239
 21
27.9999999785
  0
LINE
  5
29D
100
AcDbEntity
  8
0
100
AcDbLine
 62
2
  6
CONTINUOUS
 10
43.0000000239
 20
27.9999999785
 11
52.0000000239
 21
27.9999999785
  0
LINE
  5
29E
100
AcDbEntity
  8
0
100
AcDbLine
 62
2
  6
CONTINUOUS
 10
21.0000000239
 20
18.9999999785
 11
21.0000000239
 21
9.9999999785
  0
LINE
  5
29F
100
AcDbEntity
  8
0
100
AcDbLine
 62
2
  6
CONTINUOUS
 10
21.0000000239
 20
18.9999999785
 11
43.0000000239
 21
18.9999999785
  0
LINE
  5
2A0
100
AcDbEntity
  8
0
100
AcDbLine
 62
2
  6
CONTINUOUS
 10
43.0000000239
 20
18.9999999785
 11
43.0000000239
 21
9.9999999785
  0
LINE
  5
2A1
100
AcDbEntity
  8
0
100
AcDbLine
 62
2
  6
CONTINUOUS
 10
43.0000000239
 20
18.9999999785
 11
52.0000000239
 21
18.9999999785
  0
LINE
  5
2A2
100
AcDbEntity
  8
0
100
AcDbLine
 62
2
  6
CONTINUOUS
 10
10.0000000239
 20
9.9999999785
 11
10.0000000239
 21
59.9999999785
  0
ARC
  5
2A3
100
AcDbEntity
  8
0
100
AcDbCircle
 62
2
  6
CONTINUOUS
 10
17.6290122978
 20
56.1308274644
 40
1.2679261569
100
AcDbArc
 50
90.0
 51
180.0
  0
LINE
  5
2A4
100
AcDbEntity
  8
0
100
AcDbLine
 62
2
  6
CONTINUOUS
 10
17.6290122978
 20
57.3987536213
 11
44.0849627663
 21
57.3987536213
  0
ARC
  5
2A5
100
AcDbEntity
  8
0
100
AcDbCircle
 62
2
  6
CONTINUOUS
 10
44.0849627663
 20
56.1308274644
 40
1.2679261569
100
AcDbArc
 50
0.0
 51
90.0
  0
LINE
  5
2A6
100
AcDbEntity
  8
0
100
AcDbLine
 62
2
  6
CONTINUOUS
 10
45.3528889231
 20
56.1308274644
 11
45.3528889231
 21
43.6666783678
  0
ARC
  5
2A7
100
AcDbEntity
  8
0
100
AcDbCircle
 62
2
  6
CONTINUOUS
 10
44.0849627663
 20
43.6666783678
 40
1.2679261569
100
AcDbArc
 50
270.0
 51
360.0
  0
LINE
  5
2A8
100
AcDbEntity
  8
0
100
AcDbLine
 62
2
  6
CONTINUOUS
 10
44.0849627663
 20
42.3987522109
 11
17.6290122978
 21
42.3987522109
  0
ARC
  5
2A9
100
AcDbEntity
  8
0
100
AcDbCircle
 62
2
  6
CONTINUOUS
 10
17.6290122978
 20
43.6666783678
 40
1.2679261569
100
AcDbArc
 50
180.0
 51
270.0
  0
LINE
  5
2AA
100
AcDbEntity
  8
0
100
AcDbLine
 62
2
  6
CONTINUOUS
 10
16.3610861409
 20
43.6666783678
 11
16.3610861409
 21
56.1308274644
  0
ARC
  5
2AB
100
AcDbEntity
  8
0
100
AcDbCircle
 62
2
  6
CONTINUOUS
 10
25.0981141224
 20
49.7181091975
 40
2.8108394023
100
AcDbArc
 50
35.2282226131
 51
336.934010569
  0
LINE
  5
2AC
100
AcDbEntity
  8
0
100
AcDbLine
 62
2
  6
CONTINUOUS
 10
27.3941788183
 20
51.3394990511
 11
29.5865173301
 21
52.961744213
  0
ARC
  5
2AD
100
AcDbEntity
  8
0
100
AcDbCircle
 62
2
  6
CONTINUOUS
 10
25.0981141224
 20
49.7181091975
 40
5.5377731507
100
AcDbArc
 50
35.8545159817
 51
11.4705154501
  0
LINE
  5
2AE
100
AcDbEntity
  8
0
100
AcDbLine
 62
2
  6
CONTINUOUS
 10
30.5252822719
 20
50.8193709036
 11
25.2029961896
 21
50.8193709036
  0
ARC
  5
2AF
100
AcDbEntity
  8
0
100
AcDbCircle
 62
2
  6
CONTINUOUS
 10
25.2029961896
 20
49.7181091975
 40
1.1012617061
100
AcDbArc
 50
90.0
 51
270.0
  0
LINE
  5
2B0
100
AcDbEntity
  8
0
100
AcDbLine
 62
2
  6
CONTINUOUS
 10
25.2029961896
 20
48.6168474914
 11
27.6842387906
 21
48.6168474914
  0
ARC
  5
2B1
100
AcDbEntity
  8
0
100
AcDbCircle
 62
2
  6
CONTINUOUS
 10
25.2029961896
 20
49.7181091975
 40
5.9153485927
100
AcDbArc
 50
349.2706340045
 51
10.7293659955
  0
LINE
  5
2B2
100
AcDbEntity
  8
0
100
AcDbLine
 62
2
  6
CONTINUOUS
 10
31.014929743
 20
48.6168474914
 11
32.8593870987
 21
48.6168474914
  0
LINE
  5
2B3
100
AcDbEntity
  8
0
100
AcDbLine
 62
2
  6
CONTINUOUS
 10
32.8593870987
 20
48.6168474914
 11
32.8593870987
 21
48.0399961216
  0
ARC
  5
2B4
100
AcDbEntity
  8
0
100
AcDbCircle
 62
2
  6
CONTINUOUS
 10
36.7610000003
 20
48.0399961216
 40
3.9016129016
100
AcDbArc
 50
180.0
 51
360.0
  0
LINE
  5
2B5
100
AcDbEntity
  8
0
100
AcDbLine
 62
2
  6
CONTINUOUS
 10
40.6626129019
 20
48.0399961216
 11
40.6626129019
 21
54.9622125599
  0
LINE
  5
2B6
100
AcDbEntity
  8
0
100
AcDbLine
 62
2
  6
CONTINUOUS
 10
40.6626129019
 20
54.9622125599
 11
37.9356791535
 21
54.9622125599
  0
LINE
  5
2B7
100
AcDbEntity
  8
0
100
AcDbLine
 62
2
  6
CONTINUOUS
 10
37.9356791535
 20
54.9622125599
 11
37.9356791535
 21
48.0399961216
  0
ARC
  5
2B8
100
AcDbEntity
  8
0
100
AcDbCircle
 62
2
  6
CONTINUOUS
 10
36.7610000003
 20
48.0399961216
 40
1.1746791532
100
AcDbArc
 50
180.0
 51
360.0
  0
LINE
  5
2B9
100
AcDbEntity
  8
0
100
AcDbLine
 62
2
  6
CONTINUOUS
 10
35.5863208471
 20
48.0399961216
 11
35.5863208471
 21
54.9622125599
  0
LINE
  5
2BA
100
AcDbEntity
  8
0
100
AcDbLine
 62
2
  6
CONTINUOUS
 10
35.5863208471
 20
54.9622125599
 11
32.8593870987
 21
54.9622125599
  0
LINE
  5
2BB
100
AcDbEntity
  8
0
100
AcDbLine
 62
2
  6
CONTINUOUS
 10
32.8593870987
 20
54.9622125599
 11
32.8593870987
 21
50.8193709036
  0
LINE
  5
2BC
100
AcDbEntity
  8
0
100
AcDbLine
 62
2
  6
CONTINUOUS
 10
32.8593870987
 20
50.8193709036
 11
31.014929743
 21
50.8193709036
  0
LINE
  5
2BD
100
AcDbEntity
  8
0
100
AcDbLine
 62
2
  6
CONTINUOUS
 10
45.1996126437
 20
56.7334185992
 11
45.2185459944
 21
56.6972621935
  0
LWPOLYLINE
  5
2BE
100
AcDbEntity
  8
0
100
AcDbPolyline
 62
2
  6
CONTINUOUS
 90
42
 70
0
 10
17.4964779251
 20
57.3918123624
 10
17.6290122978
 20
57.398757363
 10
44.0849627663
 20
57.398757363
 10
44.217497139
 20
57.3918123624
 10
44.3485794374
 20
57.3710523604
 10
44.4767734964
 20
57.3367023572
 10
44.600674795
 20
57.2891373527
 10
44.7189258447
 20
57.2288823471
 10
44.8302310623
 20
57.1565973403
 10
44.9333709645
 20
57.0730773324
 10
45.0272155289
 20
56.9792373236
 10
45.1107365748
 20
56.8760973139
 10
45.1830190283
 20
56.7647973034
 10
45.2432709475
 20
56.6465372923
 10
45.2908322
 20
56.5226372807
 10
45.3251816945
 20
56.3944472686
 10
45.345943091
 20
56.2633622563
 10
45.3528889232
 20
56.1308222438
 10
24.5102931399
 20
55.2245960958
 10
23.6929701738
 20
55.0746474408
 10
22.9072856488
 20
54.8040901322
 10
22.1709301607
 20
54.4190160805
 10
21.5004836049
 20
53.9280956735
 10
20.9110418611
 20
53.3423825519
 10
20.4158768919
 20
52.6750647241
 10
20.0261379092
 20
51.9411676226
 10
16.3610861409
 20
43.6666760719
 10
16.3610861409
 20
56.1308222438
 10
16.368031973
 20
56.2633622563
 10
16.3887933695
 20
56.3944472686
 10
16.4231428641
 20
56.5226372807
 10
16.4707041165
 20
56.6465372923
 10
16.5309560358
 20
56.7647973034
 10
16.6032384892
 20
56.8760973139
 10
16.6867595352
 20
56.9792373236
 10
16.7806040996
 20
57.0730773324
 10
16.8837440018
 20
57.1565973403
 10
16.9950492193
 20
57.2288823471
 10
17.113300269
 20
57.2891373527
 10
17.2372015677
 20
57.3367023572
 10
17.3653956267
 20
57.3710523604
 10
17.4964779251
 20
57.3918123624
  0
HATCH
  5
2BF
100
AcDbEntity
  8
0
100
AcDbHatch
 62
2
  6
CONTINUOUS
 10
0.0
 20
0.0
 30
0.0
210
0.0
220
0.0
230
1.0
  2
SOLID
 70
1
 71
1
 91
1
 92
1
 93
41
 72
1
 10
17.4964779251
 20
57.3918123624
 11
17.6290122978
 21
57.398757363
 72
1
 10
17.6290122978
 20
57.398757363
 11
44.0849627663
 21
57.398757363
 72
1
 10
44.0849627663
 20
57.398757363
 11
44.217497139
 21
57.3918123624
 72
1
 10
44.217497139
 20
57.3918123624
 11
44.3485794374
 21
57.3710523604
 72
1
 10
44.3485794374
 20
57.3710523604
 11
44.4767734964
 21
57.3367023572
 72
1
 10
44.4767734964
 20
57.3367023572
 11
44.600674795
 21
57.2891373527
 72
1
 10
44.600674795
 20
57.2891373527
 11
44.7189258447
 21
57.2288823471
 72
1
 10
44.7189258447
 20
57.2288823471
 11
44.8302310623
 21
57.1565973403
 72
1
 10
44.8302310623
 20
57.1565973403
 11
44.9333709645
 21
57.0730773324
 72
1
 10
44.9333709645
 20
57.0730773324
 11
45.0272155289
 21
56.9792373236
 72
1
 10
45.0272155289
 20
56.9792373236
 11
45.1107365748
 21
56.8760973139
 72
1
 10
45.1107365748
 20
56.8760973139
 11
45.1830190283
 21
56.7647973034
 72
1
 10
45.1830190283
 20
56.7647973034
 11
45.2432709475
 21
56.6465372923
 72
1
 10
45.2432709475
 20
56.6465372923
 11
45.2908322
 21
56.5226372807
 72
1
 10
45.2908322
 20
56.5226372807
 11
45.3251816945
 21
56.3944472686
 72
1
 10
45.3251816945
 20
56.3944472686
 11
45.345943091
 21
56.2633622563
 72
1
 10
45.345943091
 20
56.2633622563
 11
45.3528889232
 21
56.1308222438
 72
1
 10
45.3528889232
 20
56.1308222438
 11
24.5102931399
 21
55.2245960958
 72
1
 10
24.5102931399
 20
55.2245960958
 11
23.6929701738
 21
55.0746474408
 72
1
 10
23.6929701738
 20
55.0746474408
 11
22.9072856488
 21
54.8040901322
 72
1
 10
22.9072856488
 20
54.8040901322
 11
22.1709301607
 21
54.4190160805
 72
1
 10
22.1709301607
 20
54.4190160805
 11
21.5004836049
 21
53.9280956735
 72
1
 10
21.5004836049
 20
53.9280956735
 11
20.9110418611
 21
53.3423825519
 72
1
 10
20.9110418611
 20
53.3423825519
 11
20.4158768919
 21
52.6750647241
 72
1
 10
20.4158768919
 20
52.6750647241
 11
20.0261379092
 21
51.9411676226
 72
1
 10
20.0261379092
 20
51.9411676226
 11
16.3610861409
 21
43.6666760719
 72
1
 10
16.3610861409
 20
43.6666760719
 11
16.3610861409
 21
56.1308222438
 72
1
 10
16.3610861409
 20
56.1308222438
 11
16.368031973
 21
56.2633622563
 72
1
 10
16.368031973
 20
56.2633622563
 11
16.3887933695
 21
56.3944472686
 72
1
 10
16.3887933695
 20
56.3944472686
 11
16.4231428641
 21
56.5226372807
 72
1
 10
16.4231428641
 20
56.5226372807
 11
16.4707041165
 21
56.6465372923
 72
1
 10
16.4707041165
 20
56.6465372923
 11
16.5309560358
 21
56.7647973034
 72
1
 10
16.5309560358
 20
56.7647973034
 11
16.6032384892
 21
56.8760973139
 72
1
 10
16.6032384892
 20
56.8760973139
 11
16.6867595352
 21
56.9792373236
 72
1
 10
16.6867595352
 20
56.9792373236
 11
16.7806040996
 21
57.0730773324
 72
1
 10
16.7806040996
 20
57.0730773324
 11
16.8837440018
 21
57.1565973403
 72
1
 10
16.8837440018
 20
57.1565973403
 11
16.9950492193
 21
57.2288823471
 72
1
 10
16.9950492193
 20
57.2288823471
 11
17.113300269
 21
57.2891373527
 72
1
 10
17.113300269
 20
57.2891373527
 11
17.2372015677
 21
57.3367023572
 72
1
 10
17.2372015677
 20
57.3367023572
 11
17.3653956267
 21
57.3710523604
 72
1
 10
17.3653956267
 20
57.3710523604
 11
17.4964779251
 21
57.3918123624
 97
1
330
2BE
 75
0
 76
1
 98
1
 10
0.0
 20
0.0
  0
LWPOLYLINE
  5
2C0
100
AcDbEntity
  8
0
100
AcDbPolyline
 62
2
  6
CONTINUOUS
 90
23
 70
0
 10
26.9669939813
 20
54.9309989471
 10
26.1659444963
 20
55.151954039
 10
45.3528889232
 20
56.1308222438
 10
45.3528889231
 20
43.6666760719
 10
40.1398958888
 20
46.0891912997
 10
40.3656203039
 20
46.5469163427
 10
40.5296686661
 20
47.0301863881
 10
40.6292340626
 20
47.5307364352
 10
40.6626129019
 20
48.0400014831
 10
40.6626129019
 20
54.9622171339
 10
37.9356791535
 20
54.9622171339
 10
35.5863208471
 20
54.9622171339
 10
32.8593870987
 20
54.9622171339
 10
32.8593870987
 20
50.8193667444
 10
31.0149297429
 20
50.8193667444
 10
30.6289655903
 20
49.9949006497
 10
30.5252822719
 20
50.8193667444
 10
27.3941788183
 20
51.3394990511
 10
29.5865173301
 20
52.961744213
 10
29.0506384437
 20
53.5968310176
 10
28.425763901
 20
54.1445839144
 10
27.7259634749
 20
54.5926696135
 10
26.9669939813
 20
54.9309989471
  0
HATCH
  5
2C1
100
AcDbEntity
  8
0
100
AcDbHatch
 62
2
  6
CONTINUOUS
 10
0.0
 20
0.0
 30
0.0
210
0.0
220
0.0
230
1.0
  2
SOLID
 70
1
 71
1
 91
1
 92
1
 93
22
 72
1
 10
26.9669939813
 20
54.9309989471
 11
26.1659444963
 21
55.151954039
 72
1
 10
26.1659444963
 20
55.151954039
 11
45.3528889232
 21
56.1308222438
 72
1
 10
45.3528889232
 20
56.1308222438
 11
45.3528889231
 21
43.6666760719
 72
1
 10
45.3528889231
 20
43.6666760719
 11
40.1398958888
 21
46.0891912997
 72
1
 10
40.1398958888
 20
46.0891912997
 11
40.3656203039
 21
46.5469163427
 72
1
 10
40.3656203039
 20
46.5469163427
 11
40.5296686661
 21
47.0301863881
 72
1
 10
40.5296686661
 20
47.0301863881
 11
40.6292340626
 21
47.5307364352
 72
1
 10
40.6292340626
 20
47.5307364352
 11
40.6626129019
 21
48.0400014831
 72
1
 10
40.6626129019
 20
48.0400014831
 11
40.6626129019
 21
54.9622171339
 72
1
 10
40.6626129019
 20
54.9622171339
 11
37.9356791535
 21
54.9622171339
 72
1
 10
37.9356791535
 20
54.9622171339
 11
35.5863208471
 21
54.9622171339
 72
1
 10
35.5863208471
 20
54.9622171339
 11
32.8593870987
 21
54.9622171339
 72
1
 10
32.8593870987
 20
54.9622171339
 11
32.8593870987
 21
50.8193667444
 72
1
 10
32.8593870987
 20
50.8193667444
 11
31.0149297429
 21
50.8193667444
 72
1
 10
31.0149297429
 20
50.8193667444
 11
30.6289655903
 21
49.9949006497
 72
1
 10
30.6289655903
 20
49.9949006497
 11
30.5252822719
 21
50.8193667444
 72
1
 10
30.5252822719
 20
50.8193667444
 11
27.3941788183
 21
51.3394990511
 72
1
 10
27.3941788183
 20
51.3394990511
 11
29.5865173301
 21
52.961744213
 72
1
 10
29.5865173301
 20
52.961744213
 11
29.0506384437
 21
53.5968310176
 72
1
 10
29.0506384437
 20
53.5968310176
 11
28.425763901
 21
54.1445839144
 72
1
 10
28.425763901
 20
54.1445839144
 11
27.7259634749
 21
54.5926696135
 72
1
 10
27.7259634749
 20
54.5926696135
 11
26.9669939813
 21
54.9309989471
 97
1
330
2C0
 75
0
 76
1
 98
1
 10
0.0
 20
0.0
  0
LWPOLYLINE
  5
2C2
100
AcDbEntity
  8
0
100
AcDbPolyline
 62
2
  6
CONTINUOUS
 90
20
 70
0
 10
24.5005684601
 20
52.4646993247
 10
24.9072650814
 20
52.5224620264
 10
25.3180376874
 20
52.5203318459
 10
25.7241133608
 20
52.4583542776
 10
26.1168194973
 20
52.3378529835
 10
26.4877690273
 20
52.1614015236
 10
26.8290395394
 20
51.9327683916
 10
27.1333424806
 20
51.6568365314
 10
27.3941788183
 20
51.3394990511
 10
30.5252822719
 20
50.8193667444
 10
25.2029961896
 20
50.8193667444
 10
25.0592526925
 20
50.8099494571
 10
22.4413895628
 20
50.6360595011
 10
22.6035508656
 20
51.0134749
 10
22.8189888395
 20
51.3632250264
 10
23.0831023513
 20
51.6778402269
 10
23.3902506985
 20
51.9506012291
 10
23.7338740791
 20
52.175682645
 10
24.1066336894
 20
52.3482773854
 10
24.5005684601
 20
52.4646993247
  0
HATCH
  5
2C3
100
AcDbEntity
  8
0
100
AcDbHatch
 62
2
  6
CONTINUOUS
 10
0.0
 20
0.0
 30
0.0
210
0.0
220
0.0
230
1.0
  2
SOLID
 70
1
 71
1
 91
1
 92
1
 93
19
 72
1
 10
24.5005684601
 20
52.4646993247
 11
24.9072650814
 21
52.5224620264
 72
1
 10
24.9072650814
 20
52.5224620264
 11
25.3180376874
 21
52.5203318459
 72
1
 10
25.3180376874
 20
52.5203318459
 11
25.7241133608
 21
52.4583542776
 72
1
 10
25.7241133608
 20
52.4583542776
 11
26.1168194973
 21
52.3378529835
 72
1
 10
26.1168194973
 20
52.3378529835
 11
26.4877690273
 21
52.1614015236
 72
1
 10
26.4877690273
 20
52.1614015236
 11
26.8290395394
 21
51.9327683916
 72
1
 10
26.8290395394
 20
51.9327683916
 11
27.1333424806
 21
51.6568365314
 72
1
 10
27.1333424806
 20
51.6568365314
 11
27.3941788183
 21
51.3394990511
 72
1
 10
27.3941788183
 20
51.3394990511
 11
30.5252822719
 21
50.8193667444
 72
1
 10
30.5252822719
 20
50.8193667444
 11
25.2029961896
 21
50.8193667444
 72
1
 10
25.2029961896
 20
50.8193667444
 11
25.0592526925
 21
50.8099494571
 72
1
 10
25.0592526925
 20
50.8099494571
 11
22.4413895628
 21
50.6360595011
 72
1
 10
22.4413895628
 20
50.6360595011
 11
22.6035508656
 21
51.0134749
 72
1
 10
22.6035508656
 20
51.0134749
 11
22.8189888395
 21
51.3632250264
 72
1
 10
22.8189888395
 20
51.3632250264
 11
23.0831023513
 21
51.6778402269
 72
1
 10
23.0831023513
 20
51.6778402269
 11
23.3902506985
 21
51.9506012291
 72
1
 10
23.3902506985
 20
51.9506012291
 11
23.7338740791
 21
52.175682645
 72
1
 10
23.7338740791
 20
52.175682645
 11
24.1066336894
 21
52.3482773854
 72
1
 10
24.1066336894
 20
52.3482773854
 11
24.5005684601
 21
52.4646993247
 97
1
330
2C2
 75
0
 76
1
 98
1
 10
0.0
 20
0.0
  0
LWPOLYLINE
  5
2C4
100
AcDbEntity
  8
0
100
AcDbPolyline
 62
2
  6
CONTINUOUS
 90
8
 70
0
 10
24.6523653366
 20
50.6718298112
 10
24.5325905397
 20
50.5917988506
 10
22.3359682285
 20
50.2390393331
 10
22.4413895628
 20
50.6360595011
 10
25.0592526925
 20
50.8099494571
 10
24.9179686864
 20
50.7818463209
 10
24.78156158
 20
50.7355423477
 10
24.6523653366
 20
50.6718298112
  0
HATCH
  5
2C5
100
AcDbEntity
  8
0
100
AcDbHatch
 62
2
  6
CONTINUOUS
 10
0.0
 20
0.0
 30
0.0
210
0.0
220
0.0
230
1.0
  2
SOLID
 70
1
 71
1
 91
1
 92
1
 93
7
 72
1
 10
24.6523653366
 20
50.6718298112
 11
24.5325905397
 21
50.5917988506
 72
1
 10
24.5325905397
 20
50.5917988506
 11
22.3359682285
 21
50.2390393331
 72
1
 10
22.3359682285
 20
50.2390393331
 11
22.4413895628
 21
50.6360595011
 72
1
 10
22.4413895628
 20
50.6360595011
 11
25.0592526925
 21
50.8099494571
 72
1
 10
25.0592526925
 20
50.8099494571
 11
24.9179686864
 21
50.7818463209
 72
1
 10
24.9179686864
 20
50.7818463209
 11
24.78156158
 21
50.7355423477
 72
1
 10
24.78156158
 20
50.7355423477
 11
24.6523653366
 21
50.6718298112
 97
1
330
2C4
 75
0
 76
1
 98
1
 10
0.0
 20
0.0
  0
LWPOLYLINE
  5
2C6
100
AcDbEntity
  8
0
100
AcDbPolyline
 62
2
  6
CONTINUOUS
 90
8
 70
0
 10
24.2492755759
 20
50.2687400506
 10
24.1855630394
 20
50.1395438071
 10
22.2895383581
 20
49.830893601
 10
22.3359682285
 20
50.2390393331
 10
24.5325905397
 20
50.5917988506
 10
24.4242865694
 20
50.4968188178
 10
24.3293065366
 20
50.3885148474
 10
24.2492755759
 20
50.2687400506
  0
HATCH
  5
2C7
100
AcDbEntity
  8
0
100
AcDbHatch
 62
2
  6
CONTINUOUS
 10
0.0
 20
0.0
 30
0.0
210
0.0
220
0.0
230
1.0
  2
SOLID
 70
1
 71
1
 91
1
 92
1
 93
7
 72
1
 10
24.2492755759
 20
50.2687400506
 11
24.1855630394
 21
50.1395438071
 72
1
 10
24.1855630394
 20
50.1395438071
 11
22.2895383581
 21
49.830893601
 72
1
 10
22.2895383581
 20
49.830893601
 11
22.3359682285
 21
50.2390393331
 72
1
 10
22.3359682285
 20
50.2390393331
 11
24.5325905397
 21
50.5917988506
 72
1
 10
24.5325905397
 20
50.5917988506
 11
24.4242865694
 21
50.4968188178
 72
1
 10
24.4242865694
 20
50.4968188178
 11
24.3293065366
 21
50.3885148474
 72
1
 10
24.3293065366
 20
50.3885148474
 11
24.2492755759
 21
50.2687400506
 97
1
330
2C6
 75
0
 76
1
 98
1
 10
0.0
 20
0.0
  0
LWPOLYLINE
  5
2C8
100
AcDbEntity
  8
0
100
AcDbPolyline
 62
2
  6
CONTINUOUS
 90
7
 70
0
 10
31.0993048012
 20
50.1923388153
 10
31.1162282192
 20
49.8763366836
 10
30.6081153911
 20
49.1641981161
 10
30.6289655903
 20
49.9949006497
 10
31.0149297429
 20
50.8193667444
 10
31.0655063992
 20
50.5069837221
 10
31.0993048012
 20
50.1923388153
  0
HATCH
  5
2C9
100
AcDbEntity
  8
0
100
AcDbHatch
 62
2
  6
CONTINUOUS
 10
0.0
 20
0.0
 30
0.0
210
0.0
220
0.0
230
1.0
  2
SOLID
 70
1
 71
1
 91
1
 92
1
 93
6
 72
1
 10
31.0993048012
 20
50.1923388153
 11
31.1162282192
 21
49.8763366836
 72
1
 10
31.1162282192
 20
49.8763366836
 11
30.6081153911
 21
49.1641981161
 72
1
 10
30.6081153911
 20
49.1641981161
 11
30.6289655903
 21
49.9949006497
 72
1
 10
30.6289655903
 20
49.9949006497
 11
31.0149297429
 21
50.8193667444
 72
1
 10
31.0149297429
 20
50.8193667444
 11
31.0655063992
 21
50.5069837221
 72
1
 10
31.0655063992
 20
50.5069837221
 11
31.0993048012
 21
50.1923388153
 97
1
330
2C8
 75
0
 76
1
 98
1
 10
0.0
 20
0.0
  0
LWPOLYLINE
  5
2CA
100
AcDbEntity
  8
0
100
AcDbPolyline
 62
2
  6
CONTINUOUS
 90
7
 70
0
 10
24.1111559301
 20
49.8618526947
 10
24.1017344835
 20
49.7181091975
 10
22.3030915597
 20
49.4203391196
 10
22.2895383581
 20
49.830893601
 10
24.1855630394
 20
50.1395438071
 10
24.1392590662
 20
50.0031367007
 10
24.1111559301
 20
49.8618526947
  0
HATCH
  5
2CB
100
AcDbEntity
  8
0
100
AcDbHatch
 62
2
  6
CONTINUOUS
 10
0.0
 20
0.0
 30
0.0
210
0.0
220
0.0
230
1.0
  2
SOLID
 70
1
 71
1
 91
1
 92
1
 93
6
 72
1
 10
24.1111559301
 20
49.8618526947
 11
24.1017344835
 21
49.7181091975
 72
1
 10
24.1017344835
 20
49.7181091975
 11
22.3030915597
 21
49.4203391196
 72
1
 10
22.3030915597
 20
49.4203391196
 11
22.2895383581
 21
49.830893601
 72
1
 10
22.2895383581
 20
49.830893601
 11
24.1855630394
 21
50.1395438071
 72
1
 10
24.1855630394
 20
50.1395438071
 11
24.1392590662
 21
50.0031367007
 72
1
 10
24.1392590662
 20
50.0031367007
 11
24.1111559301
 21
49.8618526947
 97
1
330
2CA
 75
0
 76
1
 98
1
 10
0.0
 20
0.0
  0
LWPOLYLINE
  5
2CC
100
AcDbEntity
  8
0
100
AcDbPolyline
 62
2
  6
CONTINUOUS
 90
7
 70
0
 10
24.1392590662
 20
49.4330816944
 10
24.1855630394
 20
49.2966745879
 10
22.3763383759
 20
49.0161441476
 10
22.3030915597
 20
49.4203391196
 10
24.1017344835
 20
49.7181091975
 10
24.1111559301
 20
49.5743657004
 10
24.1392590662
 20
49.4330816944
  0
HATCH
  5
2CD
100
AcDbEntity
  8
0
100
AcDbHatch
 62
2
  6
CONTINUOUS
 10
0.0
 20
0.0
 30
0.0
210
0.0
220
0.0
230
1.0
  2
SOLID
 70
1
 71
1
 91
1
 92
1
 93
6
 72
1
 10
24.1392590662
 20
49.4330816944
 11
24.1855630394
 21
49.2966745879
 72
1
 10
24.1855630394
 20
49.2966745879
 11
22.3763383759
 21
49.0161441476
 72
1
 10
22.3763383759
 20
49.0161441476
 11
22.3030915597
 21
49.4203391196
 72
1
 10
22.3030915597
 20
49.4203391196
 11
24.1017344835
 21
49.7181091975
 72
1
 10
24.1017344835
 20
49.7181091975
 11
24.1111559301
 21
49.5743657004
 72
1
 10
24.1111559301
 20
49.5743657004
 11
24.1392590662
 21
49.4330816944
 97
1
330
2CC
 75
0
 76
1
 98
1
 10
0.0
 20
0.0
  0
LWPOLYLINE
  5
2CE
100
AcDbEntity
  8
0
100
AcDbPolyline
 62
2
  6
CONTINUOUS
 90
7
 70
0
 10
31.0993048012
 20
49.2438795798
 10
31.0655063992
 20
48.929234673
 10
30.4632011408
 20
48.3459675312
 10
30.6081153911
 20
49.1641981161
 10
31.1162282192
 20
49.8763366836
 10
31.1162282192
 20
49.5598817115
 10
31.0993048012
 20
49.2438795798
  0
HATCH
  5
2CF
100
AcDbEntity
  8
0
100
AcDbHatch
 62
2
  6
CONTINUOUS
 10
0.0
 20
0.0
 30
0.0
210
0.0
220
0.0
230
1.0
  2
SOLID
 70
1
 71
1
 91
1
 92
1
 93
6
 72
1
 10
31.0993048012
 20
49.2438795798
 11
31.0655063992
 21
48.929234673
 72
1
 10
31.0655063992
 20
48.929234673
 11
30.4632011408
 21
48.3459675312
 72
1
 10
30.4632011408
 20
48.3459675312
 11
30.6081153911
 21
49.1641981161
 72
1
 10
30.6081153911
 20
49.1641981161
 11
31.1162282192
 21
49.8763366836
 72
1
 10
31.1162282192
 20
49.8763366836
 11
31.1162282192
 21
49.5598817115
 72
1
 10
31.1162282192
 20
49.5598817115
 11
31.0993048012
 21
49.2438795798
 97
1
330
2CE
 75
0
 76
1
 98
1
 10
0.0
 20
0.0
  0
LWPOLYLINE
  5
2D0
100
AcDbEntity
  8
0
100
AcDbPolyline
 62
2
  6
CONTINUOUS
 90
7
 70
0
 10
24.3293065366
 20
49.0477035476
 10
24.4242865694
 20
48.9393995773
 10
22.5077144663
 20
48.6269411229
 10
22.3763383759
 20
49.0161441476
 10
24.1855630394
 20
49.2966745879
 10
24.2492755759
 20
49.1674783445
 10
24.3293065366
 20
49.0477035476
  0
HATCH
  5
2D1
100
AcDbEntity
  8
0
100
AcDbHatch
 62
2
  6
CONTINUOUS
 10
0.0
 20
0.0
 30
0.0
210
0.0
220
0.0
230
1.0
  2
SOLID
 70
1
 71
1
 91
1
 92
1
 93
6
 72
1
 10
24.3293065366
 20
49.0477035476
 11
24.4242865694
 21
48.9393995773
 72
1
 10
24.4242865694
 20
48.9393995773
 11
22.5077144663
 21
48.6269411229
 72
1
 10
22.5077144663
 20
48.6269411229
 11
22.3763383759
 21
49.0161441476
 72
1
 10
22.3763383759
 20
49.0161441476
 11
24.1855630394
 21
49.2966745879
 72
1
 10
24.1855630394
 20
49.2966745879
 11
24.2492755759
 21
49.1674783445
 72
1
 10
24.2492755759
 20
49.1674783445
 11
24.3293065366
 21
49.0477035476
 97
1
330
2D0
 75
0
 76
1
 98
1
 10
0.0
 20
0.0
  0
LWPOLYLINE
  5
2D2
100
AcDbEntity
  8
0
100
AcDbPolyline
 62
2
  6
CONTINUOUS
 90
9
 70
0
 10
24.9179686864
 20
48.6543720741
 10
25.0592526925
 20
48.626268938
 10
22.6944140166
 20
48.2610422989
 10
22.5077144663
 20
48.6269411229
 10
24.4242865694
 20
48.9393995773
 10
24.5325905397
 20
48.8444195445
 10
24.6523653366
 20
48.7643885839
 10
24.78156158
 20
48.7006760474
 10
24.9179686864
 20
48.6543720741
  0
HATCH
  5
2D3
100
AcDbEntity
  8
0
100
AcDbHatch
 62
2
  6
CONTINUOUS
 10
0.0
 20
0.0
 30
0.0
210
0.0
220
0.0
230
1.0
  2
SOLID
 70
1
 71
1
 91
1
 92
1
 93
8
 72
1
 10
24.9179686864
 20
48.6543720741
 11
25.0592526925
 21
48.626268938
 72
1
 10
25.0592526925
 20
48.626268938
 11
22.6944140166
 21
48.2610422989
 72
1
 10
22.6944140166
 20
48.2610422989
 11
22.5077144663
 21
48.6269411229
 72
1
 10
22.5077144663
 20
48.6269411229
 11
24.4242865694
 21
48.9393995773
 72
1
 10
24.4242865694
 20
48.9393995773
 11
24.5325905397
 21
48.8444195445
 72
1
 10
24.5325905397
 20
48.8444195445
 11
24.6523653366
 21
48.7643885839
 72
1
 10
24.6523653366
 20
48.7643885839
 11
24.78156158
 21
48.7006760474
 72
1
 10
24.78156158
 20
48.7006760474
 11
24.9179686864
 21
48.6543720741
 97
1
330
2D2
 75
0
 76
1
 98
1
 10
0.0
 20
0.0
  0
LWPOLYLINE
  5
2D4
100
AcDbEntity
  8
0
100
AcDbPolyline
 62
2
  6
CONTINUOUS
 90
9
 70
0
 10
32.8593870987
 20
48.6168415373
 10
32.8593870987
 20
48.0400014831
 10
32.8927659379
 20
47.5307364352
 10
29.8169521117
 20
46.8199201942
 10
30.1974857512
 20
47.5586323028
 10
30.4632011408
 20
48.3459675312
 10
31.0655063992
 20
48.929234673
 10
31.0149297429
 20
48.6168415373
 10
32.8593870987
 20
48.6168415373
  0
HATCH
  5
2D5
100
AcDbEntity
  8
0
100
AcDbHatch
 62
2
  6
CONTINUOUS
 10
0.0
 20
0.0
 30
0.0
210
0.0
220
0.0
230
1.0
  2
SOLID
 70
1
 71
1
 91
1
 92
1
 93
8
 72
1
 10
32.8593870987
 20
48.6168415373
 11
32.8593870987
 21
48.0400014831
 72
1
 10
32.8593870987
 20
48.0400014831
 11
32.8927659379
 21
47.5307364352
 72
1
 10
32.8927659379
 20
47.5307364352
 11
29.8169521117
 21
46.8199201942
 72
1
 10
29.8169521117
 20
46.8199201942
 11
30.1974857512
 21
47.5586323028
 72
1
 10
30.1974857512
 20
47.5586323028
 11
30.4632011408
 21
48.3459675312
 72
1
 10
30.4632011408
 20
48.3459675312
 11
31.0655063992
 21
48.929234673
 72
1
 10
31.0655063992
 20
48.929234673
 11
31.0149297429
 21
48.6168415373
 72
1
 10
31.0149297429
 20
48.6168415373
 11
32.8593870987
 21
48.6168415373
 97
1
330
2D4
 75
0
 76
1
 98
1
 10
0.0
 20
0.0
  0
LWPOLYLINE
  5
2D6
100
AcDbEntity
  8
0
100
AcDbPolyline
 62
2
  6
CONTINUOUS
 90
19
 70
0
 10
27.6842387906
 20
48.6168415373
 10
27.4961137435
 20
48.2516795326
 10
27.2567743458
 20
47.9178302789
 10
26.9713321963
 20
47.6224297867
 10
26.6458835153
 20
47.3717869581
 10
26.2873789475
 20
47.1712548002
 10
25.9034751155
 20
47.0251161014
 10
25.5023710973
 20
46.9364919623
 10
25.0926333168
 20
46.9072751387
 10
24.6830125906
 20
46.9380896178
 10
24.2822572349
 20
47.0282772912
 10
23.8989262276
 20
47.1759120104
 10
23.5412064125
 20
47.377840724
 10
23.2167376524
 20
47.6297508175
 10
22.9324496635
 20
47.9262622184
 10
22.6944140166
 20
48.2610422989
 10
25.0592526925
 20
48.626268938
 10
25.2029961896
 20
48.6168415373
 10
27.6842387906
 20
48.6168415373
  0
HATCH
  5
2D7
100
AcDbEntity
  8
0
100
AcDbHatch
 62
2
  6
CONTINUOUS
 10
0.0
 20
0.0
 30
0.0
210
0.0
220
0.0
230
1.0
  2
SOLID
 70
1
 71
1
 91
1
 92
1
 93
18
 72
1
 10
27.6842387906
 20
48.6168415373
 11
27.4961137435
 21
48.2516795326
 72
1
 10
27.4961137435
 20
48.2516795326
 11
27.2567743458
 21
47.9178302789
 72
1
 10
27.2567743458
 20
47.9178302789
 11
26.9713321963
 21
47.6224297867
 72
1
 10
26.9713321963
 20
47.6224297867
 11
26.6458835153
 21
47.3717869581
 72
1
 10
26.6458835153
 20
47.3717869581
 11
26.2873789475
 21
47.1712548002
 72
1
 10
26.2873789475
 20
47.1712548002
 11
25.9034751155
 21
47.0251161014
 72
1
 10
25.9034751155
 20
47.0251161014
 11
25.5023710973
 21
46.9364919623
 72
1
 10
25.5023710973
 20
46.9364919623
 11
25.0926333168
 21
46.9072751387
 72
1
 10
25.0926333168
 20
46.9072751387
 11
24.6830125906
 21
46.9380896178
 72
1
 10
24.6830125906
 20
46.9380896178
 11
24.2822572349
 21
47.0282772912
 72
1
 10
24.2822572349
 20
47.0282772912
 11
23.8989262276
 21
47.1759120104
 72
1
 10
23.8989262276
 20
47.1759120104
 11
23.5412064125
 21
47.377840724
 72
1
 10
23.5412064125
 20
47.377840724
 11
23.2167376524
 21
47.6297508175
 72
1
 10
23.2167376524
 20
47.6297508175
 11
22.9324496635
 21
47.9262622184
 72
1
 10
22.9324496635
 20
47.9262622184
 11
22.6944140166
 21
48.2610422989
 72
1
 10
22.6944140166
 20
48.2610422989
 11
25.0592526925
 21
48.626268938
 72
1
 10
25.0592526925
 20
48.626268938
 11
25.2029961896
 21
48.6168415373
 72
1
 10
25.2029961896
 20
48.6168415373
 11
27.6842387906
 21
48.6168415373
 97
1
330
2D6
 75
0
 76
1
 98
1
 10
0.0
 20
0.0
  0
LWPOLYLINE
  5
2D8
100
AcDbEntity
  8
0
100
AcDbPolyline
 62
2
  6
CONTINUOUS
 90
28
 70
0
 10
35.5863208471
 20
48.0400014831
 10
35.5863208471
 20
54.9622171339
 10
37.9356791535
 20
54.9622171339
 10
37.9356791535
 20
48.0400014831
 10
37.9256296104
 20
47.8866714687
 10
37.8956529319
 20
47.7359664545
 10
37.8462620271
 20
47.5904664408
 10
37.7783019882
 20
47.4526614279
 10
37.6929356302
 20
47.3248914159
 10
37.5916235952
 20
47.209376405
 10
37.4760993602
 20
47.1080663955
 10
37.3483395768
 20
47.0227013874
 10
37.2105302505
 20
46.9547363811
 10
37.065029337
 20
46.9053413764
 10
36.9143263972
 20
46.8753713736
 10
36.7610000003
 20
46.8653169684
 10
36.6076736033
 20
46.8753713736
 10
36.4569706635
 20
46.9053413764
 10
36.31146975
 20
46.9547363811
 10
36.1736604237
 20
47.0227013874
 10
36.0459006404
 20
47.1080663955
 10
35.9303764053
 20
47.209376405
 10
35.8290643703
 20
47.3248914159
 10
35.7436980123
 20
47.4526614279
 10
35.6757379734
 20
47.5904664408
 10
35.6263470686
 20
47.7359664545
 10
35.5963703901
 20
47.8866714687
 10
35.5863208471
 20
48.0400014831
  0
HATCH
  5
2D9
100
AcDbEntity
  8
0
100
AcDbHatch
 62
2
  6
CONTINUOUS
 10
0.0
 20
0.0
 30
0.0
210
0.0
220
0.0
230
1.0
  2
SOLID
 70
1
 71
1
 91
1
 92
1
 93
27
 72
1
 10
35.5863208471
 20
48.0400014831
 11
35.5863208471
 21
54.9622171339
 72
1
 10
35.5863208471
 20
54.9622171339
 11
37.9356791535
 21
54.9622171339
 72
1
 10
37.9356791535
 20
54.9622171339
 11
37.9356791535
 21
48.0400014831
 72
1
 10
37.9356791535
 20
48.0400014831
 11
37.9256296104
 21
47.8866714687
 72
1
 10
37.9256296104
 20
47.8866714687
 11
37.8956529319
 21
47.7359664545
 72
1
 10
37.8956529319
 20
47.7359664545
 11
37.8462620271
 21
47.5904664408
 72
1
 10
37.8462620271
 20
47.5904664408
 11
37.7783019882
 21
47.4526614279
 72
1
 10
37.7783019882
 20
47.4526614279
 11
37.6929356302
 21
47.3248914159
 72
1
 10
37.6929356302
 20
47.3248914159
 11
37.5916235952
 21
47.209376405
 72
1
 10
37.5916235952
 20
47.209376405
 11
37.4760993602
 21
47.1080663955
 72
1
 10
37.4760993602
 20
47.1080663955
 11
37.3483395768
 21
47.0227013874
 72
1
 10
37.3483395768
 20
47.0227013874
 11
37.2105302505
 21
46.9547363811
 72
1
 10
37.2105302505
 20
46.9547363811
 11
37.065029337
 21
46.9053413764
 72
1
 10
37.065029337
 20
46.9053413764
 11
36.9143263972
 21
46.8753713736
 72
1
 10
36.9143263972
 20
46.8753713736
 11
36.7610000003
 21
46.8653169684
 72
1
 10
36.7610000003
 20
46.8653169684
 11
36.6076736033
 21
46.8753713736
 72
1
 10
36.6076736033
 20
46.8753713736
 11
36.4569706635
 21
46.9053413764
 72
1
 10
36.4569706635
 20
46.9053413764
 11
36.31146975
 21
46.9547363811
 72
1
 10
36.31146975
 20
46.9547363811
 11
36.1736604237
 21
47.0227013874
 72
1
 10
36.1736604237
 20
47.0227013874
 11
36.0459006404
 21
47.1080663955
 72
1
 10
36.0459006404
 20
47.1080663955
 11
35.9303764053
 21
47.209376405
 72
1
 10
35.9303764053
 20
47.209376405
 11
35.8290643703
 21
47.3248914159
 72
1
 10
35.8290643703
 20
47.3248914159
 11
35.7436980123
 21
47.4526614279
 72
1
 10
35.7436980123
 20
47.4526614279
 11
35.6757379734
 21
47.5904664408
 72
1
 10
35.6757379734
 20
47.5904664408
 11
35.6263470686
 21
47.7359664545
 72
1
 10
35.6263470686
 20
47.7359664545
 11
35.5963703901
 21
47.8866714687
 72
1
 10
35.5963703901
 20
47.8866714687
 11
35.5863208471
 21
48.0400014831
 97
1
330
2D8
 75
0
 76
1
 98
1
 10
0.0
 20
0.0
  0
LWPOLYLINE
  5
2DA
100
AcDbEntity
  8
0
100
AcDbPolyline
 62
2
  6
CONTINUOUS
 90
8
 70
0
 10
32.9923313344
 20
47.0301863881
 10
33.1563796967
 20
46.5469163427
 10
33.3821041117
 20
46.0891912997
 10
28.7480950465
 20
45.5534278506
 10
29.3301683772
 20
46.146464163
 10
29.8169521117
 20
46.8199201942
 10
32.8927659379
 20
47.5307364352
 10
32.9923313344
 20
47.0301863881
  0
HATCH
  5
2DB
100
AcDbEntity
  8
0
100
AcDbHatch
 62
2
  6
CONTINUOUS
 10
0.0
 20
0.0
 30
0.0
210
0.0
220
0.0
230
1.0
  2
SOLID
 70
1
 71
1
 91
1
 92
1
 93
7
 72
1
 10
32.9923313344
 20
47.0301863881
 11
33.1563796967
 21
46.5469163427
 72
1
 10
33.1563796967
 20
46.5469163427
 11
33.3821041117
 21
46.0891912997
 72
1
 10
33.3821041117
 20
46.0891912997
 11
28.7480950465
 21
45.5534278506
 72
1
 10
28.7480950465
 20
45.5534278506
 11
29.3301683772
 21
46.146464163
 72
1
 10
29.3301683772
 20
46.146464163
 11
29.8169521117
 21
46.8199201942
 72
1
 10
29.8169521117
 20
46.8199201942
 11
32.8927659379
 21
47.5307364352
 72
1
 10
32.8927659379
 20
47.5307364352
 11
32.9923313344
 21
47.0301863881
 97
1
330
2DA
 75
0
 76
1
 98
1
 10
0.0
 20
0.0
  0
LWPOLYLINE
  5
2DC
100
AcDbEntity
  8
0
100
AcDbPolyline
 62
2
  6
CONTINUOUS
 90
8
 70
0
 10
33.6656423722
 20
45.6648412598
 10
34.00214306
 20
45.2811412237
 10
34.3858485548
 20
44.9446311921
 10
27.3523542712
 20
44.659914577
 10
28.0838381739
 20
45.0541641554
 10
28.7480950465
 20
45.5534278506
 10
33.3821041117
 20
46.0891912997
 10
33.6656423722
 20
45.6648412598
  0
HATCH
  5
2DD
100
AcDbEntity
  8
0
100
AcDbHatch
 62
2
  6
CONTINUOUS
 10
0.0
 20
0.0
 30
0.0
210
0.0
220
0.0
230
1.0
  2
SOLID
 70
1
 71
1
 91
1
 92
1
 93
7
 72
1
 10
33.6656423722
 20
45.6648412598
 11
34.00214306
 21
45.2811412237
 72
1
 10
34.00214306
 20
45.2811412237
 11
34.3858485548
 21
44.9446311921
 72
1
 10
34.3858485548
 20
44.9446311921
 11
27.3523542712
 21
44.659914577
 72
1
 10
27.3523542712
 20
44.659914577
 11
28.0838381739
 21
45.0541641554
 72
1
 10
28.0838381739
 20
45.0541641554
 11
28.7480950465
 21
45.5534278506
 72
1
 10
28.7480950465
 20
45.5534278506
 11
33.3821041117
 21
46.0891912997
 72
1
 10
33.3821041117
 20
46.0891912997
 11
33.6656423722
 21
45.6648412598
 97
1
330
2DC
 75
0
 76
1
 98
1
 10
0.0
 20
0.0
  0
LWPOLYLINE
  5
2DE
100
AcDbEntity
  8
0
100
AcDbPolyline
 62
2
  6
CONTINUOUS
 90
24
 70
0
 10
34.8101935494
 20
44.6611011654
 10
35.2679173833
 20
44.4353811442
 10
35.7511882747
 20
44.2713261287
 10
36.2517373247
 20
44.1717561194
 10
16.3610861409
 20
43.6666760719
 10
20.0261379092
 20
51.9411676226
 10
19.750600337
 20
51.1572157897
 10
19.5954682224
 20
50.3408608074
 10
19.5642345443
 20
49.5104838523
 10
19.6576025652
 20
48.684781822
 10
19.8734699961
 20
47.8823463527
 10
20.2069763321
 20
47.121245207
 10
20.6506122924
 20
46.4186154575
 10
21.1943889001
 20
45.7902776256
 10
21.8260623961
 20
45.2503794643
 10
22.5314099211
 20
44.8110774052
 10
23.2945497596
 20
44.4822628421
 10
24.0982989358
 20
44.2713261287
 10
24.9245601072
 20
44.1830563096
 10
25.754729048
 20
44.2194013213
 10
26.5701135443
 20
44.3795561005
 10
27.3523542712
 20
44.659914577
 10
34.3858485548
 20
44.9446311921
 10
34.8101935494
 20
44.6611011654
  0
HATCH
  5
2DF
100
AcDbEntity
  8
0
100
AcDbHatch
 62
2
  6
CONTINUOUS
 10
0.0
 20
0.0
 30
0.0
210
0.0
220
0.0
230
1.0
  2
SOLID
 70
1
 71
1
 91
1
 92
1
 93
23
 72
1
 10
34.8101935494
 20
44.6611011654
 11
35.2679173833
 21
44.4353811442
 72
1
 10
35.2679173833
 20
44.4353811442
 11
35.7511882747
 21
44.2713261287
 72
1
 10
35.7511882747
 20
44.2713261287
 11
36.2517373247
 21
44.1717561194
 72
1
 10
36.2517373247
 20
44.1717561194
 11
16.3610861409
 21
43.6666760719
 72
1
 10
16.3610861409
 20
43.6666760719
 11
20.0261379092
 21
51.9411676226
 72
1
 10
20.0261379092
 20
51.9411676226
 11
19.750600337
 21
51.1572157897
 72
1
 10
19.750600337
 20
51.1572157897
 11
19.5954682224
 21
50.3408608074
 72
1
 10
19.5954682224
 20
50.3408608074
 11
19.5642345443
 21
49.5104838523
 72
1
 10
19.5642345443
 20
49.5104838523
 11
19.6576025652
 21
48.684781822
 72
1
 10
19.6576025652
 20
48.684781822
 11
19.8734699961
 21
47.8823463527
 72
1
 10
19.8734699961
 20
47.8823463527
 11
20.2069763321
 21
47.121245207
 72
1
 10
20.2069763321
 20
47.121245207
 11
20.6506122924
 21
46.4186154575
 72
1
 10
20.6506122924
 20
46.4186154575
 11
21.1943889001
 21
45.7902776256
 72
1
 10
21.1943889001
 20
45.7902776256
 11
21.8260623961
 21
45.2503794643
 72
1
 10
21.8260623961
 20
45.2503794643
 11
22.5314099211
 21
44.8110774052
 72
1
 10
22.5314099211
 20
44.8110774052
 11
23.2945497596
 21
44.4822628421
 72
1
 10
23.2945497596
 20
44.4822628421
 11
24.0982989358
 21
44.2713261287
 72
1
 10
24.0982989358
 20
44.2713261287
 11
24.9245601072
 21
44.1830563096
 72
1
 10
24.9245601072
 20
44.1830563096
 11
25.754729048
 21
44.2194013213
 72
1
 10
25.754729048
 20
44.2194013213
 11
26.5701135443
 21
44.3795561005
 72
1
 10
26.5701135443
 20
44.3795561005
 11
27.3523542712
 21
44.659914577
 72
1
 10
27.3523542712
 20
44.659914577
 11
34.3858485548
 21
44.9446311921
 72
1
 10
34.3858485548
 20
44.9446311921
 11
34.8101935494
 21
44.6611011654
 97
1
330
2DE
 75
0
 76
1
 98
1
 10
0.0
 20
0.0
  0
LWPOLYLINE
  5
2E0
100
AcDbEntity
  8
0
100
AcDbPolyline
 62
2
  6
CONTINUOUS
 90
43
 70
0
 10
36.7610000003
 20
44.13838322
 10
37.2702626758
 20
44.1717561194
 10
37.7708117258
 20
44.2713261287
 10
38.2540826172
 20
44.4353811442
 10
38.7118064511
 20
44.6611011654
 10
39.1361514457
 20
44.9446311921
 10
39.5198569406
 20
45.2811412237
 10
39.8563576283
 20
45.6648412598
 10
40.1398958888
 20
46.0891912997
 10
45.3528889231
 20
43.6666760719
 10
45.345943091
 20
43.5341510594
 10
45.3251816945
 20
43.4030660471
 10
45.2908322
 20
43.2748610351
 10
45.2432709475
 20
43.1509610234
 10
45.1830190283
 20
43.0327160123
 10
45.1107365748
 20
42.9214160018
 10
45.0272155289
 20
42.8182759921
 10
44.9333709645
 20
42.7244209833
 10
44.8302310623
 20
42.6409009754
 10
44.7189258447
 20
42.5686159687
 10
44.600674795
 20
42.508375963
 10
44.4767734964
 20
42.4608109585
 10
44.3485794374
 20
42.4264609553
 10
44.217497139
 20
42.4057009533
 10
44.0849627663
 20
42.3987559527
 10
17.6290122978
 20
42.3987559527
 10
17.4964779251
 20
42.4057009533
 10
17.3653956267
 20
42.4264609553
 10
17.2372015677
 20
42.4608109585
 10
17.113300269
 20
42.508375963
 10
16.9950492193
 20
42.5686159687
 10
16.8837440018
 20
42.6409009754
 10
16.7806040996
 20
42.7244209833
 10
16.6867595352
 20
42.8182759921
 10
16.6032384892
 20
42.9214160018
 10
16.5309560358
 20
43.0327160123
 10
16.4707041165
 20
43.1509610234
 10
16.4231428641
 20
43.2748610351
 10
16.3887933695
 20
43.4030660471
 10
16.368031973
 20
43.5341510594
 10
16.3610861409
 20
43.6666760719
 10
36.2517373247
 20
44.1717561194
 10
36.7610000003
 20
44.13838322
  0
HATCH
  5
2E1
100
AcDbEntity
  8
0
100
AcDbHatch
 62
2
  6
CONTINUOUS
 10
0.0
 20
0.0
 30
0.0
210
0.0
220
0.0
230
1.0
  2
SOLID
 70
1
 71
1
 91
1
 92
1
 93
42
 72
1
 10
36.7610000003
 20
44.13838322
 11
37.2702626758
 21
44.1717561194
 72
1
 10
37.2702626758
 20
44.1717561194
 11
37.7708117258
 21
44.2713261287
 72
1
 10
37.7708117258
 20
44.2713261287
 11
38.2540826172
 21
44.4353811442
 72
1
 10
38.2540826172
 20
44.4353811442
 11
38.7118064511
 21
44.6611011654
 72
1
 10
38.7118064511
 20
44.6611011654
 11
39.1361514457
 21
44.9446311921
 72
1
 10
39.1361514457
 20
44.9446311921
 11
39.5198569406
 21
45.2811412237
 72
1
 10
39.5198569406
 20
45.2811412237
 11
39.8563576283
 21
45.6648412598
 72
1
 10
39.8563576283
 20
45.6648412598
 11
40.1398958888
 21
46.0891912997
 72
1
 10
40.1398958888
 20
46.0891912997
 11
45.3528889231
 21
43.6666760719
 72
1
 10
45.3528889231
 20
43.6666760719
 11
45.345943091
 21
43.5341510594
 72
1
 10
45.345943091
 20
43.5341510594
 11
45.3251816945
 21
43.4030660471
 72
1
 10
45.3251816945
 20
43.4030660471
 11
45.2908322
 21
43.2748610351
 72
1
 10
45.2908322
 20
43.2748610351
 11
45.2432709475
 21
43.1509610234
 72
1
 10
45.2432709475
 20
43.1509610234
 11
45.1830190283
 21
43.0327160123
 72
1
 10
45.1830190283
 20
43.0327160123
 11
45.1107365748
 21
42.9214160018
 72
1
 10
45.1107365748
 20
42.9214160018
 11
45.0272155289
 21
42.8182759921
 72
1
 10
45.0272155289
 20
42.8182759921
 11
44.9333709645
 21
42.7244209833
 72
1
 10
44.9333709645
 20
42.7244209833
 11
44.8302310623
 21
42.6409009754
 72
1
 10
44.8302310623
 20
42.6409009754
 11
44.7189258447
 21
42.5686159687
 72
1
 10
44.7189258447
 20
42.5686159687
 11
44.600674795
 21
42.508375963
 72
1
 10
44.600674795
 20
42.508375963
 11
44.4767734964
 21
42.4608109585
 72
1
 10
44.4767734964
 20
42.4608109585
 11
44.3485794374
 21
42.4264609553
 72
1
 10
44.3485794374
 20
42.4264609553
 11
44.217497139
 21
42.4057009533
 72
1
 10
44.217497139
 20
42.4057009533
 11
44.0849627663
 21
42.3987559527
 72
1
 10
44.0849627663
 20
42.3987559527
 11
17.6290122978
 21
42.3987559527
 72
1
 10
17.6290122978
 20
42.3987559527
 11
17.4964779251
 21
42.4057009533
 72
1
 10
17.4964779251
 20
42.4057009533
 11
17.3653956267
 21
42.4264609553
 72
1
 10
17.3653956267
 20
42.4264609553
 11
17.2372015677
 21
42.4608109585
 72
1
 10
17.2372015677
 20
42.4608109585
 11
17.113300269
 21
42.508375963
 72
1
 10
17.113300269
 20
42.508375963
 11
16.9950492193
 21
42.5686159687
 72
1
 10
16.9950492193
 20
42.5686159687
 11
16.8837440018
 21
42.6409009754
 72
1
 10
16.8837440018
 20
42.6409009754
 11
16.7806040996
 21
42.7244209833
 72
1
 10
16.7806040996
 20
42.7244209833
 11
16.6867595352
 21
42.8182759921
 72
1
 10
16.6867595352
 20
42.8182759921
 11
16.6032384892
 21
42.9214160018
 72
1
 10
16.6032384892
 20
42.9214160018
 11
16.5309560358
 21
43.0327160123
 72
1
 10
16.5309560358
 20
43.0327160123
 11
16.4707041165
 21
43.1509610234
 72
1
 10
16.4707041165
 20
43.1509610234
 11
16.4231428641
 21
43.2748610351
 72
1
 10
16.4231428641
 20
43.2748610351
 11
16.3887933695
 21
43.4030660471
 72
1
 10
16.3887933695
 20
43.4030660471
 11
16.368031973
 21
43.5341510594
 72
1
 10
16.368031973
 20
43.5341510594
 11
16.3610861409
 21
43.6666760719
 72
1
 10
16.3610861409
 20
43.6666760719
 11
36.2517373247
 21
44.1717561194
 72
1
 10
36.2517373247
 20
44.1717561194
 11
36.7610000003
 21
44.13838322
 97
1
330
2E0
 75
0
 76
1
 98
1
 10
0.0
 20
0.0
  0
SOLID
  5
2E2
100
AcDbEntity
  8
0
100
AcDbTrace
 62
2
  6
CONTINUOUS
 10
25.3408515753
 20
55.2505598297
 11
24.5102931399
 21
55.2245960958
 12
26.1659444963
 22
55.151954039
 13
45.3528889232
 23
56.1308222438
  0
ENDBLK
  5
2E3
100
AcDbEntity
  8
0
  6
BYBLOCK
 62
0
100
AcDbBlockEnd
  0
BLOCK
  5
2E4
100
AcDbEntity
  8
94934430L00_BL0
100
AcDbBlockBegin
  2
94934430L00_BL0
 70
64
 10
94.1741488453
 20
1097.1978773819
  3
94934430L00_BL0
  1

  0
LINE
  5
2E5
100
AcDbEntity
  8
94934430L00_BL0
100
AcDbLine
 62
7
  6
CONTINUOUS
 10
156.2830290362
 20
121.5221842267
 11
132.2830290362
 21
121.5221842267
  0
LINE
  5
2E6
100
AcDbEntity
  8
94934430L00_BL0
100
AcDbLine
 62
7
  6
CONTINUOUS
 10
136.2830290362
 20
230.5221842267
 11
146.2830290362
 21
230.5221842267
  0
LINE
  5
2E7
100
AcDbEntity
  8
94934430L00_BL0
100
AcDbLine
 62
7
  6
CONTINUOUS
 10
146.2830290362
 20
268.5221842267
 11
136.2830290362
 21
268.5221842267
  0
LINE
  5
2E8
100
AcDbEntity
  8
94934430L00_BL0
100
AcDbLine
 62
7
  6
CENTER
 10
144.2830290362
 20
511.5221842267
 11
135.8830290362
 21
511.5221842267
  0
LINE
  5
2E9
100
AcDbEntity
  8
94934430L00_BL0
100
AcDbLine
 62
7
  6
CENTER
 10
144.2830290362
 20
511.5221842267
 11
152.6830290362
 21
511.5221842267
  0
LINE
  5
2EA
100
AcDbEntity
  8
94934430L00_BL0
100
AcDbLine
 62
7
  6
CENTER
 10
144.2830290362
 20
988.5221842267
 11
135.8830290362
 21
988.5221842267
  0
LINE
  5
2EB
100
AcDbEntity
  8
94934430L00_BL0
100
AcDbLine
 62
7
  6
CENTER
 10
144.2830290362
 20
988.5221842267
 11
152.6830290362
 21
988.5221842267
  0
LINE
  5
2EC
100
AcDbEntity
  8
94934430L00_BL0
100
AcDbLine
 62
7
  6
CONTINUOUS
 10
136.2830290362
 20
1011.2221842267
 11
139.5005034249
 21
1011.2221842267
  0
LINE
  5
2ED
100
AcDbEntity
  8
94934430L00_BL0
100
AcDbLine
 62
7
  6
CONTINUOUS
 10
147.0655546475
 20
1011.2221842267
 11
152.2830290362
 21
1011.2221842267
  0
LINE
  5
2EE
100
AcDbEntity
  8
94934430L00_BL0
100
AcDbLine
 62
7
  6
CONTINUOUS
 10
152.2830290362
 20
1011.5221842267
 11
146.9772813286
 21
1011.5221842267
  0
LINE
  5
2EF
100
AcDbEntity
  8
94934430L00_BL0
100
AcDbLine
 62
7
  6
CONTINUOUS
 10
139.5887767438
 20
1011.5221842267
 11
136.2830290362
 21
1011.5221842267
  0
LINE
  5
2F0
100
AcDbEntity
  8
94934430L00_BL0
100
AcDbLine
 62
7
  6
CONTINUOUS
 10
136.2830290362
 20
1011.8221842267
 11
139.7042722689
 21
1011.8221842267
  0
LINE
  5
2F1
100
AcDbEntity
  8
94934430L00_BL0
100
AcDbLine
 62
7
  6
CONTINUOUS
 10
146.8617858036
 20
1011.8221842267
 11
152.2830290362
 21
1011.8221842267
  0
LINE
  5
2F2
100
AcDbEntity
  8
94934430L00_BL0
100
AcDbLine
 62
7
  6
CONTINUOUS
 10
132.2830290362
 20
1012.3721842267
 11
137.2830290362
 21
1012.3721842267
  0
LINE
  5
2F3
100
AcDbEntity
  8
94934430L00_BL0
100
AcDbLine
 62
7
  6
CONTINUOUS
 10
139.4330290362
 20
1014.5221842267
 11
151.2830290362
 21
1014.5221842267
  0
LINE
  5
2F4
100
AcDbEntity
  8
94934430L00_BL0
100
AcDbLine
 62
7
  6
CONTINUOUS
 10
151.2830290362
 20
1058.5221842267
 11
139.4330290362
 21
1058.5221842267
  0
LINE
  5
2F5
100
AcDbEntity
  8
94934430L00_BL0
100
AcDbLine
 62
7
  6
CONTINUOUS
 10
132.2830290362
 20
1060.6721842267
 11
137.2830290362
 21
1060.6721842267
  0
LINE
  5
2F6
100
AcDbEntity
  8
94934430L00_BL0
100
AcDbLine
 62
7
  6
CONTINUOUS
 10
132.2830290362
 20
2121.5221842267
 11
132.2830290362
 21
1060.6721842267
  0
LINE
  5
2F7
100
AcDbEntity
  8
94934430L00_BL0
100
AcDbLine
 62
7
  6
CONTINUOUS
 10
132.2830290362
 20
1012.3721842267
 11
132.2830290362
 21
121.5221842267
  0
LINE
  5
2F8
100
AcDbEntity
  8
94934430L00_BL0
100
AcDbLine
 62
7
  6
CONTINUOUS
 10
132.6849528249
 20
1356.5221842267
 11
132.6849528249
 21
1166.5221842267
  0
LINE
  5
2F9
100
AcDbEntity
  8
94934430L00_BL0
100
AcDbLine
 62
7
  6
CONTINUOUS
 10
134.2830290362
 20
1756.5221842267
 11
134.2830290362
 21
1722.5221842267
  0
LINE
  5
2FA
100
AcDbEntity
  8
94934430L00_BL0
100
AcDbLine
 62
7
  6
CONTINUOUS
 10
134.2830290362
 20
266.5221842267
 11
134.2830290362
 21
232.5221842267
  0
LINE
  5
2FB
100
AcDbEntity
  8
94934430L00_BL0
100
AcDbLine
 62
9
  6
CONTINUOUS
 10
135.2830290362
 20
2121.5221842267
 11
135.2830290362
 21
1758.2542350342
  0
LINE
  5
2FC
100
AcDbEntity
  8
94934430L00_BL0
100
AcDbLine
 62
9
  6
CONTINUOUS
 10
135.2830290362
 20
1720.7901334191
 11
135.2830290362
 21
1356.5221842267
  0
LINE
  5
2FD
100
AcDbEntity
  8
94934430L00_BL0
100
AcDbLine
 62
9
  6
CONTINUOUS
 10
135.2830290362
 20
1166.5221842267
 11
135.2830290362
 21
1060.6721842267
  0
LINE
  5
2FE
100
AcDbEntity
  8
94934430L00_BL0
100
AcDbLine
 62
9
  6
CONTINUOUS
 10
135.2830290362
 20
1012.3721842267
 11
135.2830290362
 21
977.4421323526
  0
LINE
  5
2FF
100
AcDbEntity
  8
94934430L00_BL0
100
AcDbLine
 62
9
  6
CONTINUOUS
 10
135.2830290362
 20
913.4022361005
 11
135.2830290362
 21
268.2542350342
  0
LINE
  5
300
100
AcDbEntity
  8
94934430L00_BL0
100
AcDbLine
 62
9
  6
CONTINUOUS
 10
135.2830290362
 20
230.7901334191
 11
135.2830290362
 21
121.5221842267
  0
LINE
  5
301
100
AcDbEntity
  8
94934430L00_BL0
100
AcDbLine
 62
7
  6
CONTINUOUS
 10
136.2830290362
 20
1011.2221842267
 11
136.2830290362
 21
1011.8221842267
  0
LINE
  5
302
100
AcDbEntity
  8
94934430L00_BL0
100
AcDbLine
 62
7
  6
CONTINUOUS
 10
141.1330290362
 20
1803.7595142836
 11
141.1330290362
 21
1800.1856556101
  0
LINE
  5
303
100
AcDbEntity
  8
94934430L00_BL0
100
AcDbLine
 62
7
  6
CONTINUOUS
 10
141.1330290362
 20
1799.0587128432
 11
141.1330290362
 21
1795.4848541697
  0
LINE
  5
304
100
AcDbEntity
  8
94934430L00_BL0
100
AcDbLine
 62
7
  6
CONTINUOUS
 10
141.1330290362
 20
1644.6595142836
 11
141.1330290362
 21
1641.0856556101
  0
LINE
  5
305
100
AcDbEntity
  8
94934430L00_BL0
100
AcDbLine
 62
7
  6
CONTINUOUS
 10
141.1330290362
 20
1639.9587128432
 11
141.1330290362
 21
1636.3848541697
  0
LINE
  5
306
100
AcDbEntity
  8
94934430L00_BL0
100
AcDbLine
 62
7
  6
CONTINUOUS
 10
141.1330290362
 20
1565.6595142836
 11
141.1330290362
 21
1562.0856556101
  0
LINE
  5
307
100
AcDbEntity
  8
94934430L00_BL0
100
AcDbLine
 62
7
  6
CONTINUOUS
 10
141.1330290362
 20
1560.9587128432
 11
141.1330290362
 21
1557.3848541697
  0
LINE
  5
308
100
AcDbEntity
  8
94934430L00_BL0
100
AcDbLine
 62
7
  6
CONTINUOUS
 10
141.1330290362
 20
1415.1595142836
 11
141.1330290362
 21
1411.5856556101
  0
LINE
  5
309
100
AcDbEntity
  8
94934430L00_BL0
100
AcDbLine
 62
7
  6
CONTINUOUS
 10
141.1330290362
 20
1410.4587128432
 11
141.1330290362
 21
1406.8848541697
  0
LINE
  5
30A
100
AcDbEntity
  8
94934430L00_BL0
100
AcDbLine
 62
7
  6
CONTINUOUS
 10
141.1330290362
 20
823.7595142836
 11
141.1330290362
 21
820.1856556101
  0
LINE
  5
30B
100
AcDbEntity
  8
94934430L00_BL0
100
AcDbLine
 62
7
  6
CONTINUOUS
 10
141.1330290362
 20
819.0587128432
 11
141.1330290362
 21
815.4848541697
  0
LINE
  5
30C
100
AcDbEntity
  8
94934430L00_BL0
100
AcDbLine
 62
7
  6
CONTINUOUS
 10
141.1330290362
 20
707.5595142836
 11
141.1330290362
 21
703.9856556101
  0
LINE
  5
30D
100
AcDbEntity
  8
94934430L00_BL0
100
AcDbLine
 62
7
  6
CONTINUOUS
 10
141.1330290362
 20
702.8587128432
 11
141.1330290362
 21
699.2848541697
  0
LINE
  5
30E
100
AcDbEntity
  8
94934430L00_BL0
100
AcDbLine
 62
7
  6
CONTINUOUS
 10
141.1330290362
 20
313.7595142836
 11
141.1330290362
 21
310.1856556101
  0
LINE
  5
30F
100
AcDbEntity
  8
94934430L00_BL0
100
AcDbLine
 62
7
  6
CONTINUOUS
 10
141.1330290362
 20
309.0587128432
 11
141.1330290362
 21
305.4848541697
  0
LINE
  5
310
100
AcDbEntity
  8
94934430L00_BL0
100
AcDbLine
 62
7
  6
CONTINUOUS
 10
141.1330290362
 20
197.5595142836
 11
141.1330290362
 21
193.9856556101
  0
LINE
  5
311
100
AcDbEntity
  8
94934430L00_BL0
100
AcDbLine
 62
7
  6
CONTINUOUS
 10
141.1330290362
 20
192.8587128432
 11
141.1330290362
 21
189.2848541697
  0
LINE
  5
312
100
AcDbEntity
  8
94934430L00_BL0
100
AcDbLine
 62
7
  6
CENTER
 10
144.2830290362
 20
1084.5221842267
 11
144.2830290362
 21
1076.1221842267
  0
LINE
  5
313
100
AcDbEntity
  8
94934430L00_BL0
100
AcDbLine
 62
7
  6
CENTER
 10
144.2830290362
 20
988.5221842267
 11
144.2830290362
 21
980.1221842267
  0
LINE
  5
314
100
AcDbEntity
  8
94934430L00_BL0
100
AcDbLine
 62
7
  6
CENTER
 10
144.2830290362
 20
511.5221842267
 11
144.2830290362
 21
503.1221842267
  0
LINE
  5
315
100
AcDbEntity
  8
94934430L00_BL0
100
AcDbLine
 62
7
  6
CENTER
 10
144.2830290362
 20
511.5221842267
 11
144.2830290362
 21
519.9221842267
  0
LINE
  5
316
100
AcDbEntity
  8
94934430L00_BL0
100
AcDbLine
 62
7
  6
CENTER
 10
144.2830290362
 20
988.5221842267
 11
144.2830290362
 21
996.9221842267
  0
LINE
  5
317
100
AcDbEntity
  8
94934430L00_BL0
100
AcDbLine
 62
7
  6
CENTER
 10
144.2830290362
 20
1084.5221842267
 11
144.2830290362
 21
1092.9221842267
  0
LINE
  5
318
100
AcDbEntity
  8
94934430L00_BL0
100
AcDbLine
 62
7
  6
CONTINUOUS
 10
145.8309462252
 20
1114.4202636941
 11
145.8309462252
 21
1112.1236986577
  0
LINE
  5
319
100
AcDbEntity
  8
94934430L00_BL0
100
AcDbLine
 62
7
  6
CONTINUOUS
 10
145.8309462252
 20
1110.9027400308
 11
145.8309462252
 21
1110.5829651523
  0
LINE
  5
31A
100
AcDbEntity
  8
94934430L00_BL0
100
AcDbLine
 62
7
  6
CONTINUOUS
 10
146.0309462251
 20
1110.5829651523
 11
146.0309462251
 21
1111.1027400308
  0
LINE
  5
31B
100
AcDbEntity
  8
94934430L00_BL0
100
AcDbLine
 62
7
  6
CONTINUOUS
 10
146.0309462251
 20
1111.9236986578
 11
146.0309462251
 21
1114.2202636942
  0
LINE
  5
31C
100
AcDbEntity
  8
94934430L00_BL0
100
AcDbLine
 62
7
  6
CONTINUOUS
 10
147.1426092871
 20
1114.2202636942
 11
147.1426092871
 21
1110.5829651523
  0
LINE
  5
31D
100
AcDbEntity
  8
94934430L00_BL0
100
AcDbLine
 62
7
  6
CONTINUOUS
 10
147.342609287
 20
1110.5829651523
 11
147.3426092872
 21
1114.4202636941
  0
LINE
  5
31E
100
AcDbEntity
  8
94934430L00_BL0
100
AcDbLine
 62
7
  6
CONTINUOUS
 10
147.4330290362
 20
189.2848541697
 11
147.4330290362
 21
192.8587128432
  0
LINE
  5
31F
100
AcDbEntity
  8
94934430L00_BL0
100
AcDbLine
 62
7
  6
CONTINUOUS
 10
147.4330290362
 20
193.9856556101
 11
147.4330290362
 21
197.5595142836
  0
LINE
  5
320
100
AcDbEntity
  8
94934430L00_BL0
100
AcDbLine
 62
7
  6
CONTINUOUS
 10
147.4330290362
 20
305.4848541697
 11
147.4330290362
 21
309.0587128432
  0
LINE
  5
321
100
AcDbEntity
  8
94934430L00_BL0
100
AcDbLine
 62
7
  6
CONTINUOUS
 10
147.4330290362
 20
310.1856556101
 11
147.4330290362
 21
313.7595142836
  0
LINE
  5
322
100
AcDbEntity
  8
94934430L00_BL0
100
AcDbLine
 62
7
  6
CONTINUOUS
 10
147.4330290362
 20
699.2848541697
 11
147.4330290362
 21
702.8587128432
  0
LINE
  5
323
100
AcDbEntity
  8
94934430L00_BL0
100
AcDbLine
 62
7
  6
CONTINUOUS
 10
147.4330290362
 20
703.9856556101
 11
147.4330290362
 21
707.5595142836
  0
LINE
  5
324
100
AcDbEntity
  8
94934430L00_BL0
100
AcDbLine
 62
7
  6
CONTINUOUS
 10
147.4330290362
 20
815.4848541697
 11
147.4330290362
 21
819.0587128432
  0
LINE
  5
325
100
AcDbEntity
  8
94934430L00_BL0
100
AcDbLine
 62
7
  6
CONTINUOUS
 10
147.4330290362
 20
820.1856556101
 11
147.4330290362
 21
823.7595142836
  0
LINE
  5
326
100
AcDbEntity
  8
94934430L00_BL0
100
AcDbLine
 62
7
  6
CONTINUOUS
 10
147.4330290362
 20
1406.8848541697
 11
147.4330290362
 21
1410.4587128432
  0
LINE
  5
327
100
AcDbEntity
  8
94934430L00_BL0
100
AcDbLine
 62
7
  6
CONTINUOUS
 10
147.4330290362
 20
1411.5856556101
 11
147.4330290362
 21
1415.1595142836
  0
LINE
  5
328
100
AcDbEntity
  8
94934430L00_BL0
100
AcDbLine
 62
7
  6
CONTINUOUS
 10
147.4330290362
 20
1557.3848541697
 11
147.4330290362
 21
1560.9587128432
  0
LINE
  5
329
100
AcDbEntity
  8
94934430L00_BL0
100
AcDbLine
 62
7
  6
CONTINUOUS
 10
147.4330290362
 20
1562.0856556101
 11
147.4330290362
 21
1565.6595142836
  0
LINE
  5
32A
100
AcDbEntity
  8
94934430L00_BL0
100
AcDbLine
 62
7
  6
CONTINUOUS
 10
147.4330290362
 20
1636.3848541697
 11
147.4330290362
 21
1639.9587128432
  0
LINE
  5
32B
100
AcDbEntity
  8
94934430L00_BL0
100
AcDbLine
 62
7
  6
CONTINUOUS
 10
147.4330290362
 20
1641.0856556101
 11
147.4330290362
 21
1644.6595142836
  0
LINE
  5
32C
100
AcDbEntity
  8
94934430L00_BL0
100
AcDbLine
 62
7
  6
CONTINUOUS
 10
147.4330290362
 20
1795.4848541697
 11
147.4330290362
 21
1799.0587128432
  0
LINE
  5
32D
100
AcDbEntity
  8
94934430L00_BL0
100
AcDbLine
 62
7
  6
CONTINUOUS
 10
147.4330290362
 20
1800.1856556101
 11
147.4330290362
 21
1803.7595142836
  0
LINE
  5
32E
100
AcDbEntity
  8
94934430L00_BL0
100
AcDbLine
 62
7
  6
CONTINUOUS
 10
148.2830290362
 20
232.5221842267
 11
148.2830290362
 21
266.5221842267
  0
LINE
  5
32F
100
AcDbEntity
  8
94934430L00_BL0
100
AcDbLine
 62
7
  6
CONTINUOUS
 10
148.2830290362
 20
1722.5221842267
 11
148.2830290362
 21
1756.5221842267
  0
LINE
  5
330
100
AcDbEntity
  8
94934430L00_BL0
100
AcDbLine
 62
7
  6
CONTINUOUS
 10
148.6449651558
 20
1114.4202636941
 11
148.6449651558
 21
1110.5829651523
  0
LINE
  5
331
100
AcDbEntity
  8
94934430L00_BL0
100
AcDbLine
 62
7
  6
CONTINUOUS
 10
148.8449651559
 20
1110.5829651523
 11
148.8449651559
 21
1114.2202636942
  0
LINE
  5
332
100
AcDbEntity
  8
94934430L00_BL0
100
AcDbLine
 62
7
  6
CONTINUOUS
 10
143.7332313402
 20
1113.3503980036
 11
142.8371796105
 21
1112.6873546025
  0
LINE
  5
333
100
AcDbEntity
  8
94934430L00_BL0
100
AcDbLine
 62
7
  6
CONTINUOUS
 10
142.8013333906
 20
1112.4120292812
 11
144.0166460653
 21
1113.3113133545
  0
LINE
  5
334
100
AcDbEntity
  8
94934430L00_BL0
100
AcDbLine
 62
7
  6
CENTER
 10
144.2830290362
 20
1084.5221842267
 11
135.8830290362
 21
1084.5221842267
  0
LINE
  5
335
100
AcDbEntity
  8
94934430L00_BL0
100
AcDbLine
 62
7
  6
CENTER
 10
144.2830290362
 20
1084.5221842267
 11
152.6830290362
 21
1084.5221842267
  0
LINE
  5
336
100
AcDbEntity
  8
94934430L00_BL0
100
AcDbLine
 62
7
  6
CONTINUOUS
 10
141.5866614743
 20
1110.9027400308
 11
142.9621267894
 21
1110.9027400308
  0
LINE
  5
337
100
AcDbEntity
  8
94934430L00_BL0
100
AcDbLine
 62
7
  6
CONTINUOUS
 10
144.8084798542
 20
1110.9027400308
 11
145.8309462252
 21
1110.9027400308
  0
LINE
  5
338
100
AcDbEntity
  8
94934430L00_BL0
100
AcDbLine
 62
7
  6
CONTINUOUS
 10
146.0309462251
 20
1111.1027400308
 11
145.0415078976
 21
1111.1027400308
  0
LINE
  5
339
100
AcDbEntity
  8
94934430L00_BL0
100
AcDbLine
 62
7
  6
CONTINUOUS
 10
143.2381078992
 20
1111.1027400308
 11
141.5866614743
 21
1111.1027400308
  0
LINE
  5
33A
100
AcDbEntity
  8
94934430L00_BL0
100
AcDbLine
 62
7
  6
CONTINUOUS
 10
141.5866614743
 20
1111.9236986578
 11
144.3688518468
 21
1111.9236986576
  0
LINE
  5
33B
100
AcDbEntity
  8
94934430L00_BL0
100
AcDbLine
 62
7
  6
CONTINUOUS
 10
145.0415078976
 20
1111.9236986578
 11
146.0309462251
 21
1111.9236986578
  0
LINE
  5
33C
100
AcDbEntity
  8
94934430L00_BL0
100
AcDbLine
 62
7
  6
CONTINUOUS
 10
145.8309462252
 20
1112.1236986577
 11
144.8084798542
 21
1112.1236986577
  0
LINE
  5
33D
100
AcDbEntity
  8
94934430L00_BL0
100
AcDbLine
 62
7
  6
CONTINUOUS
 10
144.537046052
 20
1112.1236986577
 11
141.5866614743
 21
1112.1236986577
  0
LINE
  5
33E
100
AcDbEntity
  8
94934430L00_BL0
100
AcDbLine
 62
7
  6
CONTINUOUS
 10
146.0309462251
 20
1114.2202636942
 11
147.1426092871
 21
1114.2202636942
  0
LINE
  5
33F
100
AcDbEntity
  8
94934430L00_BL0
100
AcDbLine
 62
7
  6
CONTINUOUS
 10
148.8449651559
 20
1114.2202636942
 11
149.9566282179
 21
1114.2202636942
  0
LINE
  5
340
100
AcDbEntity
  8
94934430L00_BL0
100
AcDbLine
 62
7
  6
CONTINUOUS
 10
150.1566282178
 20
1114.4202636941
 11
148.6449651558
 21
1114.4202636941
  0
LINE
  5
341
100
AcDbEntity
  8
94934430L00_BL0
100
AcDbLine
 62
7
  6
CONTINUOUS
 10
147.3426092872
 20
1114.4202636941
 11
145.8309462252
 21
1114.4202636941
  0
LINE
  5
342
100
AcDbEntity
  8
94934430L00_BL0
100
AcDbLine
 62
7
  6
CONTINUOUS
 10
139.4330290362
 20
1058.5221842267
 11
137.2830290362
 21
1060.6721842267
  0
LINE
  5
343
100
AcDbEntity
  8
94934430L00_BL0
100
AcDbLine
 62
7
  6
CONTINUOUS
 10
149.9566282179
 20
1114.2202636942
 11
149.9566282177
 21
1110.5829651523
  0
LINE
  5
344
100
AcDbEntity
  8
94934430L00_BL0
100
AcDbLine
 62
7
  6
CONTINUOUS
 10
150.1566282178
 20
1110.5829651523
 11
150.1566282178
 21
1114.4202636941
  0
LINE
  5
345
100
AcDbEntity
  8
94934430L00_BL0
100
AcDbLine
 62
7
  6
CONTINUOUS
 10
151.2830290362
 20
1014.5221842267
 11
151.2830290362
 21
1058.5221842267
  0
LINE
  5
346
100
AcDbEntity
  8
94934430L00_BL0
100
AcDbLine
 62
7
  6
CONTINUOUS
 10
152.2830290362
 20
1011.2221842267
 11
152.2830290362
 21
1011.8221842267
  0
LINE
  5
347
100
AcDbEntity
  8
94934430L00_BL0
100
AcDbLine
 62
9
  6
CONTINUOUS
 10
153.2830290362
 20
2121.5221842267
 11
153.2830290362
 21
1347.4678674561
  0
LINE
  5
348
100
AcDbEntity
  8
94934430L00_BL0
100
AcDbLine
 62
9
  6
CONTINUOUS
 10
153.2830290362
 20
1175.5765009972
 11
153.2830290362
 21
121.5221842267
  0
LINE
  5
349
100
AcDbEntity
  8
94934430L00_BL0
100
AcDbLine
 62
7
  6
CONTINUOUS
 10
153.3830290362
 20
1346.0221842267
 11
153.3830290362
 21
1177.0221842267
  0
LINE
  5
34A
100
AcDbEntity
  8
94934430L00_BL0
100
AcDbLine
 62
7
  6
CONTINUOUS
 10
156.2830290362
 20
2121.5221842267
 11
156.2830290362
 21
121.5221842267
  0
LINE
  5
34B
100
AcDbEntity
  8
94934430L00_BL0
100
AcDbLine
 62
7
  6
CONTINUOUS
 10
137.2830290362
 20
1012.3721842267
 11
139.4330290362
 21
1014.5221842267
  0
LINE
  5
34C
100
AcDbEntity
  8
94934430L00_BL0
100
AcDbLine
 62
7
  6
CONTINUOUS
 10
132.6849528249
 20
1166.5221842267
 11
142.8830290362
 21
1166.5221842267
  0
LINE
  5
34D
100
AcDbEntity
  8
94934430L00_BL0
100
AcDbLine
 62
7
  6
CONTINUOUS
 10
132.6849528249
 20
1356.5221842267
 11
142.8830290362
 21
1356.5221842267
  0
LINE
  5
34E
100
AcDbEntity
  8
94934430L00_BL0
100
AcDbLine
 62
7
  6
CONTINUOUS
 10
136.2830290362
 20
1720.5221842267
 11
146.2830290362
 21
1720.5221842267
  0
LINE
  5
34F
100
AcDbEntity
  8
94934430L00_BL0
100
AcDbLine
 62
7
  6
CONTINUOUS
 10
146.2830290362
 20
1758.5221842267
 11
136.2830290362
 21
1758.5221842267
  0
LINE
  5
350
100
AcDbEntity
  8
94934430L00_BL0
100
AcDbLine
 62
7
  6
CONTINUOUS
 10
156.2830290362
 20
2121.5221842267
 11
132.2830290362
 21
2121.5221842267
  0
LINE
  5
351
100
AcDbEntity
  8
94934430L00_BL0
100
AcDbLine
 62
7
  6
CONTINUOUS
 10
41.0652686543
 20
121.5221842267
 11
33.0652686543
 21
121.5221842267
  0
LINE
  5
352
100
AcDbEntity
  8
94934430L00_BL0
100
AcDbLine
 62
7
  6
CENTER
 10
42.7491063417
 20
511.5221842267
 11
32.0652686543
 21
511.5221842267
  0
LINE
  5
353
100
AcDbEntity
  8
94934430L00_BL0
100
AcDbLine
 62
9
  6
CONTINUOUS
 10
36.0652686543
 20
2121.5221842267
 11
36.0652686543
 21
121.5221842267
  0
LINE
  5
354
100
AcDbEntity
  8
94934430L00_BL0
100
AcDbLine
 62
7
  6
CONTINUOUS
 10
41.0652686543
 20
2121.5221842267
 11
41.0652686543
 21
121.5221842267
  0
LINE
  5
355
100
AcDbEntity
  8
94934430L00_BL0
100
AcDbLine
 62
7
  6
CONTINUOUS
 10
33.0652686543
 20
2121.5221842267
 11
33.0652686543
 21
121.5221842267
  0
LINE
  5
356
100
AcDbEntity
  8
94934430L00_BL0
100
AcDbLine
 62
7
  6
CENTER
 10
40.0656546171
 20
1084.5221842267
 11
32.0652686543
 21
1084.5221842267
  0
LINE
  5
357
100
AcDbEntity
  8
94934430L00_BL0
100
AcDbLine
 62
7
  6
CONTINUOUS
 10
41.0652686543
 20
2121.5221842267
 11
33.0652686543
 21
2121.5221842267
  0
LINE
  5
358
100
AcDbEntity
  8
94934430L00_BL0
100
AcDbLine
 62
7
  6
CONTINUOUS
 10
41.0652686543
 20
72.8735705372
 11
36.0652686543
 21
72.8735705372
  0
LINE
  5
359
100
AcDbEntity
  8
94934430L00_BL0
100
AcDbLine
 62
7
  6
CONTINUOUS
 10
35.5652686543
 20
74.8735705372
 11
41.0652686543
 21
74.8735705372
  0
LINE
  5
35A
100
AcDbEntity
  8
94934430L00_BL0
100
AcDbLine
 62
7
  6
CONTINUOUS
 10
33.0652686543
 20
75.8735705372
 11
33.0652686543
 21
93.8735705372
  0
LINE
  5
35B
100
AcDbEntity
  8
94934430L00_BL0
100
AcDbLine
 62
7
  6
CONTINUOUS
 10
35.0652686543
 20
94.3735705372
 11
35.0652686543
 21
75.3735705372
  0
LINE
  5
35C
100
AcDbEntity
  8
94934430L00_BL0
100
AcDbLine
 62
7
  6
CONTINUOUS
 10
36.5652686543
 20
94.8735705372
 11
36.5652686543
 21
94.7235705372
  0
LINE
  5
35D
100
AcDbEntity
  8
94934430L00_BL0
100
AcDbLine
 62
7
  6
CONTINUOUS
 10
41.0652686543
 20
96.8735705372
 11
41.0652686543
 21
94.8735705372
  0
LINE
  5
35E
100
AcDbEntity
  8
94934430L00_BL0
100
AcDbLine
 62
7
  6
CONTINUOUS
 10
41.0652686543
 20
74.8735705372
 11
41.0652686543
 21
72.8735705372
  0
LINE
  5
35F
100
AcDbEntity
  8
94934430L00_BL0
100
AcDbLine
 62
7
  6
CONTINUOUS
 10
41.0652686543
 20
94.8735705372
 11
35.5652686543
 21
94.8735705372
  0
LINE
  5
360
100
AcDbEntity
  8
94934430L00_BL0
100
AcDbLine
 62
7
  6
CONTINUOUS
 10
36.0652686543
 20
96.8735705372
 11
41.0652686543
 21
96.8735705372
  0
ARC
  5
361
100
AcDbEntity
  8
94934430L00_BL0
100
AcDbCircle
 62
7
  6
CONTINUOUS
 10
136.2830290362
 20
266.5221842267
 40
2.0
100
AcDbArc
 50
90.0
 51
180.0
  0
ARC
  5
362
100
AcDbEntity
  8
94934430L00_BL0
100
AcDbCircle
 62
7
  6
CONTINUOUS
 10
136.2830290362
 20
232.5221842267
 40
2.0
100
AcDbArc
 50
180.0
 51
270.0
  0
ARC
  5
363
100
AcDbEntity
  8
94934430L00_BL0
100
AcDbCircle
 62
7
  6
CONTINUOUS
 10
136.2830290362
 20
1756.5221842267
 40
2.0
100
AcDbArc
 50
90.0
 51
180.0
  0
ARC
  5
364
100
AcDbEntity
  8
94934430L00_BL0
100
AcDbCircle
 62
7
  6
CONTINUOUS
 10
136.2830290362
 20
1722.5221842267
 40
2.0
100
AcDbArc
 50
180.0
 51
270.0
  0
ARC
  5
365
100
AcDbEntity
  8
94934430L00_BL0
100
AcDbCircle
 62
7
  6
CONTINUOUS
 10
140.4684464739
 20
1011.8971842267
 40
0.6
100
AcDbArc
 50
110.3787547774
 51
187.9711829629
  0
ARC
  5
366
100
AcDbEntity
  8
94934430L00_BL0
100
AcDbCircle
 62
7
  6
CONTINUOUS
 10
140.4684464739
 20
1008.6471842267
 40
0.6
100
AcDbArc
 50
171.9884804033
 51
249.6451938548
  0
ARC
  5
367
100
AcDbEntity
  8
94934430L00_BL0
100
AcDbCircle
 62
7
  6
CONTINUOUS
 10
140.4684464739
 20
1064.3971842267
 40
0.6
100
AcDbArc
 50
110.3787547774
 51
187.9711829629
  0
ARC
  5
368
100
AcDbEntity
  8
94934430L00_BL0
100
AcDbCircle
 62
7
  6
CONTINUOUS
 10
140.4684464739
 20
1061.1471842267
 40
0.6
100
AcDbArc
 50
171.9884804032
 51
249.6451938548
  0
CIRCLE
  5
369
100
AcDbEntity
  8
94934430L00_BL0
100
AcDbCircle
 62
7
  6
CONTINUOUS
 10
141.2830290362
 20
291.6221842267
 40
5.65
  0
CIRCLE
  5
36A
100
AcDbEntity
  8
94934430L00_BL0
100
AcDbCircle
 62
7
  6
CONTINUOUS
 10
141.2830290362
 20
211.4221842267
 40
5.65
  0
CIRCLE
  5
36B
100
AcDbEntity
  8
94934430L00_BL0
100
AcDbCircle
 62
7
  6
CONTINUOUS
 10
144.2830290362
 20
309.6221842267
 40
5.2
  0
CIRCLE
  5
36C
100
AcDbEntity
  8
94934430L00_BL0
100
AcDbCircle
 62
7
  6
CONTINUOUS
 10
144.2830290362
 20
193.4221842267
 40
5.2
  0
ARC
  5
36D
100
AcDbEntity
  8
94934430L00_BL0
100
AcDbCircle
 62
7
  6
CONTINUOUS
 10
144.2830290362
 20
309.6221842267
 40
4.9
100
AcDbArc
 50
309.2572747374
 51
310.0052008849
  0
ARC
  5
36E
100
AcDbEntity
  8
94934430L00_BL0
100
AcDbCircle
 62
7
  6
CONTINUOUS
 10
144.2830290362
 20
309.6221842267
 40
4.9
100
AcDbArc
 50
229.9947991151
 51
230.742725294
  0
ARC
  5
36F
100
AcDbEntity
  8
94934430L00_BL0
100
AcDbCircle
 62
7
  6
CONTINUOUS
 10
144.2830290362
 20
309.6221842267
 40
4.9
100
AcDbArc
 50
129.2572747816
 51
130.0052008849
  0
ARC
  5
370
100
AcDbEntity
  8
94934430L00_BL0
100
AcDbCircle
 62
7
  6
CONTINUOUS
 10
144.2830290362
 20
309.6221842267
 40
4.9
100
AcDbArc
 50
49.9947991151
 51
50.7427251226
  0
ARC
  5
371
100
AcDbEntity
  8
94934430L00_BL0
100
AcDbCircle
 62
7
  6
CONTINUOUS
 10
144.2830290362
 20
193.4221842267
 40
4.9
100
AcDbArc
 50
309.2572747374
 51
310.0052008849
  0
ARC
  5
372
100
AcDbEntity
  8
94934430L00_BL0
100
AcDbCircle
 62
7
  6
CONTINUOUS
 10
144.2830290362
 20
193.4221842267
 40
4.9
100
AcDbArc
 50
229.9947991151
 51
230.742725294
  0
ARC
  5
373
100
AcDbEntity
  8
94934430L00_BL0
100
AcDbCircle
 62
7
  6
CONTINUOUS
 10
144.2830290362
 20
193.4221842267
 40
4.9
100
AcDbArc
 50
129.2572747816
 51
130.0052008849
  0
ARC
  5
374
100
AcDbEntity
  8
94934430L00_BL0
100
AcDbCircle
 62
7
  6
CONTINUOUS
 10
144.2830290362
 20
193.4221842267
 40
4.9
100
AcDbArc
 50
49.9947991151
 51
50.7427251226
  0
ARC
  5
375
100
AcDbEntity
  8
94934430L00_BL0
100
AcDbCircle
 62
7
  6
CONTINUOUS
 10
144.2830290362
 20
309.6221842267
 40
3.2
100
AcDbArc
 50
349.8582066343
 51
10.1417933657
  0
ARC
  5
376
100
AcDbEntity
  8
94934430L00_BL0
100
AcDbCircle
 62
7
  6
CONTINUOUS
 10
144.2830290362
 20
309.6221842267
 40
3.2
100
AcDbArc
 50
169.8582066343
 51
190.1417933657
  0
ARC
  5
377
100
AcDbEntity
  8
94934430L00_BL0
100
AcDbCircle
 62
7
  6
CONTINUOUS
 10
144.2830290362
 20
193.4221842267
 40
3.2
100
AcDbArc
 50
349.8582066343
 51
10.1417933657
  0
ARC
  5
378
100
AcDbEntity
  8
94934430L00_BL0
100
AcDbCircle
 62
7
  6
CONTINUOUS
 10
144.2830290362
 20
193.4221842267
 40
3.2
100
AcDbArc
 50
169.8582066343
 51
190.1417933657
  0
CIRCLE
  5
379
100
AcDbEntity
  8
94934430L00_BL0
100
AcDbCircle
 62
7
  6
CONTINUOUS
 10
144.2830290362
 20
511.5221842267
 40
4.15
  0
CIRCLE
  5
37A
100
AcDbEntity
  8
94934430L00_BL0
100
AcDbCircle
 62
7
  6
CONTINUOUS
 10
144.2830290362
 20
511.5221842267
 40
2.6
  0
ARC
  5
37B
100
AcDbEntity
  8
94934430L00_BL0
100
AcDbCircle
 62
7
  6
CONTINUOUS
 10
146.2830290362
 20
232.5221842267
 40
2.0
100
AcDbArc
 50
270.0
 51
360.0
  0
ARC
  5
37C
100
AcDbEntity
  8
94934430L00_BL0
100
AcDbCircle
 62
7
  6
CONTINUOUS
 10
146.2830290362
 20
266.5221842267
 40
2.0
100
AcDbArc
 50
0.0
 51
90.0
  0
CIRCLE
  5
37D
100
AcDbEntity
  8
94934430L00_BL0
100
AcDbCircle
 62
7
  6
CONTINUOUS
 10
144.2830290362
 20
819.6221842267
 40
5.2
  0
CIRCLE
  5
37E
100
AcDbEntity
  8
94934430L00_BL0
100
AcDbCircle
 62
7
  6
CONTINUOUS
 10
144.2830290362
 20
703.4221842267
 40
5.2
  0
ARC
  5
37F
100
AcDbEntity
  8
94934430L00_BL0
100
AcDbCircle
 62
7
  6
CONTINUOUS
 10
144.2830290362
 20
703.4221842267
 40
4.9
100
AcDbArc
 50
129.2584035409
 51
130.0052008849
  0
ARC
  5
380
100
AcDbEntity
  8
94934430L00_BL0
100
AcDbCircle
 62
7
  6
CONTINUOUS
 10
144.2830290362
 20
703.4221842267
 40
4.9
100
AcDbArc
 50
49.9947991151
 51
50.7415964591
  0
ARC
  5
381
100
AcDbEntity
  8
94934430L00_BL0
100
AcDbCircle
 62
7
  6
CONTINUOUS
 10
144.2830290362
 20
703.4221842267
 40
4.9
100
AcDbArc
 50
229.9947991151
 51
230.7415964591
  0
ARC
  5
382
100
AcDbEntity
  8
94934430L00_BL0
100
AcDbCircle
 62
7
  6
CONTINUOUS
 10
144.2830290362
 20
703.4221842267
 40
4.9
100
AcDbArc
 50
309.2584035409
 51
310.0052008849
  0
ARC
  5
383
100
AcDbEntity
  8
94934430L00_BL0
100
AcDbCircle
 62
7
  6
CONTINUOUS
 10
144.2830290362
 20
819.6221842267
 40
4.9
100
AcDbArc
 50
129.2584035409
 51
130.0052008849
  0
ARC
  5
384
100
AcDbEntity
  8
94934430L00_BL0
100
AcDbCircle
 62
7
  6
CONTINUOUS
 10
144.2830290362
 20
819.6221842267
 40
4.9
100
AcDbArc
 50
49.9947991151
 51
50.7415964591
  0
ARC
  5
385
100
AcDbEntity
  8
94934430L00_BL0
100
AcDbCircle
 62
7
  6
CONTINUOUS
 10
144.2830290362
 20
819.6221842267
 40
4.9
100
AcDbArc
 50
229.9947991151
 51
230.7415964591
  0
ARC
  5
386
100
AcDbEntity
  8
94934430L00_BL0
100
AcDbCircle
 62
7
  6
CONTINUOUS
 10
144.2830290362
 20
819.6221842267
 40
4.9
100
AcDbArc
 50
309.2584035409
 51
310.0052008849
  0
ARC
  5
387
100
AcDbEntity
  8
94934430L00_BL0
100
AcDbCircle
 62
7
  6
CONTINUOUS
 10
144.2830290362
 20
703.4221842267
 40
3.2
100
AcDbArc
 50
349.8582066343
 51
10.1417933657
  0
ARC
  5
388
100
AcDbEntity
  8
94934430L00_BL0
100
AcDbCircle
 62
7
  6
CONTINUOUS
 10
144.2830290362
 20
703.4221842267
 40
3.2
100
AcDbArc
 50
169.8582066343
 51
190.1417933657
  0
ARC
  5
389
100
AcDbEntity
  8
94934430L00_BL0
100
AcDbCircle
 62
7
  6
CONTINUOUS
 10
144.2830290362
 20
819.6221842267
 40
3.2
100
AcDbArc
 50
349.8582066343
 51
10.1417933657
  0
ARC
  5
38A
100
AcDbEntity
  8
94934430L00_BL0
100
AcDbCircle
 62
7
  6
CONTINUOUS
 10
144.2830290362
 20
819.6221842267
 40
3.2
100
AcDbArc
 50
169.8582066343
 51
190.1417933657
  0
CIRCLE
  5
38B
100
AcDbEntity
  8
94934430L00_BL0
100
AcDbCircle
 62
7
  6
CONTINUOUS
 10
144.2830290362
 20
988.5221842267
 40
4.15
  0
CIRCLE
  5
38C
100
AcDbEntity
  8
94934430L00_BL0
100
AcDbCircle
 62
7
  6
CONTINUOUS
 10
144.2830290362
 20
988.5221842267
 40
2.6
  0
ARC
  5
38D
100
AcDbEntity
  8
94934430L00_BL0
100
AcDbCircle
 62
7
  6
CONTINUOUS
 10
141.5866614744
 20
1111.5132193443
 40
3.4791460267
100
AcDbArc
 50
353.2243027717
 51
6.7756972283
  0
ARC
  5
38E
100
AcDbEntity
  8
94934430L00_BL0
100
AcDbCircle
 62
7
  6
CONTINUOUS
 10
141.5866614744
 20
1111.5132193443
 40
3.2791460267
100
AcDbArc
 50
349.270634005
 51
10.729365995
  0
ARC
  5
38F
100
AcDbEntity
  8
94934430L00_BL0
100
AcDbCircle
 62
7
  6
CONTINUOUS
 10
141.5285205873
 20
1111.5132193443
 40
3.0698388335
100
AcDbArc
 50
35.854515981
 51
11.4705154501
  0
ARC
  5
390
100
AcDbEntity
  8
94934430L00_BL0
100
AcDbCircle
 62
7
  6
CONTINUOUS
 10
141.5285205873
 20
1111.5132193443
 40
2.8698388335
100
AcDbArc
 50
39.8043394786
 51
8.2233438267
  0
ARC
  5
391
100
AcDbEntity
  8
94934430L00_BL0
100
AcDbCircle
 62
7
  6
CONTINUOUS
 10
141.5285205874
 20
1111.5132193442
 40
1.7581757715
100
AcDbArc
 50
41.898609461
 51
346.4986148308
  0
ARC
  5
392
100
AcDbEntity
  8
94934430L00_BL0
100
AcDbCircle
 62
7
  6
CONTINUOUS
 10
141.5285205873
 20
1111.5132193443
 40
1.5581757715
100
AcDbArc
 50
35.2282226131
 51
336.934010569
  0
ARC
  5
393
100
AcDbEntity
  8
94934430L00_BL0
100
AcDbCircle
 62
7
  6
CONTINUOUS
 10
141.5866614743
 20
1111.5132193443
 40
0.6104793135
100
AcDbArc
 50
90.0
 51
270.0
  0
ARC
  5
394
100
AcDbEntity
  8
94934430L00_BL0
100
AcDbCircle
 62
7
  6
CONTINUOUS
 10
141.5866614743
 20
1111.5132193443
 40
0.4104793135
100
AcDbArc
 50
90.0000000002
 51
270.0
  0
CIRCLE
  5
395
100
AcDbEntity
  8
94934430L00_BL0
100
AcDbCircle
 62
7
  6
CONTINUOUS
 10
143.2830290362
 20
1010.2721842267
 40
3.9
  0
ARC
  5
396
100
AcDbEntity
  8
94934430L00_BL0
100
AcDbCircle
 62
7
  6
CONTINUOUS
 10
143.2830290362
 20
1013.5221842267
 40
0.6
100
AcDbArc
 50
49.2248963634
 51
130.7951842604
  0
ARC
  5
397
100
AcDbEntity
  8
94934430L00_BL0
100
AcDbCircle
 62
7
  6
CONTINUOUS
 10
143.2830290362
 20
1007.0221842267
 40
0.6
100
AcDbArc
 50
229.2248963635
 51
310.7951842604
  0
CIRCLE
  5
398
100
AcDbEntity
  8
94934430L00_BL0
100
AcDbCircle
 62
7
  6
CONTINUOUS
 10
143.2830290362
 20
1062.7721842267
 40
3.9
  0
ARC
  5
399
100
AcDbEntity
  8
94934430L00_BL0
100
AcDbCircle
 62
7
  6
CONTINUOUS
 10
143.2830290362
 20
1066.0221842267
 40
0.6
100
AcDbArc
 50
49.2248963634
 51
130.7951842604
  0
ARC
  5
39A
100
AcDbEntity
  8
94934430L00_BL0
100
AcDbCircle
 62
7
  6
CONTINUOUS
 10
143.2830290362
 20
1059.5221842267
 40
0.6
100
AcDbArc
 50
229.2248963635
 51
310.7951842604
  0
ARC
  5
39B
100
AcDbEntity
  8
94934430L00_BL0
100
AcDbCircle
 62
7
  6
CONTINUOUS
 10
142.8830290362
 20
1346.0221842267
 40
10.5
100
AcDbArc
 50
0.0
 51
90.0
  0
ARC
  5
39C
100
AcDbEntity
  8
94934430L00_BL0
100
AcDbCircle
 62
7
  6
CONTINUOUS
 10
142.8830290362
 20
1177.0221842267
 40
10.5
100
AcDbArc
 50
270.0
 51
360.0
  0
CIRCLE
  5
39D
100
AcDbEntity
  8
94934430L00_BL0
100
AcDbCircle
 62
7
  6
CONTINUOUS
 10
144.2830290362
 20
1084.5221842267
 40
4.15
  0
CIRCLE
  5
39E
100
AcDbEntity
  8
94934430L00_BL0
100
AcDbCircle
 62
7
  6
CONTINUOUS
 10
144.2830290362
 20
1084.5221842267
 40
2.6
  0
CIRCLE
  5
39F
100
AcDbEntity
  8
94934430L00_BL0
100
AcDbCircle
 62
7
  6
CONTINUOUS
 10
144.2830290362
 20
1201.5221842267
 40
2.25
  0
CIRCLE
  5
3A0
100
AcDbEntity
  8
94934430L00_BL0
100
AcDbCircle
 62
7
  6
CONTINUOUS
 10
144.2830290362
 20
1321.5221842267
 40
2.25
  0
CIRCLE
  5
3A1
100
AcDbEntity
  8
94934430L00_BL0
100
AcDbCircle
 62
7
  6
CONTINUOUS
 10
144.2830290362
 20
1273.5221842267
 40
2.25
  0
CIRCLE
  5
3A2
100
AcDbEntity
  8
94934430L00_BL0
100
AcDbCircle
 62
7
  6
CONTINUOUS
 10
141.2830290362
 20
1781.6221842267
 40
5.65
  0
CIRCLE
  5
3A3
100
AcDbEntity
  8
94934430L00_BL0
100
AcDbCircle
 62
7
  6
CONTINUOUS
 10
141.2830290362
 20
1701.4221842267
 40
5.65
  0
CIRCLE
  5
3A4
100
AcDbEntity
  8
94934430L00_BL0
100
AcDbCircle
 62
7
  6
CONTINUOUS
 10
144.2830290362
 20
1561.5221842267
 40
5.2
  0
CIRCLE
  5
3A5
100
AcDbEntity
  8
94934430L00_BL0
100
AcDbCircle
 62
7
  6
CONTINUOUS
 10
144.2830290362
 20
1411.0221842267
 40
5.2
  0
ARC
  5
3A6
100
AcDbEntity
  8
94934430L00_BL0
100
AcDbCircle
 62
7
  6
CONTINUOUS
 10
144.2830290362
 20
1561.5221842267
 40
4.9
100
AcDbArc
 50
129.2584035409
 51
130.0052008849
  0
ARC
  5
3A7
100
AcDbEntity
  8
94934430L00_BL0
100
AcDbCircle
 62
7
  6
CONTINUOUS
 10
144.2830290362
 20
1561.5221842267
 40
4.9
100
AcDbArc
 50
49.9947991151
 51
50.7415964591
  0
ARC
  5
3A8
100
AcDbEntity
  8
94934430L00_BL0
100
AcDbCircle
 62
7
  6
CONTINUOUS
 10
144.2830290362
 20
1561.5221842267
 40
4.9
100
AcDbArc
 50
229.9947991151
 51
230.7415964591
  0
ARC
  5
3A9
100
AcDbEntity
  8
94934430L00_BL0
100
AcDbCircle
 62
7
  6
CONTINUOUS
 10
144.2830290362
 20
1561.5221842267
 40
4.9
100
AcDbArc
 50
309.2584035409
 51
310.0052008849
  0
ARC
  5
3AA
100
AcDbEntity
  8
94934430L00_BL0
100
AcDbCircle
 62
7
  6
CONTINUOUS
 10
144.2830290362
 20
1411.0221842267
 40
4.9
100
AcDbArc
 50
129.2584035409
 51
130.0052008849
  0
ARC
  5
3AB
100
AcDbEntity
  8
94934430L00_BL0
100
AcDbCircle
 62
7
  6
CONTINUOUS
 10
144.2830290362
 20
1411.0221842267
 40
4.9
100
AcDbArc
 50
49.9947991151
 51
50.7415964591
  0
ARC
  5
3AC
100
AcDbEntity
  8
94934430L00_BL0
100
AcDbCircle
 62
7
  6
CONTINUOUS
 10
144.2830290362
 20
1411.0221842267
 40
4.9
100
AcDbArc
 50
229.9947991151
 51
230.7415964591
  0
ARC
  5
3AD
100
AcDbEntity
  8
94934430L00_BL0
100
AcDbCircle
 62
7
  6
CONTINUOUS
 10
144.2830290362
 20
1411.0221842267
 40
4.9
100
AcDbArc
 50
309.2584035409
 51
310.0052008849
  0
ARC
  5
3AE
100
AcDbEntity
  8
94934430L00_BL0
100
AcDbCircle
 62
7
  6
CONTINUOUS
 10
144.2830290362
 20
1561.5221842267
 40
3.2
100
AcDbArc
 50
349.8582066343
 51
10.1417933657
  0
ARC
  5
3AF
100
AcDbEntity
  8
94934430L00_BL0
100
AcDbCircle
 62
7
  6
CONTINUOUS
 10
144.2830290362
 20
1561.5221842267
 40
3.2
100
AcDbArc
 50
169.8582066343
 51
190.1417933657
  0
ARC
  5
3B0
100
AcDbEntity
  8
94934430L00_BL0
100
AcDbCircle
 62
7
  6
CONTINUOUS
 10
144.2830290362
 20
1411.0221842267
 40
3.2
100
AcDbArc
 50
349.8582066343
 51
10.1417933657
  0
ARC
  5
3B1
100
AcDbEntity
  8
94934430L00_BL0
100
AcDbCircle
 62
7
  6
CONTINUOUS
 10
144.2830290362
 20
1411.0221842267
 40
3.2
100
AcDbArc
 50
169.8582066343
 51
190.1417933657
  0
CIRCLE
  5
3B2
100
AcDbEntity
  8
94934430L00_BL0
100
AcDbCircle
 62
7
  6
CONTINUOUS
 10
144.2830290362
 20
1640.5221842267
 40
5.2
  0
CIRCLE
  5
3B3
100
AcDbEntity
  8
94934430L00_BL0
100
AcDbCircle
 62
7
  6
CONTINUOUS
 10
144.2830290362
 20
1799.6221842267
 40
5.2
  0
ARC
  5
3B4
100
AcDbEntity
  8
94934430L00_BL0
100
AcDbCircle
 62
7
  6
CONTINUOUS
 10
144.2830290362
 20
1640.5221842267
 40
4.9
100
AcDbArc
 50
129.2584035409
 51
130.0052008849
  0
ARC
  5
3B5
100
AcDbEntity
  8
94934430L00_BL0
100
AcDbCircle
 62
7
  6
CONTINUOUS
 10
144.2830290362
 20
1640.5221842267
 40
4.9
100
AcDbArc
 50
49.9947991151
 51
50.7415964591
  0
ARC
  5
3B6
100
AcDbEntity
  8
94934430L00_BL0
100
AcDbCircle
 62
7
  6
CONTINUOUS
 10
144.2830290362
 20
1640.5221842267
 40
4.9
100
AcDbArc
 50
229.9947991151
 51
230.7415964591
  0
ARC
  5
3B7
100
AcDbEntity
  8
94934430L00_BL0
100
AcDbCircle
 62
7
  6
CONTINUOUS
 10
144.2830290362
 20
1640.5221842267
 40
4.9
100
AcDbArc
 50
309.2584035409
 51
310.0052008849
  0
ARC
  5
3B8
100
AcDbEntity
  8
94934430L00_BL0
100
AcDbCircle
 62
7
  6
CONTINUOUS
 10
144.2830290362
 20
1799.6221842267
 40
4.9
100
AcDbArc
 50
129.2584035409
 51
130.0052008849
  0
ARC
  5
3B9
100
AcDbEntity
  8
94934430L00_BL0
100
AcDbCircle
 62
7
  6
CONTINUOUS
 10
144.2830290362
 20
1799.6221842267
 40
4.9
100
AcDbArc
 50
49.9947991151
 51
50.7415964591
  0
ARC
  5
3BA
100
AcDbEntity
  8
94934430L00_BL0
100
AcDbCircle
 62
7
  6
CONTINUOUS
 10
144.2830290362
 20
1799.6221842267
 40
4.9
100
AcDbArc
 50
229.9947991151
 51
230.7415964591
  0
ARC
  5
3BB
100
AcDbEntity
  8
94934430L00_BL0
100
AcDbCircle
 62
7
  6
CONTINUOUS
 10
144.2830290362
 20
1799.6221842267
 40
4.9
100
AcDbArc
 50
309.2584035409
 51
310.0052008849
  0
ARC
  5
3BC
100
AcDbEntity
  8
94934430L00_BL0
100
AcDbCircle
 62
7
  6
CONTINUOUS
 10
144.2830290362
 20
1640.5221842267
 40
3.2
100
AcDbArc
 50
349.8582066343
 51
10.1417933657
  0
ARC
  5
3BD
100
AcDbEntity
  8
94934430L00_BL0
100
AcDbCircle
 62
7
  6
CONTINUOUS
 10
144.2830290362
 20
1640.5221842267
 40
3.2
100
AcDbArc
 50
169.8582066343
 51
190.1417933657
  0
ARC
  5
3BE
100
AcDbEntity
  8
94934430L00_BL0
100
AcDbCircle
 62
7
  6
CONTINUOUS
 10
144.2830290362
 20
1799.6221842267
 40
3.2
100
AcDbArc
 50
349.8582066343
 51
10.1417933657
  0
ARC
  5
3BF
100
AcDbEntity
  8
94934430L00_BL0
100
AcDbCircle
 62
7
  6
CONTINUOUS
 10
144.2830290362
 20
1799.6221842267
 40
3.2
100
AcDbArc
 50
169.8582066343
 51
190.1417933657
  0
ARC
  5
3C0
100
AcDbEntity
  8
94934430L00_BL0
100
AcDbCircle
 62
7
  6
CONTINUOUS
 10
147.9937872215
 20
1110.5829651523
 40
2.1628409963
100
AcDbArc
 50
180.0
 51
360.0
  0
ARC
  5
3C1
100
AcDbEntity
  8
94934430L00_BL0
100
AcDbCircle
 62
7
  6
CONTINUOUS
 10
147.9937872214
 20
1110.5829651523
 40
1.9628409963
100
AcDbArc
 50
180.0
 51
360.0
  0
ARC
  5
3C2
100
AcDbEntity
  8
94934430L00_BL0
100
AcDbCircle
 62
7
  6
CONTINUOUS
 10
147.9937872215
 20
1110.5829651523
 40
0.8511779344
100
AcDbArc
 50
180.0
 51
360.0
  0
ARC
  5
3C3
100
AcDbEntity
  8
94934430L00_BL0
100
AcDbCircle
 62
7
  6
CONTINUOUS
 10
147.9937872214
 20
1110.5829651523
 40
0.6511779344
100
AcDbArc
 50
180.0
 51
360.0
  0
ARC
  5
3C4
100
AcDbEntity
  8
94934430L00_BL0
100
AcDbCircle
 62
7
  6
CONTINUOUS
 10
146.0976115985
 20
1011.8971842267
 40
0.6
100
AcDbArc
 50
351.9884804032
 51
69.6451938549
  0
ARC
  5
3C5
100
AcDbEntity
  8
94934430L00_BL0
100
AcDbCircle
 62
7
  6
CONTINUOUS
 10
146.0976115985
 20
1008.6471842267
 40
0.6
100
AcDbArc
 50
290.3787547774
 51
7.9711829628
  0
ARC
  5
3C6
100
AcDbEntity
  8
94934430L00_BL0
100
AcDbCircle
 62
7
  6
CONTINUOUS
 10
146.0976115985
 20
1064.3971842267
 40
0.6
100
AcDbArc
 50
351.9884804032
 51
69.6451938549
  0
ARC
  5
3C7
100
AcDbEntity
  8
94934430L00_BL0
100
AcDbCircle
 62
7
  6
CONTINUOUS
 10
146.0976115985
 20
1061.1471842267
 40
0.6
100
AcDbArc
 50
290.3787547774
 51
7.9711829629
  0
ARC
  5
3C8
100
AcDbEntity
  8
94934430L00_BL0
100
AcDbCircle
 62
7
  6
CONTINUOUS
 10
146.2830290362
 20
1722.5221842267
 40
2.0
100
AcDbArc
 50
270.0
 51
360.0
  0
ARC
  5
3C9
100
AcDbEntity
  8
94934430L00_BL0
100
AcDbCircle
 62
7
  6
CONTINUOUS
 10
146.2830290362
 20
1756.5221842267
 40
2.0
100
AcDbArc
 50
0.0
 51
90.0
  0
ARC
  5
3CA
100
AcDbEntity
  8
94934430L00_BL0
100
AcDbCircle
 62
7
  6
CONTINUOUS
 10
36.0652686543
 20
75.8735705372
 40
3.0
100
AcDbArc
 50
180.0
 51
270.0
  0
ARC
  5
3CB
100
AcDbEntity
  8
94934430L00_BL0
100
AcDbCircle
 62
7
  6
CONTINUOUS
 10
36.0652686543
 20
93.8735705372
 40
3.0
100
AcDbArc
 50
90.0
 51
180.0
  0
ARC
  5
3CC
100
AcDbEntity
  8
94934430L00_BL0
100
AcDbCircle
 62
7
  6
CONTINUOUS
 10
35.5652686543
 20
94.3735705372
 40
0.5
100
AcDbArc
 50
90.0
 51
180.0
  0
ARC
  5
3CD
100
AcDbEntity
  8
94934430L00_BL0
100
AcDbCircle
 62
7
  6
CONTINUOUS
 10
35.5652686543
 20
75.3735705372
 40
0.5
100
AcDbArc
 50
180.0
 51
270.0
  0
ENDBLK
  5
3CE
100
AcDbEntity
  8
0
  6
BYBLOCK
 62
0
100
AcDbBlockEnd
  0
BLOCK
  5
3CF
100
AcDbEntity
  8
94944601000_M2_BL1
100
AcDbBlockBegin
  2
94944601000_M2_BL1
 70
64
 10
91.2741488453
 20
193.4221842267
  3
94944601000_M2_BL1
  1

  0
LINE
  5
3D0
100
AcDbEntity
  8
94944601000_M2_BL1
100
AcDbLine
 62
7
  6
CENTER
 10
144.2830290362
 20
193.4221842267
 11
136.0830290362
 21
193.4221842267
  0
LINE
  5
3D1
100
AcDbEntity
  8
94944601000_M2_BL1
100
AcDbLine
 62
7
  6
CENTER
 10
144.2830290362
 20
193.4221842267
 11
152.4830290362
 21
193.4221842267
  0
LINE
  5
3D2
100
AcDbEntity
  8
94944601000_M2_BL1
100
AcDbLine
 62
7
  6
CONTINUOUS
 10
141.1830290362
 20
189.2472590776
 11
141.1830290362
 21
197.5971093757
  0
LINE
  5
3D3
100
AcDbEntity
  8
94944601000_M2_BL1
100
AcDbLine
 62
7
  6
CENTER
 10
144.2830290362
 20
193.4221842267
 11
144.2830290362
 21
185.2221842267
  0
LINE
  5
3D4
100
AcDbEntity
  8
94944601000_M2_BL1
100
AcDbLine
 62
7
  6
CENTER
 10
144.2830290362
 20
193.4221842267
 11
144.2830290362
 21
201.6221842267
  0
LINE
  5
3D5
100
AcDbEntity
  8
94944601000_M2_BL1
100
AcDbLine
 62
7
  6
CONTINUOUS
 10
147.3830290362
 20
189.2472590776
 11
147.3830290362
 21
197.5971093757
  0
LINE
  5
3D6
100
AcDbEntity
  8
94944601000_M2_BL1
100
AcDbLine
 62
7
  6
CENTER
 10
44.0652686543
 20
193.4221842267
 11
30.0652686543
 21
193.4221842267
  0
ARC
  5
3D7
100
AcDbEntity
  8
94944601000_M2_BL1
100
AcDbCircle
 62
7
  6
CONTINUOUS
 10
144.2830290362
 20
193.4221842267
 40
5.2
100
AcDbArc
 50
233.4050690444
 51
306.5949309556
  0
ARC
  5
3D8
100
AcDbEntity
  8
94944601000_M2_BL1
100
AcDbCircle
 62
7
  6
CONTINUOUS
 10
144.2830290362
 20
193.4221842267
 40
5.2
100
AcDbArc
 50
53.4050690444
 51
126.5949309556
  0
ARC
  5
3D9
100
AcDbEntity
  8
94944601000_M2_BL1
100
AcDbCircle
 62
7
  6
CONTINUOUS
 10
144.2830290362
 20
193.4221842267
 40
3.2812557855
100
AcDbArc
 50
199.1330091787
 51
340.8669908213
  0
ARC
  5
3DA
100
AcDbEntity
  8
94944601000_M2_BL1
100
AcDbCircle
 62
7
  6
CONTINUOUS
 10
144.2830290362
 20
193.4221842267
 40
3.2812557855
100
AcDbArc
 50
19.1330091787
 51
160.8669908213
  0
CIRCLE
  5
3DB
100
AcDbEntity
  8
94944601000_M2_BL1
100
AcDbCircle
 62
7
  6
CONTINUOUS
 10
144.2830290362
 20
193.4221842267
 40
2.6
  0
ENDBLK
  5
3DC
100
AcDbEntity
  8
0
  6
BYBLOCK
 62
0
100
AcDbBlockEnd
  0
BLOCK
  5
3DD
100
AcDbEntity
  8
94528905000_BL2
100
AcDbBlockBegin
  2
94528905000_BL2
 70
64
 10
93.9241488453
 20
211.4221842267
  3
94528905000_BL2
  1

  0
LINE
  5
3DE
100
AcDbEntity
  8
94528905000_BL2
100
AcDbLine
 62
7
  6
CONTINUOUS
 10
140.4080290362
 20
208.90663977
 11
142.1580290362
 21
208.90663977
  0
LINE
  5
3DF
100
AcDbEntity
  8
94528905000_BL2
100
AcDbLine
 62
7
  6
CONTINUOUS
 10
142.1580290362
 20
211.9377286833
 11
140.4080290362
 21
211.9377286833
  0
LINE
  5
3E0
100
AcDbEntity
  8
94528905000_BL2
100
AcDbLine
 62
7
  6
CONTINUOUS
 10
139.5330290362
 20
210.4221842267
 11
140.4080290362
 21
208.90663977
  0
LINE
  5
3E1
100
AcDbEntity
  8
94528905000_BL2
100
AcDbLine
 62
7
  6
CONTINUOUS
 10
143.0330290362
 20
210.4221842267
 11
142.1580290362
 21
211.9377286833
  0
LINE
  5
3E2
100
AcDbEntity
  8
94528905000_BL2
100
AcDbLine
 62
7
  6
CONTINUOUS
 10
140.4080290362
 20
211.9377286833
 11
139.5330290362
 21
210.4221842267
  0
LINE
  5
3E3
100
AcDbEntity
  8
94528905000_BL2
100
AcDbLine
 62
7
  6
CONTINUOUS
 10
142.1580290362
 20
208.90663977
 11
143.0330290362
 21
210.4221842267
  0
LINE
  5
3E4
100
AcDbEntity
  8
94528905000_BL2
100
AcDbLine
 62
7
  6
CONTINUOUS
 10
42.5652686543
 20
208.7561588229
 11
42.0652686543
 21
208.6221842267
  0
LINE
  5
3E5
100
AcDbEntity
  8
94528905000_BL2
100
AcDbLine
 62
7
  6
CONTINUOUS
 10
42.0652686543
 20
208.6221842267
 11
41.0652686543
 21
208.6221842267
  0
LINE
  5
3E6
100
AcDbEntity
  8
94528905000_BL2
100
AcDbLine
 62
7
  6
CONTINUOUS
 10
42.0652686543
 20
212.2221842267
 11
41.0652686543
 21
212.2221842267
  0
LINE
  5
3E7
100
AcDbEntity
  8
94528905000_BL2
100
AcDbLine
 62
7
  6
CONTINUOUS
 10
42.5652686543
 20
212.0882096304
 11
42.0652686543
 21
212.2221842267
  0
LINE
  5
3E8
100
AcDbEntity
  8
94528905000_BL2
100
AcDbLine
 62
7
  6
CONTINUOUS
 10
42.0652686543
 20
208.6221842267
 11
42.0652686543
 21
212.2221842267
  0
LINE
  5
3E9
100
AcDbEntity
  8
94528905000_BL2
100
AcDbLine
 62
7
  6
CONTINUOUS
 10
42.5652686543
 20
208.7561588229
 11
42.5652686543
 21
212.0882096304
  0
CIRCLE
  5
3EA
100
AcDbEntity
  8
94528905000_BL2
100
AcDbCircle
 62
7
  6
CONTINUOUS
 10
141.2830290362
 20
211.4221842267
 40
5.5
  0
CIRCLE
  5
3EB
100
AcDbEntity
  8
94528905000_BL2
100
AcDbCircle
 62
7
  6
CONTINUOUS
 10
141.2830290362
 20
210.4221842267
 40
1.75
  0
CIRCLE
  5
3EC
100
AcDbEntity
  8
94528905000_BL2
100
AcDbCircle
 62
7
  6
CONTINUOUS
 10
141.2830290362
 20
210.4221842267
 40
1.515
  0
CIRCLE
  5
3ED
100
AcDbEntity
  8
94528905000_BL2
100
AcDbCircle
 62
7
  6
CONTINUOUS
 10
141.2830290362
 20
213.9221842267
 40
0.75
  0
ENDBLK
  5
3EE
100
AcDbEntity
  8
0
  6
BYBLOCK
 62
0
100
AcDbBlockEnd
  0
BLOCK
  5
3EF
100
AcDbEntity
  8
94621099000_BL3
100
AcDbBlockBegin
  2
94621099000_BL3
 70
64
 10
92.4046438802
 20
251.5221842267
  3
94621099000_BL3
  1

  0
LINE
  5
3F0
100
AcDbEntity
  8
94621099000_BL3
100
AcDbLine
 62
7
  6
CENTER
 10
152.7440191061
 20
251.5221842267
 11
131.3220389664
 21
251.5221842267
  0
LINE
  5
3F1
100
AcDbEntity
  8
94621099000_BL3
100
AcDbLine
 62
7
  6
CONTINUOUS
 10
135.2830290362
 20
268.2542350342
 11
135.2830290362
 21
230.7901334191
  0
LINE
  5
3F2
100
AcDbEntity
  8
94621099000_BL3
100
AcDbLine
 62
7
  6
CONTINUOUS
 10
135.8830290362
 20
230.5629162356
 11
135.8830290362
 21
268.4814522177
  0
LINE
  5
3F3
100
AcDbEntity
  8
94621099000_BL3
100
AcDbLine
 62
7
  6
CONTINUOUS
 10
136.6830290362
 20
230.5221842267
 11
136.6830290362
 21
268.5221842267
  0
LINE
  5
3F4
100
AcDbEntity
  8
94621099000_BL3
100
AcDbLine
 62
9
  6
CONTINUOUS
 10
137.6958226932
 20
230.5221842267
 11
137.6958226932
 21
268.5221842267
  0
LINE
  5
3F5
100
AcDbEntity
  8
94621099000_BL3
100
AcDbLine
 62
9
  6
CONTINUOUS
 10
138.2925358304
 20
230.5221842267
 11
138.2925358304
 21
268.5221842267
  0
LINE
  5
3F6
100
AcDbEntity
  8
94621099000_BL3
100
AcDbLine
 62
7
  6
CENTER
 10
141.2830290362
 20
200.5221842267
 11
141.2830290362
 21
302.5221842267
  0
LINE
  5
3F7
100
AcDbEntity
  8
94621099000_BL3
100
AcDbLine
 62
9
  6
CONTINUOUS
 10
145.7735222421
 20
268.5221842267
 11
145.7735222421
 21
230.5221842267
  0
LINE
  5
3F8
100
AcDbEntity
  8
94621099000_BL3
100
AcDbLine
 62
9
  6
CONTINUOUS
 10
146.3702353793
 20
268.5221842267
 11
146.3702353793
 21
230.5221842267
  0
LINE
  5
3F9
100
AcDbEntity
  8
94621099000_BL3
100
AcDbLine
 62
7
  6
CONTINUOUS
 10
147.3830290362
 20
268.192036484
 11
147.3830290362
 21
230.8523319693
  0
LINE
  5
3FA
100
AcDbEntity
  8
94621099000_BL3
100
AcDbLine
 62
7
  6
CONTINUOUS
 10
148.1830290362
 20
267.1447834869
 11
148.1830290362
 21
231.8995849664
  0
LINE
  5
3FB
100
AcDbEntity
  8
94621099000_BL3
100
AcDbLine
 62
7
  6
CONTINUOUS
 10
55.1699405668
 20
220.7975826487
 11
41.5129326981
 21
220.0818491947
  0
LINE
  5
3FC
100
AcDbEntity
  8
94621099000_BL3
100
AcDbLine
 62
9
  6
CONTINUOUS
 10
55.2743255809
 20
222.7948417183
 11
45.565553397
 21
222.2860265285
  0
LINE
  5
3FD
100
AcDbEntity
  8
94621099000_BL3
100
AcDbLine
 62
9
  6
CONTINUOUS
 10
45.5652686543
 20
222.2969678151
 11
41.5652739938
 21
222.0873369778
  0
LINE
  5
3FE
100
AcDbEntity
  8
94621099000_BL3
100
AcDbLine
 62
9
  6
CONTINUOUS
 10
55.2743255809
 20
222.7948417183
 11
57.0652686543
 21
222.7948417183
  0
LINE
  5
3FF
100
AcDbEntity
  8
94621099000_BL3
100
AcDbLine
 62
7
  6
CENTER
 10
32.0652686543
 20
251.5221842267
 11
60.0652686543
 21
251.5221842267
  0
LINE
  5
400
100
AcDbEntity
  8
94621099000_BL3
100
AcDbLine
 62
9
  6
CONTINUOUS
 10
55.2743255809
 20
280.2495267351
 11
57.0652686543
 21
280.2495267351
  0
LINE
  5
401
100
AcDbEntity
  8
94621099000_BL3
100
AcDbLine
 62
9
  6
CONTINUOUS
 10
41.5733184357
 20
280.9566098842
 11
45.5652686543
 21
280.7474006382
  0
LINE
  5
402
100
AcDbEntity
  8
94621099000_BL3
100
AcDbLine
 62
9
  6
CONTINUOUS
 10
45.565553397
 20
280.7583419248
 11
55.2743255809
 21
280.2495267351
  0
LINE
  5
403
100
AcDbEntity
  8
94621099000_BL3
100
AcDbLine
 62
7
  6
CONTINUOUS
 10
41.5129326981
 20
282.9625192586
 11
55.1699405668
 21
282.2467858046
  0
LWPOLYLINE
  5
404
100
AcDbEntity
  8
94621099000_BL3
100
AcDbPolyline
 62
7
  6
CONTINUOUS
 90
13
 70
0
 10
45.5651250083
 20
282.7501528584
 10
45.577710468
 20
282.732507436
 10
45.5885300663
 20
282.6812614238
 10
45.5970698999
 20
282.5972880993
 10
45.6032835492
 20
282.4819920522
 10
45.6070836925
 20
282.3373128797
 10
45.6083802524
 20
282.1656953573
 10
45.6071788774
 20
281.9700400133
 10
45.6034656241
 20
281.7536640522
 10
45.5973391939
 20
281.5202360779
 10
45.5888629685
 20
281.2737216719
 10
45.5782381262
 20
281.018307862
 10
45.565553397
 20
280.7583419248
  0
LWPOLYLINE
  5
405
100
AcDbEntity
  8
94621099000_BL3
100
AcDbPolyline
 62
7
  6
CONTINUOUS
 90
7
 70
0
 10
41.0652686543
 20
281.7026799629
 10
41.1447860773
 20
281.5742205813
 10
41.2271415969
 20
281.4469571243
 10
41.3109569962
 20
281.3210834889
 10
41.3966058225
 20
281.1971433141
 10
41.4840560807
 20
281.0757165516
 10
41.5733184357
 20
280.9566098842
  0
LINE
  5
406
100
AcDbEntity
  8
94621099000_BL3
100
AcDbLine
 62
9
  6
CONTINUOUS
 10
41.565263637
 20
280.9570320183
 11
41.5129326981
 21
282.9625192586
  0
LINE
  5
407
100
AcDbEntity
  8
94621099000_BL3
100
AcDbLine
 62
7
  6
CONTINUOUS
 10
45.5652686543
 20
222.2969678151
 11
45.5652686543
 21
280.7474006382
  0
LINE
  5
408
100
AcDbEntity
  8
94621099000_BL3
100
AcDbLine
 62
9
  6
CONTINUOUS
 10
55.2743255809
 20
222.7948417183
 11
55.2743255809
 21
280.2495267351
  0
LINE
  5
409
100
AcDbEntity
  8
94621099000_BL3
100
AcDbLine
 62
7
  6
CONTINUOUS
 10
57.0652686543
 20
222.7948417183
 11
57.0652686543
 21
280.2495267351
  0
LINE
  5
40A
100
AcDbEntity
  8
94621099000_BL3
100
AcDbLine
 62
9
  6
CONTINUOUS
 10
41.5129326981
 20
220.0818491947
 11
41.5652636371
 21
222.087336435
  0
LWPOLYLINE
  5
40B
100
AcDbEntity
  8
94621099000_BL3
100
AcDbPolyline
 62
9
  6
CONTINUOUS
 90
15
 70
0
 10
55.2743255809
 20
280.2495267351
 10
55.2845665277
 20
280.4721797737
 10
55.2920749774
 20
280.6921551261
 10
55.2967535447
 20
280.9067262075
 10
55.2985398582
 20
281.1131332668
 10
55.2974110039
 20
281.3087266192
 10
55.2933825737
 20
281.4910861239
 10
55.2865058785
 20
281.6579333024
 10
55.2768678243
 20
281.8071834891
 10
55.2645934075
 20
281.9369716898
 10
55.2498264523
 20
282.0456768114
 10
55.2327383253
 20
282.1319483856
 10
55.2135576844
 20
282.1946867508
 10
55.1925383815
 20
282.2331140066
 10
55.1699405668
 20
282.2467858046
  0
LWPOLYLINE
  5
40C
100
AcDbEntity
  8
94621099000_BL3
100
AcDbPolyline
 62
7
  6
CONTINUOUS
 90
7
 70
0
 10
41.5652739938
 20
222.0873369778
 10
41.4783854429
 20
221.9646916413
 10
41.3924687387
 20
221.8412479851
 10
41.3072768482
 20
221.7171582321
 10
41.2235508697
 20
221.5919657131
 10
41.14170818
 20
221.465310524
 10
41.0652686543
 20
221.3415799865
  0
LWPOLYLINE
  5
40D
100
AcDbEntity
  8
94621099000_BL3
100
AcDbPolyline
 62
7
  6
CONTINUOUS
 90
13
 70
0
 10
45.5651250083
 20
220.2942155949
 10
45.5779347321
 20
220.3118727705
 10
45.5885300663
 20
220.3631070296
 10
45.5970615077
 20
220.4470799142
 10
45.6032835492
 20
220.5623764011
 10
45.6070701856
 20
220.7070548658
 10
45.6083802524
 20
220.8786730961
 10
45.6071611385
 20
221.0743275103
 10
45.6034656241
 20
221.2907044011
 10
45.5973184363
 20
221.5241312875
 10
45.5888629685
 20
221.7706467815
 10
45.5781838306
 20
222.0260577458
 10
45.565553397
 20
222.2860265285
  0
LWPOLYLINE
  5
40E
100
AcDbEntity
  8
94621099000_BL3
100
AcDbPolyline
 62
9
  6
CONTINUOUS
 90
15
 70
0
 10
55.1699405668
 20
220.7975826487
 10
55.1925383815
 20
220.8112544467
 10
55.2135576844
 20
220.8496817025
 10
55.2327383253
 20
220.9124200677
 10
55.2498264523
 20
220.9986916419
 10
55.2645934075
 20
221.1073967635
 10
55.2768678243
 20
221.2371849642
 10
55.2865058785
 20
221.3864351509
 10
55.2933825737
 20
221.5532823294
 10
55.2974110039
 20
221.7356418341
 10
55.2985398582
 20
221.9312351865
 10
55.2967535447
 20
222.1376422458
 10
55.2920749774
 20
222.3522133272
 10
55.2845665277
 20
222.5721886796
 10
55.2743255809
 20
222.7948417183
  0
ARC
  5
40F
100
AcDbEntity
  8
94621099000_BL3
100
AcDbCircle
 62
7
  6
CONTINUOUS
 10
41.5652686543
 20
283.9610955005
 40
0.9999822601
100
AcDbArc
 50
239.95920879
 51
266.9998401859
  0
ARC
  5
410
100
AcDbEntity
  8
94621099000_BL3
100
AcDbCircle
 62
7
  6
CONTINUOUS
 10
41.5652686543
 20
219.0832729528
 40
0.9999822601
100
AcDbArc
 50
93.0001598141
 51
120.0407896401
  0
ARC
  5
411
100
AcDbEntity
  8
94621099000_BL3
100
AcDbCircle
 62
7
  6
CONTINUOUS
 10
55.0652686543
 20
280.2495267351
 40
2.0
100
AcDbArc
 50
0.0
 51
87.0
  0
ARC
  5
412
100
AcDbEntity
  8
94621099000_BL3
100
AcDbCircle
 62
7
  6
CONTINUOUS
 10
55.0652686543
 20
222.7948417183
 40
2.0
100
AcDbArc
 50
273.0
 51
360.0
  0
ELLIPSE
  5
413
100
AcDbEntity
  8
94621099000_BL3
100
AcDbEllipse
 62
7
  6
CONTINUOUS
 10
64.5939975628
 20
223.2942212397
 30
0.0
 11
19.02843458
 21
1.0083771
 31
0.0
 40
0.1049569824
 41
3.1360307076
 42
3.1415013319
  0
ELLIPSE
  5
414
100
AcDbEntity
  8
94621099000_BL3
100
AcDbEllipse
 62
7
  6
CONTINUOUS
 10
64.5939975628
 20
279.7501472136
 30
0.0
 11
19.02843458
 21
-1.0083771
 31
0.0
 40
0.1049569824
 41
-3.1415013319
 42
-3.1360307076
  0
ENDBLK
  5
415
100
AcDbEntity
  8
0
  6
BYBLOCK
 62
0
100
AcDbBlockEnd
  0
BLOCK
  5
416
100
AcDbEntity
  8
94528905000_BL4
100
AcDbBlockBegin
  2
94528905000_BL4
 70
64
 10
93.9241488453
 20
291.6221842267
  3
94528905000_BL4
  1

  0
LINE
  5
417
100
AcDbEntity
  8
94528905000_BL4
100
AcDbLine
 62
7
  6
CONTINUOUS
 10
140.4080290362
 20
291.10663977
 11
142.1580290362
 21
291.10663977
  0
LINE
  5
418
100
AcDbEntity
  8
94528905000_BL4
100
AcDbLine
 62
7
  6
CONTINUOUS
 10
142.1580290362
 20
294.1377286833
 11
140.4080290362
 21
294.1377286833
  0
LINE
  5
419
100
AcDbEntity
  8
94528905000_BL4
100
AcDbLine
 62
7
  6
CONTINUOUS
 10
139.5330290362
 20
292.6221842267
 11
140.4080290362
 21
291.10663977
  0
LINE
  5
41A
100
AcDbEntity
  8
94528905000_BL4
100
AcDbLine
 62
7
  6
CONTINUOUS
 10
143.0330290362
 20
292.6221842267
 11
142.1580290362
 21
294.1377286833
  0
LINE
  5
41B
100
AcDbEntity
  8
94528905000_BL4
100
AcDbLine
 62
7
  6
CONTINUOUS
 10
140.4080290362
 20
294.1377286833
 11
139.5330290362
 21
292.6221842267
  0
LINE
  5
41C
100
AcDbEntity
  8
94528905000_BL4
100
AcDbLine
 62
7
  6
CONTINUOUS
 10
142.1580290362
 20
291.10663977
 11
143.0330290362
 21
292.6221842267
  0
LINE
  5
41D
100
AcDbEntity
  8
94528905000_BL4
100
AcDbLine
 62
7
  6
CONTINUOUS
 10
42.5652686543
 20
290.9561588229
 11
42.0652686543
 21
290.8221842267
  0
LINE
  5
41E
100
AcDbEntity
  8
94528905000_BL4
100
AcDbLine
 62
7
  6
CONTINUOUS
 10
42.0652686543
 20
290.8221842267
 11
41.0652686543
 21
290.8221842267
  0
LINE
  5
41F
100
AcDbEntity
  8
94528905000_BL4
100
AcDbLine
 62
7
  6
CONTINUOUS
 10
42.0652686543
 20
294.4221842267
 11
41.0652686543
 21
294.4221842267
  0
LINE
  5
420
100
AcDbEntity
  8
94528905000_BL4
100
AcDbLine
 62
7
  6
CONTINUOUS
 10
42.5652686543
 20
294.2882096304
 11
42.0652686543
 21
294.4221842267
  0
LINE
  5
421
100
AcDbEntity
  8
94528905000_BL4
100
AcDbLine
 62
7
  6
CONTINUOUS
 10
42.0652686543
 20
294.4221842267
 11
42.0652686543
 21
290.8221842267
  0
LINE
  5
422
100
AcDbEntity
  8
94528905000_BL4
100
AcDbLine
 62
7
  6
CONTINUOUS
 10
42.5652686543
 20
294.2882096304
 11
42.5652686543
 21
290.9561588229
  0
CIRCLE
  5
423
100
AcDbEntity
  8
94528905000_BL4
100
AcDbCircle
 62
7
  6
CONTINUOUS
 10
141.2830290362
 20
291.6221842267
 40
5.5
  0
CIRCLE
  5
424
100
AcDbEntity
  8
94528905000_BL4
100
AcDbCircle
 62
7
  6
CONTINUOUS
 10
141.2830290362
 20
292.6221842267
 40
1.75
  0
CIRCLE
  5
425
100
AcDbEntity
  8
94528905000_BL4
100
AcDbCircle
 62
7
  6
CONTINUOUS
 10
141.2830290362
 20
292.6221842267
 40
1.515
  0
CIRCLE
  5
426
100
AcDbEntity
  8
94528905000_BL4
100
AcDbCircle
 62
7
  6
CONTINUOUS
 10
141.2830290362
 20
289.1221842267
 40
0.75
  0
ENDBLK
  5
427
100
AcDbEntity
  8
0
  6
BYBLOCK
 62
0
100
AcDbBlockEnd
  0
BLOCK
  5
428
100
AcDbEntity
  8
94944601000_M2_BL5
100
AcDbBlockBegin
  2
94944601000_M2_BL5
 70
64
 10
91.2741488453
 20
309.6221842267
  3
94944601000_M2_BL5
  1

  0
LINE
  5
429
100
AcDbEntity
  8
94944601000_M2_BL5
100
AcDbLine
 62
7
  6
CENTER
 10
144.2830290362
 20
309.6221842267
 11
136.0830290362
 21
309.6221842267
  0
LINE
  5
42A
100
AcDbEntity
  8
94944601000_M2_BL5
100
AcDbLine
 62
7
  6
CENTER
 10
144.2830290362
 20
309.6221842267
 11
152.4830290362
 21
309.6221842267
  0
LINE
  5
42B
100
AcDbEntity
  8
94944601000_M2_BL5
100
AcDbLine
 62
7
  6
CONTINUOUS
 10
141.1830290362
 20
305.4472590776
 11
141.1830290362
 21
313.7971093757
  0
LINE
  5
42C
100
AcDbEntity
  8
94944601000_M2_BL5
100
AcDbLine
 62
7
  6
CENTER
 10
144.2830290362
 20
309.6221842267
 11
144.2830290362
 21
301.4221842267
  0
LINE
  5
42D
100
AcDbEntity
  8
94944601000_M2_BL5
100
AcDbLine
 62
7
  6
CENTER
 10
144.2830290362
 20
309.6221842267
 11
144.2830290362
 21
317.8221842267
  0
LINE
  5
42E
100
AcDbEntity
  8
94944601000_M2_BL5
100
AcDbLine
 62
7
  6
CONTINUOUS
 10
147.3830290362
 20
305.4472590776
 11
147.3830290362
 21
313.7971093757
  0
LINE
  5
42F
100
AcDbEntity
  8
94944601000_M2_BL5
100
AcDbLine
 62
7
  6
CENTER
 10
44.0652686543
 20
309.6221842267
 11
30.0652686543
 21
309.6221842267
  0
ARC
  5
430
100
AcDbEntity
  8
94944601000_M2_BL5
100
AcDbCircle
 62
7
  6
CONTINUOUS
 10
144.2830290362
 20
309.6221842267
 40
5.2
100
AcDbArc
 50
233.4050690444
 51
306.5949309556
  0
ARC
  5
431
100
AcDbEntity
  8
94944601000_M2_BL5
100
AcDbCircle
 62
7
  6
CONTINUOUS
 10
144.2830290362
 20
309.6221842267
 40
5.2
100
AcDbArc
 50
53.4050690444
 51
126.5949309556
  0
ARC
  5
432
100
AcDbEntity
  8
94944601000_M2_BL5
100
AcDbCircle
 62
7
  6
CONTINUOUS
 10
144.2830290362
 20
309.6221842267
 40
3.2812557855
100
AcDbArc
 50
199.1330091787
 51
340.8669908213
  0
ARC
  5
433
100
AcDbEntity
  8
94944601000_M2_BL5
100
AcDbCircle
 62
7
  6
CONTINUOUS
 10
144.2830290362
 20
309.6221842267
 40
3.2812557855
100
AcDbArc
 50
19.1330091787
 51
160.8669908213
  0
CIRCLE
  5
434
100
AcDbEntity
  8
94944601000_M2_BL5
100
AcDbCircle
 62
7
  6
CONTINUOUS
 10
144.2830290362
 20
309.6221842267
 40
2.6
  0
ENDBLK
  5
435
100
AcDbEntity
  8
0
  6
BYBLOCK
 62
0
100
AcDbBlockEnd
  0
BLOCK
  5
436
100
AcDbEntity
  8
94944601000_M2_BL6
100
AcDbBlockBegin
  2
94944601000_M2_BL6
 70
64
 10
91.2741488453
 20
703.4221842267
  3
94944601000_M2_BL6
  1

  0
LINE
  5
437
100
AcDbEntity
  8
94944601000_M2_BL6
100
AcDbLine
 62
7
  6
CENTER
 10
144.2830290362
 20
703.4221842267
 11
136.0830290362
 21
703.4221842267
  0
LINE
  5
438
100
AcDbEntity
  8
94944601000_M2_BL6
100
AcDbLine
 62
7
  6
CENTER
 10
144.2830290362
 20
703.4221842267
 11
152.4830290362
 21
703.4221842267
  0
LINE
  5
439
100
AcDbEntity
  8
94944601000_M2_BL6
100
AcDbLine
 62
7
  6
CONTINUOUS
 10
141.1830290362
 20
699.2472590776
 11
141.1830290362
 21
707.5971093757
  0
LINE
  5
43A
100
AcDbEntity
  8
94944601000_M2_BL6
100
AcDbLine
 62
7
  6
CENTER
 10
144.2830290362
 20
703.4221842267
 11
144.2830290362
 21
695.2221842267
  0
LINE
  5
43B
100
AcDbEntity
  8
94944601000_M2_BL6
100
AcDbLine
 62
7
  6
CENTER
 10
144.2830290362
 20
703.4221842267
 11
144.2830290362
 21
711.6221842267
  0
LINE
  5
43C
100
AcDbEntity
  8
94944601000_M2_BL6
100
AcDbLine
 62
7
  6
CONTINUOUS
 10
147.3830290362
 20
699.2472590776
 11
147.3830290362
 21
707.5971093757
  0
LINE
  5
43D
100
AcDbEntity
  8
94944601000_M2_BL6
100
AcDbLine
 62
7
  6
CENTER
 10
44.0652686543
 20
703.4221842267
 11
30.0652686543
 21
703.4221842267
  0
ARC
  5
43E
100
AcDbEntity
  8
94944601000_M2_BL6
100
AcDbCircle
 62
7
  6
CONTINUOUS
 10
144.2830290362
 20
703.4221842267
 40
5.2
100
AcDbArc
 50
233.4050690444
 51
306.5949309556
  0
ARC
  5
43F
100
AcDbEntity
  8
94944601000_M2_BL6
100
AcDbCircle
 62
7
  6
CONTINUOUS
 10
144.2830290362
 20
703.4221842267
 40
5.2
100
AcDbArc
 50
53.4050690444
 51
126.5949309556
  0
ARC
  5
440
100
AcDbEntity
  8
94944601000_M2_BL6
100
AcDbCircle
 62
7
  6
CONTINUOUS
 10
144.2830290362
 20
703.4221842267
 40
3.2812557855
100
AcDbArc
 50
199.1330091787
 51
340.8669908213
  0
ARC
  5
441
100
AcDbEntity
  8
94944601000_M2_BL6
100
AcDbCircle
 62
7
  6
CONTINUOUS
 10
144.2830290362
 20
703.4221842267
 40
3.2812557855
100
AcDbArc
 50
19.1330091787
 51
160.8669908213
  0
CIRCLE
  5
442
100
AcDbEntity
  8
94944601000_M2_BL6
100
AcDbCircle
 62
7
  6
CONTINUOUS
 10
144.2830290362
 20
703.4221842267
 40
2.6
  0
ENDBLK
  5
443
100
AcDbEntity
  8
0
  6
BYBLOCK
 62
0
100
AcDbBlockEnd
  0
BLOCK
  5
444
100
AcDbEntity
  8
94528905000_BL7
100
AcDbBlockBegin
  2
94528905000_BL7
 70
64
 10
93.9241488453
 20
936.5978773819
  3
94528905000_BL7
  1

  0
LINE
  5
445
100
AcDbEntity
  8
94528905000_BL7
100
AcDbLine
 62
7
  6
CONTINUOUS
 10
140.4080290362
 20
1784.1377286833
 11
139.5330290362
 21
1782.6221842267
  0
LINE
  5
446
100
AcDbEntity
  8
94528905000_BL7
100
AcDbLine
 62
7
  6
CONTINUOUS
 10
142.1580290362
 20
1781.10663977
 11
143.0330290362
 21
1782.6221842267
  0
LINE
  5
447
100
AcDbEntity
  8
94528905000_BL7
100
AcDbLine
 62
7
  6
CONTINUOUS
 10
139.5330290362
 20
1782.6221842267
 11
140.4080290362
 21
1781.10663977
  0
LINE
  5
448
100
AcDbEntity
  8
94528905000_BL7
100
AcDbLine
 62
7
  6
CONTINUOUS
 10
143.0330290362
 20
1782.6221842267
 11
142.1580290362
 21
1784.1377286833
  0
LINE
  5
449
100
AcDbEntity
  8
94528905000_BL7
100
AcDbLine
 62
7
  6
CONTINUOUS
 10
140.4080290362
 20
1781.10663977
 11
142.1580290362
 21
1781.10663977
  0
LINE
  5
44A
100
AcDbEntity
  8
94528905000_BL7
100
AcDbLine
 62
7
  6
CONTINUOUS
 10
142.1580290362
 20
1784.1377286833
 11
140.4080290362
 21
1784.1377286833
  0
LINE
  5
44B
100
AcDbEntity
  8
94528905000_BL7
100
AcDbLine
 62
7
  6
CONTINUOUS
 10
42.0652686543
 20
1784.4221842267
 11
42.0652686543
 21
1780.8221842267
  0
LINE
  5
44C
100
AcDbEntity
  8
94528905000_BL7
100
AcDbLine
 62
7
  6
CONTINUOUS
 10
42.5652686543
 20
1784.2882096304
 11
42.5652686543
 21
1780.9561588229
  0
LINE
  5
44D
100
AcDbEntity
  8
94528905000_BL7
100
AcDbLine
 62
7
  6
CONTINUOUS
 10
42.5652686543
 20
1780.9561588229
 11
42.0652686543
 21
1780.8221842267
  0
LINE
  5
44E
100
AcDbEntity
  8
94528905000_BL7
100
AcDbLine
 62
7
  6
CONTINUOUS
 10
42.0652686543
 20
1780.8221842267
 11
41.0652686543
 21
1780.8221842267
  0
LINE
  5
44F
100
AcDbEntity
  8
94528905000_BL7
100
AcDbLine
 62
7
  6
CONTINUOUS
 10
42.0652686543
 20
1784.4221842267
 11
41.0652686543
 21
1784.4221842267
  0
LINE
  5
450
100
AcDbEntity
  8
94528905000_BL7
100
AcDbLine
 62
7
  6
CONTINUOUS
 10
42.5652686543
 20
1784.2882096304
 11
42.0652686543
 21
1784.4221842267
  0
LINE
  5
451
100
AcDbEntity
  8
94528905000_BL7
100
AcDbLine
 62
7
  6
CONTINUOUS
 10
42.0652686543
 20
86.0735705372
 11
42.0652686543
 21
89.6735705372
  0
LINE
  5
452
100
AcDbEntity
  8
94528905000_BL7
100
AcDbLine
 62
7
  6
CONTINUOUS
 10
42.5652686543
 20
86.2075451334
 11
42.5652686543
 21
89.539595941
  0
LINE
  5
453
100
AcDbEntity
  8
94528905000_BL7
100
AcDbLine
 62
7
  6
CONTINUOUS
 10
42.5652686543
 20
86.2075451334
 11
42.0652686543
 21
86.0735705372
  0
LINE
  5
454
100
AcDbEntity
  8
94528905000_BL7
100
AcDbLine
 62
7
  6
CONTINUOUS
 10
42.0652686543
 20
86.0735705372
 11
41.0652686543
 21
86.0735705372
  0
LINE
  5
455
100
AcDbEntity
  8
94528905000_BL7
100
AcDbLine
 62
7
  6
CONTINUOUS
 10
42.5652686543
 20
89.539595941
 11
42.0652686543
 21
89.6735705372
  0
LINE
  5
456
100
AcDbEntity
  8
94528905000_BL7
100
AcDbLine
 62
7
  6
CONTINUOUS
 10
42.0652686543
 20
89.6735705372
 11
41.0652686543
 21
89.6735705372
  0
CIRCLE
  5
457
100
AcDbEntity
  8
94528905000_BL7
100
AcDbCircle
 62
7
  6
CONTINUOUS
 10
141.2830290362
 20
1781.6221842267
 40
5.5
  0
CIRCLE
  5
458
100
AcDbEntity
  8
94528905000_BL7
100
AcDbCircle
 62
7
  6
CONTINUOUS
 10
141.2830290362
 20
1782.6221842267
 40
1.75
  0
CIRCLE
  5
459
100
AcDbEntity
  8
94528905000_BL7
100
AcDbCircle
 62
7
  6
CONTINUOUS
 10
141.2830290362
 20
1782.6221842267
 40
1.515
  0
CIRCLE
  5
45A
100
AcDbEntity
  8
94528905000_BL7
100
AcDbCircle
 62
7
  6
CONTINUOUS
 10
141.2830290362
 20
1779.1221842267
 40
0.75
  0
ENDBLK
  5
45B
100
AcDbEntity
  8
0
  6
BYBLOCK
 62
0
100
AcDbBlockEnd
  0
BLOCK
  5
45C
100
AcDbEntity
  8
94528905000_BL8
100
AcDbBlockBegin
  2
94528905000_BL8
 70
64
 10
93.9241488453
 20
1701.4221842267
  3
94528905000_BL8
  1

  0
LINE
  5
45D
100
AcDbEntity
  8
94528905000_BL8
100
AcDbLine
 62
7
  6
CONTINUOUS
 10
140.4080290362
 20
1701.9377286833
 11
139.5330290362
 21
1700.4221842267
  0
LINE
  5
45E
100
AcDbEntity
  8
94528905000_BL8
100
AcDbLine
 62
7
  6
CONTINUOUS
 10
142.1580290362
 20
1698.90663977
 11
143.0330290362
 21
1700.4221842267
  0
LINE
  5
45F
100
AcDbEntity
  8
94528905000_BL8
100
AcDbLine
 62
7
  6
CONTINUOUS
 10
139.5330290362
 20
1700.4221842267
 11
140.4080290362
 21
1698.90663977
  0
LINE
  5
460
100
AcDbEntity
  8
94528905000_BL8
100
AcDbLine
 62
7
  6
CONTINUOUS
 10
143.0330290362
 20
1700.4221842267
 11
142.1580290362
 21
1701.9377286833
  0
LINE
  5
461
100
AcDbEntity
  8
94528905000_BL8
100
AcDbLine
 62
7
  6
CONTINUOUS
 10
140.4080290362
 20
1698.90663977
 11
142.1580290362
 21
1698.90663977
  0
LINE
  5
462
100
AcDbEntity
  8
94528905000_BL8
100
AcDbLine
 62
7
  6
CONTINUOUS
 10
142.1580290362
 20
1701.9377286833
 11
140.4080290362
 21
1701.9377286833
  0
LINE
  5
463
100
AcDbEntity
  8
94528905000_BL8
100
AcDbLine
 62
7
  6
CONTINUOUS
 10
42.0652686543
 20
1698.6221842267
 11
42.0652686543
 21
1702.2221842267
  0
LINE
  5
464
100
AcDbEntity
  8
94528905000_BL8
100
AcDbLine
 62
7
  6
CONTINUOUS
 10
42.5652686543
 20
1698.7561588229
 11
42.5652686543
 21
1702.0882096304
  0
LINE
  5
465
100
AcDbEntity
  8
94528905000_BL8
100
AcDbLine
 62
7
  6
CONTINUOUS
 10
42.5652686543
 20
1698.7561588229
 11
42.0652686543
 21
1698.6221842267
  0
LINE
  5
466
100
AcDbEntity
  8
94528905000_BL8
100
AcDbLine
 62
7
  6
CONTINUOUS
 10
42.0652686543
 20
1698.6221842267
 11
41.0652686543
 21
1698.6221842267
  0
LINE
  5
467
100
AcDbEntity
  8
94528905000_BL8
100
AcDbLine
 62
7
  6
CONTINUOUS
 10
42.0652686543
 20
1702.2221842267
 11
41.0652686543
 21
1702.2221842267
  0
LINE
  5
468
100
AcDbEntity
  8
94528905000_BL8
100
AcDbLine
 62
7
  6
CONTINUOUS
 10
42.5652686543
 20
1702.0882096304
 11
42.0652686543
 21
1702.2221842267
  0
CIRCLE
  5
469
100
AcDbEntity
  8
94528905000_BL8
100
AcDbCircle
 62
7
  6
CONTINUOUS
 10
141.2830290362
 20
1701.4221842267
 40
5.5
  0
CIRCLE
  5
46A
100
AcDbEntity
  8
94528905000_BL8
100
AcDbCircle
 62
7
  6
CONTINUOUS
 10
141.2830290362
 20
1700.4221842267
 40
1.75
  0
CIRCLE
  5
46B
100
AcDbEntity
  8
94528905000_BL8
100
AcDbCircle
 62
7
  6
CONTINUOUS
 10
141.2830290362
 20
1700.4221842267
 40
1.515
  0
CIRCLE
  5
46C
100
AcDbEntity
  8
94528905000_BL8
100
AcDbCircle
 62
7
  6
CONTINUOUS
 10
141.2830290362
 20
1703.9221842267
 40
0.75
  0
ENDBLK
  5
46D
100
AcDbEntity
  8
0
  6
BYBLOCK
 62
0
100
AcDbBlockEnd
  0
BLOCK
  5
46E
100
AcDbEntity
  8
94944601000_M2_BL9
100
AcDbBlockBegin
  2
94944601000_M2_BL9
 70
64
 10
91.2741488453
 20
819.6221842267
  3
94944601000_M2_BL9
  1

  0
LINE
  5
46F
100
AcDbEntity
  8
94944601000_M2_BL9
100
AcDbLine
 62
7
  6
CENTER
 10
144.2830290362
 20
819.6221842267
 11
136.0830290362
 21
819.6221842267
  0
LINE
  5
470
100
AcDbEntity
  8
94944601000_M2_BL9
100
AcDbLine
 62
7
  6
CENTER
 10
144.2830290362
 20
819.6221842267
 11
152.4830290362
 21
819.6221842267
  0
LINE
  5
471
100
AcDbEntity
  8
94944601000_M2_BL9
100
AcDbLine
 62
7
  6
CONTINUOUS
 10
141.1830290362
 20
815.4472590776
 11
141.1830290362
 21
823.7971093757
  0
LINE
  5
472
100
AcDbEntity
  8
94944601000_M2_BL9
100
AcDbLine
 62
7
  6
CENTER
 10
144.2830290362
 20
819.6221842267
 11
144.2830290362
 21
811.4221842267
  0
LINE
  5
473
100
AcDbEntity
  8
94944601000_M2_BL9
100
AcDbLine
 62
7
  6
CENTER
 10
144.2830290362
 20
819.6221842267
 11
144.2830290362
 21
827.8221842267
  0
LINE
  5
474
100
AcDbEntity
  8
94944601000_M2_BL9
100
AcDbLine
 62
7
  6
CONTINUOUS
 10
147.3830290362
 20
815.4472590776
 11
147.3830290362
 21
823.7971093757
  0
LINE
  5
475
100
AcDbEntity
  8
94944601000_M2_BL9
100
AcDbLine
 62
7
  6
CENTER
 10
44.0652686543
 20
819.6221842267
 11
30.0652686543
 21
819.6221842267
  0
ARC
  5
476
100
AcDbEntity
  8
94944601000_M2_BL9
100
AcDbCircle
 62
7
  6
CONTINUOUS
 10
144.2830290362
 20
819.6221842267
 40
5.2
100
AcDbArc
 50
233.4050690444
 51
306.5949309556
  0
ARC
  5
477
100
AcDbEntity
  8
94944601000_M2_BL9
100
AcDbCircle
 62
7
  6
CONTINUOUS
 10
144.2830290362
 20
819.6221842267
 40
5.2
100
AcDbArc
 50
53.4050690444
 51
126.5949309556
  0
ARC
  5
478
100
AcDbEntity
  8
94944601000_M2_BL9
100
AcDbCircle
 62
7
  6
CONTINUOUS
 10
144.2830290362
 20
819.6221842267
 40
3.2812557855
100
AcDbArc
 50
199.1330091787
 51
340.8669908213
  0
ARC
  5
479
100
AcDbEntity
  8
94944601000_M2_BL9
100
AcDbCircle
 62
7
  6
CONTINUOUS
 10
144.2830290362
 20
819.6221842267
 40
3.2812557855
100
AcDbArc
 50
19.1330091787
 51
160.8669908213
  0
CIRCLE
  5
47A
100
AcDbEntity
  8
94944601000_M2_BL9
100
AcDbCircle
 62
7
  6
CONTINUOUS
 10
144.2830290362
 20
819.6221842267
 40
2.6
  0
ENDBLK
  5
47B
100
AcDbEntity
  8
0
  6
BYBLOCK
 62
0
100
AcDbBlockEnd
  0
BLOCK
  5
47C
100
AcDbEntity
  8
94855303000_BL10
100
AcDbBlockBegin
  2
94855303000_BL10
 70
64
 10
89.7918567682
 20
530.6429641049
  3
94855303000_BL10
  1

  0
LINE
  5
47D
100
AcDbEntity
  8
94855303000_BL10
100
AcDbLine
 62
7
  6
CONTINUOUS
 10
135.9830290362
 20
913.2721842267
 11
146.5830290362
 21
913.2721842267
  0
LINE
  5
47E
100
AcDbEntity
  8
94855303000_BL10
100
AcDbLine
 62
9
  6
CONTINUOUS
 10
135.9830290362
 20
913.7721842267
 11
146.5830290362
 21
913.7721842267
  0
LINE
  5
47F
100
AcDbEntity
  8
94855303000_BL10
100
AcDbLine
 62
9
  6
CONTINUOUS
 10
146.5106703987
 20
914.9721842267
 11
136.0553876737
 21
914.9721842267
  0
LINE
  5
480
100
AcDbEntity
  8
94855303000_BL10
100
AcDbLine
 62
7
  6
CONTINUOUS
 10
146.5106703987
 20
915.2721842267
 11
136.0553876731
 21
915.2721842267
  0
LINE
  5
481
100
AcDbEntity
  8
94855303000_BL10
100
AcDbLine
 62
9
  6
CONTINUOUS
 10
134.4830290362
 20
915.2721842267
 11
133.9830290362
 21
915.2721842456
  0
LINE
  5
482
100
AcDbEntity
  8
94855303000_BL10
100
AcDbLine
 62
9
  6
CONTINUOUS
 10
148.0830290362
 20
915.2721842267
 11
148.5830290362
 21
915.2721842267
  0
LINE
  5
483
100
AcDbEntity
  8
94855303000_BL10
100
AcDbLine
 62
9
  6
CONTINUOUS
 10
135.4441576568
 20
915.5721842267
 11
135.9830290362
 21
915.5721842267
  0
LINE
  5
484
100
AcDbEntity
  8
94855303000_BL10
100
AcDbLine
 62
9
  6
CONTINUOUS
 10
146.5830290362
 20
915.5721842267
 11
147.1219004157
 21
915.5721842267
  0
LINE
  5
485
100
AcDbEntity
  8
94855303000_BL10
100
AcDbLine
 62
7
  6
CONTINUOUS
 10
146.2830290362
 20
916.1721842267
 11
145.2830290362
 21
916.1721842267
  0
LINE
  5
486
100
AcDbEntity
  8
94855303000_BL10
100
AcDbLine
 62
7
  6
CONTINUOUS
 10
137.2830290362
 20
916.1721842267
 11
136.2830290362
 21
916.1721842267
  0
LINE
  5
487
100
AcDbEntity
  8
94855303000_BL10
100
AcDbLine
 62
9
  6
CONTINUOUS
 10
137.2830290362
 20
916.4721842267
 11
135.9830290362
 21
916.4721842264
  0
LINE
  5
488
100
AcDbEntity
  8
94855303000_BL10
100
AcDbLine
 62
9
  6
CONTINUOUS
 10
145.2830290362
 20
916.4721842267
 11
146.5830290362
 21
916.4721842267
  0
LWPOLYLINE
  5
489
100
AcDbEntity
  8
94855303000_BL10
100
AcDbPolyline
 62
9
  6
CONTINUOUS
 90
9
 70
0
 10
136.0553876737
 20
915.2721842267
 10
135.992603288
 20
915.2781225192
 10
135.9327077442
 20
915.2956026314
 10
135.8777793698
 20
915.3237943972
 10
135.8299361766
 20
915.36146852
 10
135.7909645059
 20
915.4070495816
 10
135.7621777038
 20
915.4587201732
 10
135.7445853657
 20
915.514479223
 10
135.7386458118
 20
915.5721842267
  0
LWPOLYLINE
  5
48A
100
AcDbEntity
  8
94855303000_BL10
100
AcDbPolyline
 62
9
  6
CONTINUOUS
 90
9
 70
0
 10
136.0553876737
 20
914.9721842267
 10
135.9322406001
 20
914.985004125
 10
135.8186874839
 20
915.0190363703
 10
135.7129042883
 20
915.0756587885
 10
135.6203631237
 20
915.1507379019
 10
135.5454259759
 20
915.2420383115
 10
135.4895991825
 20
915.3452436071
 10
135.4562131177
 20
915.4546595526
 10
135.4441576568
 20
915.5721842267
  0
LWPOLYLINE
  5
48B
100
AcDbEntity
  8
94855303000_BL10
100
AcDbPolyline
 62
9
  6
CONTINUOUS
 90
9
 70
0
 10
136.2830290362
 20
974.5179110757
 10
136.2245019396
 20
974.5122342343
 10
136.1682240065
 20
974.4954218677
 10
136.1163579663
 20
974.468120066
 10
136.0708970019
 20
974.4313780219
 10
136.0335881525
 20
974.3866077117
 10
136.0058651765
 20
974.3355296332
 10
135.9887934521
 20
974.2801066883
 10
135.9830290362
 20
974.2224687498
  0
LWPOLYLINE
  5
48C
100
AcDbEntity
  8
94855303000_BL10
100
AcDbPolyline
 62
9
  6
CONTINUOUS
 90
27
 70
0
 10
146.5105572617
 20
975.8690216939
 10
146.5549469426
 20
975.8692283982
 10
146.5971069253
 20
975.866154539
 10
146.6368856249
 20
975.8594920351
 10
146.6747377958
 20
975.85016513
 10
146.7110456582
 20
975.8390495593
 10
146.7458752291
 20
975.8259827667
 10
146.7794442062
 20
975.8110699609
 10
146.8116797673
 20
975.7943835824
 10
146.8425834628
 20
975.7760211134
 10
146.8721498734
 20
975.7560126369
 10
146.9003845175
 20
975.7344165131
 10
146.9272561334
 20
975.7112453925
 10
146.9527765352
 20
975.686497982
 10
146.9768220147
 20
975.6602744725
 10
146.9993080055
 20
975.6326280997
 10
147.0201288967
 20
975.6036984367
 10
147.039172233
 20
975.5735951129
 10
147.0563739821
 20
975.542461194
 10
147.0716434514
 20
975.5104294889
 10
147.084948166
 20
975.4776403976
 10
147.096227876
 20
975.4442344844
 10
147.1054752128
 20
975.410344066
 10
147.1126588769
 20
975.3761310636
 10
147.1177904108
 20
975.3416472275
 10
147.1208710624
 20
975.3070114974
 10
147.1219004157
 20
975.2721842267
  0
LINE
  5
48D
100
AcDbEntity
  8
94855303000_BL10
100
AcDbLine
 62
7
  6
CENTER
 10
141.2830290362
 20
945.5221842267
 11
132.0476088717
 21
945.5221842267
  0
LINE
  5
48E
100
AcDbEntity
  8
94855303000_BL10
100
AcDbLine
 62
7
  6
CENTER
 10
141.2830290362
 20
945.5221842267
 11
150.5184492007
 21
945.5221842267
  0
LINE
  5
48F
100
AcDbEntity
  8
94855303000_BL10
100
AcDbLine
 62
9
  6
CONTINUOUS
 10
135.9830290362
 20
974.2224687498
 11
146.5830290362
 21
974.2224687498
  0
LINE
  5
490
100
AcDbEntity
  8
94855303000_BL10
100
AcDbLine
 62
9
  6
CONTINUOUS
 10
136.2830290362
 20
974.5179110757
 11
146.2830290362
 21
974.5179110757
  0
LINE
  5
491
100
AcDbEntity
  8
94855303000_BL10
100
AcDbLine
 62
9
  6
CONTINUOUS
 10
135.9830290362
 20
975.2721842267
 11
135.4441576568
 21
975.2721842267
  0
LINE
  5
492
100
AcDbEntity
  8
94855303000_BL10
100
AcDbLine
 62
9
  6
CONTINUOUS
 10
146.5830290362
 20
975.2721842267
 11
147.1219004157
 21
975.2721842267
  0
LINE
  5
493
100
AcDbEntity
  8
94855303000_BL10
100
AcDbLine
 62
7
  6
CONTINUOUS
 10
146.5106703987
 20
975.5721842267
 11
136.0553876737
 21
975.5721842267
  0
LINE
  5
494
100
AcDbEntity
  8
94855303000_BL10
100
AcDbLine
 62
9
  6
CONTINUOUS
 10
134.4830290362
 20
975.5721842267
 11
133.9830290362
 21
975.5721842267
  0
LINE
  5
495
100
AcDbEntity
  8
94855303000_BL10
100
AcDbLine
 62
9
  6
CONTINUOUS
 10
148.0830290362
 20
975.5721842267
 11
148.5830290362
 21
975.5721842077
  0
LINE
  5
496
100
AcDbEntity
  8
94855303000_BL10
100
AcDbLine
 62
9
  6
CONTINUOUS
 10
146.5830290362
 20
977.0721842267
 11
135.9830290362
 21
977.0721842267
  0
LINE
  5
497
100
AcDbEntity
  8
94855303000_BL10
100
AcDbLine
 62
7
  6
CONTINUOUS
 10
146.5830290362
 20
977.5721842267
 11
135.9830290362
 21
977.5721842267
  0
LINE
  5
498
100
AcDbEntity
  8
94855303000_BL10
100
AcDbLine
 62
7
  6
CONTINUOUS
 10
146.5105572617
 20
975.8690216939
 11
136.0553852347
 21
975.8721840857
  0
LWPOLYLINE
  5
499
100
AcDbEntity
  8
94855303000_BL10
100
AcDbPolyline
 62
9
  6
CONTINUOUS
 90
29
 70
0
 10
146.5106714607
 20
975.5721842267
 10
146.5320008883
 20
975.5715033533
 10
146.5523962346
 20
975.5695697405
 10
146.5717095643
 20
975.5665609511
 10
146.5901449605
 20
975.5625871693
 10
146.6078550525
 20
975.5577139472
 10
146.6248839273
 20
975.5520017464
 10
146.6413336055
 20
975.5454684668
 10
146.657181462
 20
975.5381611914
 10
146.6724411619
 20
975.5301059718
 10
146.687106835
 20
975.5213308962
 10
146.7011756992
 20
975.5118568159
 10
146.714646291
 20
975.5016965877
 10
146.7275215435
 20
975.4908513679
 10
146.7397679403
 20
975.4793462488
 10
146.751368169
 20
975.4671898981
 10
146.7622696628
 20
975.4544280392
 10
146.7724338951
 20
975.4410978935
 10
146.7818174317
 20
975.4272517959
 10
146.7903828197
 20
975.4129434556
 10
146.798100739
 20
975.3982261102
 10
146.8049447264
 20
975.3831574239
 10
146.8108969735
 20
975.3677912001
 10
146.815941962
 20
975.3521861275
 10
146.820072733
 20
975.3363917488
 10
146.8232825131
 20
975.3204706905
 10
146.8255757696
 20
975.3044428408
 10
146.8269532041
 20
975.2883287397
 10
146.8274122606
 20
975.2721842267
  0
LWPOLYLINE
  5
49A
100
AcDbEntity
  8
94855303000_BL10
100
AcDbPolyline
 62
9
  6
CONTINUOUS
 90
9
 70
0
 10
146.5830290362
 20
974.2224687498
 10
146.577237988
 20
974.2802383879
 10
146.5599488578
 20
974.3361081074
 10
146.5314922119
 20
974.3880396549
 10
146.4932250582
 20
974.4332673781
 10
146.4474131139
 20
974.4696101258
 10
146.3957798202
 20
974.4962510806
 10
146.3402566255
 20
974.51248586
 10
146.2830290362
 20
974.5179110757
  0
LINE
  5
49B
100
AcDbEntity
  8
94855303000_BL10
100
AcDbLine
 62
7
  6
CONTINUOUS
 10
133.9830290362
 20
975.5721842267
 11
133.9830290362
 21
915.2721842267
  0
LINE
  5
49C
100
AcDbEntity
  8
94855303000_BL10
100
AcDbLine
 62
9
  6
CONTINUOUS
 10
134.4830290362
 20
975.5721842267
 11
134.4830290362
 21
915.2721842267
  0
LINE
  5
49D
100
AcDbEntity
  8
94855303000_BL10
100
AcDbLine
 62
9
  6
CONTINUOUS
 10
135.4441576568
 20
915.5721842267
 11
135.4441576568
 21
975.2721842267
  0
LINE
  5
49E
100
AcDbEntity
  8
94855303000_BL10
100
AcDbLine
 62
9
  6
CONTINUOUS
 10
135.7386458118
 20
915.5721842267
 11
135.7386458118
 21
975.2721842267
  0
LINE
  5
49F
100
AcDbEntity
  8
94855303000_BL10
100
AcDbLine
 62
9
  6
CONTINUOUS
 10
135.9830290362
 20
913.7721842267
 11
135.9830290362
 21
913.2721842267
  0
LINE
  5
4A0
100
AcDbEntity
  8
94855303000_BL10
100
AcDbLine
 62
7
  6
CONTINUOUS
 10
135.9830290362
 20
915.5721842267
 11
135.9830290362
 21
975.2721842267
  0
LINE
  5
4A1
100
AcDbEntity
  8
94855303000_BL10
100
AcDbLine
 62
9
  6
CONTINUOUS
 10
135.9830290362
 20
977.0721842267
 11
135.9830290551
 21
977.5721842267
  0
LINE
  5
4A2
100
AcDbEntity
  8
94855303000_BL10
100
AcDbLine
 62
9
  6
CONTINUOUS
 10
136.0553876737
 20
914.9721842267
 11
136.0553876731
 21
915.2721842267
  0
LINE
  5
4A3
100
AcDbEntity
  8
94855303000_BL10
100
AcDbLine
 62
9
  6
CONTINUOUS
 10
136.0553876737
 20
975.5721842267
 11
136.0553876737
 21
975.8721840842
  0
LINE
  5
4A4
100
AcDbEntity
  8
94855303000_BL10
100
AcDbLine
 62
9
  6
CONTINUOUS
 10
136.2830290362
 20
916.1721842267
 11
136.2830290362
 21
975.5721842267
  0
LINE
  5
4A5
100
AcDbEntity
  8
94855303000_BL10
100
AcDbLine
 62
7
  6
CONTINUOUS
 10
137.2830290362
 20
916.4721842267
 11
137.2830290362
 21
916.1721842267
  0
LINE
  5
4A6
100
AcDbEntity
  8
94855303000_BL10
100
AcDbLine
 62
7
  6
CONTINUOUS
 10
137.2830290362
 20
915.2721842267
 11
137.2830290362
 21
916.1721842267
  0
LINE
  5
4A7
100
AcDbEntity
  8
94855303000_BL10
100
AcDbLine
 62
7
  6
CENTER
 10
141.2830290362
 20
945.5221842267
 11
141.2830290362
 21
911.1093672976
  0
LINE
  5
4A8
100
AcDbEntity
  8
94855303000_BL10
100
AcDbLine
 62
7
  6
CENTER
 10
141.2830290362
 20
945.5221842267
 11
141.2830290362
 21
980.7123576727
  0
LINE
  5
4A9
100
AcDbEntity
  8
94855303000_BL10
100
AcDbLine
 62
7
  6
CONTINUOUS
 10
145.2830290362
 20
916.1721842267
 11
145.2830290362
 21
915.2721842267
  0
LINE
  5
4AA
100
AcDbEntity
  8
94855303000_BL10
100
AcDbLine
 62
7
  6
CONTINUOUS
 10
145.2830290362
 20
916.1721842267
 11
145.2830290362
 21
916.4721842267
  0
LINE
  5
4AB
100
AcDbEntity
  8
94855303000_BL10
100
AcDbLine
 62
9
  6
CONTINUOUS
 10
146.2830290362
 20
975.5721842267
 11
146.283029035
 21
916.1721842267
  0
LINE
  5
4AC
100
AcDbEntity
  8
94855303000_BL10
100
AcDbLine
 62
9
  6
CONTINUOUS
 10
146.5106703987
 20
914.9721842267
 11
146.5106703987
 21
915.2721842267
  0
LINE
  5
4AD
100
AcDbEntity
  8
94855303000_BL10
100
AcDbLine
 62
9
  6
CONTINUOUS
 10
146.5106703987
 20
975.5721842267
 11
146.5106703987
 21
975.8658590242
  0
LINE
  5
4AE
100
AcDbEntity
  8
94855303000_BL10
100
AcDbLine
 62
7
  6
CONTINUOUS
 10
146.5830290362
 20
975.2721842267
 11
146.5830290362
 21
915.5721842267
  0
LINE
  5
4AF
100
AcDbEntity
  8
94855303000_BL10
100
AcDbLine
 62
9
  6
CONTINUOUS
 10
146.5830290362
 20
977.0721842267
 11
146.5830290362
 21
977.5721842267
  0
LINE
  5
4B0
100
AcDbEntity
  8
94855303000_BL10
100
AcDbLine
 62
9
  6
CONTINUOUS
 10
146.5830290362
 20
913.7721842267
 11
146.5830290173
 21
913.2721842267
  0
LINE
  5
4B1
100
AcDbEntity
  8
94855303000_BL10
100
AcDbLine
 62
9
  6
CONTINUOUS
 10
146.8274122606
 20
975.2721842267
 11
146.8274122606
 21
915.5721842267
  0
LINE
  5
4B2
100
AcDbEntity
  8
94855303000_BL10
100
AcDbLine
 62
9
  6
CONTINUOUS
 10
147.1219004157
 20
975.2721842267
 11
147.1219004157
 21
915.5721842267
  0
LINE
  5
4B3
100
AcDbEntity
  8
94855303000_BL10
100
AcDbLine
 62
9
  6
CONTINUOUS
 10
148.0830290362
 20
915.2721842267
 11
148.0830290362
 21
975.5721842267
  0
LINE
  5
4B4
100
AcDbEntity
  8
94855303000_BL10
100
AcDbLine
 62
7
  6
CONTINUOUS
 10
148.5830290362
 20
915.2721842267
 11
148.5830290362
 21
975.5721842267
  0
LWPOLYLINE
  5
4B5
100
AcDbEntity
  8
94855303000_BL10
100
AcDbPolyline
 62
9
  6
CONTINUOUS
 90
27
 70
0
 10
135.7386458118
 20
975.2721842267
 10
135.7395065453
 20
975.2941809124
 10
135.7418977497
 20
975.315062199
 10
135.7455864959
 20
975.3346496004
 10
135.7504102678
 20
975.3531865778
 10
135.7562631036
 20
975.3708441047
 10
135.7630761723
 20
975.3877176895
 10
135.7708387262
 20
975.4039613881
 10
135.7794968643
 20
975.4195544691
 10
135.7890300883
 20
975.4345277915
 10
135.7994077469
 20
975.4488706434
 10
135.8106099553
 20
975.4625796564
 10
135.8226267546
 20
975.4756497869
 10
135.8354630996
 20
975.4880800745
 10
135.8490890991
 20
975.49982651
 10
135.8634952254
 20
975.5108617816
 10
135.8786254904
 20
975.5211235649
 10
135.8944337122
 20
975.5305637897
 10
135.91085555
 20
975.5391306107
 10
135.9278267635
 20
975.5467800148
 10
135.9452743412
 20
975.5534721985
 10
135.963128218
 20
975.5591758505
 10
135.9812945949
 20
975.5638607706
 10
135.999673226
 20
975.5675067116
 10
136.0181981954
 20
975.5701091828
 10
136.0367882544
 20
975.5716666513
 10
136.0553890846
 20
975.5721842267
  0
LWPOLYLINE
  5
4B6
100
AcDbEntity
  8
94855303000_BL10
100
AcDbPolyline
 62
9
  6
CONTINUOUS
 90
27
 70
0
 10
135.4441576568
 20
975.2721842267
 10
135.4460264301
 20
975.3162496561
 10
135.4504332206
 20
975.3579392768
 10
135.4575115288
 20
975.3971082568
 10
135.4668608529
 20
975.4341910919
 10
135.4781288073
 20
975.4695100322
 10
135.4913045436
 20
975.5032569825
 10
135.506275621
 20
975.5357469132
 10
135.5229944313
 20
975.5669328762
 10
135.541387195
 20
975.5968822056
 10
135.5614199853
 20
975.6255670254
 10
135.5830348093
 20
975.6529894342
 10
135.6062300862
 20
975.6791268422
 10
135.6310027285
 20
975.7039892871
 10
135.6572992628
 20
975.7274809844
 10
135.6851042523
 20
975.7495492233
 10
135.7143005002
 20
975.7700748209
 10
135.744811279
 20
975.7889508575
 10
135.7764997439
 20
975.8060878328
 10
135.8092540186
 20
975.8213809071
 10
135.8429224691
 20
975.8347691792
 10
135.8773791457
 20
975.8461681996
 10
135.9124351188
 20
975.8555437728
 10
135.947904895
 20
975.8628299106
 10
135.9836522171
 20
975.8680375421
 10
136.019454236
 20
975.8711542171
 10
136.0553852347
 20
975.8721840857
  0
LWPOLYLINE
  5
4B7
100
AcDbEntity
  8
94855303000_BL10
100
AcDbPolyline
 62
9
  6
CONTINUOUS
 90
9
 70
0
 10
147.1219004157
 20
915.5721842267
 10
147.1097841225
 20
915.454506255
 10
147.0763616717
 20
915.3450235436
 10
147.0205096213
 20
915.241856084
 10
146.9455982976
 20
915.1506439017
 10
146.8532263069
 20
915.0756697675
 10
146.7475853669
 20
915.0191254372
 10
146.6339906375
 20
914.9850826752
 10
146.5106703987
 20
914.9721842267
  0
LWPOLYLINE
  5
4B8
100
AcDbEntity
  8
94855303000_BL10
100
AcDbPolyline
 62
9
  6
CONTINUOUS
 90
9
 70
0
 10
146.8274122606
 20
915.5721842267
 10
146.8214559098
 20
915.5144034275
 10
146.803834835
 20
915.4586153224
 10
146.7750319078
 20
915.4069609252
 10
146.7360762032
 20
915.3614245926
 10
146.6883164718
 20
915.3238181212
 10
146.6334716188
 20
915.295650815
 10
146.5735589051
 20
915.2781425255
 10
146.5106703987
 20
915.2721842267
  0
LINE
  5
4B9
100
AcDbEntity
  8
94855303000_BL10
100
AcDbLine
 62
7
  6
CONTINUOUS
 10
49.0652686543
 20
909.5721842267
 11
45.0652686543
 21
909.5721842267
  0
LINE
  5
4BA
100
AcDbEntity
  8
94855303000_BL10
100
AcDbLine
 62
7
  6
CONTINUOUS
 10
33.0652686543
 20
913.2721842267
 11
32.5652686543
 21
913.2721842267
  0
LINE
  5
4BB
100
AcDbEntity
  8
94855303000_BL10
100
AcDbLine
 62
7
  6
CONTINUOUS
 10
52.5652686543
 20
914.5721842267
 11
49.5652686543
 21
914.5721842267
  0
LINE
  5
4BC
100
AcDbEntity
  8
94855303000_BL10
100
AcDbLine
 62
7
  6
CONTINUOUS
 10
44.5652686543
 20
914.5721842267
 11
41.0652686543
 21
914.5721842267
  0
LINE
  5
4BD
100
AcDbEntity
  8
94855303000_BL10
100
AcDbLine
 62
9
  6
CONTINUOUS
 10
53.0652686543
 20
915.0721842267
 11
49.5652686543
 21
915.0721842267
  0
LINE
  5
4BE
100
AcDbEntity
  8
94855303000_BL10
100
AcDbLine
 62
9
  6
CONTINUOUS
 10
32.0652686543
 20
915.2721842267
 11
33.0652686543
 21
915.2721842267
  0
LINE
  5
4BF
100
AcDbEntity
  8
94855303000_BL10
100
AcDbLine
 62
9
  6
CONTINUOUS
 10
44.5652686543
 20
916.0721842267
 11
41.0652686543
 21
916.0721842267
  0
LINE
  5
4C0
100
AcDbEntity
  8
94855303000_BL10
100
AcDbLine
 62
7
  6
CENTER
 10
29.0652643357
 20
945.5221842267
 11
56.0652686543
 21
945.5221842267
  0
LINE
  5
4C1
100
AcDbEntity
  8
94855303000_BL10
100
AcDbLine
 62
9
  6
CONTINUOUS
 10
51.5652686543
 20
973.8029189342
 11
53.0652686543
 21
973.8029189342
  0
LINE
  5
4C2
100
AcDbEntity
  8
94855303000_BL10
100
AcDbLine
 62
9
  6
CONTINUOUS
 10
44.1903820191
 20
974.9721842267
 11
41.0652686543
 21
974.9721842267
  0
LINE
  5
4C3
100
AcDbEntity
  8
94855303000_BL10
100
AcDbLine
 62
9
  6
CONTINUOUS
 10
32.0652686543
 20
975.5721842267
 11
33.0652686543
 21
975.5721842267
  0
LINE
  5
4C4
100
AcDbEntity
  8
94855303000_BL10
100
AcDbLine
 62
7
  6
CONTINUOUS
 10
44.1903820191
 20
976.4721842267
 11
41.0652686543
 21
976.4721842267
  0
LINE
  5
4C5
100
AcDbEntity
  8
94855303000_BL10
100
AcDbLine
 62
7
  6
CONTINUOUS
 10
33.0652686543
 20
977.5721842267
 11
32.5652686543
 21
977.5721842267
  0
LINE
  5
4C6
100
AcDbEntity
  8
94855303000_BL10
100
AcDbLine
 62
9
  6
CONTINUOUS
 10
51.5652686543
 20
973.8029189342
 11
45.6663915293
 21
974.8430501273
  0
LINE
  5
4C7
100
AcDbEntity
  8
94855303000_BL10
100
AcDbLine
 62
7
  6
CONTINUOUS
 10
51.8257409208
 20
975.2801305637
 11
45.9268637958
 21
976.3202617568
  0
LINE
  5
4C8
100
AcDbEntity
  8
94855303000_BL10
100
AcDbLine
 62
7
  6
CONTINUOUS
 10
32.0652686543
 20
913.7721842267
 11
32.0652686543
 21
977.0721842267
  0
LINE
  5
4C9
100
AcDbEntity
  8
94855303000_BL10
100
AcDbLine
 62
9
  6
CONTINUOUS
 10
32.5652686543
 20
913.2721842267
 11
32.5652686543
 21
977.5721842267
  0
LINE
  5
4CA
100
AcDbEntity
  8
94855303000_BL10
100
AcDbLine
 62
9
  6
CONTINUOUS
 10
44.1903820191
 20
974.9721842267
 11
44.1903820191
 21
976.4721842267
  0
LINE
  5
4CB
100
AcDbEntity
  8
94855303000_BL10
100
AcDbLine
 62
7
  6
CONTINUOUS
 10
44.5652686543
 20
916.0721842267
 11
44.5652686543
 21
914.0723214413
  0
LINE
  5
4CC
100
AcDbEntity
  8
94855303000_BL10
100
AcDbLine
 62
7
  6
CONTINUOUS
 10
49.5652686543
 20
914.0723214413
 11
49.5652686543
 21
915.0721842267
  0
LINE
  5
4CD
100
AcDbEntity
  8
94855303000_BL10
100
AcDbLine
 62
9
  6
CONTINUOUS
 10
51.5652686543
 20
914.5721842267
 11
51.5652686543
 21
973.8029189342
  0
LINE
  5
4CE
100
AcDbEntity
  8
94855303000_BL10
100
AcDbLine
 62
7
  6
CONTINUOUS
 10
53.0652686543
 20
973.8029189342
 11
53.0652686543
 21
915.0721842267
  0
LINE
  5
4CF
100
AcDbEntity
  8
94855303000_BL10
100
AcDbLine
 62
7
  6
CONTINUOUS
 10
45.0652686543
 20
909.5721842267
 11
44.5652686543
 21
914.0723214413
  0
LINE
  5
4D0
100
AcDbEntity
  8
94855303000_BL10
100
AcDbLine
 62
7
  6
CONTINUOUS
 10
49.5652686543
 20
914.0723214413
 11
49.0652686543
 21
909.5721842267
  0
LINE
  5
4D1
100
AcDbEntity
  8
94855303000_BL10
100
AcDbLine
 62
9
  6
CONTINUOUS
 10
45.6663915293
 20
974.8430501273
 11
45.9268637958
 21
976.3202617568
  0
LINE
  5
4D2
100
AcDbEntity
  8
94855303000_BL10
100
AcDbLine
 62
9
  6
CONTINUOUS
 10
51.8257409208
 20
975.2801305637
 11
51.5652686543
 21
973.8029189342
  0
LINE
  5
4D3
100
AcDbEntity
  8
94855303000_BL10
100
AcDbLine
 62
7
  6
CONTINUOUS
 10
32.0652686543
 20
81.0735705372
 11
32.0652686543
 21
94.6735705372
  0
LINE
  5
4D4
100
AcDbEntity
  8
94855303000_BL10
100
AcDbLine
 62
9
  6
CONTINUOUS
 10
32.5652686543
 20
93.7735705372
 11
32.5652686543
 21
95.1735705372
  0
LINE
  5
4D5
100
AcDbEntity
  8
94855303000_BL10
100
AcDbLine
 62
7
  6
CONTINUOUS
 10
33.0652686543
 20
95.1735705372
 11
33.0652686543
 21
94.5874638758
  0
LINE
  5
4D6
100
AcDbEntity
  8
94855303000_BL10
100
AcDbLine
 62
9
  6
CONTINUOUS
 10
32.0652686543
 20
82.5735705372
 11
32.3652686543
 21
82.5735705372
  0
LINE
  5
4D7
100
AcDbEntity
  8
94855303000_BL10
100
AcDbLine
 62
9
  6
CONTINUOUS
 10
32.0652686543
 20
93.1735705372
 11
32.3652686543
 21
93.1735705373
  0
LINE
  5
4D8
100
AcDbEntity
  8
94855303000_BL10
100
AcDbLine
 62
7
  6
CONTINUOUS
 10
45.6663915293
 20
93.8735705372
 11
51.5652686543
 21
93.8735705372
  0
LINE
  5
4D9
100
AcDbEntity
  8
94855303000_BL10
100
AcDbLine
 62
9
  6
CONTINUOUS
 10
45.6663915293
 20
93.8735705372
 11
45.6969224297
 21
93.8597331678
  0
LINE
  5
4DA
100
AcDbEntity
  8
94855303000_BL10
100
AcDbLine
 62
7
  6
CONTINUOUS
 10
33.0652686543
 20
95.1735705372
 11
32.5652686543
 21
95.1735705372
  0
LINE
  5
4DB
100
AcDbEntity
  8
94855303000_BL10
100
AcDbLine
 62
7
  6
CONTINUOUS
 10
32.5652686543
 20
95.1735705372
 11
33.0652686543
 21
95.1735705372
  0
LWPOLYLINE
  5
4DC
100
AcDbEntity
  8
94855303000_BL10
100
AcDbPolyline
 62
9
  6
CONTINUOUS
 90
8
 70
0
 10
51.5652686543
 20
93.8735705372
 10
51.606102354
 20
93.8550237365
 10
51.6459261824
 20
93.7998421521
 10
51.6837582738
 20
93.7093820152
 10
51.7186543989
 20
93.5859061413
 10
51.7497442843
 20
93.4325353625
 10
51.7762732097
 20
93.2530401771
 10
51.7797303414
 20
93.220404294
  0
ARC
  5
4DD
100
AcDbEntity
  8
94855303000_BL10
100
AcDbCircle
 62
7
  6
CONTINUOUS
 10
135.9830290362
 20
975.5721842267
 40
2.0
100
AcDbArc
 50
90.0
 51
180.0
  0
ARC
  5
4DE
100
AcDbEntity
  8
94855303000_BL10
100
AcDbCircle
 62
7
  6
CONTINUOUS
 10
135.9830290362
 20
915.2721842267
 40
2.0
100
AcDbArc
 50
180.0
 51
270.0
  0
ARC
  5
4DF
100
AcDbEntity
  8
94855303000_BL10
100
AcDbCircle
 62
9
  6
CONTINUOUS
 10
135.9830290362
 20
915.2721842267
 40
1.5
100
AcDbArc
 50
180.0
 51
270.0
  0
ARC
  5
4E0
100
AcDbEntity
  8
94855303000_BL10
100
AcDbCircle
 62
9
  6
CONTINUOUS
 10
135.9830290362
 20
975.5721842267
 40
1.5
100
AcDbArc
 50
90.0
 51
180.0
  0
ARC
  5
4E1
100
AcDbEntity
  8
94855303000_BL10
100
AcDbCircle
 62
7
  6
CONTINUOUS
 10
136.2830290362
 20
975.2721842267
 40
0.3
100
AcDbArc
 50
104.9676092806
 51
180.0
  0
ARC
  5
4E2
100
AcDbEntity
  8
94855303000_BL10
100
AcDbCircle
 62
7
  6
CONTINUOUS
 10
136.2830290362
 20
916.4721842267
 40
0.3
100
AcDbArc
 50
180.0
 51
270.0
  0
ARC
  5
4E3
100
AcDbEntity
  8
94855303000_BL10
100
AcDbCircle
 62
7
  6
CONTINUOUS
 10
136.2830290362
 20
915.5721842267
 40
0.3
100
AcDbArc
 50
180.0
 51
255.0323907194
  0
ARC
  5
4E4
100
AcDbEntity
  8
94855303000_BL10
100
AcDbCircle
 62
7
  6
CONTINUOUS
 10
146.5830290362
 20
975.5721842267
 40
2.0
100
AcDbArc
 50
0.0
 51
90.0
  0
ARC
  5
4E5
100
AcDbEntity
  8
94855303000_BL10
100
AcDbCircle
 62
7
  6
CONTINUOUS
 10
146.5830290362
 20
915.2721842267
 40
2.0
100
AcDbArc
 50
270.0
 51
360.0
  0
ARC
  5
4E6
100
AcDbEntity
  8
94855303000_BL10
100
AcDbCircle
 62
9
  6
CONTINUOUS
 10
146.5830290362
 20
915.2721842267
 40
1.5
100
AcDbArc
 50
270.0
 51
360.0
  0
ARC
  5
4E7
100
AcDbEntity
  8
94855303000_BL10
100
AcDbCircle
 62
9
  6
CONTINUOUS
 10
146.5830290362
 20
975.5721842267
 40
1.5
100
AcDbArc
 50
0.0
 51
90.0
  0
ARC
  5
4E8
100
AcDbEntity
  8
94855303000_BL10
100
AcDbCircle
 62
7
  6
CONTINUOUS
 10
146.2830290362
 20
975.2721842267
 40
0.3
100
AcDbArc
 50
0.0
 51
75.0323907194
  0
ARC
  5
4E9
100
AcDbEntity
  8
94855303000_BL10
100
AcDbCircle
 62
7
  6
CONTINUOUS
 10
146.2830290362
 20
916.4721842267
 40
0.3
100
AcDbArc
 50
270.0
 51
360.0
  0
ARC
  5
4EA
100
AcDbEntity
  8
94855303000_BL10
100
AcDbCircle
 62
7
  6
CONTINUOUS
 10
146.2830290362
 20
915.5721842267
 40
0.3
100
AcDbArc
 50
284.9676092806
 51
360.0
  0
ARC
  5
4EB
100
AcDbEntity
  8
94855303000_BL10
100
AcDbCircle
 62
7
  6
CONTINUOUS
 10
32.5652686543
 20
977.0721842267
 40
0.5
100
AcDbArc
 50
90.0
 51
180.0
  0
ARC
  5
4EC
100
AcDbEntity
  8
94855303000_BL10
100
AcDbCircle
 62
7
  6
CONTINUOUS
 10
32.5652686543
 20
913.7721842267
 40
0.5
100
AcDbArc
 50
180.0
 51
270.0
  0
ARC
  5
4ED
100
AcDbEntity
  8
94855303000_BL10
100
AcDbCircle
 62
7
  6
CONTINUOUS
 10
44.1903820191
 20
966.4721842267
 40
10.0
100
AcDbArc
 50
80.0
 51
90.0
  0
ARC
  5
4EE
100
AcDbEntity
  8
94855303000_BL10
100
AcDbCircle
 62
9
  6
CONTINUOUS
 10
44.1903820191
 20
966.4721842267
 40
8.5
100
AcDbArc
 50
80.0
 51
90.0
  0
ARC
  5
4EF
100
AcDbEntity
  8
94855303000_BL10
100
AcDbCircle
 62
7
  6
CONTINUOUS
 10
51.5652686543
 20
973.8029189342
 40
1.5
100
AcDbArc
 50
0.0
 51
80.0
  0
ARC
  5
4F0
100
AcDbEntity
  8
94855303000_BL10
100
AcDbCircle
 62
7
  6
CONTINUOUS
 10
52.5652686543
 20
915.0721842267
 40
0.5
100
AcDbArc
 50
270.0
 51
360.0
  0
ARC
  5
4F1
100
AcDbEntity
  8
94855303000_BL10
100
AcDbCircle
 62
7
  6
CONTINUOUS
 10
51.5652686543
 20
92.3735705372
 40
1.5
100
AcDbArc
 50
29.300950845
 51
90.0
  0
ARC
  5
4F2
100
AcDbEntity
  8
94855303000_BL10
100
AcDbCircle
 62
7
  6
CONTINUOUS
 10
32.5652686543
 20
94.6735705372
 40
0.5
100
AcDbArc
 50
90.0
 51
180.0
  0
ARC
  5
4F3
100
AcDbEntity
  8
94855303000_BL10
100
AcDbCircle
 62
7
  6
CONTINUOUS
 10
32.5652686543
 20
81.0735705372
 40
0.5
100
AcDbArc
 50
180.0
 51
246.3731853201
  0
ENDBLK
  5
4F4
100
AcDbEntity
  8
0
  6
BYBLOCK
 62
0
100
AcDbBlockEnd
  0
BLOCK
  5
4F5
100
AcDbEntity
  8
94625701000_BL11
100
AcDbBlockBegin
  2
94625701000_BL11
 70
64
 10
91.6741488453
 20
577.2978773819
  3
94625701000_BL11
  1

  0
LINE
  5
4F6
100
AcDbEntity
  8
94625701000_BL11
100
AcDbLine
 62
7
  6
CONTINUOUS
 10
132.7830290362
 20
1012.5221842267
 11
134.7688154738
 21
1012.5221842267
  0
LINE
  5
4F7
100
AcDbEntity
  8
94625701000_BL11
100
AcDbLine
 62
7
  6
CONTINUOUS
 10
149.7830290362
 20
1015.4221842267
 11
141.4830290362
 21
1015.4221842267
  0
LINE
  5
4F8
100
AcDbEntity
  8
94625701000_BL11
100
AcDbLine
 62
7
  6
CONTINUOUS
 10
141.4830290362
 20
1015.4221842267
 11
138.0830290362
 21
1015.4221842267
  0
LINE
  5
4F9
100
AcDbEntity
  8
94625701000_BL11
100
AcDbLine
 62
7
  6
CONTINUOUS
 10
135.7830290362
 20
1017.022185313
 11
141.4830290362
 21
1017.0221842267
  0
LINE
  5
4FA
100
AcDbEntity
  8
94625701000_BL11
100
AcDbLine
 62
7
  6
CONTINUOUS
 10
147.1830290362
 20
1018.1721842267
 11
144.1830290362
 21
1018.1721842267
  0
LINE
  5
4FB
100
AcDbEntity
  8
94625701000_BL11
100
AcDbLine
 62
7
  6
CONTINUOUS
 10
135.7830290362
 20
1021.0221842267
 11
141.3330290362
 21
1021.0221842267
  0
LINE
  5
4FC
100
AcDbEntity
  8
94625701000_BL11
100
AcDbLine
 62
7
  6
CONTINUOUS
 10
144.1830290362
 20
1023.8721842267
 11
147.1830290362
 21
1023.8721842267
  0
LINE
  5
4FD
100
AcDbEntity
  8
94625701000_BL11
100
AcDbLine
 62
7
  6
CONTINUOUS
 10
146.1830290362
 20
1034.8721842267
 11
146.7830290362
 21
1034.8721842267
  0
LINE
  5
4FE
100
AcDbEntity
  8
94625701000_BL11
100
AcDbLine
 62
7
  6
CONTINUOUS
 10
146.7830290362
 20
1036.8721842267
 11
146.1830290362
 21
1036.8721842267
  0
LINE
  5
4FF
100
AcDbEntity
  8
94625701000_BL11
100
AcDbLine
 62
7
  6
CONTINUOUS
 10
145.0830290362
 20
1037.3721842267
 11
146.1830290362
 21
1037.3721842267
  0
LINE
  5
500
100
AcDbEntity
  8
94625701000_BL11
100
AcDbLine
 62
7
  6
CONTINUOUS
 10
146.7830290362
 20
1037.3721842267
 11
146.9830290362
 21
1037.3721842267
  0
LINE
  5
501
100
AcDbEntity
  8
94625701000_BL11
100
AcDbLine
 62
7
  6
CONTINUOUS
 10
146.9830290362
 20
1038.1721842267
 11
145.0830290362
 21
1038.1721842267
  0
LINE
  5
502
100
AcDbEntity
  8
94625701000_BL11
100
AcDbLine
 62
7
  6
CONTINUOUS
 10
145.0830290362
 20
1038.5721842267
 11
146.9830290362
 21
1038.5721842267
  0
LINE
  5
503
100
AcDbEntity
  8
94625701000_BL11
100
AcDbLine
 62
7
  6
CONTINUOUS
 10
146.9830290362
 20
1039.3721842267
 11
145.0830290362
 21
1039.3721842267
  0
LINE
  5
504
100
AcDbEntity
  8
94625701000_BL11
100
AcDbLine
 62
7
  6
CONTINUOUS
 10
144.1830290362
 20
1049.1721842267
 11
147.1830290362
 21
1049.1721842267
  0
LINE
  5
505
100
AcDbEntity
  8
94625701000_BL11
100
AcDbLine
 62
7
  6
CONTINUOUS
 10
135.7830290362
 20
1052.0221842267
 11
141.3330290362
 21
1052.0221842267
  0
LINE
  5
506
100
AcDbEntity
  8
94625701000_BL11
100
AcDbLine
 62
7
  6
CONTINUOUS
 10
147.1830290362
 20
1054.8721842267
 11
144.1830290362
 21
1054.8721842267
  0
LINE
  5
507
100
AcDbEntity
  8
94625701000_BL11
100
AcDbLine
 62
7
  6
CONTINUOUS
 10
135.7830290362
 20
1056.0221842267
 11
141.4830290362
 21
1056.0221842267
  0
LINE
  5
508
100
AcDbEntity
  8
94625701000_BL11
100
AcDbLine
 62
7
  6
CONTINUOUS
 10
149.7830290362
 20
1057.6221842267
 11
141.4830290362
 21
1057.6221842267
  0
LINE
  5
509
100
AcDbEntity
  8
94625701000_BL11
100
AcDbLine
 62
7
  6
CONTINUOUS
 10
141.4830290362
 20
1057.6221842267
 11
138.0830290362
 21
1057.6221842267
  0
LINE
  5
50A
100
AcDbEntity
  8
94625701000_BL11
100
AcDbLine
 62
7
  6
CONTINUOUS
 10
132.7830290362
 20
1060.5221842267
 11
134.7688154738
 21
1060.5221842267
  0
LINE
  5
50B
100
AcDbEntity
  8
94625701000_BL11
100
AcDbLine
 62
7
  6
CONTINUOUS
 10
132.2830290362
 20
1013.0221842267
 11
132.2830290362
 21
1060.0221842267
  0
LINE
  5
50C
100
AcDbEntity
  8
94625701000_BL11
100
AcDbLine
 62
9
  6
CONTINUOUS
 10
134.7830290362
 20
1012.5222852444
 11
134.7830290362
 21
1060.5220832089
  0
LINE
  5
50D
100
AcDbEntity
  8
94625701000_BL11
100
AcDbLine
 62
9
  6
CONTINUOUS
 10
135.2830290362
 20
1060.3798577794
 11
135.2830290362
 21
1012.6645106739
  0
LINE
  5
50E
100
AcDbEntity
  8
94625701000_BL11
100
AcDbLine
 62
7
  6
CONTINUOUS
 10
135.7830290362
 20
1059.9221842267
 11
135.7830290362
 21
1013.1221842267
  0
LINE
  5
50F
100
AcDbEntity
  8
94625701000_BL11
100
AcDbLine
 62
9
  6
CONTINUOUS
 10
136.7830290362
 20
1014.1221842267
 11
136.7830290362
 21
1058.9221842267
  0
LINE
  5
510
100
AcDbEntity
  8
94625701000_BL11
100
AcDbLine
 62
7
  6
CONTINUOUS
 10
137.4830290362
 20
1014.8221842267
 11
137.4830290362
 21
1058.2221842267
  0
LINE
  5
511
100
AcDbEntity
  8
94625701000_BL11
100
AcDbLine
 62
7
  6
CONTINUOUS
 10
141.4830290362
 20
1015.4221842267
 11
141.4830290362
 21
1020.1097698471
  0
LINE
  5
512
100
AcDbEntity
  8
94625701000_BL11
100
AcDbLine
 62
7
  6
CONTINUOUS
 10
141.4830290362
 20
1021.9345986062
 11
141.4830290362
 21
1051.1097698471
  0
LINE
  5
513
100
AcDbEntity
  8
94625701000_BL11
100
AcDbLine
 62
7
  6
CONTINUOUS
 10
141.4830290362
 20
1052.9345986062
 11
141.4830290362
 21
1057.6221842267
  0
LINE
  5
514
100
AcDbEntity
  8
94625701000_BL11
100
AcDbLine
 62
9
  6
CONTINUOUS
 10
144.1830290362
 20
1049.420260438
 11
144.1830290362
 21
1049.1721842267
  0
LINE
  5
515
100
AcDbEntity
  8
94625701000_BL11
100
AcDbLine
 62
9
  6
CONTINUOUS
 10
144.1830290362
 20
1018.420260438
 11
144.1830290362
 21
1018.1721842267
  0
LINE
  5
516
100
AcDbEntity
  8
94625701000_BL11
100
AcDbLine
 62
9
  6
CONTINUOUS
 10
144.1830290362
 20
1023.6241080153
 11
144.1830290362
 21
1023.8721842267
  0
LINE
  5
517
100
AcDbEntity
  8
94625701000_BL11
100
AcDbLine
 62
9
  6
CONTINUOUS
 10
144.1830290362
 20
1054.6241080153
 11
144.1830290362
 21
1054.8721842267
  0
LINE
  5
518
100
AcDbEntity
  8
94625701000_BL11
100
AcDbLine
 62
7
  6
CONTINUOUS
 10
145.0830290362
 20
1038.1721842267
 11
145.0830290362
 21
1037.3721842267
  0
LINE
  5
519
100
AcDbEntity
  8
94625701000_BL11
100
AcDbLine
 62
7
  6
CONTINUOUS
 10
145.0830290362
 20
1039.3721842267
 11
145.0830290362
 21
1038.5721842267
  0
LINE
  5
51A
100
AcDbEntity
  8
94625701000_BL11
100
AcDbLine
 62
7
  6
CONTINUOUS
 10
146.1830290362
 20
1037.3721842267
 11
146.1830290362
 21
1036.8721842267
  0
LINE
  5
51B
100
AcDbEntity
  8
94625701000_BL11
100
AcDbLine
 62
7
  6
CONTINUOUS
 10
146.1830290362
 20
1036.6418780723
 11
146.1830290362
 21
1034.8721842267
  0
LINE
  5
51C
100
AcDbEntity
  8
94625701000_BL11
100
AcDbLine
 62
7
  6
CONTINUOUS
 10
146.7830290362
 20
1034.8721842267
 11
146.7830290362
 21
1035.8595705809
  0
LINE
  5
51D
100
AcDbEntity
  8
94625701000_BL11
100
AcDbLine
 62
7
  6
CONTINUOUS
 10
146.7830290362
 20
1036.8721842267
 11
146.7830290362
 21
1037.3721842267
  0
LINE
  5
51E
100
AcDbEntity
  8
94625701000_BL11
100
AcDbLine
 62
9
  6
CONTINUOUS
 10
147.1830290362
 20
1049.9234562703
 11
147.1830290362
 21
1049.1721842267
  0
LINE
  5
51F
100
AcDbEntity
  8
94625701000_BL11
100
AcDbLine
 62
9
  6
CONTINUOUS
 10
147.1830290362
 20
1018.9234562703
 11
147.1830290362
 21
1018.1721842267
  0
LINE
  5
520
100
AcDbEntity
  8
94625701000_BL11
100
AcDbLine
 62
9
  6
CONTINUOUS
 10
147.1830290362
 20
1023.120912183
 11
147.1830290362
 21
1023.8721842267
  0
LINE
  5
521
100
AcDbEntity
  8
94625701000_BL11
100
AcDbLine
 62
9
  6
CONTINUOUS
 10
147.1830290362
 20
1054.120912183
 11
147.1830290362
 21
1054.8721842267
  0
LINE
  5
522
100
AcDbEntity
  8
94625701000_BL11
100
AcDbLine
 62
7
  6
CONTINUOUS
 10
145.9526989503
 20
1035.7025143125
 11
145.4223688644
 21
1036.2328443984
  0
LINE
  5
523
100
AcDbEntity
  8
94625701000_BL11
100
AcDbLine
 62
7
  6
CONTINUOUS
 10
135.475922255
 20
1060.2292910078
 11
135.7830290362
 21
1059.9221842267
  0
LINE
  5
524
100
AcDbEntity
  8
94625701000_BL11
100
AcDbLine
 62
7
  6
CONTINUOUS
 10
135.7830290362
 20
1059.9221842267
 11
138.0830290362
 21
1057.6221842267
  0
LINE
  5
525
100
AcDbEntity
  8
94625701000_BL11
100
AcDbLine
 62
7
  6
CONTINUOUS
 10
150.2830290362
 20
1015.9221842267
 11
150.2830290362
 21
1057.1221842267
  0
LINE
  5
526
100
AcDbEntity
  8
94625701000_BL11
100
AcDbLine
 62
7
  6
CONTINUOUS
 10
135.7830290362
 20
1013.1221842267
 11
135.475922255
 21
1012.8150774455
  0
LINE
  5
527
100
AcDbEntity
  8
94625701000_BL11
100
AcDbLine
 62
7
  6
CONTINUOUS
 10
135.7830290362
 20
1013.1221842267
 11
138.0830290362
 21
1015.4221842267
  0
LINE
  5
528
100
AcDbEntity
  8
94625701000_BL11
100
AcDbLine
 62
7
  6
CONTINUOUS
 10
41.0652686543
 20
94.0735705372
 11
41.0652686543
 21
94.8735705372
  0
LINE
  5
529
100
AcDbEntity
  8
94625701000_BL11
100
AcDbLine
 62
9
  6
CONTINUOUS
 10
33.0653090597
 20
94.3877840996
 11
33.1123810531
 21
94.3877840996
  0
LINE
  5
52A
100
AcDbEntity
  8
94625701000_BL11
100
AcDbLine
 62
9
  6
CONTINUOUS
 10
40.9652686543
 20
94.3877840996
 11
41.0652686543
 21
94.3877840996
  0
LINE
  5
52B
100
AcDbEntity
  8
94625701000_BL11
100
AcDbLine
 62
9
  6
CONTINUOUS
 10
34.4078937282
 20
96.3735705372
 11
34.0652686543
 21
96.3735705372
  0
LINE
  5
52C
100
AcDbEntity
  8
94625701000_BL11
100
AcDbLine
 62
7
  6
CONTINUOUS
 10
36.0652686543
 20
96.8735705372
 11
35.5652686543
 21
96.8735705372
  0
ARC
  5
52D
100
AcDbEntity
  8
94625701000_BL11
100
AcDbCircle
 62
7
  6
CONTINUOUS
 10
134.7688154738
 20
1013.5221842267
 40
1.0
100
AcDbArc
 50
270.0
 51
315.0
  0
ARC
  5
52E
100
AcDbEntity
  8
94625701000_BL11
100
AcDbCircle
 62
7
  6
CONTINUOUS
 10
134.7688154738
 20
1059.5221842267
 40
1.0
100
AcDbArc
 50
45.0
 51
90.0
  0
ARC
  5
52F
100
AcDbEntity
  8
94625701000_BL11
100
AcDbCircle
 62
7
  6
CONTINUOUS
 10
132.7830290362
 20
1060.0221842267
 40
0.5
100
AcDbArc
 50
90.0
 51
180.0
  0
ARC
  5
530
100
AcDbEntity
  8
94625701000_BL11
100
AcDbCircle
 62
7
  6
CONTINUOUS
 10
132.7830290362
 20
1013.0221842267
 40
0.5
100
AcDbArc
 50
180.0
 51
270.0
  0
ARC
  5
531
100
AcDbEntity
  8
94625701000_BL11
100
AcDbCircle
 62
7
  6
CONTINUOUS
 10
144.1830290362
 20
1021.0221842267
 40
2.85
100
AcDbArc
 50
90.0
 51
270.0
  0
ARC
  5
532
100
AcDbEntity
  8
94625701000_BL11
100
AcDbCircle
 62
7
  6
CONTINUOUS
 10
144.1830290362
 20
1021.0221842267
 40
1.85
100
AcDbArc
 50
145.543740214
 51
214.4562601757
  0
ARC
  5
533
100
AcDbEntity
  8
94625701000_BL11
100
AcDbCircle
 62
7
  6
CONTINUOUS
 10
144.1830290362
 20
1052.0221842267
 40
2.85
100
AcDbArc
 50
90.0
 51
270.0
  0
ARC
  5
534
100
AcDbEntity
  8
94625701000_BL11
100
AcDbCircle
 62
7
  6
CONTINUOUS
 10
144.1830290362
 20
1052.0221842267
 40
1.85
100
AcDbArc
 50
145.5437398243
 51
214.456259786
  0
ARC
  5
535
100
AcDbEntity
  8
94625701000_BL11
100
AcDbCircle
 62
7
  6
CONTINUOUS
 10
147.1830290362
 20
1021.0221842267
 40
2.85
100
AcDbArc
 50
270.0
 51
90.0
  0
ARC
  5
536
100
AcDbEntity
  8
94625701000_BL11
100
AcDbCircle
 62
7
  6
CONTINUOUS
 10
147.1830290362
 20
1052.0221842267
 40
2.85
100
AcDbArc
 50
270.0
 51
90.0
  0
ARC
  5
537
100
AcDbEntity
  8
94625701000_BL11
100
AcDbCircle
 62
7
  6
CONTINUOUS
 10
147.1830290362
 20
1021.0221842267
 40
1.85
100
AcDbArc
 50
277.8711078436
 51
82.1288930586
  0
ARC
  5
538
100
AcDbEntity
  8
94625701000_BL11
100
AcDbCircle
 62
7
  6
CONTINUOUS
 10
147.1830290362
 20
1052.0221842267
 40
1.85
100
AcDbArc
 50
277.8711069414
 51
82.1288921564
  0
ARC
  5
539
100
AcDbEntity
  8
94625701000_BL11
100
AcDbCircle
 62
7
  6
CONTINUOUS
 10
146.4830290362
 20
1035.1721842267
 40
1.5
100
AcDbArc
 50
135.0
 51
101.5369590328
  0
ARC
  5
53A
100
AcDbEntity
  8
94625701000_BL11
100
AcDbCircle
 62
7
  6
CONTINUOUS
 10
146.9830290362
 20
1038.3721842267
 40
1.0
100
AcDbArc
 50
270.0
 51
90.0
  0
ARC
  5
53B
100
AcDbEntity
  8
94625701000_BL11
100
AcDbCircle
 62
7
  6
CONTINUOUS
 10
146.4830290362
 20
1035.1721842267
 40
0.75
100
AcDbArc
 50
135.0
 51
66.4218215218
  0
ARC
  5
53C
100
AcDbEntity
  8
94625701000_BL11
100
AcDbCircle
 62
7
  6
CONTINUOUS
 10
149.7830290362
 20
1057.1221842267
 40
0.5
100
AcDbArc
 50
0.0
 51
90.0
  0
ARC
  5
53D
100
AcDbEntity
  8
94625701000_BL11
100
AcDbCircle
 62
7
  6
CONTINUOUS
 10
149.7830290362
 20
1015.9221842267
 40
0.5
100
AcDbArc
 50
270.0
 51
360.0
  0
ARC
  5
53E
100
AcDbEntity
  8
94625701000_BL11
100
AcDbCircle
 62
7
  6
CONTINUOUS
 10
146.9830290362
 20
1038.3721842267
 40
0.2
100
AcDbArc
 50
270.0
 51
90.0
  0
ARC
  5
53F
100
AcDbEntity
  8
94625701000_BL11
100
AcDbCircle
 62
7
  6
CONTINUOUS
 10
35.5652686543
 20
94.3735705372
 40
2.5
100
AcDbArc
 50
126.8698976458
 51
180.0
  0
ARC
  5
540
100
AcDbEntity
  8
94625701000_BL11
100
AcDbCircle
 62
7
  6
CONTINUOUS
 10
35.5652686543
 20
94.3735705372
 40
2.5
100
AcDbArc
 50
90.0
 51
126.8698976458
  0
ENDBLK
  5
541
100
AcDbEntity
  8
0
  6
BYBLOCK
 62
0
100
AcDbBlockEnd
  0
BLOCK
  5
542
100
AcDbEntity
  8
93894201000_BL12
100
AcDbBlockBegin
  2
93894201000_BL12
 70
64
 10
94.0723874518
 20
577.6978773819
  3
93894201000_BL12
  1

  0
LINE
  5
543
100
AcDbEntity
  8
93894201000_BL12
100
AcDbLine
 62
7
  6
CONTINUOUS
 10
150.2830290362
 20
1015.0221842267
 11
138.9330290362
 21
1015.0221842267
  0
LINE
  5
544
100
AcDbEntity
  8
93894201000_BL12
100
AcDbLine
 62
7
  6
CONTINUOUS
 10
138.9330290362
 20
1058.0221842267
 11
150.2830290362
 21
1058.0221842267
  0
LWPOLYLINE
  5
545
100
AcDbEntity
  8
93894201000_BL12
100
AcDbPolyline
 62
7
  6
CONTINUOUS
 90
8
 70
0
 10
142.1794756456
 20
1058.0221842267
 10
142.2496994578
 20
1058.0119387094
 10
142.3147636999
 20
1057.9841304191
 10
142.3757431294
 20
1057.9377673557
 10
142.4294134737
 20
1057.8758255197
 10
142.4733117588
 20
1057.7996493008
 10
142.506228846
 20
1057.7131415312
 10
142.5256698407
 20
1057.6221842267
  0
LINE
  5
546
100
AcDbEntity
  8
93894201000_BL12
100
AcDbLine
 62
7
  6
CONTINUOUS
 10
144.2830290362
 20
1015.0221842267
 11
143.8830290362
 21
1015.4221842267
  0
LINE
  5
547
100
AcDbEntity
  8
93894201000_BL12
100
AcDbLine
 62
7
  6
CONTINUOUS
 10
145.2830290362
 20
1015.0221842267
 11
144.8830290362
 21
1015.4221842267
  0
LINE
  5
548
100
AcDbEntity
  8
93894201000_BL12
100
AcDbLine
 62
7
  6
CONTINUOUS
 10
146.2830290362
 20
1015.0221842267
 11
145.8830290362
 21
1015.4221842267
  0
LINE
  5
549
100
AcDbEntity
  8
93894201000_BL12
100
AcDbLine
 62
7
  6
CONTINUOUS
 10
147.2830290362
 20
1015.0221842267
 11
146.8830290362
 21
1015.4221842267
  0
LINE
  5
54A
100
AcDbEntity
  8
93894201000_BL12
100
AcDbLine
 62
7
  6
CONTINUOUS
 10
148.2830290362
 20
1015.0221842267
 11
147.8830290362
 21
1015.4221842267
  0
LINE
  5
54B
100
AcDbEntity
  8
93894201000_BL12
100
AcDbLine
 62
7
  6
CONTINUOUS
 10
149.2830290362
 20
1015.0221842267
 11
148.8830290362
 21
1015.4221842267
  0
LINE
  5
54C
100
AcDbEntity
  8
93894201000_BL12
100
AcDbLine
 62
7
  6
CONTINUOUS
 10
150.2830290362
 20
1015.0221842267
 11
149.8736824251
 21
1015.4315308377
  0
LINE
  5
54D
100
AcDbEntity
  8
93894201000_BL12
100
AcDbLine
 62
7
  6
CONTINUOUS
 10
142.5330290362
 20
1020.186282326
 11
142.5330290362
 21
1020.2992045221
  0
LINE
  5
54E
100
AcDbEntity
  8
93894201000_BL12
100
AcDbLine
 62
7
  6
CONTINUOUS
 10
142.5330290362
 20
1021.7451639312
 11
142.5330290362
 21
1021.858086029
  0
LINE
  5
54F
100
AcDbEntity
  8
93894201000_BL12
100
AcDbLine
 62
7
  6
CONTINUOUS
 10
142.5330290362
 20
1051.1862824243
 11
142.5330290362
 21
1051.2992045221
  0
LINE
  5
550
100
AcDbEntity
  8
93894201000_BL12
100
AcDbLine
 62
7
  6
CONTINUOUS
 10
142.5330290362
 20
1052.7451639312
 11
142.5330290362
 21
1052.8580861273
  0
LINE
  5
551
100
AcDbEntity
  8
93894201000_BL12
100
AcDbLine
 62
7
  6
CONTINUOUS
 10
142.7830290362
 20
1058.0221842267
 11
142.7830290362
 21
1057.6221842267
  0
LINE
  5
552
100
AcDbEntity
  8
93894201000_BL12
100
AcDbLine
 62
7
  6
CONTINUOUS
 10
142.7830290362
 20
1015.4221842267
 11
142.7830290362
 21
1015.0221842267
  0
LINE
  5
553
100
AcDbEntity
  8
93894201000_BL12
100
AcDbLine
 62
7
  6
CONTINUOUS
 10
143.2830290362
 20
1015.0221842267
 11
143.2830290362
 21
1015.4221842267
  0
LINE
  5
554
100
AcDbEntity
  8
93894201000_BL12
100
AcDbLine
 62
7
  6
CONTINUOUS
 10
143.2830290362
 20
1057.6221842267
 11
143.2830290362
 21
1058.0221842267
  0
LINE
  5
555
100
AcDbEntity
  8
93894201000_BL12
100
AcDbLine
 62
7
  6
CONTINUOUS
 10
144.2830290362
 20
1015.0221842267
 11
144.2830290362
 21
1015.4221842267
  0
LINE
  5
556
100
AcDbEntity
  8
93894201000_BL12
100
AcDbLine
 62
7
  6
CONTINUOUS
 10
144.2830290362
 20
1057.6221842267
 11
144.2830290362
 21
1058.0221842267
  0
LINE
  5
557
100
AcDbEntity
  8
93894201000_BL12
100
AcDbLine
 62
7
  6
CONTINUOUS
 10
145.2830290362
 20
1015.0221842267
 11
145.2830290362
 21
1015.4221842267
  0
LINE
  5
558
100
AcDbEntity
  8
93894201000_BL12
100
AcDbLine
 62
7
  6
CONTINUOUS
 10
145.2830290362
 20
1057.6221842267
 11
145.2830290362
 21
1058.0221842267
  0
LINE
  5
559
100
AcDbEntity
  8
93894201000_BL12
100
AcDbLine
 62
7
  6
CONTINUOUS
 10
146.2830290362
 20
1015.0221842267
 11
146.2830290362
 21
1015.4221842267
  0
LINE
  5
55A
100
AcDbEntity
  8
93894201000_BL12
100
AcDbLine
 62
7
  6
CONTINUOUS
 10
146.2830290362
 20
1057.6221842267
 11
146.2830290362
 21
1058.0221842267
  0
LINE
  5
55B
100
AcDbEntity
  8
93894201000_BL12
100
AcDbLine
 62
7
  6
CONTINUOUS
 10
147.2830290362
 20
1015.0221842267
 11
147.2830290362
 21
1015.4221842267
  0
LINE
  5
55C
100
AcDbEntity
  8
93894201000_BL12
100
AcDbLine
 62
7
  6
CONTINUOUS
 10
147.2830290362
 20
1057.6221842267
 11
147.2830290362
 21
1058.0221842267
  0
LINE
  5
55D
100
AcDbEntity
  8
93894201000_BL12
100
AcDbLine
 62
7
  6
CONTINUOUS
 10
147.7830290362
 20
1053.7698990119
 11
147.7830290362
 21
1053.3689003738
  0
LINE
  5
55E
100
AcDbEntity
  8
93894201000_BL12
100
AcDbLine
 62
7
  6
CONTINUOUS
 10
147.7830290362
 20
1050.6754680796
 11
147.7830290362
 21
1050.2744694775
  0
LINE
  5
55F
100
AcDbEntity
  8
93894201000_BL12
100
AcDbLine
 62
7
  6
CONTINUOUS
 10
147.7830290362
 20
1022.7698989758
 11
147.7830290362
 21
1022.3689003738
  0
LINE
  5
560
100
AcDbEntity
  8
93894201000_BL12
100
AcDbLine
 62
7
  6
CONTINUOUS
 10
147.7830290362
 20
1019.6754680796
 11
147.7830290362
 21
1019.2744694414
  0
LINE
  5
561
100
AcDbEntity
  8
93894201000_BL12
100
AcDbLine
 62
7
  6
CONTINUOUS
 10
148.2830290362
 20
1015.0221842267
 11
148.2830290362
 21
1015.4221842267
  0
LINE
  5
562
100
AcDbEntity
  8
93894201000_BL12
100
AcDbLine
 62
7
  6
CONTINUOUS
 10
148.2830290362
 20
1019.5362796527
 11
148.2830290362
 21
1022.5080887454
  0
LINE
  5
563
100
AcDbEntity
  8
93894201000_BL12
100
AcDbLine
 62
7
  6
CONTINUOUS
 10
148.2830290362
 20
1050.5362797079
 11
148.2830290362
 21
1053.5080888006
  0
LINE
  5
564
100
AcDbEntity
  8
93894201000_BL12
100
AcDbLine
 62
7
  6
CONTINUOUS
 10
148.2830290362
 20
1057.6221842267
 11
148.2830290362
 21
1058.0221842267
  0
LINE
  5
565
100
AcDbEntity
  8
93894201000_BL12
100
AcDbLine
 62
7
  6
CONTINUOUS
 10
148.7830290362
 20
1052.9409920313
 11
148.7830290362
 21
1051.1033764668
  0
LINE
  5
566
100
AcDbEntity
  8
93894201000_BL12
100
AcDbLine
 62
7
  6
CONTINUOUS
 10
148.7830290362
 20
1021.9409919865
 11
148.7830290362
 21
1020.1033764221
  0
LINE
  5
567
100
AcDbEntity
  8
93894201000_BL12
100
AcDbLine
 62
7
  6
CONTINUOUS
 10
138.9330290362
 20
1058.0221842267
 11
136.2830290362
 21
1060.6721842267
  0
LINE
  5
568
100
AcDbEntity
  8
93894201000_BL12
100
AcDbLine
 62
7
  6
CONTINUOUS
 10
143.6830290362
 20
1057.6221842267
 11
143.2830290362
 21
1058.0221842267
  0
LINE
  5
569
100
AcDbEntity
  8
93894201000_BL12
100
AcDbLine
 62
7
  6
CONTINUOUS
 10
144.6830290362
 20
1057.6221842267
 11
144.2830290362
 21
1058.0221842267
  0
LINE
  5
56A
100
AcDbEntity
  8
93894201000_BL12
100
AcDbLine
 62
7
  6
CONTINUOUS
 10
145.6830290362
 20
1057.6221842267
 11
145.2830290362
 21
1058.0221842267
  0
LINE
  5
56B
100
AcDbEntity
  8
93894201000_BL12
100
AcDbLine
 62
7
  6
CONTINUOUS
 10
146.6830290362
 20
1057.6221842267
 11
146.2830290362
 21
1058.0221842267
  0
LINE
  5
56C
100
AcDbEntity
  8
93894201000_BL12
100
AcDbLine
 62
7
  6
CONTINUOUS
 10
147.6830290362
 20
1057.6221842267
 11
147.2830290362
 21
1058.0221842267
  0
LINE
  5
56D
100
AcDbEntity
  8
93894201000_BL12
100
AcDbLine
 62
7
  6
CONTINUOUS
 10
148.6830290362
 20
1057.6221842267
 11
148.2830290362
 21
1058.0221842267
  0
LINE
  5
56E
100
AcDbEntity
  8
93894201000_BL12
100
AcDbLine
 62
7
  6
CONTINUOUS
 10
149.6830290362
 20
1057.6221842267
 11
149.2830290362
 21
1058.0221842267
  0
LINE
  5
56F
100
AcDbEntity
  8
93894201000_BL12
100
AcDbLine
 62
7
  6
CONTINUOUS
 10
149.2830290362
 20
1015.0221842267
 11
149.2830290362
 21
1015.4221842267
  0
LINE
  5
570
100
AcDbEntity
  8
93894201000_BL12
100
AcDbLine
 62
7
  6
CONTINUOUS
 10
149.2830290362
 20
1057.6221842267
 11
149.2830290362
 21
1058.0221842267
  0
LINE
  5
571
100
AcDbEntity
  8
93894201000_BL12
100
AcDbLine
 62
7
  6
CONTINUOUS
 10
150.2830290362
 20
1014.5221842267
 11
150.2830290362
 21
1015.9221842267
  0
LINE
  5
572
100
AcDbEntity
  8
93894201000_BL12
100
AcDbLine
 62
7
  6
CONTINUOUS
 10
150.2830290362
 20
1057.1221842267
 11
150.2830290362
 21
1058.5221842267
  0
LWPOLYLINE
  5
573
100
AcDbEntity
  8
93894201000_BL12
100
AcDbPolyline
 62
7
  6
CONTINUOUS
 90
8
 70
0
 10
142.5256698407
 20
1015.4221842267
 10
142.506228846
 20
1015.3312269221
 10
142.4733117588
 20
1015.2447191525
 10
142.4294134737
 20
1015.1685429336
 10
142.3757431294
 20
1015.1066010976
 10
142.3147636999
 20
1015.0602380342
 10
142.2496994578
 20
1015.0324297439
 10
142.1794756456
 20
1015.0221842267
  0
LINE
  5
574
100
AcDbEntity
  8
93894201000_BL12
100
AcDbLine
 62
7
  6
CONTINUOUS
 10
144.2830290362
 20
1058.0221842267
 11
143.8830290362
 21
1057.6221842267
  0
LINE
  5
575
100
AcDbEntity
  8
93894201000_BL12
100
AcDbLine
 62
7
  6
CONTINUOUS
 10
145.2830290362
 20
1058.0221842267
 11
144.8830290362
 21
1057.6221842267
  0
LINE
  5
576
100
AcDbEntity
  8
93894201000_BL12
100
AcDbLine
 62
7
  6
CONTINUOUS
 10
146.2830290362
 20
1058.0221842267
 11
145.8830290362
 21
1057.6221842267
  0
LINE
  5
577
100
AcDbEntity
  8
93894201000_BL12
100
AcDbLine
 62
7
  6
CONTINUOUS
 10
147.2830290362
 20
1058.0221842267
 11
146.8830290362
 21
1057.6221842267
  0
LINE
  5
578
100
AcDbEntity
  8
93894201000_BL12
100
AcDbLine
 62
7
  6
CONTINUOUS
 10
148.2830290362
 20
1058.0221842267
 11
147.8830290362
 21
1057.6221842267
  0
LINE
  5
579
100
AcDbEntity
  8
93894201000_BL12
100
AcDbLine
 62
7
  6
CONTINUOUS
 10
149.2830290362
 20
1058.0221842267
 11
148.8830290362
 21
1057.6221842267
  0
LINE
  5
57A
100
AcDbEntity
  8
93894201000_BL12
100
AcDbLine
 62
7
  6
CONTINUOUS
 10
150.2830290362
 20
1058.0221842267
 11
149.8736824251
 21
1057.6128376156
  0
LINE
  5
57B
100
AcDbEntity
  8
93894201000_BL12
100
AcDbLine
 62
7
  6
CONTINUOUS
 10
136.2830290362
 20
1012.3721842267
 11
138.9330290362
 21
1015.0221842267
  0
LINE
  5
57C
100
AcDbEntity
  8
93894201000_BL12
100
AcDbLine
 62
7
  6
CONTINUOUS
 10
143.6830290362
 20
1015.4221842267
 11
143.2830290362
 21
1015.0221842267
  0
LINE
  5
57D
100
AcDbEntity
  8
93894201000_BL12
100
AcDbLine
 62
7
  6
CONTINUOUS
 10
144.6830290362
 20
1015.4221842267
 11
144.2830290362
 21
1015.0221842267
  0
LINE
  5
57E
100
AcDbEntity
  8
93894201000_BL12
100
AcDbLine
 62
7
  6
CONTINUOUS
 10
145.6830290362
 20
1015.4221842267
 11
145.2830290362
 21
1015.0221842267
  0
LINE
  5
57F
100
AcDbEntity
  8
93894201000_BL12
100
AcDbLine
 62
7
  6
CONTINUOUS
 10
146.6830290362
 20
1015.4221842267
 11
146.2830290362
 21
1015.0221842267
  0
LINE
  5
580
100
AcDbEntity
  8
93894201000_BL12
100
AcDbLine
 62
7
  6
CONTINUOUS
 10
147.6830290362
 20
1015.4221842267
 11
147.2830290362
 21
1015.0221842267
  0
LINE
  5
581
100
AcDbEntity
  8
93894201000_BL12
100
AcDbLine
 62
7
  6
CONTINUOUS
 10
148.6830290362
 20
1015.4221842267
 11
148.2830290362
 21
1015.0221842267
  0
LINE
  5
582
100
AcDbEntity
  8
93894201000_BL12
100
AcDbLine
 62
7
  6
CONTINUOUS
 10
149.6830290362
 20
1015.4221842267
 11
149.2830290362
 21
1015.0221842267
  0
LINE
  5
583
100
AcDbEntity
  8
93894201000_BL12
100
AcDbLine
 62
7
  6
CONTINUOUS
 10
39.0652686543
 20
94.7235705372
 11
39.0652686543
 21
94.8735705372
  0
ARC
  5
584
100
AcDbEntity
  8
93894201000_BL12
100
AcDbCircle
 62
7
  6
CONTINUOUS
 10
140.2830290362
 20
1057.5221842267
 40
0.5
100
AcDbArc
 50
11.5504554011
 51
90.0
  0
ARC
  5
585
100
AcDbEntity
  8
93894201000_BL12
100
AcDbCircle
 62
7
  6
CONTINUOUS
 10
140.2830290362
 20
1015.5221842267
 40
0.5
100
AcDbArc
 50
270.0
 51
348.4495445989
  0
ARC
  5
586
100
AcDbEntity
  8
93894201000_BL12
100
AcDbCircle
 62
7
  6
CONTINUOUS
 10
39.0652686543
 20
89.8735705372
 40
5.0
100
AcDbArc
 50
90.0
 51
103.928127629
  0
ENDBLK
  5
587
100
AcDbEntity
  8
0
  6
BYBLOCK
 62
0
100
AcDbBlockEnd
  0
BLOCK
  5
588
100
AcDbEntity
  8
93780800R00_BL13
100
AcDbBlockBegin
  2
93780800R00_BL13
 70
64
 10
145.2830290362
 20
1021.0221842267
  3
93780800R00_BL13
  1

  0
LINE
  5
589
100
AcDbEntity
  8
93780800R00_BL13
100
AcDbLine
 62
7
  6
CONTINUOUS
 10
146.0392713563
 20
1021.0221842267
 11
145.756750773
 21
1021.0221842267
  0
LINE
  5
58A
100
AcDbEntity
  8
93780800R00_BL13
100
AcDbLine
 62
7
  6
CONTINUOUS
 10
144.5267867161
 20
1021.0221842267
 11
144.8093072994
 21
1021.0221842267
  0
LINE
  5
58B
100
AcDbEntity
  8
93780800R00_BL13
100
AcDbLine
 62
7
  6
CONTINUOUS
 10
145.3741831536
 20
1020.2309511192
 11
145.2830290362
 21
1020.2659419065
  0
LINE
  5
58C
100
AcDbEntity
  8
93780800R00_BL13
100
AcDbLine
 62
7
  6
CONTINUOUS
 10
145.1918749188
 20
1021.8134173341
 11
145.2830290362
 21
1021.7784265468
  0
LINE
  5
58D
100
AcDbEntity
  8
93780800R00_BL13
100
AcDbLine
 62
7
  6
CONTINUOUS
 10
145.3585435968
 20
1020.5168737452
 11
145.2830290362
 21
1020.5484624899
  0
LINE
  5
58E
100
AcDbEntity
  8
93780800R00_BL13
100
AcDbLine
 62
7
  6
CONTINUOUS
 10
145.2075144756
 20
1021.5274947081
 11
145.2830290362
 21
1021.4959059634
  0
LINE
  5
58F
100
AcDbEntity
  8
93780800R00_BL13
100
AcDbLine
 62
7
  6
CONTINUOUS
 10
145.4354024561
 20
1020.4839834587
 11
145.3585435968
 21
1020.5168737452
  0
LINE
  5
590
100
AcDbEntity
  8
93780800R00_BL13
100
AcDbLine
 62
7
  6
CONTINUOUS
 10
145.1306556164
 20
1021.5603849946
 11
145.2075144756
 21
1021.5274947081
  0
LINE
  5
591
100
AcDbEntity
  8
93780800R00_BL13
100
AcDbLine
 62
7
  6
CONTINUOUS
 10
145.5136730994
 20
1020.4499064753
 11
145.4354024561
 21
1020.4839834587
  0
LINE
  5
592
100
AcDbEntity
  8
93780800R00_BL13
100
AcDbLine
 62
7
  6
CONTINUOUS
 10
145.052384973
 20
1021.594461978
 11
145.1306556164
 21
1021.5603849946
  0
LINE
  5
593
100
AcDbEntity
  8
93780800R00_BL13
100
AcDbLine
 62
7
  6
CONTINUOUS
 10
144.6966110151
 20
1021.2657800076
 11
143.936095105
 21
1021.7377271332
  0
LINE
  5
594
100
AcDbEntity
  8
93780800R00_BL13
100
AcDbLine
 62
7
  6
CONTINUOUS
 10
145.8694470573
 20
1020.7785884457
 11
146.6299629674
 21
1020.3066413201
  0
LINE
  5
595
100
AcDbEntity
  8
93780800R00_BL13
100
AcDbLine
 62
7
  6
CONTINUOUS
 10
144.4917959288
 20
1020.9310301093
 11
144.7107512849
 21
1020.7915401634
  0
LINE
  5
596
100
AcDbEntity
  8
93780800R00_BL13
100
AcDbLine
 62
7
  6
CONTINUOUS
 10
146.0742621436
 20
1021.1133383441
 11
145.8553067875
 21
1021.2528282899
  0
LWPOLYLINE
  5
597
100
AcDbEntity
  8
93780800R00_BL13
100
AcDbPolyline
 62
7
  6
CONTINUOUS
 90
5
 70
0
 10
143.936095105
 20
1021.7377271332
 10
143.8698572618
 20
1021.7858035726
 10
143.7908695508
 20
1021.8526021666
 10
143.6991319721
 20
1021.9381229151
 10
143.5946445255
 20
1022.0423658182
  0
LWPOLYLINE
  5
598
100
AcDbEntity
  8
93780800R00_BL13
100
AcDbPolyline
 62
7
  6
CONTINUOUS
 90
5
 70
0
 10
146.6299629674
 20
1020.3066413201
 10
146.6962008106
 20
1020.2585648807
 10
146.7751885216
 20
1020.1917662868
 10
146.8669261004
 20
1020.1062455382
 10
146.971413547
 20
1020.0020026351
  0
LINE
  5
599
100
AcDbEntity
  8
93780800R00_BL13
100
AcDbLine
 62
7
  6
CONTINUOUS
 10
144.7107512849
 20
1021.2528282899
 11
144.6966110151
 21
1021.2657800076
  0
LINE
  5
59A
100
AcDbEntity
  8
93780800R00_BL13
100
AcDbLine
 62
7
  6
CONTINUOUS
 10
145.8553067875
 20
1020.7915401634
 11
145.8694470573
 21
1020.7785884457
  0
LINE
  5
59B
100
AcDbEntity
  8
93780800R00_BL13
100
AcDbLine
 62
7
  6
CONTINUOUS
 10
146.3032106278
 20
1019.3337997159
 11
145.3741831536
 21
1020.2309511192
  0
LINE
  5
59C
100
AcDbEntity
  8
93780800R00_BL13
100
AcDbLine
 62
7
  6
CONTINUOUS
 10
144.2628474446
 20
1022.7105687374
 11
145.1918749188
 21
1021.8134173341
  0
LWPOLYLINE
  5
59D
100
AcDbEntity
  8
93780800R00_BL13
100
AcDbPolyline
 62
7
  6
CONTINUOUS
 90
5
 70
0
 10
146.3032106278
 20
1019.3337997159
 10
146.1989190721
 20
1019.4383417611
 10
146.1133821061
 20
1019.5300975394
 10
146.0465997296
 20
1019.6090670509
 10
145.9985719428
 20
1019.6752502954
  0
LWPOLYLINE
  5
59E
100
AcDbEntity
  8
93780800R00_BL13
100
AcDbPolyline
 62
7
  6
CONTINUOUS
 90
5
 70
0
 10
144.2628474446
 20
1022.7105687374
 10
144.3671390003
 20
1022.6060266922
 10
144.4526759664
 20
1022.5142709139
 10
144.5194583428
 20
1022.4353014025
 10
144.5674861297
 20
1022.3691181579
  0
LINE
  5
59F
100
AcDbEntity
  8
93780800R00_BL13
100
AcDbLine
 62
7
  6
CONTINUOUS
 10
144.4917959288
 20
1021.1133383441
 11
143.5946445255
 21
1022.0423658182
  0
LINE
  5
5A0
100
AcDbEntity
  8
93780800R00_BL13
100
AcDbLine
 62
7
  6
CONTINUOUS
 10
146.0742621436
 20
1020.9310301093
 11
146.971413547
 21
1020.0020026351
  0
LINE
  5
5A1
100
AcDbEntity
  8
93780800R00_BL13
100
AcDbLine
 62
7
  6
CONTINUOUS
 10
145.5266248172
 20
1020.4357662055
 11
145.5136730994
 21
1020.4499064753
  0
LINE
  5
5A2
100
AcDbEntity
  8
93780800R00_BL13
100
AcDbLine
 62
7
  6
CONTINUOUS
 10
145.0394332553
 20
1021.6086022478
 11
145.052384973
 21
1021.594461978
  0
LINE
  5
5A3
100
AcDbEntity
  8
93780800R00_BL13
100
AcDbLine
 62
7
  6
CONTINUOUS
 10
145.2830290362
 20
1021.7784265468
 11
145.2830290362
 21
1021.4959059634
  0
LINE
  5
5A4
100
AcDbEntity
  8
93780800R00_BL13
100
AcDbLine
 62
7
  6
CONTINUOUS
 10
145.2830290362
 20
1020.2659419065
 11
145.2830290362
 21
1020.5484624899
  0
LINE
  5
5A5
100
AcDbEntity
  8
93780800R00_BL13
100
AcDbLine
 62
7
  6
CONTINUOUS
 10
145.1918749188
 20
1020.2309511192
 11
145.052384973
 21
1020.4499064753
  0
LINE
  5
5A6
100
AcDbEntity
  8
93780800R00_BL13
100
AcDbLine
 62
7
  6
CONTINUOUS
 10
145.3741831536
 20
1021.8134173341
 11
145.5136730994
 21
1021.594461978
  0
LINE
  5
5A7
100
AcDbEntity
  8
93780800R00_BL13
100
AcDbLine
 62
7
  6
CONTINUOUS
 10
145.9985719428
 20
1019.6752502954
 11
145.5266248172
 21
1020.4357662055
  0
LINE
  5
5A8
100
AcDbEntity
  8
93780800R00_BL13
100
AcDbLine
 62
7
  6
CONTINUOUS
 10
144.5674861297
 20
1022.3691181579
 11
145.0394332553
 21
1021.6086022478
  0
LINE
  5
5A9
100
AcDbEntity
  8
93780800R00_BL13
100
AcDbLine
 62
7
  6
CONTINUOUS
 10
144.7448156357
 20
1021.1745868898
 11
144.7107512849
 21
1021.2528282899
  0
LINE
  5
5AA
100
AcDbEntity
  8
93780800R00_BL13
100
AcDbLine
 62
7
  6
CONTINUOUS
 10
145.8212424367
 20
1020.8697815635
 11
145.8553067875
 21
1020.7915401634
  0
LINE
  5
5AB
100
AcDbEntity
  8
93780800R00_BL13
100
AcDbLine
 62
7
  6
CONTINUOUS
 10
144.7777041144
 20
1021.0977328858
 11
144.7448156357
 21
1021.1745868898
  0
LINE
  5
5AC
100
AcDbEntity
  8
93780800R00_BL13
100
AcDbLine
 62
7
  6
CONTINUOUS
 10
145.7883539581
 20
1020.9466355675
 11
145.8212424367
 21
1020.8697815635
  0
LINE
  5
5AD
100
AcDbEntity
  8
93780800R00_BL13
100
AcDbLine
 62
7
  6
CONTINUOUS
 10
144.8093072994
 20
1021.0221842267
 11
144.7777041144
 21
1021.0977328858
  0
LINE
  5
5AE
100
AcDbEntity
  8
93780800R00_BL13
100
AcDbLine
 62
7
  6
CONTINUOUS
 10
145.756750773
 20
1021.0221842267
 11
145.7883539581
 21
1020.9466355675
  0
LINE
  5
5AF
100
AcDbEntity
  8
93780800R00_BL13
100
AcDbLine
 62
7
  6
CONTINUOUS
 10
144.5267867161
 20
1021.0221842267
 11
144.4917959288
 21
1021.1133383441
  0
LINE
  5
5B0
100
AcDbEntity
  8
93780800R00_BL13
100
AcDbLine
 62
7
  6
CONTINUOUS
 10
146.0392713563
 20
1021.0221842267
 11
146.0742621436
 21
1020.9310301093
  0
LINE
  5
5B1
100
AcDbEntity
  8
93780800R00_BL13
100
AcDbLine
 62
7
  6
CONTINUOUS
 10
144.4917959288
 20
1020.9310301093
 11
144.5267867161
 21
1021.0221842267
  0
LINE
  5
5B2
100
AcDbEntity
  8
93780800R00_BL13
100
AcDbLine
 62
7
  6
CONTINUOUS
 10
146.0742621436
 20
1021.1133383441
 11
146.0392713563
 21
1021.0221842267
  0
LINE
  5
5B3
100
AcDbEntity
  8
93780800R00_BL13
100
AcDbLine
 62
7
  6
CONTINUOUS
 10
144.7777183543
 20
1020.9466691927
 11
144.8093072994
 21
1021.0221842267
  0
LINE
  5
5B4
100
AcDbEntity
  8
93780800R00_BL13
100
AcDbLine
 62
7
  6
CONTINUOUS
 10
145.7883397181
 20
1021.0976992606
 11
145.756750773
 21
1021.0221842267
  0
LINE
  5
5B5
100
AcDbEntity
  8
93780800R00_BL13
100
AcDbLine
 62
7
  6
CONTINUOUS
 10
144.7448287806
 20
1020.8698119928
 11
144.7777183543
 21
1020.9466691927
  0
LINE
  5
5B6
100
AcDbEntity
  8
93780800R00_BL13
100
AcDbLine
 62
7
  6
CONTINUOUS
 10
145.8212292919
 20
1021.1745564605
 11
145.7883397181
 21
1021.0976992606
  0
LINE
  5
5B7
100
AcDbEntity
  8
93780800R00_BL13
100
AcDbLine
 62
7
  6
CONTINUOUS
 10
144.7107512849
 20
1020.7915401634
 11
144.7448287806
 21
1020.8698119928
  0
LINE
  5
5B8
100
AcDbEntity
  8
93780800R00_BL13
100
AcDbLine
 62
7
  6
CONTINUOUS
 10
145.8553067875
 20
1021.2528282899
 11
145.8212292919
 21
1021.1745564605
  0
LINE
  5
5B9
100
AcDbEntity
  8
93780800R00_BL13
100
AcDbLine
 62
7
  6
CONTINUOUS
 10
145.5266248172
 20
1021.6086022478
 11
145.9985719428
 21
1022.3691181579
  0
LINE
  5
5BA
100
AcDbEntity
  8
93780800R00_BL13
100
AcDbLine
 62
7
  6
CONTINUOUS
 10
145.0394332553
 20
1020.4357662055
 11
144.5674861297
 21
1019.6752502954
  0
LINE
  5
5BB
100
AcDbEntity
  8
93780800R00_BL13
100
AcDbLine
 62
7
  6
CONTINUOUS
 10
145.1918749188
 20
1021.8134173341
 11
145.052384973
 21
1021.594461978
  0
LINE
  5
5BC
100
AcDbEntity
  8
93780800R00_BL13
100
AcDbLine
 62
7
  6
CONTINUOUS
 10
145.3741831536
 20
1020.2309511192
 11
145.5136730994
 21
1020.4499064753
  0
LWPOLYLINE
  5
5BD
100
AcDbEntity
  8
93780800R00_BL13
100
AcDbPolyline
 62
7
  6
CONTINUOUS
 90
5
 70
0
 10
145.9985719428
 20
1022.3691181579
 10
146.0466483822
 20
1022.435356001
 10
146.1134469761
 20
1022.514343712
 10
146.1989677247
 20
1022.6060812908
 10
146.3032106278
 20
1022.7105687374
  0
LWPOLYLINE
  5
5BE
100
AcDbEntity
  8
93780800R00_BL13
100
AcDbPolyline
 62
7
  6
CONTINUOUS
 90
5
 70
0
 10
144.5674861297
 20
1019.6752502954
 10
144.5194096903
 20
1019.6090124523
 10
144.4526110963
 20
1019.5300247413
 10
144.3670903478
 20
1019.4382871625
 10
144.2628474446
 20
1019.3337997159
  0
LINE
  5
5BF
100
AcDbEntity
  8
93780800R00_BL13
100
AcDbLine
 62
7
  6
CONTINUOUS
 10
145.5136730994
 20
1021.594461978
 11
145.5266248172
 21
1021.6086022478
  0
LINE
  5
5C0
100
AcDbEntity
  8
93780800R00_BL13
100
AcDbLine
 62
7
  6
CONTINUOUS
 10
145.052384973
 20
1020.4499064753
 11
145.0394332553
 21
1020.4357662055
  0
LINE
  5
5C1
100
AcDbEntity
  8
93780800R00_BL13
100
AcDbLine
 62
7
  6
CONTINUOUS
 10
143.5946445255
 20
1020.0020026351
 11
144.4917959288
 21
1020.9310301093
  0
LINE
  5
5C2
100
AcDbEntity
  8
93780800R00_BL13
100
AcDbLine
 62
7
  6
CONTINUOUS
 10
146.971413547
 20
1022.0423658182
 11
146.0742621436
 21
1021.1133383441
  0
LWPOLYLINE
  5
5C3
100
AcDbEntity
  8
93780800R00_BL13
100
AcDbPolyline
 62
7
  6
CONTINUOUS
 90
5
 70
0
 10
143.5946445255
 20
1020.0020026351
 10
143.6991865707
 20
1020.1062941907
 10
143.790942349
 20
1020.1918311568
 10
143.8699118604
 20
1020.2586135333
 10
143.936095105
 20
1020.3066413201
  0
LWPOLYLINE
  5
5C4
100
AcDbEntity
  8
93780800R00_BL13
100
AcDbPolyline
 62
7
  6
CONTINUOUS
 90
5
 70
0
 10
146.971413547
 20
1022.0423658182
 10
146.8668715018
 20
1021.9380742626
 10
146.7751157235
 20
1021.8525372965
 10
146.696146212
 20
1021.7857549201
 10
146.6299629674
 20
1021.7377271332
  0
LINE
  5
5C5
100
AcDbEntity
  8
93780800R00_BL13
100
AcDbLine
 62
7
  6
CONTINUOUS
 10
145.3741831536
 20
1021.8134173341
 11
146.3032106278
 21
1022.7105687374
  0
LINE
  5
5C6
100
AcDbEntity
  8
93780800R00_BL13
100
AcDbLine
 62
7
  6
CONTINUOUS
 10
145.1918749188
 20
1020.2309511192
 11
144.2628474446
 21
1019.3337997159
  0
LINE
  5
5C7
100
AcDbEntity
  8
93780800R00_BL13
100
AcDbLine
 62
7
  6
CONTINUOUS
 10
144.6966110151
 20
1020.7785884457
 11
144.7107512849
 21
1020.7915401634
  0
LINE
  5
5C8
100
AcDbEntity
  8
93780800R00_BL13
100
AcDbLine
 62
7
  6
CONTINUOUS
 10
145.8694470573
 20
1021.2657800076
 11
145.8553067875
 21
1021.2528282899
  0
LINE
  5
5C9
100
AcDbEntity
  8
93780800R00_BL13
100
AcDbLine
 62
7
  6
CONTINUOUS
 10
144.4917959288
 20
1021.1133383441
 11
144.7107512849
 21
1021.2528282899
  0
LINE
  5
5CA
100
AcDbEntity
  8
93780800R00_BL13
100
AcDbLine
 62
7
  6
CONTINUOUS
 10
146.0742621436
 20
1020.9310301093
 11
145.8553067875
 21
1020.7915401634
  0
LINE
  5
5CB
100
AcDbEntity
  8
93780800R00_BL13
100
AcDbLine
 62
7
  6
CONTINUOUS
 10
143.936095105
 20
1020.3066413201
 11
144.6966110151
 21
1020.7785884457
  0
LINE
  5
5CC
100
AcDbEntity
  8
93780800R00_BL13
100
AcDbLine
 62
7
  6
CONTINUOUS
 10
146.6299629674
 20
1021.7377271332
 11
145.8694470573
 21
1021.2657800076
  0
LINE
  5
5CD
100
AcDbEntity
  8
93780800R00_BL13
100
AcDbLine
 62
7
  6
CONTINUOUS
 10
145.4354302315
 20
1021.5603969931
 11
145.5136730994
 21
1021.594461978
  0
LINE
  5
5CE
100
AcDbEntity
  8
93780800R00_BL13
100
AcDbLine
 62
7
  6
CONTINUOUS
 10
145.1306278409
 20
1020.4839714602
 11
145.052384973
 21
1020.4499064753
  0
LINE
  5
5CF
100
AcDbEntity
  8
93780800R00_BL13
100
AcDbLine
 62
7
  6
CONTINUOUS
 10
145.3585789887
 20
1021.5275096962
 11
145.4354302315
 21
1021.5603969931
  0
LINE
  5
5D0
100
AcDbEntity
  8
93780800R00_BL13
100
AcDbLine
 62
7
  6
CONTINUOUS
 10
145.2074790838
 20
1020.5168587571
 11
145.1306278409
 21
1020.4839714602
  0
LINE
  5
5D1
100
AcDbEntity
  8
93780800R00_BL13
100
AcDbLine
 62
7
  6
CONTINUOUS
 10
145.2830290362
 20
1021.4959059634
 11
145.3585789887
 21
1021.5275096962
  0
LINE
  5
5D2
100
AcDbEntity
  8
93780800R00_BL13
100
AcDbLine
 62
7
  6
CONTINUOUS
 10
145.2830290362
 20
1020.5484624899
 11
145.2074790838
 21
1020.5168587571
  0
LINE
  5
5D3
100
AcDbEntity
  8
93780800R00_BL13
100
AcDbLine
 62
7
  6
CONTINUOUS
 10
145.2830290362
 20
1021.7784265468
 11
145.3741831536
 21
1021.8134173341
  0
LINE
  5
5D4
100
AcDbEntity
  8
93780800R00_BL13
100
AcDbLine
 62
7
  6
CONTINUOUS
 10
145.2830290362
 20
1020.2659419065
 11
145.1918749188
 21
1020.2309511192
  0
CIRCLE
  5
5D5
100
AcDbEntity
  8
93780800R00_BL13
100
AcDbCircle
 62
7
  6
CONTINUOUS
 10
145.2830290362
 20
1021.0221842267
 40
2.85
  0
ARC
  5
5D6
100
AcDbEntity
  8
93780800R00_BL13
100
AcDbCircle
 62
9
  6
CONTINUOUS
 10
145.2830290362
 20
1021.0221842267
 40
1.9726664026
100
AcDbArc
 50
121.1528667687
 51
148.8529794039
  0
ARC
  5
5D7
100
AcDbEntity
  8
93780800R00_BL13
100
AcDbCircle
 62
9
  6
CONTINUOUS
 10
145.2830290362
 20
1021.0221842267
 40
1.9726664026
100
AcDbArc
 50
31.14168669
 51
58.8742098283
  0
ARC
  5
5D8
100
AcDbEntity
  8
93780800R00_BL13
100
AcDbCircle
 62
9
  6
CONTINUOUS
 10
145.2830290362
 20
1021.0221842267
 40
1.9726664026
100
AcDbArc
 50
301.1402786404
 51
328.8739772223
  0
ARC
  5
5D9
100
AcDbEntity
  8
93780800R00_BL13
100
AcDbCircle
 62
9
  6
CONTINUOUS
 10
145.2830290362
 20
1021.0221842267
 40
1.9726664026
100
AcDbArc
 50
211.1234299516
 51
238.8466423422
  0
ARC
  5
5DA
100
AcDbEntity
  8
93780800R00_BL13
100
AcDbCircle
 62
9
  6
CONTINUOUS
 10
145.2830290362
 20
1021.0221842267
 40
1.5251992218
100
AcDbArc
 50
117.9789520644
 51
152.0210479356
  0
ARC
  5
5DB
100
AcDbEntity
  8
93780800R00_BL13
100
AcDbCircle
 62
9
  6
CONTINUOUS
 10
145.2830290362
 20
1021.0221842267
 40
1.5251992218
100
AcDbArc
 50
27.9789520644
 51
62.0210479356
  0
ARC
  5
5DC
100
AcDbEntity
  8
93780800R00_BL13
100
AcDbCircle
 62
9
  6
CONTINUOUS
 10
145.2830290362
 20
1021.0221842267
 40
1.5251992218
100
AcDbArc
 50
297.9789520644
 51
332.0210479356
  0
ARC
  5
5DD
100
AcDbEntity
  8
93780800R00_BL13
100
AcDbCircle
 62
9
  6
CONTINUOUS
 10
145.2830290362
 20
1021.0221842267
 40
1.5251992218
100
AcDbArc
 50
207.9789520644
 51
242.0210479356
  0
ARC
  5
5DE
100
AcDbEntity
  8
93780800R00_BL13
100
AcDbCircle
 62
7
  6
CONTINUOUS
 10
145.2830290362
 20
1021.0221842267
 40
0.635
100
AcDbArc
 50
112.5578096573
 51
157.4421903427
  0
ARC
  5
5DF
100
AcDbEntity
  8
93780800R00_BL13
100
AcDbCircle
 62
7
  6
CONTINUOUS
 10
145.2830290362
 20
1021.0221842267
 40
0.635
100
AcDbArc
 50
202.5578096573
 51
247.4421903427
  0
ARC
  5
5E0
100
AcDbEntity
  8
93780800R00_BL13
100
AcDbCircle
 62
7
  6
CONTINUOUS
 10
145.2830290362
 20
1021.0221842267
 40
0.635
100
AcDbArc
 50
22.5578096573
 51
67.4421903427
  0
ARC
  5
5E1
100
AcDbEntity
  8
93780800R00_BL13
100
AcDbCircle
 62
7
  6
CONTINUOUS
 10
145.2830290362
 20
1021.0221842267
 40
0.635
100
AcDbArc
 50
292.5578096573
 51
337.4421903427
  0
ENDBLK
  5
5E2
100
AcDbEntity
  8
0
  6
BYBLOCK
 62
0
100
AcDbBlockEnd
  0
BLOCK
  5
5E3
100
AcDbEntity
  8
62890228000_BL14
100
AcDbBlockBegin
  2
62890228000_BL14
 70
64
 10
91.6241488453
 20
1036.5221842267
  3
62890228000_BL14
  1

  0
LINE
  5
5E4
100
AcDbEntity
  8
62890228000_BL14
100
AcDbLine
 62
7
  6
CENTER
 10
153.2830290362
 20
1036.5221842267
 11
129.2830290362
 21
1036.5221842267
  0
LINE
  5
5E5
100
AcDbEntity
  8
62890228000_BL14
100
AcDbLine
 62
7
  6
CENTER
 10
29.9652686543
 20
1036.5221842267
 11
44.0652686543
 21
1036.5221842267
  0
ENDBLK
  5
5E6
100
AcDbEntity
  8
0
  6
BYBLOCK
 62
0
100
AcDbBlockEnd
  0
BLOCK
  5
5E7
100
AcDbEntity
  8
93780800R00_BL15
100
AcDbBlockBegin
  2
93780800R00_BL15
 70
64
 10
145.2830290362
 20
1052.0221842267
  3
93780800R00_BL15
  1

  0
LINE
  5
5E8
100
AcDbEntity
  8
93780800R00_BL15
100
AcDbLine
 62
7
  6
CONTINUOUS
 10
146.0392713563
 20
1052.0221842267
 11
145.756750773
 21
1052.0221842267
  0
LINE
  5
5E9
100
AcDbEntity
  8
93780800R00_BL15
100
AcDbLine
 62
7
  6
CONTINUOUS
 10
144.5267867161
 20
1052.0221842267
 11
144.8093072994
 21
1052.0221842267
  0
LINE
  5
5EA
100
AcDbEntity
  8
93780800R00_BL15
100
AcDbLine
 62
7
  6
CONTINUOUS
 10
145.3741831536
 20
1051.2309511192
 11
145.2830290362
 21
1051.2659419065
  0
LINE
  5
5EB
100
AcDbEntity
  8
93780800R00_BL15
100
AcDbLine
 62
7
  6
CONTINUOUS
 10
145.1918749188
 20
1052.8134173341
 11
145.2830290362
 21
1052.7784265468
  0
LINE
  5
5EC
100
AcDbEntity
  8
93780800R00_BL15
100
AcDbLine
 62
7
  6
CONTINUOUS
 10
145.3585435968
 20
1051.5168737452
 11
145.2830290362
 21
1051.5484624899
  0
LINE
  5
5ED
100
AcDbEntity
  8
93780800R00_BL15
100
AcDbLine
 62
7
  6
CONTINUOUS
 10
145.2075144756
 20
1052.5274947081
 11
145.2830290362
 21
1052.4959059634
  0
LINE
  5
5EE
100
AcDbEntity
  8
93780800R00_BL15
100
AcDbLine
 62
7
  6
CONTINUOUS
 10
145.4354024561
 20
1051.4839834587
 11
145.3585435968
 21
1051.5168737452
  0
LINE
  5
5EF
100
AcDbEntity
  8
93780800R00_BL15
100
AcDbLine
 62
7
  6
CONTINUOUS
 10
145.1306556164
 20
1052.5603849946
 11
145.2075144756
 21
1052.5274947081
  0
LINE
  5
5F0
100
AcDbEntity
  8
93780800R00_BL15
100
AcDbLine
 62
7
  6
CONTINUOUS
 10
145.5136730994
 20
1051.4499064753
 11
145.4354024561
 21
1051.4839834587
  0
LINE
  5
5F1
100
AcDbEntity
  8
93780800R00_BL15
100
AcDbLine
 62
7
  6
CONTINUOUS
 10
145.052384973
 20
1052.594461978
 11
145.1306556164
 21
1052.5603849946
  0
LINE
  5
5F2
100
AcDbEntity
  8
93780800R00_BL15
100
AcDbLine
 62
7
  6
CONTINUOUS
 10
145.2830290362
 20
1052.7784265468
 11
145.2830290362
 21
1052.4959059634
  0
LINE
  5
5F3
100
AcDbEntity
  8
93780800R00_BL15
100
AcDbLine
 62
7
  6
CONTINUOUS
 10
145.2830290362
 20
1051.2659419065
 11
145.2830290362
 21
1051.5484624899
  0
LINE
  5
5F4
100
AcDbEntity
  8
93780800R00_BL15
100
AcDbLine
 62
7
  6
CONTINUOUS
 10
144.6966110151
 20
1052.2657800076
 11
143.936095105
 21
1052.7377271332
  0
LINE
  5
5F5
100
AcDbEntity
  8
93780800R00_BL15
100
AcDbLine
 62
7
  6
CONTINUOUS
 10
145.8694470573
 20
1051.7785884457
 11
146.6299629674
 21
1051.3066413201
  0
LINE
  5
5F6
100
AcDbEntity
  8
93780800R00_BL15
100
AcDbLine
 62
7
  6
CONTINUOUS
 10
144.4917959288
 20
1051.9310301093
 11
144.7107512849
 21
1051.7915401634
  0
LINE
  5
5F7
100
AcDbEntity
  8
93780800R00_BL15
100
AcDbLine
 62
7
  6
CONTINUOUS
 10
146.0742621436
 20
1052.1133383441
 11
145.8553067875
 21
1052.2528282899
  0
LWPOLYLINE
  5
5F8
100
AcDbEntity
  8
93780800R00_BL15
100
AcDbPolyline
 62
7
  6
CONTINUOUS
 90
5
 70
0
 10
143.936095105
 20
1052.7377271332
 10
143.8698572618
 20
1052.7858035726
 10
143.7908695508
 20
1052.8526021666
 10
143.6991319721
 20
1052.9381229151
 10
143.5946445255
 20
1053.0423658182
  0
LWPOLYLINE
  5
5F9
100
AcDbEntity
  8
93780800R00_BL15
100
AcDbPolyline
 62
7
  6
CONTINUOUS
 90
5
 70
0
 10
146.6299629674
 20
1051.3066413201
 10
146.6962008106
 20
1051.2585648807
 10
146.7751885216
 20
1051.1917662868
 10
146.8669261004
 20
1051.1062455382
 10
146.971413547
 20
1051.0020026351
  0
LINE
  5
5FA
100
AcDbEntity
  8
93780800R00_BL15
100
AcDbLine
 62
7
  6
CONTINUOUS
 10
144.7107512849
 20
1052.2528282899
 11
144.6966110151
 21
1052.2657800076
  0
LINE
  5
5FB
100
AcDbEntity
  8
93780800R00_BL15
100
AcDbLine
 62
7
  6
CONTINUOUS
 10
145.8553067875
 20
1051.7915401634
 11
145.8694470573
 21
1051.7785884457
  0
LINE
  5
5FC
100
AcDbEntity
  8
93780800R00_BL15
100
AcDbLine
 62
7
  6
CONTINUOUS
 10
146.3032106278
 20
1050.3337997159
 11
145.3741831536
 21
1051.2309511192
  0
LINE
  5
5FD
100
AcDbEntity
  8
93780800R00_BL15
100
AcDbLine
 62
7
  6
CONTINUOUS
 10
144.2628474446
 20
1053.7105687374
 11
145.1918749188
 21
1052.8134173341
  0
LWPOLYLINE
  5
5FE
100
AcDbEntity
  8
93780800R00_BL15
100
AcDbPolyline
 62
7
  6
CONTINUOUS
 90
5
 70
0
 10
146.3032106278
 20
1050.3337997159
 10
146.1989190721
 20
1050.4383417611
 10
146.1133821061
 20
1050.5300975394
 10
146.0465997296
 20
1050.6090670509
 10
145.9985719428
 20
1050.6752502954
  0
LWPOLYLINE
  5
5FF
100
AcDbEntity
  8
93780800R00_BL15
100
AcDbPolyline
 62
7
  6
CONTINUOUS
 90
5
 70
0
 10
144.2628474446
 20
1053.7105687374
 10
144.3671390003
 20
1053.6060266922
 10
144.4526759664
 20
1053.5142709139
 10
144.5194583428
 20
1053.4353014025
 10
144.5674861297
 20
1053.3691181579
  0
LINE
  5
600
100
AcDbEntity
  8
93780800R00_BL15
100
AcDbLine
 62
7
  6
CONTINUOUS
 10
144.4917959288
 20
1052.1133383441
 11
143.5946445255
 21
1053.0423658182
  0
LINE
  5
601
100
AcDbEntity
  8
93780800R00_BL15
100
AcDbLine
 62
7
  6
CONTINUOUS
 10
146.0742621436
 20
1051.9310301093
 11
146.971413547
 21
1051.0020026351
  0
LINE
  5
602
100
AcDbEntity
  8
93780800R00_BL15
100
AcDbLine
 62
7
  6
CONTINUOUS
 10
145.5266248172
 20
1051.4357662055
 11
145.5136730994
 21
1051.4499064753
  0
LINE
  5
603
100
AcDbEntity
  8
93780800R00_BL15
100
AcDbLine
 62
7
  6
CONTINUOUS
 10
145.0394332553
 20
1052.6086022478
 11
145.052384973
 21
1052.594461978
  0
LINE
  5
604
100
AcDbEntity
  8
93780800R00_BL15
100
AcDbLine
 62
7
  6
CONTINUOUS
 10
145.1918749188
 20
1051.2309511192
 11
145.052384973
 21
1051.4499064753
  0
LINE
  5
605
100
AcDbEntity
  8
93780800R00_BL15
100
AcDbLine
 62
7
  6
CONTINUOUS
 10
145.3741831536
 20
1052.8134173341
 11
145.5136730994
 21
1052.594461978
  0
LINE
  5
606
100
AcDbEntity
  8
93780800R00_BL15
100
AcDbLine
 62
7
  6
CONTINUOUS
 10
145.9985719428
 20
1050.6752502954
 11
145.5266248172
 21
1051.4357662055
  0
LINE
  5
607
100
AcDbEntity
  8
93780800R00_BL15
100
AcDbLine
 62
7
  6
CONTINUOUS
 10
144.5674861297
 20
1053.3691181579
 11
145.0394332553
 21
1052.6086022478
  0
LINE
  5
608
100
AcDbEntity
  8
93780800R00_BL15
100
AcDbLine
 62
7
  6
CONTINUOUS
 10
144.7448156357
 20
1052.1745868898
 11
144.7107512849
 21
1052.2528282899
  0
LINE
  5
609
100
AcDbEntity
  8
93780800R00_BL15
100
AcDbLine
 62
7
  6
CONTINUOUS
 10
145.8212424367
 20
1051.8697815635
 11
145.8553067875
 21
1051.7915401634
  0
LINE
  5
60A
100
AcDbEntity
  8
93780800R00_BL15
100
AcDbLine
 62
7
  6
CONTINUOUS
 10
144.7777041144
 20
1052.0977328858
 11
144.7448156357
 21
1052.1745868898
  0
LINE
  5
60B
100
AcDbEntity
  8
93780800R00_BL15
100
AcDbLine
 62
7
  6
CONTINUOUS
 10
145.7883539581
 20
1051.9466355675
 11
145.8212424367
 21
1051.8697815635
  0
LINE
  5
60C
100
AcDbEntity
  8
93780800R00_BL15
100
AcDbLine
 62
7
  6
CONTINUOUS
 10
144.8093072994
 20
1052.0221842267
 11
144.7777041144
 21
1052.0977328858
  0
LINE
  5
60D
100
AcDbEntity
  8
93780800R00_BL15
100
AcDbLine
 62
7
  6
CONTINUOUS
 10
145.756750773
 20
1052.0221842267
 11
145.7883539581
 21
1051.9466355675
  0
LINE
  5
60E
100
AcDbEntity
  8
93780800R00_BL15
100
AcDbLine
 62
7
  6
CONTINUOUS
 10
144.5267867161
 20
1052.0221842267
 11
144.4917959288
 21
1052.1133383441
  0
LINE
  5
60F
100
AcDbEntity
  8
93780800R00_BL15
100
AcDbLine
 62
7
  6
CONTINUOUS
 10
146.0392713563
 20
1052.0221842267
 11
146.0742621436
 21
1051.9310301093
  0
LINE
  5
610
100
AcDbEntity
  8
93780800R00_BL15
100
AcDbLine
 62
7
  6
CONTINUOUS
 10
144.4917959288
 20
1051.9310301093
 11
144.5267867161
 21
1052.0221842267
  0
LINE
  5
611
100
AcDbEntity
  8
93780800R00_BL15
100
AcDbLine
 62
7
  6
CONTINUOUS
 10
146.0742621436
 20
1052.1133383441
 11
146.0392713563
 21
1052.0221842267
  0
LINE
  5
612
100
AcDbEntity
  8
93780800R00_BL15
100
AcDbLine
 62
7
  6
CONTINUOUS
 10
144.7777183543
 20
1051.9466691927
 11
144.8093072994
 21
1052.0221842267
  0
LINE
  5
613
100
AcDbEntity
  8
93780800R00_BL15
100
AcDbLine
 62
7
  6
CONTINUOUS
 10
145.7883397181
 20
1052.0976992606
 11
145.756750773
 21
1052.0221842267
  0
LINE
  5
614
100
AcDbEntity
  8
93780800R00_BL15
100
AcDbLine
 62
7
  6
CONTINUOUS
 10
144.7448287806
 20
1051.8698119928
 11
144.7777183543
 21
1051.9466691927
  0
LINE
  5
615
100
AcDbEntity
  8
93780800R00_BL15
100
AcDbLine
 62
7
  6
CONTINUOUS
 10
145.8212292919
 20
1052.1745564605
 11
145.7883397181
 21
1052.0976992606
  0
LINE
  5
616
100
AcDbEntity
  8
93780800R00_BL15
100
AcDbLine
 62
7
  6
CONTINUOUS
 10
144.7107512849
 20
1051.7915401634
 11
144.7448287806
 21
1051.8698119928
  0
LINE
  5
617
100
AcDbEntity
  8
93780800R00_BL15
100
AcDbLine
 62
7
  6
CONTINUOUS
 10
145.8553067875
 20
1052.2528282899
 11
145.8212292919
 21
1052.1745564605
  0
LINE
  5
618
100
AcDbEntity
  8
93780800R00_BL15
100
AcDbLine
 62
7
  6
CONTINUOUS
 10
145.5266248172
 20
1052.6086022478
 11
145.9985719428
 21
1053.3691181579
  0
LINE
  5
619
100
AcDbEntity
  8
93780800R00_BL15
100
AcDbLine
 62
7
  6
CONTINUOUS
 10
145.0394332553
 20
1051.4357662055
 11
144.5674861297
 21
1050.6752502954
  0
LINE
  5
61A
100
AcDbEntity
  8
93780800R00_BL15
100
AcDbLine
 62
7
  6
CONTINUOUS
 10
145.1918749188
 20
1052.8134173341
 11
145.052384973
 21
1052.594461978
  0
LINE
  5
61B
100
AcDbEntity
  8
93780800R00_BL15
100
AcDbLine
 62
7
  6
CONTINUOUS
 10
145.3741831536
 20
1051.2309511192
 11
145.5136730994
 21
1051.4499064753
  0
LWPOLYLINE
  5
61C
100
AcDbEntity
  8
93780800R00_BL15
100
AcDbPolyline
 62
7
  6
CONTINUOUS
 90
5
 70
0
 10
145.9985719428
 20
1053.3691181579
 10
146.0466483822
 20
1053.435356001
 10
146.1134469761
 20
1053.514343712
 10
146.1989677247
 20
1053.6060812908
 10
146.3032106278
 20
1053.7105687374
  0
LWPOLYLINE
  5
61D
100
AcDbEntity
  8
93780800R00_BL15
100
AcDbPolyline
 62
7
  6
CONTINUOUS
 90
5
 70
0
 10
144.5674861297
 20
1050.6752502954
 10
144.5194096903
 20
1050.6090124523
 10
144.4526110963
 20
1050.5300247413
 10
144.3670903478
 20
1050.4382871625
 10
144.2628474446
 20
1050.3337997159
  0
LINE
  5
61E
100
AcDbEntity
  8
93780800R00_BL15
100
AcDbLine
 62
7
  6
CONTINUOUS
 10
145.5136730994
 20
1052.594461978
 11
145.5266248172
 21
1052.6086022478
  0
LINE
  5
61F
100
AcDbEntity
  8
93780800R00_BL15
100
AcDbLine
 62
7
  6
CONTINUOUS
 10
145.052384973
 20
1051.4499064753
 11
145.0394332553
 21
1051.4357662055
  0
LINE
  5
620
100
AcDbEntity
  8
93780800R00_BL15
100
AcDbLine
 62
7
  6
CONTINUOUS
 10
143.5946445255
 20
1051.0020026351
 11
144.4917959288
 21
1051.9310301093
  0
LINE
  5
621
100
AcDbEntity
  8
93780800R00_BL15
100
AcDbLine
 62
7
  6
CONTINUOUS
 10
146.971413547
 20
1053.0423658182
 11
146.0742621436
 21
1052.1133383441
  0
LWPOLYLINE
  5
622
100
AcDbEntity
  8
93780800R00_BL15
100
AcDbPolyline
 62
7
  6
CONTINUOUS
 90
5
 70
0
 10
143.5946445255
 20
1051.0020026351
 10
143.6991865707
 20
1051.1062941907
 10
143.790942349
 20
1051.1918311568
 10
143.8699118604
 20
1051.2586135333
 10
143.936095105
 20
1051.3066413201
  0
LWPOLYLINE
  5
623
100
AcDbEntity
  8
93780800R00_BL15
100
AcDbPolyline
 62
7
  6
CONTINUOUS
 90
5
 70
0
 10
146.971413547
 20
1053.0423658182
 10
146.8668715018
 20
1052.9380742626
 10
146.7751157235
 20
1052.8525372965
 10
146.696146212
 20
1052.7857549201
 10
146.6299629674
 20
1052.7377271332
  0
LINE
  5
624
100
AcDbEntity
  8
93780800R00_BL15
100
AcDbLine
 62
7
  6
CONTINUOUS
 10
145.3741831536
 20
1052.8134173341
 11
146.3032106278
 21
1053.7105687374
  0
LINE
  5
625
100
AcDbEntity
  8
93780800R00_BL15
100
AcDbLine
 62
7
  6
CONTINUOUS
 10
145.1918749188
 20
1051.2309511192
 11
144.2628474446
 21
1050.3337997159
  0
LINE
  5
626
100
AcDbEntity
  8
93780800R00_BL15
100
AcDbLine
 62
7
  6
CONTINUOUS
 10
144.6966110151
 20
1051.7785884457
 11
144.7107512849
 21
1051.7915401634
  0
LINE
  5
627
100
AcDbEntity
  8
93780800R00_BL15
100
AcDbLine
 62
7
  6
CONTINUOUS
 10
145.8694470573
 20
1052.2657800076
 11
145.8553067875
 21
1052.2528282899
  0
LINE
  5
628
100
AcDbEntity
  8
93780800R00_BL15
100
AcDbLine
 62
7
  6
CONTINUOUS
 10
144.4917959288
 20
1052.1133383441
 11
144.7107512849
 21
1052.2528282899
  0
LINE
  5
629
100
AcDbEntity
  8
93780800R00_BL15
100
AcDbLine
 62
7
  6
CONTINUOUS
 10
146.0742621436
 20
1051.9310301093
 11
145.8553067875
 21
1051.7915401634
  0
LINE
  5
62A
100
AcDbEntity
  8
93780800R00_BL15
100
AcDbLine
 62
7
  6
CONTINUOUS
 10
143.936095105
 20
1051.3066413201
 11
144.6966110151
 21
1051.7785884457
  0
LINE
  5
62B
100
AcDbEntity
  8
93780800R00_BL15
100
AcDbLine
 62
7
  6
CONTINUOUS
 10
146.6299629674
 20
1052.7377271332
 11
145.8694470573
 21
1052.2657800076
  0
LINE
  5
62C
100
AcDbEntity
  8
93780800R00_BL15
100
AcDbLine
 62
7
  6
CONTINUOUS
 10
145.4354302315
 20
1052.5603969931
 11
145.5136730994
 21
1052.594461978
  0
LINE
  5
62D
100
AcDbEntity
  8
93780800R00_BL15
100
AcDbLine
 62
7
  6
CONTINUOUS
 10
145.1306278409
 20
1051.4839714602
 11
145.052384973
 21
1051.4499064753
  0
LINE
  5
62E
100
AcDbEntity
  8
93780800R00_BL15
100
AcDbLine
 62
7
  6
CONTINUOUS
 10
145.3585789887
 20
1052.5275096962
 11
145.4354302315
 21
1052.5603969931
  0
LINE
  5
62F
100
AcDbEntity
  8
93780800R00_BL15
100
AcDbLine
 62
7
  6
CONTINUOUS
 10
145.2074790838
 20
1051.5168587571
 11
145.1306278409
 21
1051.4839714602
  0
LINE
  5
630
100
AcDbEntity
  8
93780800R00_BL15
100
AcDbLine
 62
7
  6
CONTINUOUS
 10
145.2830290362
 20
1052.4959059634
 11
145.3585789887
 21
1052.5275096962
  0
LINE
  5
631
100
AcDbEntity
  8
93780800R00_BL15
100
AcDbLine
 62
7
  6
CONTINUOUS
 10
145.2830290362
 20
1051.5484624899
 11
145.2074790838
 21
1051.5168587571
  0
LINE
  5
632
100
AcDbEntity
  8
93780800R00_BL15
100
AcDbLine
 62
7
  6
CONTINUOUS
 10
145.2830290362
 20
1052.7784265468
 11
145.3741831536
 21
1052.8134173341
  0
LINE
  5
633
100
AcDbEntity
  8
93780800R00_BL15
100
AcDbLine
 62
7
  6
CONTINUOUS
 10
145.2830290362
 20
1051.2659419065
 11
145.1918749188
 21
1051.2309511192
  0
CIRCLE
  5
634
100
AcDbEntity
  8
93780800R00_BL15
100
AcDbCircle
 62
7
  6
CONTINUOUS
 10
145.2830290362
 20
1052.0221842267
 40
2.85
  0
ARC
  5
635
100
AcDbEntity
  8
93780800R00_BL15
100
AcDbCircle
 62
9
  6
CONTINUOUS
 10
145.2830290362
 20
1052.0221842267
 40
1.9726664026
100
AcDbArc
 50
301.1528667687
 51
328.8529794039
  0
ARC
  5
636
100
AcDbEntity
  8
93780800R00_BL15
100
AcDbCircle
 62
9
  6
CONTINUOUS
 10
145.2830290362
 20
1052.0221842267
 40
1.9726664026
100
AcDbArc
 50
211.14168669
 51
238.8742098283
  0
ARC
  5
637
100
AcDbEntity
  8
93780800R00_BL15
100
AcDbCircle
 62
9
  6
CONTINUOUS
 10
145.2830290362
 20
1052.0221842267
 40
1.9726664026
100
AcDbArc
 50
121.1402786404
 51
148.8739772223
  0
ARC
  5
638
100
AcDbEntity
  8
93780800R00_BL15
100
AcDbCircle
 62
9
  6
CONTINUOUS
 10
145.2830290362
 20
1052.0221842267
 40
1.9726664026
100
AcDbArc
 50
31.1234299516
 51
58.8466423422
  0
ARC
  5
639
100
AcDbEntity
  8
93780800R00_BL15
100
AcDbCircle
 62
9
  6
CONTINUOUS
 10
145.2830290362
 20
1052.0221842267
 40
1.5251992218
100
AcDbArc
 50
297.9789520644
 51
332.0210479356
  0
ARC
  5
63A
100
AcDbEntity
  8
93780800R00_BL15
100
AcDbCircle
 62
9
  6
CONTINUOUS
 10
145.2830290362
 20
1052.0221842267
 40
1.5251992218
100
AcDbArc
 50
207.9789520644
 51
242.0210479356
  0
ARC
  5
63B
100
AcDbEntity
  8
93780800R00_BL15
100
AcDbCircle
 62
9
  6
CONTINUOUS
 10
145.2830290362
 20
1052.0221842267
 40
1.5251992218
100
AcDbArc
 50
117.9789520644
 51
152.0210479356
  0
ARC
  5
63C
100
AcDbEntity
  8
93780800R00_BL15
100
AcDbCircle
 62
9
  6
CONTINUOUS
 10
145.2830290362
 20
1052.0221842267
 40
1.5251992218
100
AcDbArc
 50
27.9789520644
 51
62.0210479356
  0
ARC
  5
63D
100
AcDbEntity
  8
93780800R00_BL15
100
AcDbCircle
 62
7
  6
CONTINUOUS
 10
145.2830290362
 20
1052.0221842267
 40
0.635
100
AcDbArc
 50
292.5578096573
 51
337.4421903427
  0
ARC
  5
63E
100
AcDbEntity
  8
93780800R00_BL15
100
AcDbCircle
 62
7
  6
CONTINUOUS
 10
145.2830290362
 20
1052.0221842267
 40
0.635
100
AcDbArc
 50
22.5578096573
 51
67.4421903427
  0
ARC
  5
63F
100
AcDbEntity
  8
93780800R00_BL15
100
AcDbCircle
 62
7
  6
CONTINUOUS
 10
145.2830290362
 20
1052.0221842267
 40
0.635
100
AcDbArc
 50
202.5578096573
 51
247.4421903427
  0
ARC
  5
640
100
AcDbEntity
  8
93780800R00_BL15
100
AcDbCircle
 62
7
  6
CONTINUOUS
 10
145.2830290362
 20
1052.0221842267
 40
0.635
100
AcDbArc
 50
112.5578096573
 51
157.4421903427
  0
ENDBLK
  5
641
100
AcDbEntity
  8
0
  6
BYBLOCK
 62
0
100
AcDbBlockEnd
  0
BLOCK
  5
642
100
AcDbEntity
  8
94621099000_BL16
100
AcDbBlockBegin
  2
94621099000_BL16
 70
64
 10
92.4046438802
 20
936.4478773819
  3
94621099000_BL16
  1

  0
LINE
  5
643
100
AcDbEntity
  8
94621099000_BL16
100
AcDbLine
 62
7
  6
CONTINUOUS
 10
135.2830290362
 20
1758.2542350342
 11
135.2830290362
 21
1720.7901334191
  0
LINE
  5
644
100
AcDbEntity
  8
94621099000_BL16
100
AcDbLine
 62
7
  6
CONTINUOUS
 10
135.8830290362
 20
1720.5629162356
 11
135.8830290362
 21
1758.4814522177
  0
LINE
  5
645
100
AcDbEntity
  8
94621099000_BL16
100
AcDbLine
 62
7
  6
CONTINUOUS
 10
136.6830290362
 20
1720.5221842267
 11
136.6830290362
 21
1758.5221842267
  0
LINE
  5
646
100
AcDbEntity
  8
94621099000_BL16
100
AcDbLine
 62
9
  6
CONTINUOUS
 10
137.6958226932
 20
1720.5221842267
 11
137.6958226932
 21
1758.5221842267
  0
LINE
  5
647
100
AcDbEntity
  8
94621099000_BL16
100
AcDbLine
 62
9
  6
CONTINUOUS
 10
138.2925358304
 20
1720.5221842267
 11
138.2925358304
 21
1758.5221842267
  0
LINE
  5
648
100
AcDbEntity
  8
94621099000_BL16
100
AcDbLine
 62
7
  6
CENTER
 10
141.2830290362
 20
1690.5221842267
 11
141.2830290362
 21
1792.5221842267
  0
LINE
  5
649
100
AcDbEntity
  8
94621099000_BL16
100
AcDbLine
 62
9
  6
CONTINUOUS
 10
145.7735222421
 20
1758.5221842267
 11
145.7735222421
 21
1720.5221842267
  0
LINE
  5
64A
100
AcDbEntity
  8
94621099000_BL16
100
AcDbLine
 62
9
  6
CONTINUOUS
 10
146.3702353793
 20
1758.5221842267
 11
146.3702353793
 21
1720.5221842267
  0
LINE
  5
64B
100
AcDbEntity
  8
94621099000_BL16
100
AcDbLine
 62
7
  6
CONTINUOUS
 10
147.3830290362
 20
1758.192036484
 11
147.3830290362
 21
1720.8523319693
  0
LINE
  5
64C
100
AcDbEntity
  8
94621099000_BL16
100
AcDbLine
 62
7
  6
CONTINUOUS
 10
148.1830290362
 20
1757.1447834869
 11
148.1830290362
 21
1721.8995849664
  0
LINE
  5
64D
100
AcDbEntity
  8
94621099000_BL16
100
AcDbLine
 62
7
  6
CENTER
 10
152.7440191061
 20
1741.5221842267
 11
131.3220389664
 21
1741.5221842267
  0
LWPOLYLINE
  5
64E
100
AcDbEntity
  8
94621099000_BL16
100
AcDbPolyline
 62
9
  6
CONTINUOUS
 90
15
 70
0
 10
55.1699405668
 20
1710.7975826487
 10
55.1925383815
 20
1710.8112544467
 10
55.2135576844
 20
1710.8496817025
 10
55.2327383253
 20
1710.9124200677
 10
55.2498264523
 20
1710.9986916419
 10
55.2645934075
 20
1711.1073967635
 10
55.2768678243
 20
1711.2371849642
 10
55.2865058785
 20
1711.3864351509
 10
55.2933825737
 20
1711.5532823294
 10
55.2974110039
 20
1711.7356418341
 10
55.2985398582
 20
1711.9312351865
 10
55.2967535447
 20
1712.1376422458
 10
55.2920749774
 20
1712.3522133272
 10
55.2845665277
 20
1712.5721886796
 10
55.2743255809
 20
1712.7948417183
  0
LWPOLYLINE
  5
64F
100
AcDbEntity
  8
94621099000_BL16
100
AcDbPolyline
 62
7
  6
CONTINUOUS
 90
7
 70
0
 10
41.5652739938
 20
1712.0873369778
 10
41.4783854429
 20
1711.9646916413
 10
41.3924687387
 20
1711.8412479851
 10
41.3072768482
 20
1711.7171582321
 10
41.2235508697
 20
1711.5919657131
 10
41.14170818
 20
1711.465310524
 10
41.0652686543
 20
1711.3415799865
  0
LWPOLYLINE
  5
650
100
AcDbEntity
  8
94621099000_BL16
100
AcDbPolyline
 62
7
  6
CONTINUOUS
 90
13
 70
0
 10
45.5651250083
 20
1710.2942155949
 10
45.5779347321
 20
1710.3118727705
 10
45.5885300663
 20
1710.3631070296
 10
45.5970615077
 20
1710.4470799142
 10
45.6032835492
 20
1710.5623764011
 10
45.6070701856
 20
1710.7070548658
 10
45.6083802524
 20
1710.8786730961
 10
45.6071611385
 20
1711.0743275103
 10
45.6034656241
 20
1711.2907044011
 10
45.5973184363
 20
1711.5241312875
 10
45.5888629685
 20
1711.7706467815
 10
45.5781838306
 20
1712.0260577458
 10
45.565553397
 20
1712.2860265285
  0
LINE
  5
651
100
AcDbEntity
  8
94621099000_BL16
100
AcDbLine
 62
7
  6
CONTINUOUS
 10
45.5652686543
 20
1712.2969678151
 11
45.5652686543
 21
1770.7474006382
  0
LINE
  5
652
100
AcDbEntity
  8
94621099000_BL16
100
AcDbLine
 62
9
  6
CONTINUOUS
 10
41.5129326981
 20
1710.0818491947
 11
41.5652636371
 21
1712.087336435
  0
LWPOLYLINE
  5
653
100
AcDbEntity
  8
94621099000_BL16
100
AcDbPolyline
 62
9
  6
CONTINUOUS
 90
15
 70
0
 10
55.2743255809
 20
1770.2495267351
 10
55.2845665277
 20
1770.4721797737
 10
55.2920749774
 20
1770.6921551261
 10
55.2967535447
 20
1770.9067262075
 10
55.2985398582
 20
1771.1131332668
 10
55.2974110039
 20
1771.3087266192
 10
55.2933825737
 20
1771.4910861239
 10
55.2865058785
 20
1771.6579333024
 10
55.2768678243
 20
1771.8071834891
 10
55.2645934075
 20
1771.9369716898
 10
55.2498264523
 20
1772.0456768114
 10
55.2327383253
 20
1772.1319483856
 10
55.2135576844
 20
1772.1946867508
 10
55.1925383815
 20
1772.2331140066
 10
55.1699405668
 20
1772.2467858046
  0
LINE
  5
654
100
AcDbEntity
  8
94621099000_BL16
100
AcDbLine
 62
9
  6
CONTINUOUS
 10
41.565263637
 20
1770.9570320183
 11
41.5129326981
 21
1772.9625192586
  0
LINE
  5
655
100
AcDbEntity
  8
94621099000_BL16
100
AcDbLine
 62
9
  6
CONTINUOUS
 10
55.2743255809
 20
1712.7948417183
 11
55.2743255809
 21
1770.2495267351
  0
LINE
  5
656
100
AcDbEntity
  8
94621099000_BL16
100
AcDbLine
 62
7
  6
CONTINUOUS
 10
57.0652686543
 20
1712.7948417183
 11
57.0652686543
 21
1770.2495267351
  0
LWPOLYLINE
  5
657
100
AcDbEntity
  8
94621099000_BL16
100
AcDbPolyline
 62
7
  6
CONTINUOUS
 90
7
 70
0
 10
41.0652686543
 20
1771.7026799629
 10
41.1447860773
 20
1771.5742205813
 10
41.2271415969
 20
1771.4469571243
 10
41.3109569962
 20
1771.3210834889
 10
41.3966058225
 20
1771.1971433141
 10
41.4840560807
 20
1771.0757165516
 10
41.5733184357
 20
1770.9566098842
  0
LWPOLYLINE
  5
658
100
AcDbEntity
  8
94621099000_BL16
100
AcDbPolyline
 62
7
  6
CONTINUOUS
 90
13
 70
0
 10
45.5651250083
 20
1772.7501528584
 10
45.577710468
 20
1772.732507436
 10
45.5885300663
 20
1772.6812614238
 10
45.5970698999
 20
1772.5972880993
 10
45.6032835492
 20
1772.4819920522
 10
45.6070836925
 20
1772.3373128797
 10
45.6083802524
 20
1772.1656953573
 10
45.6071788774
 20
1771.9700400133
 10
45.6034656241
 20
1771.7536640522
 10
45.5973391939
 20
1771.5202360779
 10
45.5888629685
 20
1771.2737216719
 10
45.5782381262
 20
1771.018307862
 10
45.565553397
 20
1770.7583419248
  0
LINE
  5
659
100
AcDbEntity
  8
94621099000_BL16
100
AcDbLine
 62
7
  6
CONTINUOUS
 10
55.1699405668
 20
1710.7975826487
 11
41.5129326981
 21
1710.0818491947
  0
LINE
  5
65A
100
AcDbEntity
  8
94621099000_BL16
100
AcDbLine
 62
9
  6
CONTINUOUS
 10
55.2743255809
 20
1712.7948417183
 11
45.565553397
 21
1712.2860265285
  0
LINE
  5
65B
100
AcDbEntity
  8
94621099000_BL16
100
AcDbLine
 62
9
  6
CONTINUOUS
 10
45.5652686543
 20
1712.2969678151
 11
41.5652739938
 21
1712.0873369778
  0
LINE
  5
65C
100
AcDbEntity
  8
94621099000_BL16
100
AcDbLine
 62
9
  6
CONTINUOUS
 10
55.2743255809
 20
1712.7948417183
 11
57.0652686543
 21
1712.7948417183
  0
LINE
  5
65D
100
AcDbEntity
  8
94621099000_BL16
100
AcDbLine
 62
7
  6
CENTER
 10
32.0652686543
 20
1741.5221842267
 11
60.0652686543
 21
1741.5221842267
  0
LINE
  5
65E
100
AcDbEntity
  8
94621099000_BL16
100
AcDbLine
 62
9
  6
CONTINUOUS
 10
55.2743255809
 20
1770.2495267351
 11
57.0652686543
 21
1770.2495267351
  0
LINE
  5
65F
100
AcDbEntity
  8
94621099000_BL16
100
AcDbLine
 62
9
  6
CONTINUOUS
 10
41.5733184357
 20
1770.9566098842
 11
45.5652686543
 21
1770.7474006382
  0
LINE
  5
660
100
AcDbEntity
  8
94621099000_BL16
100
AcDbLine
 62
9
  6
CONTINUOUS
 10
45.565553397
 20
1770.7583419248
 11
55.2743255809
 21
1770.2495267351
  0
LINE
  5
661
100
AcDbEntity
  8
94621099000_BL16
100
AcDbLine
 62
7
  6
CONTINUOUS
 10
41.5129326981
 20
1772.9625192586
 11
55.1699405668
 21
1772.2467858046
  0
LINE
  5
662
100
AcDbEntity
  8
94621099000_BL16
100
AcDbLine
 62
7
  6
CONTINUOUS
 10
45.5652686543
 20
80.3735705372
 11
55.2743255809
 21
81.3940335406
  0
LINE
  5
663
100
AcDbEntity
  8
94621099000_BL16
100
AcDbLine
 62
7
  6
CONTINUOUS
 10
38.5652686543
 20
80.3735705372
 11
38.6652686543
 21
80.3735705372
  0
LINE
  5
664
100
AcDbEntity
  8
94621099000_BL16
100
AcDbLine
 62
7
  6
CONTINUOUS
 10
41.0652686543
 20
80.3735705372
 11
45.5652686543
 21
80.3735705372
  0
LINE
  5
665
100
AcDbEntity
  8
94621099000_BL16
100
AcDbLine
 62
7
  6
CONTINUOUS
 10
38.5652686543
 20
80.3735705372
 11
38.5652686543
 21
81.7735705372
  0
LINE
  5
666
100
AcDbEntity
  8
94621099000_BL16
100
AcDbLine
 62
7
  6
CONTINUOUS
 10
38.5652686543
 20
87.9735705372
 11
38.5652686543
 21
93.8735705372
  0
LINE
  5
667
100
AcDbEntity
  8
94621099000_BL16
100
AcDbLine
 62
9
  6
CONTINUOUS
 10
45.5651250083
 20
82.3735705372
 11
55.1699405668
 21
83.3830773313
  0
LINE
  5
668
100
AcDbEntity
  8
94621099000_BL16
100
AcDbLine
 62
9
  6
CONTINUOUS
 10
41.0652686543
 20
82.3735705389
 11
45.5651250083
 21
82.3735705372
  0
LWPOLYLINE
  5
669
100
AcDbEntity
  8
94621099000_BL16
100
AcDbPolyline
 62
9
  6
CONTINUOUS
 90
9
 70
0
 10
41.565263637
 20
80.3735705372
 10
41.5593351396
 20
80.3859830527
 10
41.5536754774
 20
80.4232668733
 10
41.5480250379
 20
80.4853537611
 10
41.5425743886
 20
80.5714536
 10
41.5374339911
 20
80.6800345162
 10
41.5326387942
 20
80.8098797684
 10
41.5282637651
 20
80.9595447554
 10
41.5243414633
 20
81.1270076973
  0
LINE
  5
66A
100
AcDbEntity
  8
94621099000_BL16
100
AcDbLine
 62
9
  6
CONTINUOUS
 10
55.1699405668
 20
83.3830773313
 11
57.0652686543
 21
83.3830773313
  0
LINE
  5
66B
100
AcDbEntity
  8
94621099000_BL16
100
AcDbLine
 62
9
  6
CONTINUOUS
 10
41.5243414633
 20
81.1270076973
 11
41.5181081424
 21
81.5063077129
  0
LINE
  5
66C
100
AcDbEntity
  8
94621099000_BL16
100
AcDbLine
 62
9
  6
CONTINUOUS
 10
41.5181081424
 20
81.5063077129
 11
41.5142352465
 21
81.9300670371
  0
LINE
  5
66D
100
AcDbEntity
  8
94621099000_BL16
100
AcDbLine
 62
9
  6
CONTINUOUS
 10
41.5142352465
 20
81.9300670371
 11
41.5129326981
 21
82.3735705372
  0
LINE
  5
66E
100
AcDbEntity
  8
94621099000_BL16
100
AcDbLine
 62
9
  6
CONTINUOUS
 10
41.5129326981
 20
82.3735705372
 11
41.5129326981
 21
86.0735705372
  0
LINE
  5
66F
100
AcDbEntity
  8
94621099000_BL16
100
AcDbLine
 62
9
  6
CONTINUOUS
 10
41.5129326981
 20
89.6735705372
 11
41.5132713498
 21
92.0963779868
  0
LINE
  5
670
100
AcDbEntity
  8
94621099000_BL16
100
AcDbLine
 62
9
  6
CONTINUOUS
 10
41.5132713498
 20
92.0963779868
 11
41.5158727793
 21
92.5329816315
  0
LWPOLYLINE
  5
671
100
AcDbEntity
  8
94621099000_BL16
100
AcDbPolyline
 62
9
  6
CONTINUOUS
 90
11
 70
0
 10
41.5158727793
 20
92.5329816315
 10
41.5209510055
 20
92.9371304765
 10
41.5243399722
 20
93.120061742
 10
41.5282617895
 20
93.2875206795
 10
41.5326362979
 20
93.4371850424
 10
41.537430946
 20
93.5670333778
 10
41.5425707856
 20
93.6756211846
 10
41.5480204929
 20
93.761727404
 10
41.5536707928
 20
93.8238334711
 10
41.5593321183
 20
93.8611448079
 10
41.5652636371
 20
93.8735705372
  0
LINE
  5
672
100
AcDbEntity
  8
94621099000_BL16
100
AcDbLine
 62
7
  6
CENTER
 10
32.0652686543
 20
87.8735705372
 11
60.0652686543
 21
87.8735705372
  0
LINE
  5
673
100
AcDbEntity
  8
94621099000_BL16
100
AcDbLine
 62
9
  6
CONTINUOUS
 10
38.6652686543
 20
88.8735705372
 11
38.5652686543
 21
88.8735705372
  0
LWPOLYLINE
  5
674
100
AcDbEntity
  8
94621099000_BL16
100
AcDbPolyline
 62
7
  6
CONTINUOUS
 90
13
 70
0
 10
45.5651250083
 20
82.3735705372
 10
45.577710468
 20
82.1136308268
 10
45.5885300663
 20
81.8580878576
 10
45.5970698999
 20
81.6112471605
 10
45.6032835492
 20
81.3773088699
 10
45.6070836925
 20
81.1602498438
 10
45.6083802524
 20
80.9637643877
 10
45.6071788774
 20
80.7912041076
 10
45.6034656241
 20
80.6455121647
 10
45.5973391939
 20
80.5291834424
 10
45.5888629685
 20
80.4442065626
 10
45.5782381262
 20
80.3920480679
 10
45.565553397
 20
80.3736004648
  0
LWPOLYLINE
  5
675
100
AcDbEntity
  8
94621099000_BL16
100
AcDbPolyline
 62
7
  6
CONTINUOUS
 90
13
 70
0
 10
45.5651250083
 20
91.8735705372
 10
45.5779347321
 20
92.1334984942
 10
45.5885300663
 20
92.3890532167
 10
45.5970615077
 20
92.6358943537
 10
45.6032835492
 20
92.8698322045
 10
45.6070701856
 20
93.0868919384
 10
45.6083802524
 20
93.2833766867
 10
45.6071611385
 20
93.4559378964
 10
45.6034656241
 20
93.6016289096
 10
45.5973184363
 20
93.7179587198
 10
45.5888629685
 20
93.8029345118
 10
45.5781838306
 20
93.855095852
 10
45.565553397
 20
93.8735406095
  0
LINE
  5
676
100
AcDbEntity
  8
94621099000_BL16
100
AcDbLine
 62
7
  6
CONTINUOUS
 10
38.5652686543
 20
90.3735705372
 11
38.0652686543
 21
90.3735705372
  0
LINE
  5
677
100
AcDbEntity
  8
94621099000_BL16
100
AcDbLine
 62
9
  6
CONTINUOUS
 10
55.1699405668
 20
90.864063743
 11
57.0652686543
 21
90.864063743
  0
LINE
  5
678
100
AcDbEntity
  8
94621099000_BL16
100
AcDbLine
 62
9
  6
CONTINUOUS
 10
45.5651250083
 20
91.8735705372
 11
41.0652686543
 21
91.8735705297
  0
LINE
  5
679
100
AcDbEntity
  8
94621099000_BL16
100
AcDbLine
 62
9
  6
CONTINUOUS
 10
55.1699405668
 20
90.864063743
 11
45.5651250083
 21
91.8735705372
  0
LINE
  5
67A
100
AcDbEntity
  8
94621099000_BL16
100
AcDbLine
 62
7
  6
CONTINUOUS
 10
45.5652686543
 20
93.8735705372
 11
41.0652686543
 21
93.8735705372
  0
LINE
  5
67B
100
AcDbEntity
  8
94621099000_BL16
100
AcDbLine
 62
7
  6
CONTINUOUS
 10
38.6652686543
 20
93.8735705372
 11
38.5652686543
 21
93.8735705372
  0
LINE
  5
67C
100
AcDbEntity
  8
94621099000_BL16
100
AcDbLine
 62
7
  6
CONTINUOUS
 10
55.2743255809
 20
92.8531075338
 11
45.565553397
 21
93.8735406095
  0
LINE
  5
67D
100
AcDbEntity
  8
94621099000_BL16
100
AcDbLine
 62
9
  6
CONTINUOUS
 10
55.1699405668
 20
83.3830773313
 11
55.1699405668
 21
90.864063743
  0
LWPOLYLINE
  5
67E
100
AcDbEntity
  8
94621099000_BL16
100
AcDbPolyline
 62
9
  6
CONTINUOUS
 90
15
 70
0
 10
55.1699405668
 20
90.864063743
 10
55.1925383815
 20
91.0858382969
 10
55.2135576844
 20
91.3049297961
 10
55.2327383253
 20
91.5186190418
 10
55.2498264523
 20
91.7241703196
 10
55.2645934075
 20
91.918956708
 10
55.2768678243
 20
92.1005633297
 10
55.2865058785
 20
92.2667201627
 10
55.2933825737
 20
92.4153516994
 10
55.2974110039
 20
92.5446010187
 10
55.2985398582
 20
92.6528533628
 10
55.2967535447
 20
92.7387646789
 10
55.2920749774
 20
92.801236683
 10
55.2845665277
 20
92.8394963709
 10
55.2743255809
 20
92.8531075338
  0
LINE
  5
67F
100
AcDbEntity
  8
94621099000_BL16
100
AcDbLine
 62
7
  6
CONTINUOUS
 10
57.0652686543
 20
83.3830773313
 11
57.0652686543
 21
90.864063743
  0
LWPOLYLINE
  5
680
100
AcDbEntity
  8
94621099000_BL16
100
AcDbPolyline
 62
9
  6
CONTINUOUS
 90
15
 70
0
 10
55.2743255809
 20
81.3940335406
 10
55.2845665277
 20
81.4076447035
 10
55.2920749774
 20
81.4459043914
 10
55.2967535447
 20
81.5083763954
 10
55.2985398582
 20
81.5942877116
 10
55.2974110039
 20
81.7025400556
 10
55.2933825737
 20
81.8317893749
 10
55.2865058785
 20
81.9804209116
 10
55.2768678243
 20
82.1465777447
 10
55.2645934075
 20
82.3281843663
 10
55.2498264523
 20
82.5229707548
 10
55.2327383253
 20
82.7285220326
 10
55.2135576844
 20
82.9422112783
 10
55.1925383815
 20
83.1613027775
 10
55.1699405668
 20
83.3830773313
  0
ARC
  5
681
100
AcDbEntity
  8
94621099000_BL16
100
AcDbCircle
 62
7
  6
CONTINUOUS
 10
41.5652686543
 20
1773.9610955005
 40
0.9999822601
100
AcDbArc
 50
239.95920879
 51
266.9998401859
  0
ARC
  5
682
100
AcDbEntity
  8
94621099000_BL16
100
AcDbCircle
 62
7
  6
CONTINUOUS
 10
41.5652686543
 20
1709.0832729528
 40
0.9999822601
100
AcDbArc
 50
93.0001598141
 51
120.0407896401
  0
ARC
  5
683
100
AcDbEntity
  8
94621099000_BL16
100
AcDbCircle
 62
7
  6
CONTINUOUS
 10
55.0652686543
 20
1712.7948417183
 40
2.0
100
AcDbArc
 50
273.0
 51
360.0
  0
ARC
  5
684
100
AcDbEntity
  8
94621099000_BL16
100
AcDbCircle
 62
7
  6
CONTINUOUS
 10
55.0652686543
 20
1770.2495267351
 40
2.0
100
AcDbArc
 50
0.0
 51
87.0
  0
ARC
  5
685
100
AcDbEntity
  8
94621099000_BL16
100
AcDbCircle
 62
7
  6
CONTINUOUS
 10
55.0652686543
 20
90.864063743
 40
2.0
100
AcDbArc
 50
0.0
 51
84.0
  0
ARC
  5
686
100
AcDbEntity
  8
94621099000_BL16
100
AcDbCircle
 62
7
  6
CONTINUOUS
 10
55.0652686543
 20
83.3830773313
 40
2.0
100
AcDbArc
 50
276.0
 51
360.0
  0
ELLIPSE
  5
687
100
AcDbEntity
  8
94621099000_BL16
100
AcDbEllipse
 62
7
  6
CONTINUOUS
 10
64.5939975628
 20
1713.2942212397
 30
0.0
 11
19.02843458
 21
1.0083771
 31
0.0
 40
0.1049569824
 41
3.1360307076
 42
3.1415013319
  0
ELLIPSE
  5
688
100
AcDbEntity
  8
94621099000_BL16
100
AcDbEllipse
 62
7
  6
CONTINUOUS
 10
64.5939975628
 20
1769.7501472136
 30
0.0
 11
19.02843458
 21
-1.0083771
 31
0.0
 40
0.1049569824
 41
-3.1415013319
 42
-3.1360307076
  0
ENDBLK
  5
689
100
AcDbEntity
  8
0
  6
BYBLOCK
 62
0
100
AcDbBlockEnd
  0
BLOCK
  5
68A
100
AcDbEntity
  8
94322000000_BL17
100
AcDbBlockBegin
  2
94322000000_BL17
 70
64
 10
92.7741488453
 20
673.1978773819
  3
94322000000_BL17
  1

  0
LINE
  5
68B
100
AcDbEntity
  8
94322000000_BL17
100
AcDbLine
 62
7
  6
CONTINUOUS
 10
135.3830290362
 20
1176.5221842267
 11
135.3830290362
 21
1261.5221842267
  0
LINE
  5
68C
100
AcDbEntity
  8
94322000000_BL17
100
AcDbLine
 62
7
  6
CONTINUOUS
 10
140.2830290362
 20
1201.5221842267
 11
140.2830290362
 21
1176.5221842267
  0
LINE
  5
68D
100
AcDbEntity
  8
94322000000_BL17
100
AcDbLine
 62
7
  6
CONTINUOUS
 10
148.2830290362
 20
1176.5221842267
 11
148.2830290362
 21
1201.5221842267
  0
LINE
  5
68E
100
AcDbEntity
  8
94322000000_BL17
100
AcDbLine
 62
7
  6
CONTINUOUS
 10
153.1830290362
 20
1261.5221842267
 11
153.1830290362
 21
1176.5221842267
  0
LINE
  5
68F
100
AcDbEntity
  8
94322000000_BL17
100
AcDbLine
 62
7
  6
CONTINUOUS
 10
32.3652686543
 20
1270.4221842267
 11
32.3652686543
 21
1167.6221842267
  0
LINE
  5
690
100
AcDbEntity
  8
94322000000_BL17
100
AcDbLine
 62
7
  6
CONTINUOUS
 10
32.3652686543
 20
1167.6221842267
 11
33.0652686543
 21
1167.6221842267
  0
LINE
  5
691
100
AcDbEntity
  8
94322000000_BL17
100
AcDbLine
 62
9
  6
CONTINUOUS
 10
32.3652686543
 20
1176.5221842267
 11
33.0665322855
 21
1176.5221842267
  0
LINE
  5
692
100
AcDbEntity
  8
94322000000_BL17
100
AcDbLine
 62
9
  6
CONTINUOUS
 10
32.3652686543
 20
1261.5221842267
 11
33.0669357842
 21
1261.5221842267
  0
LINE
  5
693
100
AcDbEntity
  8
94322000000_BL17
100
AcDbLine
 62
7
  6
CONTINUOUS
 10
32.3652686543
 20
1270.4221842267
 11
33.0669357842
 21
1270.4221842267
  0
LINE
  5
694
100
AcDbEntity
  8
94322000000_BL17
100
AcDbLine
 62
7
  6
CONTINUOUS
 10
32.3652686543
 20
93.7735705372
 11
32.3652686543
 21
75.9735705372
  0
LINE
  5
695
100
AcDbEntity
  8
94322000000_BL17
100
AcDbLine
 62
7
  6
CONTINUOUS
 10
32.3652686543
 20
75.9735705372
 11
33.0652686543
 21
75.9735705372
  0
LINE
  5
696
100
AcDbEntity
  8
94322000000_BL17
100
AcDbLine
 62
7
  6
CONTINUOUS
 10
32.3652686543
 20
93.7735705372
 11
33.0652686543
 21
93.7735705372
  0
ARC
  5
697
100
AcDbEntity
  8
94322000000_BL17
100
AcDbCircle
 62
7
  6
CONTINUOUS
 10
144.2830290362
 20
1261.5221842267
 40
8.9
100
AcDbArc
 50
0.0
 51
180.0
  0
ARC
  5
698
100
AcDbEntity
  8
94322000000_BL17
100
AcDbCircle
 62
7
  6
CONTINUOUS
 10
144.2830290362
 20
1176.5221842267
 40
8.9
100
AcDbArc
 50
180.0
 51
360.0
  0
ARC
  5
699
100
AcDbEntity
  8
94322000000_BL17
100
AcDbCircle
 62
7
  6
CONTINUOUS
 10
144.2830290362
 20
1176.5221842267
 40
4.0
100
AcDbArc
 50
180.0
 51
360.0
  0
ARC
  5
69A
100
AcDbEntity
  8
94322000000_BL17
100
AcDbCircle
 62
7
  6
CONTINUOUS
 10
144.2830290362
 20
1201.5221842267
 40
4.0
100
AcDbArc
 50
0.0
 51
180.0
  0
ENDBLK
  5
69B
100
AcDbEntity
  8
0
  6
BYBLOCK
 62
0
100
AcDbBlockEnd
  0
BLOCK
  5
69C
100
AcDbEntity
  8
94944601000_M2_BL18
100
AcDbBlockBegin
  2
94944601000_M2_BL18
 70
64
 10
91.2741488453
 20
1411.0221842267
  3
94944601000_M2_BL18
  1

  0
LINE
  5
69D
100
AcDbEntity
  8
94944601000_M2_BL18
100
AcDbLine
 62
7
  6
CONTINUOUS
 10
141.1830290362
 20
1406.8472590776
 11
141.1830290362
 21
1415.1971093757
  0
LINE
  5
69E
100
AcDbEntity
  8
94944601000_M2_BL18
100
AcDbLine
 62
7
  6
CENTER
 10
144.2830290362
 20
1411.0221842267
 11
144.2830290362
 21
1402.8221842267
  0
LINE
  5
69F
100
AcDbEntity
  8
94944601000_M2_BL18
100
AcDbLine
 62
7
  6
CENTER
 10
144.2830290362
 20
1411.0221842267
 11
144.2830290362
 21
1419.2221842267
  0
LINE
  5
6A0
100
AcDbEntity
  8
94944601000_M2_BL18
100
AcDbLine
 62
7
  6
CONTINUOUS
 10
147.3830290362
 20
1406.8472590776
 11
147.3830290362
 21
1415.1971093757
  0
LINE
  5
6A1
100
AcDbEntity
  8
94944601000_M2_BL18
100
AcDbLine
 62
7
  6
CENTER
 10
144.2830290362
 20
1411.0221842267
 11
136.0830290362
 21
1411.0221842267
  0
LINE
  5
6A2
100
AcDbEntity
  8
94944601000_M2_BL18
100
AcDbLine
 62
7
  6
CENTER
 10
144.2830290362
 20
1411.0221842267
 11
152.4830290362
 21
1411.0221842267
  0
LINE
  5
6A3
100
AcDbEntity
  8
94944601000_M2_BL18
100
AcDbLine
 62
7
  6
CENTER
 10
44.0652686543
 20
1411.0221842267
 11
30.0652686543
 21
1411.0221842267
  0
ARC
  5
6A4
100
AcDbEntity
  8
94944601000_M2_BL18
100
AcDbCircle
 62
7
  6
CONTINUOUS
 10
144.2830290362
 20
1411.0221842267
 40
5.2
100
AcDbArc
 50
233.4050690444
 51
306.5949309556
  0
ARC
  5
6A5
100
AcDbEntity
  8
94944601000_M2_BL18
100
AcDbCircle
 62
7
  6
CONTINUOUS
 10
144.2830290362
 20
1411.0221842267
 40
5.2
100
AcDbArc
 50
53.4050690444
 51
126.5949309556
  0
ARC
  5
6A6
100
AcDbEntity
  8
94944601000_M2_BL18
100
AcDbCircle
 62
7
  6
CONTINUOUS
 10
144.2830290362
 20
1411.0221842267
 40
3.2812557855
100
AcDbArc
 50
199.1330091787
 51
340.8669908213
  0
ARC
  5
6A7
100
AcDbEntity
  8
94944601000_M2_BL18
100
AcDbCircle
 62
7
  6
CONTINUOUS
 10
144.2830290362
 20
1411.0221842267
 40
3.2812557855
100
AcDbArc
 50
19.1330091787
 51
160.8669908213
  0
CIRCLE
  5
6A8
100
AcDbEntity
  8
94944601000_M2_BL18
100
AcDbCircle
 62
7
  6
CONTINUOUS
 10
144.2830290362
 20
1411.0221842267
 40
2.6
  0
ENDBLK
  5
6A9
100
AcDbEntity
  8
0
  6
BYBLOCK
 62
0
100
AcDbBlockEnd
  0
BLOCK
  5
6AA
100
AcDbEntity
  8
94944601000_M2_BL19
100
AcDbBlockBegin
  2
94944601000_M2_BL19
 70
64
 10
91.2741488453
 20
1561.5221842267
  3
94944601000_M2_BL19
  1

  0
LINE
  5
6AB
100
AcDbEntity
  8
94944601000_M2_BL19
100
AcDbLine
 62
7
  6
CONTINUOUS
 10
141.1830290362
 20
1557.3472590776
 11
141.1830290362
 21
1565.6971093757
  0
LINE
  5
6AC
100
AcDbEntity
  8
94944601000_M2_BL19
100
AcDbLine
 62
7
  6
CENTER
 10
144.2830290362
 20
1561.5221842267
 11
144.2830290362
 21
1553.3221842267
  0
LINE
  5
6AD
100
AcDbEntity
  8
94944601000_M2_BL19
100
AcDbLine
 62
7
  6
CENTER
 10
144.2830290362
 20
1561.5221842267
 11
144.2830290362
 21
1569.7221842267
  0
LINE
  5
6AE
100
AcDbEntity
  8
94944601000_M2_BL19
100
AcDbLine
 62
7
  6
CONTINUOUS
 10
147.3830290362
 20
1557.3472590776
 11
147.3830290362
 21
1565.6971093757
  0
LINE
  5
6AF
100
AcDbEntity
  8
94944601000_M2_BL19
100
AcDbLine
 62
7
  6
CENTER
 10
144.2830290362
 20
1561.5221842267
 11
136.0830290362
 21
1561.5221842267
  0
LINE
  5
6B0
100
AcDbEntity
  8
94944601000_M2_BL19
100
AcDbLine
 62
7
  6
CENTER
 10
144.2830290362
 20
1561.5221842267
 11
152.4830290362
 21
1561.5221842267
  0
LINE
  5
6B1
100
AcDbEntity
  8
94944601000_M2_BL19
100
AcDbLine
 62
7
  6
CENTER
 10
44.0652686543
 20
1561.5221842267
 11
30.0652686543
 21
1561.5221842267
  0
ARC
  5
6B2
100
AcDbEntity
  8
94944601000_M2_BL19
100
AcDbCircle
 62
7
  6
CONTINUOUS
 10
144.2830290362
 20
1561.5221842267
 40
5.2
100
AcDbArc
 50
233.4050690444
 51
306.5949309556
  0
ARC
  5
6B3
100
AcDbEntity
  8
94944601000_M2_BL19
100
AcDbCircle
 62
7
  6
CONTINUOUS
 10
144.2830290362
 20
1561.5221842267
 40
5.2
100
AcDbArc
 50
53.4050690444
 51
126.5949309556
  0
ARC
  5
6B4
100
AcDbEntity
  8
94944601000_M2_BL19
100
AcDbCircle
 62
7
  6
CONTINUOUS
 10
144.2830290362
 20
1561.5221842267
 40
3.2812557855
100
AcDbArc
 50
199.1330091787
 51
340.8669908213
  0
ARC
  5
6B5
100
AcDbEntity
  8
94944601000_M2_BL19
100
AcDbCircle
 62
7
  6
CONTINUOUS
 10
144.2830290362
 20
1561.5221842267
 40
3.2812557855
100
AcDbArc
 50
19.1330091787
 51
160.8669908213
  0
CIRCLE
  5
6B6
100
AcDbEntity
  8
94944601000_M2_BL19
100
AcDbCircle
 62
7
  6
CONTINUOUS
 10
144.2830290362
 20
1561.5221842267
 40
2.6
  0
ENDBLK
  5
6B7
100
AcDbEntity
  8
0
  6
BYBLOCK
 62
0
100
AcDbBlockEnd
  0
BLOCK
  5
6B8
100
AcDbEntity
  8
94944601000_M2_BL20
100
AcDbBlockBegin
  2
94944601000_M2_BL20
 70
64
 10
91.2741488453
 20
1640.5221842267
  3
94944601000_M2_BL20
  1

  0
LINE
  5
6B9
100
AcDbEntity
  8
94944601000_M2_BL20
100
AcDbLine
 62
7
  6
CONTINUOUS
 10
141.1830290362
 20
1636.3472590776
 11
141.1830290362
 21
1644.6971093757
  0
LINE
  5
6BA
100
AcDbEntity
  8
94944601000_M2_BL20
100
AcDbLine
 62
7
  6
CENTER
 10
144.2830290362
 20
1640.5221842267
 11
144.2830290362
 21
1632.3221842267
  0
LINE
  5
6BB
100
AcDbEntity
  8
94944601000_M2_BL20
100
AcDbLine
 62
7
  6
CENTER
 10
144.2830290362
 20
1640.5221842267
 11
144.2830290362
 21
1648.7221842267
  0
LINE
  5
6BC
100
AcDbEntity
  8
94944601000_M2_BL20
100
AcDbLine
 62
7
  6
CONTINUOUS
 10
147.3830290362
 20
1636.3472590776
 11
147.3830290362
 21
1644.6971093757
  0
LINE
  5
6BD
100
AcDbEntity
  8
94944601000_M2_BL20
100
AcDbLine
 62
7
  6
CENTER
 10
144.2830290362
 20
1640.5221842267
 11
136.0830290362
 21
1640.5221842267
  0
LINE
  5
6BE
100
AcDbEntity
  8
94944601000_M2_BL20
100
AcDbLine
 62
7
  6
CENTER
 10
144.2830290362
 20
1640.5221842267
 11
152.4830290362
 21
1640.5221842267
  0
LINE
  5
6BF
100
AcDbEntity
  8
94944601000_M2_BL20
100
AcDbLine
 62
7
  6
CENTER
 10
44.0652686543
 20
1640.5221842267
 11
30.0652686543
 21
1640.5221842267
  0
ARC
  5
6C0
100
AcDbEntity
  8
94944601000_M2_BL20
100
AcDbCircle
 62
7
  6
CONTINUOUS
 10
144.2830290362
 20
1640.5221842267
 40
5.2
100
AcDbArc
 50
233.4050690444
 51
306.5949309556
  0
ARC
  5
6C1
100
AcDbEntity
  8
94944601000_M2_BL20
100
AcDbCircle
 62
7
  6
CONTINUOUS
 10
144.2830290362
 20
1640.5221842267
 40
5.2
100
AcDbArc
 50
53.4050690444
 51
126.5949309556
  0
ARC
  5
6C2
100
AcDbEntity
  8
94944601000_M2_BL20
100
AcDbCircle
 62
7
  6
CONTINUOUS
 10
144.2830290362
 20
1640.5221842267
 40
3.2812557855
100
AcDbArc
 50
199.1330091787
 51
340.8669908213
  0
ARC
  5
6C3
100
AcDbEntity
  8
94944601000_M2_BL20
100
AcDbCircle
 62
7
  6
CONTINUOUS
 10
144.2830290362
 20
1640.5221842267
 40
3.2812557855
100
AcDbArc
 50
19.1330091787
 51
160.8669908213
  0
CIRCLE
  5
6C4
100
AcDbEntity
  8
94944601000_M2_BL20
100
AcDbCircle
 62
7
  6
CONTINUOUS
 10
144.2830290362
 20
1640.5221842267
 40
2.6
  0
ENDBLK
  5
6C5
100
AcDbEntity
  8
0
  6
BYBLOCK
 62
0
100
AcDbBlockEnd
  0
BLOCK
  5
6C6
100
AcDbEntity
  8
94944601000_M2_BL21
100
AcDbBlockBegin
  2
94944601000_M2_BL21
 70
64
 10
91.2741488453
 20
941.5978773819
  3
94944601000_M2_BL21
  1

  0
LINE
  5
6C7
100
AcDbEntity
  8
94944601000_M2_BL21
100
AcDbLine
 62
7
  6
CONTINUOUS
 10
141.1830290362
 20
1795.4472590776
 11
141.1830290362
 21
1803.7971093757
  0
LINE
  5
6C8
100
AcDbEntity
  8
94944601000_M2_BL21
100
AcDbLine
 62
7
  6
CENTER
 10
144.2830290362
 20
1799.6221842267
 11
144.2830290362
 21
1791.4221842267
  0
LINE
  5
6C9
100
AcDbEntity
  8
94944601000_M2_BL21
100
AcDbLine
 62
7
  6
CENTER
 10
144.2830290362
 20
1799.6221842267
 11
144.2830290362
 21
1807.8221842267
  0
LINE
  5
6CA
100
AcDbEntity
  8
94944601000_M2_BL21
100
AcDbLine
 62
7
  6
CONTINUOUS
 10
147.3830290362
 20
1795.4472590776
 11
147.3830290362
 21
1803.7971093757
  0
LINE
  5
6CB
100
AcDbEntity
  8
94944601000_M2_BL21
100
AcDbLine
 62
7
  6
CENTER
 10
144.2830290362
 20
1799.6221842267
 11
136.0830290362
 21
1799.6221842267
  0
LINE
  5
6CC
100
AcDbEntity
  8
94944601000_M2_BL21
100
AcDbLine
 62
7
  6
CENTER
 10
144.2830290362
 20
1799.6221842267
 11
152.4830290362
 21
1799.6221842267
  0
LINE
  5
6CD
100
AcDbEntity
  8
94944601000_M2_BL21
100
AcDbLine
 62
7
  6
CENTER
 10
44.0652686543
 20
1799.6221842267
 11
30.0652686543
 21
1799.6221842267
  0
LINE
  5
6CE
100
AcDbEntity
  8
94944601000_M2_BL21
100
AcDbLine
 62
7
  6
CONTINUOUS
 10
38.9652686543
 20
75.3735705372
 11
40.7652686543
 21
75.3735705372
  0
LINE
  5
6CF
100
AcDbEntity
  8
94944601000_M2_BL21
100
AcDbLine
 62
9
  6
CONTINUOUS
 10
38.6652686543
 20
76.8735705372
 11
41.0652686543
 21
76.8735705372
  0
LINE
  5
6D0
100
AcDbEntity
  8
94944601000_M2_BL21
100
AcDbLine
 62
7
  6
CONTINUOUS
 10
38.6652686543
 20
75.6735705372
 11
38.6652686543
 21
94.0735705372
  0
LINE
  5
6D1
100
AcDbEntity
  8
94944601000_M2_BL21
100
AcDbLine
 62
7
  6
CONTINUOUS
 10
38.0652686543
 20
81.7735705372
 11
38.6652686543
 21
81.7735705372
  0
LINE
  5
6D2
100
AcDbEntity
  8
94944601000_M2_BL21
100
AcDbLine
 62
9
  6
CONTINUOUS
 10
38.0652686543
 20
82.2735705372
 11
38.6652686543
 21
82.2735705372
  0
LINE
  5
6D3
100
AcDbEntity
  8
94944601000_M2_BL21
100
AcDbLine
 62
9
  6
CONTINUOUS
 10
38.9652686543
 20
75.3735705372
 11
38.9652686543
 21
94.3735705372
  0
LINE
  5
6D4
100
AcDbEntity
  8
94944601000_M2_BL21
100
AcDbLine
 62
9
  6
CONTINUOUS
 10
40.7652686543
 20
94.3735705372
 11
40.7652686543
 21
75.3735705372
  0
LINE
  5
6D5
100
AcDbEntity
  8
94944601000_M2_BL21
100
AcDbLine
 62
7
  6
CONTINUOUS
 10
41.0652686543
 20
94.0735705372
 11
41.0652686543
 21
75.6735705372
  0
LINE
  5
6D6
100
AcDbEntity
  8
94944601000_M2_BL21
100
AcDbLine
 62
9
  6
CONTINUOUS
 10
38.0652686543
 20
87.4735705372
 11
38.6652686543
 21
87.4735705372
  0
LINE
  5
6D7
100
AcDbEntity
  8
94944601000_M2_BL21
100
AcDbLine
 62
7
  6
CONTINUOUS
 10
38.0652686543
 20
87.9735705372
 11
38.6652686543
 21
87.9735705372
  0
LINE
  5
6D8
100
AcDbEntity
  8
94944601000_M2_BL21
100
AcDbLine
 62
9
  6
CONTINUOUS
 10
38.6652686543
 20
92.8735705372
 11
41.0652686543
 21
92.8735705372
  0
LINE
  5
6D9
100
AcDbEntity
  8
94944601000_M2_BL21
100
AcDbLine
 62
7
  6
CONTINUOUS
 10
38.9652686543
 20
94.3735705372
 11
40.7652686543
 21
94.3735705372
  0
ARC
  5
6DA
100
AcDbEntity
  8
94944601000_M2_BL21
100
AcDbCircle
 62
7
  6
CONTINUOUS
 10
144.2830290362
 20
1799.6221842267
 40
5.2
100
AcDbArc
 50
233.4050690444
 51
306.5949309556
  0
ARC
  5
6DB
100
AcDbEntity
  8
94944601000_M2_BL21
100
AcDbCircle
 62
7
  6
CONTINUOUS
 10
144.2830290362
 20
1799.6221842267
 40
5.2
100
AcDbArc
 50
53.4050690444
 51
126.5949309556
  0
ARC
  5
6DC
100
AcDbEntity
  8
94944601000_M2_BL21
100
AcDbCircle
 62
7
  6
CONTINUOUS
 10
144.2830290362
 20
1799.6221842267
 40
3.2812557855
100
AcDbArc
 50
199.1330091787
 51
340.8669908213
  0
ARC
  5
6DD
100
AcDbEntity
  8
94944601000_M2_BL21
100
AcDbCircle
 62
7
  6
CONTINUOUS
 10
144.2830290362
 20
1799.6221842267
 40
3.2812557855
100
AcDbArc
 50
19.1330091787
 51
160.8669908213
  0
CIRCLE
  5
6DE
100
AcDbEntity
  8
94944601000_M2_BL21
100
AcDbCircle
 62
7
  6
CONTINUOUS
 10
144.2830290362
 20
1799.6221842267
 40
2.6
  0
ARC
  5
6DF
100
AcDbEntity
  8
94944601000_M2_BL21
100
AcDbCircle
 62
7
  6
CONTINUOUS
 10
38.9652686543
 20
75.6735705372
 40
0.3
100
AcDbArc
 50
180.0
 51
270.0
  0
ARC
  5
6E0
100
AcDbEntity
  8
94944601000_M2_BL21
100
AcDbCircle
 62
7
  6
CONTINUOUS
 10
40.7652686543
 20
75.6735705372
 40
0.3
100
AcDbArc
 50
270.0
 51
360.0
  0
ARC
  5
6E1
100
AcDbEntity
  8
94944601000_M2_BL21
100
AcDbCircle
 62
7
  6
CONTINUOUS
 10
40.7652686543
 20
94.0735705372
 40
0.3
100
AcDbArc
 50
0.0
 51
90.0
  0
ARC
  5
6E2
100
AcDbEntity
  8
94944601000_M2_BL21
100
AcDbCircle
 62
7
  6
CONTINUOUS
 10
38.9652686543
 20
94.0735705372
 40
0.3
100
AcDbArc
 50
90.0
 51
180.0
  0
ENDBLK
  5
6E3
100
AcDbEntity
  8
0
  6
BYBLOCK
 62
0
100
AcDbBlockEnd
  0
BLOCK
  5
6E4
100
AcDbEntity
  8
94320001000_M1_BL22
100
AcDbBlockBegin
  2
94320001000_M1_BL22
 70
64
 10
93.6991488453
 20
1321.5221842267
  3
94320001000_M1_BL22
  1

  0
LINE
  5
6E5
100
AcDbEntity
  8
94320001000_M1_BL22
100
AcDbLine
 62
7
  6
CONTINUOUS
 10
41.4652686543
 20
1319.7721842267
 11
41.1652686543
 21
1319.4721842267
  0
LINE
  5
6E6
100
AcDbEntity
  8
94320001000_M1_BL22
100
AcDbLine
 62
7
  6
CONTINUOUS
 10
41.1652686543
 20
1323.5721842267
 11
41.1652686543
 21
1319.4721842267
  0
LINE
  5
6E7
100
AcDbEntity
  8
94320001000_M1_BL22
100
AcDbLine
 62
7
  6
CONTINUOUS
 10
41.4652686543
 20
1323.2721842267
 11
41.4652686543
 21
1319.7721842267
  0
LINE
  5
6E8
100
AcDbEntity
  8
94320001000_M1_BL22
100
AcDbLine
 62
7
  6
CONTINUOUS
 10
41.4652686543
 20
1323.2721842267
 11
41.1652686543
 21
1323.5721842267
  0
LINE
  5
6E9
100
AcDbEntity
  8
94320001000_M1_BL22
100
AcDbLine
 62
7
  6
CONTINUOUS
 10
41.1652686543
 20
1319.4721842267
 11
41.0652686543
 21
1319.4721842267
  0
LINE
  5
6EA
100
AcDbEntity
  8
94320001000_M1_BL22
100
AcDbLine
 62
7
  6
CONTINUOUS
 10
41.0652686543
 20
1319.4721842267
 11
41.1652686543
 21
1319.4721842267
  0
LINE
  5
6EB
100
AcDbEntity
  8
94320001000_M1_BL22
100
AcDbLine
 62
7
  6
CONTINUOUS
 10
41.1652686543
 20
1323.5721842267
 11
41.0652686543
 21
1323.5721842267
  0
LINE
  5
6EC
100
AcDbEntity
  8
94320001000_M1_BL22
100
AcDbLine
 62
7
  6
CONTINUOUS
 10
41.0652686543
 20
1323.5721842267
 11
41.1652686543
 21
1323.5721842267
  0
CIRCLE
  5
6ED
100
AcDbEntity
  8
94320001000_M1_BL22
100
AcDbCircle
 62
7
  6
CONTINUOUS
 10
144.2830290362
 20
1321.5221842267
 40
2.05
  0
ENDBLK
  5
6EE
100
AcDbEntity
  8
0
  6
BYBLOCK
 62
0
100
AcDbBlockEnd
  0
BLOCK
  5
6EF
100
AcDbEntity
  8
94320001000_M1_BL23
100
AcDbBlockBegin
  2
94320001000_M1_BL23
 70
64
 10
93.6991488453
 20
1273.5221842267
  3
94320001000_M1_BL23
  1

  0
LINE
  5
6F0
100
AcDbEntity
  8
94320001000_M1_BL23
100
AcDbLine
 62
7
  6
CONTINUOUS
 10
41.4652686543
 20
1271.7721842267
 11
41.1652686543
 21
1271.4721842267
  0
LINE
  5
6F1
100
AcDbEntity
  8
94320001000_M1_BL23
100
AcDbLine
 62
7
  6
CONTINUOUS
 10
41.1652686543
 20
1275.5721842267
 11
41.1652686543
 21
1271.4721842267
  0
LINE
  5
6F2
100
AcDbEntity
  8
94320001000_M1_BL23
100
AcDbLine
 62
7
  6
CONTINUOUS
 10
41.4652686543
 20
1275.2721842267
 11
41.4652686543
 21
1271.7721842267
  0
LINE
  5
6F3
100
AcDbEntity
  8
94320001000_M1_BL23
100
AcDbLine
 62
7
  6
CONTINUOUS
 10
41.4652686543
 20
1275.2721842267
 11
41.1652686543
 21
1275.5721842267
  0
LINE
  5
6F4
100
AcDbEntity
  8
94320001000_M1_BL23
100
AcDbLine
 62
7
  6
CONTINUOUS
 10
41.1652686543
 20
1271.4721842267
 11
41.0652686543
 21
1271.4721842267
  0
LINE
  5
6F5
100
AcDbEntity
  8
94320001000_M1_BL23
100
AcDbLine
 62
7
  6
CONTINUOUS
 10
41.0652686543
 20
1271.4721842267
 11
41.1652686543
 21
1271.4721842267
  0
LINE
  5
6F6
100
AcDbEntity
  8
94320001000_M1_BL23
100
AcDbLine
 62
7
  6
CONTINUOUS
 10
41.1652686543
 20
1275.5721842267
 11
41.0652686543
 21
1275.5721842267
  0
LINE
  5
6F7
100
AcDbEntity
  8
94320001000_M1_BL23
100
AcDbLine
 62
7
  6
CONTINUOUS
 10
41.0652686543
 20
1275.5721842267
 11
41.1652686543
 21
1275.5721842267
  0
CIRCLE
  5
6F8
100
AcDbEntity
  8
94320001000_M1_BL23
100
AcDbCircle
 62
7
  6
CONTINUOUS
 10
144.2830290362
 20
1273.5221842267
 40
2.05
  0
ENDBLK
  5
6F9
100
AcDbEntity
  8
0
  6
BYBLOCK
 62
0
100
AcDbBlockEnd
  0
BLOCK
  5
6FA
100
AcDbEntity
  8
94320001000_M1_BL24
100
AcDbBlockBegin
  2
94320001000_M1_BL24
 70
64
 10
41.2652686543
 20
1249.5221842267
  3
94320001000_M1_BL24
  1

  0
LINE
  5
6FB
100
AcDbEntity
  8
94320001000_M1_BL24
100
AcDbLine
 62
7
  6
CONTINUOUS
 10
41.4652686543
 20
1247.7721842267
 11
41.1652686543
 21
1247.4721842267
  0
LINE
  5
6FC
100
AcDbEntity
  8
94320001000_M1_BL24
100
AcDbLine
 62
7
  6
CONTINUOUS
 10
41.1652686543
 20
1251.5721842267
 11
41.1652686543
 21
1247.4721842267
  0
LINE
  5
6FD
100
AcDbEntity
  8
94320001000_M1_BL24
100
AcDbLine
 62
7
  6
CONTINUOUS
 10
41.4652686543
 20
1251.2721842267
 11
41.4652686543
 21
1247.7721842267
  0
LINE
  5
6FE
100
AcDbEntity
  8
94320001000_M1_BL24
100
AcDbLine
 62
7
  6
CONTINUOUS
 10
41.1652686543
 20
1247.4721842267
 11
41.0652686543
 21
1247.4721842267
  0
LINE
  5
6FF
100
AcDbEntity
  8
94320001000_M1_BL24
100
AcDbLine
 62
7
  6
CONTINUOUS
 10
41.0652686543
 20
1247.4721842267
 11
41.1652686543
 21
1247.4721842267
  0
LINE
  5
700
100
AcDbEntity
  8
94320001000_M1_BL24
100
AcDbLine
 62
7
  6
CONTINUOUS
 10
41.1652686543
 20
1251.5721842267
 11
41.0652686543
 21
1251.5721842267
  0
LINE
  5
701
100
AcDbEntity
  8
94320001000_M1_BL24
100
AcDbLine
 62
7
  6
CONTINUOUS
 10
41.0652686543
 20
1251.5721842267
 11
41.1652686543
 21
1251.5721842267
  0
LINE
  5
702
100
AcDbEntity
  8
94320001000_M1_BL24
100
AcDbLine
 62
7
  6
CONTINUOUS
 10
41.4652686543
 20
1251.2721842267
 11
41.1652686543
 21
1251.5721842267
  0
ENDBLK
  5
703
100
AcDbEntity
  8
0
  6
BYBLOCK
 62
0
100
AcDbBlockEnd
  0
BLOCK
  5
704
100
AcDbEntity
  8
91324208R00_BL25
100
AcDbBlockBegin
  2
91324208R00_BL25
 70
64
 10
94.0491488453
 20
1010.2721842267
  3
91324208R00_BL25
  1

  0
LINE
  5
705
100
AcDbEntity
  8
91324208R00_BL25
100
AcDbLine
 62
7
  6
CONTINUOUS
 10
41.1652686543
 20
1011.7721842267
 11
41.0652686543
 21
1011.8299192536
  0
LINE
  5
706
100
AcDbEntity
  8
91324208R00_BL25
100
AcDbLine
 62
7
  6
CONTINUOUS
 10
41.1652686543
 20
1008.7721842267
 11
41.1652686543
 21
1011.7721842267
  0
LINE
  5
707
100
AcDbEntity
  8
91324208R00_BL25
100
AcDbLine
 62
7
  6
CONTINUOUS
 10
41.1652686543
 20
1008.7721842267
 11
41.0652686543
 21
1008.7144491997
  0
ARC
  5
708
100
AcDbEntity
  8
91324208R00_BL25
100
AcDbCircle
 62
7
  6
CONTINUOUS
 10
142.3767266536
 20
1008.7285793577
 40
0.59
100
AcDbArc
 50
12.9620900983
 51
105.8657622929
  0
ARC
  5
709
100
AcDbEntity
  8
91324208R00_BL25
100
AcDbCircle
 62
7
  6
CONTINUOUS
 10
142.3767266536
 20
1011.8157890956
 40
0.59
100
AcDbArc
 50
254.1342377071
 51
347.0379099017
  0
ARC
  5
70A
100
AcDbEntity
  8
91324208R00_BL25
100
AcDbCircle
 62
7
  6
CONTINUOUS
 10
141.6080290362
 20
1010.2721842267
 40
0.475
100
AcDbArc
 50
308.5850691499
 51
51.4149308501
  0
ARC
  5
70B
100
AcDbEntity
  8
91324208R00_BL25
100
AcDbCircle
 62
7
  6
CONTINUOUS
 10
142.1206035707
 20
1009.6297499091
 40
0.3468603931
100
AcDbArc
 50
128.58506915
 51
200.9627847462
  0
ARC
  5
70C
100
AcDbEntity
  8
91324208R00_BL25
100
AcDbCircle
 62
7
  6
CONTINUOUS
 10
142.1206035707
 20
1009.6297499091
 40
0.3468603931
100
AcDbArc
 50
224.2742065745
 51
285.8657622928
  0
ARC
  5
70D
100
AcDbEntity
  8
91324208R00_BL25
100
AcDbCircle
 62
7
  6
CONTINUOUS
 10
142.1206035707
 20
1010.9146185442
 40
0.3468603931
100
AcDbArc
 50
74.1342377072
 51
135.7045435659
  0
ARC
  5
70E
100
AcDbEntity
  8
91324208R00_BL25
100
AcDbCircle
 62
7
  6
CONTINUOUS
 10
142.1206035707
 20
1010.9146185442
 40
0.3468603931
100
AcDbArc
 50
159.3384694045
 51
231.41493085
  0
CIRCLE
  5
70F
100
AcDbEntity
  8
91324208R00_BL25
100
AcDbCircle
 62
7
  6
CONTINUOUS
 10
143.2830290362
 20
1010.2721842267
 40
3.75
  0
CIRCLE
  5
710
100
AcDbEntity
  8
91324208R00_BL25
100
AcDbCircle
 62
7
  6
CONTINUOUS
 10
143.2830290362
 20
1010.2721842267
 40
1.675
  0
ARC
  5
711
100
AcDbEntity
  8
91324208R00_BL25
100
AcDbCircle
 62
7
  6
CONTINUOUS
 10
143.2830290362
 20
1008.9371842267
 40
0.34
100
AcDbArc
 50
192.9620900983
 51
256.3608518627
  0
ARC
  5
712
100
AcDbEntity
  8
91324208R00_BL25
100
AcDbCircle
 62
7
  6
CONTINUOUS
 10
143.2830290362
 20
1008.9371842267
 40
0.34
100
AcDbArc
 50
283.5024466018
 51
347.0379099017
  0
ARC
  5
713
100
AcDbEntity
  8
91324208R00_BL25
100
AcDbCircle
 62
7
  6
CONTINUOUS
 10
143.2830290362
 20
1011.6071842267
 40
0.34
100
AcDbArc
 50
12.9620900983
 51
76.3608518627
  0
ARC
  5
714
100
AcDbEntity
  8
91324208R00_BL25
100
AcDbCircle
 62
7
  6
CONTINUOUS
 10
143.2830290362
 20
1011.6071842267
 40
0.34
100
AcDbArc
 50
103.5024466018
 51
167.0379099017
  0
ARC
  5
715
100
AcDbEntity
  8
91324208R00_BL25
100
AcDbCircle
 62
7
  6
CONTINUOUS
 10
144.1893314188
 20
1011.8157890956
 40
0.59
100
AcDbArc
 50
192.9620900983
 51
285.8657622929
  0
ARC
  5
716
100
AcDbEntity
  8
91324208R00_BL25
100
AcDbCircle
 62
7
  6
CONTINUOUS
 10
144.1893314188
 20
1008.7285793577
 40
0.59
100
AcDbArc
 50
74.1342377071
 51
167.0379099017
  0
ARC
  5
717
100
AcDbEntity
  8
91324208R00_BL25
100
AcDbCircle
 62
7
  6
CONTINUOUS
 10
144.4454545018
 20
1010.9146185442
 40
0.3468603931
100
AcDbArc
 50
308.58506915
 51
20.9627847462
  0
ARC
  5
718
100
AcDbEntity
  8
91324208R00_BL25
100
AcDbCircle
 62
7
  6
CONTINUOUS
 10
144.4454545018
 20
1010.9146185442
 40
0.3468603931
100
AcDbArc
 50
44.2742065745
 51
105.8657622928
  0
ARC
  5
719
100
AcDbEntity
  8
91324208R00_BL25
100
AcDbCircle
 62
7
  6
CONTINUOUS
 10
144.4454545018
 20
1009.6297499091
 40
0.3468603931
100
AcDbArc
 50
254.1342377072
 51
315.7045435659
  0
ARC
  5
71A
100
AcDbEntity
  8
91324208R00_BL25
100
AcDbCircle
 62
7
  6
CONTINUOUS
 10
144.4454545018
 20
1009.6297499091
 40
0.3468603931
100
AcDbArc
 50
339.3384694045
 51
51.41493085
  0
ARC
  5
71B
100
AcDbEntity
  8
91324208R00_BL25
100
AcDbCircle
 62
7
  6
CONTINUOUS
 10
144.9580290362
 20
1010.2721842267
 40
0.475
100
AcDbArc
 50
128.5850691499
 51
231.4149308501
  0
ENDBLK
  5
71C
100
AcDbEntity
  8
0
  6
BYBLOCK
 62
0
100
AcDbBlockEnd
  0
BLOCK
  5
71D
100
AcDbEntity
  8
94320001000_M1_BL26
100
AcDbBlockBegin
  2
94320001000_M1_BL26
 70
64
 10
93.6991488453
 20
1201.5221842267
  3
94320001000_M1_BL26
  1

  0
LINE
  5
71E
100
AcDbEntity
  8
94320001000_M1_BL26
100
AcDbLine
 62
7
  6
CONTINUOUS
 10
41.1652686543
 20
1203.5721842267
 11
41.1652686543
 21
1199.4721842267
  0
LINE
  5
71F
100
AcDbEntity
  8
94320001000_M1_BL26
100
AcDbLine
 62
7
  6
CONTINUOUS
 10
41.4652686543
 20
1203.2721842267
 11
41.4652686543
 21
1199.7721842267
  0
LINE
  5
720
100
AcDbEntity
  8
94320001000_M1_BL26
100
AcDbLine
 62
7
  6
CONTINUOUS
 10
41.4652686543
 20
1199.7721842267
 11
41.1652686543
 21
1199.4721842267
  0
LINE
  5
721
100
AcDbEntity
  8
94320001000_M1_BL26
100
AcDbLine
 62
7
  6
CONTINUOUS
 10
41.4652686543
 20
1203.2721842267
 11
41.1652686543
 21
1203.5721842267
  0
LINE
  5
722
100
AcDbEntity
  8
94320001000_M1_BL26
100
AcDbLine
 62
7
  6
CONTINUOUS
 10
41.1652686543
 20
1199.4721842267
 11
41.0652686543
 21
1199.4721842267
  0
LINE
  5
723
100
AcDbEntity
  8
94320001000_M1_BL26
100
AcDbLine
 62
7
  6
CONTINUOUS
 10
41.0652686543
 20
1199.4721842267
 11
41.1652686543
 21
1199.4721842267
  0
LINE
  5
724
100
AcDbEntity
  8
94320001000_M1_BL26
100
AcDbLine
 62
7
  6
CONTINUOUS
 10
41.1652686543
 20
1203.5721842267
 11
41.0652686543
 21
1203.5721842267
  0
LINE
  5
725
100
AcDbEntity
  8
94320001000_M1_BL26
100
AcDbLine
 62
7
  6
CONTINUOUS
 10
41.0652686543
 20
1203.5721842267
 11
41.1652686543
 21
1203.5721842267
  0
CIRCLE
  5
726
100
AcDbEntity
  8
94320001000_M1_BL26
100
AcDbCircle
 62
7
  6
CONTINUOUS
 10
144.2830290362
 20
1201.5221842267
 40
2.05
  0
ENDBLK
  5
727
100
AcDbEntity
  8
0
  6
BYBLOCK
 62
0
100
AcDbBlockEnd
  0
BLOCK
  5
728
100
AcDbEntity
  8
91324208R00_BL27
100
AcDbBlockBegin
  2
91324208R00_BL27
 70
64
 10
94.0491488453
 20
1062.7721842267
  3
91324208R00_BL27
  1

  0
LINE
  5
729
100
AcDbEntity
  8
91324208R00_BL27
100
AcDbLine
 62
7
  6
CONTINUOUS
 10
41.1652686543
 20
1061.2721842267
 11
41.1652686543
 21
1064.2721842267
  0
LINE
  5
72A
100
AcDbEntity
  8
91324208R00_BL27
100
AcDbLine
 62
7
  6
CONTINUOUS
 10
41.1652686543
 20
1064.2721842267
 11
41.0652686543
 21
1064.3299192536
  0
LINE
  5
72B
100
AcDbEntity
  8
91324208R00_BL27
100
AcDbLine
 62
7
  6
CONTINUOUS
 10
41.1652686543
 20
1061.2721842267
 11
41.0652686543
 21
1061.2144491997
  0
ARC
  5
72C
100
AcDbEntity
  8
91324208R00_BL27
100
AcDbCircle
 62
7
  6
CONTINUOUS
 10
142.3767266536
 20
1061.2285793577
 40
0.59
100
AcDbArc
 50
12.9620900983
 51
105.8657622928
  0
ARC
  5
72D
100
AcDbEntity
  8
91324208R00_BL27
100
AcDbCircle
 62
7
  6
CONTINUOUS
 10
142.3767266536
 20
1064.3157890956
 40
0.59
100
AcDbArc
 50
254.1342377072
 51
347.0379099017
  0
ARC
  5
72E
100
AcDbEntity
  8
91324208R00_BL27
100
AcDbCircle
 62
7
  6
CONTINUOUS
 10
141.6080290362
 20
1062.7721842267
 40
0.475
100
AcDbArc
 50
308.5850691499
 51
51.4149308501
  0
ARC
  5
72F
100
AcDbEntity
  8
91324208R00_BL27
100
AcDbCircle
 62
7
  6
CONTINUOUS
 10
142.1206035707
 20
1062.1297499091
 40
0.3468603931
100
AcDbArc
 50
128.58506915
 51
200.9627847462
  0
ARC
  5
730
100
AcDbEntity
  8
91324208R00_BL27
100
AcDbCircle
 62
7
  6
CONTINUOUS
 10
142.1206035707
 20
1062.1297499091
 40
0.3468603931
100
AcDbArc
 50
224.2742065745
 51
285.8657622928
  0
ARC
  5
731
100
AcDbEntity
  8
91324208R00_BL27
100
AcDbCircle
 62
7
  6
CONTINUOUS
 10
142.1206035707
 20
1063.4146185442
 40
0.3468603931
100
AcDbArc
 50
74.1342377072
 51
135.7045435659
  0
ARC
  5
732
100
AcDbEntity
  8
91324208R00_BL27
100
AcDbCircle
 62
7
  6
CONTINUOUS
 10
142.1206035707
 20
1063.4146185442
 40
0.3468603931
100
AcDbArc
 50
159.3384694045
 51
231.41493085
  0
CIRCLE
  5
733
100
AcDbEntity
  8
91324208R00_BL27
100
AcDbCircle
 62
7
  6
CONTINUOUS
 10
143.2830290362
 20
1062.7721842267
 40
3.75
  0
CIRCLE
  5
734
100
AcDbEntity
  8
91324208R00_BL27
100
AcDbCircle
 62
7
  6
CONTINUOUS
 10
143.2830290362
 20
1062.7721842267
 40
1.675
  0
ARC
  5
735
100
AcDbEntity
  8
91324208R00_BL27
100
AcDbCircle
 62
7
  6
CONTINUOUS
 10
143.2830290362
 20
1061.4371842267
 40
0.34
100
AcDbArc
 50
192.9620900983
 51
256.3608518627
  0
ARC
  5
736
100
AcDbEntity
  8
91324208R00_BL27
100
AcDbCircle
 62
7
  6
CONTINUOUS
 10
143.2830290362
 20
1061.4371842267
 40
0.34
100
AcDbArc
 50
283.5024466018
 51
347.0379099017
  0
ARC
  5
737
100
AcDbEntity
  8
91324208R00_BL27
100
AcDbCircle
 62
7
  6
CONTINUOUS
 10
143.2830290362
 20
1064.1071842267
 40
0.34
100
AcDbArc
 50
12.9620900983
 51
76.3608518627
  0
ARC
  5
738
100
AcDbEntity
  8
91324208R00_BL27
100
AcDbCircle
 62
7
  6
CONTINUOUS
 10
143.2830290362
 20
1064.1071842267
 40
0.34
100
AcDbArc
 50
103.5024466018
 51
167.0379099017
  0
ARC
  5
739
100
AcDbEntity
  8
91324208R00_BL27
100
AcDbCircle
 62
7
  6
CONTINUOUS
 10
144.1893314188
 20
1064.3157890956
 40
0.59
100
AcDbArc
 50
192.9620900983
 51
285.8657622928
  0
ARC
  5
73A
100
AcDbEntity
  8
91324208R00_BL27
100
AcDbCircle
 62
7
  6
CONTINUOUS
 10
144.1893314188
 20
1061.2285793577
 40
0.59
100
AcDbArc
 50
74.1342377072
 51
167.0379099017
  0
ARC
  5
73B
100
AcDbEntity
  8
91324208R00_BL27
100
AcDbCircle
 62
7
  6
CONTINUOUS
 10
144.4454545018
 20
1063.4146185442
 40
0.3468603931
100
AcDbArc
 50
308.58506915
 51
20.9627847462
  0
ARC
  5
73C
100
AcDbEntity
  8
91324208R00_BL27
100
AcDbCircle
 62
7
  6
CONTINUOUS
 10
144.4454545018
 20
1063.4146185442
 40
0.3468603931
100
AcDbArc
 50
44.2742065745
 51
105.8657622928
  0
ARC
  5
73D
100
AcDbEntity
  8
91324208R00_BL27
100
AcDbCircle
 62
7
  6
CONTINUOUS
 10
144.4454545018
 20
1062.1297499091
 40
0.3468603931
100
AcDbArc
 50
254.1342377072
 51
315.7045435659
  0
ARC
  5
73E
100
AcDbEntity
  8
91324208R00_BL27
100
AcDbCircle
 62
7
  6
CONTINUOUS
 10
144.4454545018
 20
1062.1297499091
 40
0.3468603931
100
AcDbArc
 50
339.3384694045
 51
51.41493085
  0
ARC
  5
73F
100
AcDbEntity
  8
91324208R00_BL27
100
AcDbCircle
 62
7
  6
CONTINUOUS
 10
144.9580290362
 20
1062.7721842267
 40
0.475
100
AcDbArc
 50
128.5850691499
 51
231.4149308501
  0
ENDBLK
  5
740
100
AcDbEntity
  8
0
  6
BYBLOCK
 62
0
100
AcDbBlockEnd
  0
BLOCK
  5
741
100
AcDbEntity
  8
94319401000_BL28
100
AcDbBlockBegin
  2
94319401000_BL28
 70
64
 10
40.3652686543
 20
84.8735705372
  3
94319401000_BL28
  1

  0
LINE
  5
742
100
AcDbEntity
  8
94319401000_BL28
100
AcDbLine
 62
7
  6
CONTINUOUS
 10
40.9652686543
 20
74.9735705372
 11
39.7652686543
 21
74.9735705372
  0
LINE
  5
743
100
AcDbEntity
  8
94319401000_BL28
100
AcDbLine
 62
7
  6
CONTINUOUS
 10
39.7652686543
 20
94.7735705372
 11
39.7652686543
 21
94.3735705372
  0
LINE
  5
744
100
AcDbEntity
  8
94319401000_BL28
100
AcDbLine
 62
7
  6
CONTINUOUS
 10
39.7652686543
 20
75.3735705372
 11
39.7652686543
 21
74.9735705372
  0
LINE
  5
745
100
AcDbEntity
  8
94319401000_BL28
100
AcDbLine
 62
3
  6
CONTINUOUS
 10
40.9652686543
 20
94.7735705372
 11
40.9652686543
 21
94.2950118088
  0
LINE
  5
746
100
AcDbEntity
  8
94319401000_BL28
100
AcDbLine
 62
3
  6
CONTINUOUS
 10
40.9652686543
 20
75.4521292655
 11
40.9652686543
 21
74.9735705372
  0
LINE
  5
747
100
AcDbEntity
  8
94319401000_BL28
100
AcDbLine
 62
7
  6
CONTINUOUS
 10
40.9652686543
 20
94.7735705372
 11
39.7652686543
 21
94.7735705372
  0
ENDBLK
  5
748
100
AcDbEntity
  8
0
  6
BYBLOCK
 62
0
100
AcDbBlockEnd
  0
BLOCK
  5
749
100
AcDbEntity
  8
94925801L00_BL29
100
AcDbBlockBegin
  2
94925801L00_BL29
 70
64
 10
39.6588406315
 20
84.8735705372
  3
94925801L00_BL29
  1

  0
LINE
  5
74A
100
AcDbEntity
  8
94925801L00_BL29
100
AcDbLine
 62
7
  6
CONTINUOUS
 10
39.7524126086
 20
75.0235705372
 11
39.5652686543
 21
75.0235705372
  0
LINE
  5
74B
100
AcDbEntity
  8
94925801L00_BL29
100
AcDbLine
 62
7
  6
CONTINUOUS
 10
39.7524126086
 20
94.7235705372
 11
39.5652686543
 21
94.7235705372
  0
ENDBLK
  5
74C
100
AcDbEntity
  8
0
  6
BYBLOCK
 62
0
100
AcDbBlockEnd
  0
BLOCK
  5
74D
100
AcDbEntity
  8
94968401L00_BL30
100
AcDbBlockBegin
  2
94968401L00_BL30
 70
64
 10
37.4152686543
 20
84.8735705372
  3
94968401L00_BL30
  1

  0
LINE
  5
74E
100
AcDbEntity
  8
94968401L00_BL30
100
AcDbLine
 62
7
  6
CONTINUOUS
 10
35.2652686543
 20
75.0235705372
 11
39.5652686543
 21
75.0235705372
  0
LINE
  5
74F
100
AcDbEntity
  8
94968401L00_BL30
100
AcDbLine
 62
9
  6
CONTINUOUS
 10
38.2652686543
 20
76.0235705372
 11
38.0652686543
 21
76.0235705372
  0
LINE
  5
750
100
AcDbEntity
  8
94968401L00_BL30
100
AcDbLine
 62
3
  6
CONTINUOUS
 10
35.2652686543
 20
75.3735705372
 11
35.2652686543
 21
75.0235705372
  0
LINE
  5
751
100
AcDbEntity
  8
94968401L00_BL30
100
AcDbLine
 62
3
  6
CONTINUOUS
 10
35.2652686543
 20
94.3735705372
 11
35.2652686543
 21
94.7235705372
  0
LINE
  5
752
100
AcDbEntity
  8
94968401L00_BL30
100
AcDbLine
 62
7
  6
CONTINUOUS
 10
38.2652686543
 20
94.7235705372
 11
38.2652686543
 21
90.3735705372
  0
LINE
  5
753
100
AcDbEntity
  8
94968401L00_BL30
100
AcDbLine
 62
7
  6
CONTINUOUS
 10
38.2652686543
 20
75.0235705372
 11
38.2652686543
 21
81.7735705372
  0
LINE
  5
754
100
AcDbEntity
  8
94968401L00_BL30
100
AcDbLine
 62
9
  6
CONTINUOUS
 10
38.5332178468
 20
75.0235705372
 11
38.5332178468
 21
81.7735705372
  0
LINE
  5
755
100
AcDbEntity
  8
94968401L00_BL30
100
AcDbLine
 62
9
  6
CONTINUOUS
 10
38.5332178468
 20
90.3735705372
 11
38.5332178468
 21
94.7235705372
  0
LINE
  5
756
100
AcDbEntity
  8
94968401L00_BL30
100
AcDbLine
 62
9
  6
CONTINUOUS
 10
38.8953956733
 20
75.0235705372
 11
38.8953956733
 21
75.3735705372
  0
LINE
  5
757
100
AcDbEntity
  8
94968401L00_BL30
100
AcDbLine
 62
9
  6
CONTINUOUS
 10
38.8953956733
 20
94.3735705372
 11
38.8953956733
 21
94.7235705372
  0
LINE
  5
758
100
AcDbEntity
  8
94968401L00_BL30
100
AcDbLine
 62
7
  6
CONTINUOUS
 10
39.5652686543
 20
75.0235705372
 11
39.5652686543
 21
75.3735705372
  0
LINE
  5
759
100
AcDbEntity
  8
94968401L00_BL30
100
AcDbLine
 62
7
  6
CONTINUOUS
 10
39.5652686543
 20
94.3735705372
 11
39.5652686543
 21
94.7235705372
  0
LWPOLYLINE
  5
75A
100
AcDbEntity
  8
94968401L00_BL30
100
AcDbPolyline
 62
7
  6
CONTINUOUS
 90
8
 70
0
 10
35.2652686543
 20
75.0235705372
 10
35.2693048208
 20
75.0314061343
 10
35.2812299642
 20
75.0558879838
 10
35.3009837521
 20
75.0972571372
 10
35.3275434785
 20
75.1547904401
 10
35.3593829129
 20
75.2285036024
 10
35.3944238313
 20
75.3164210821
 10
35.4146203314
 20
75.3735705372
  0
LINE
  5
75B
100
AcDbEntity
  8
94968401L00_BL30
100
AcDbLine
 62
9
  6
CONTINUOUS
 10
38.0652686543
 20
93.7235705372
 11
38.2652686543
 21
93.7235705372
  0
LINE
  5
75C
100
AcDbEntity
  8
94968401L00_BL30
100
AcDbLine
 62
7
  6
CONTINUOUS
 10
35.2652686543
 20
94.7235705372
 11
39.5652686543
 21
94.7235705372
  0
ENDBLK
  5
75D
100
AcDbEntity
  8
0
  6
BYBLOCK
 62
0
100
AcDbBlockEnd
  0
BLOCK
  5
75E
100
AcDbEntity
  8
94923403000_BL31
100
AcDbBlockBegin
  2
94923403000_BL31
 70
64
 10
36.5652686543
 20
84.8735705372
  3
94923403000_BL31
  1

  0
LINE
  5
75F
100
AcDbEntity
  8
94923403000_BL31
100
AcDbLine
 62
7
  6
CONTINUOUS
 10
38.0652686543
 20
75.3735705372
 11
35.0652686543
 21
75.3735705372
  0
LINE
  5
760
100
AcDbEntity
  8
94923403000_BL31
100
AcDbLine
 62
7
  6
CONTINUOUS
 10
38.0652686543
 20
77.6282511394
 11
35.0652686543
 21
77.6282511394
  0
LINE
  5
761
100
AcDbEntity
  8
94923403000_BL31
100
AcDbLine
 62
7
  6
CONTINUOUS
 10
35.0652686543
 20
81.6985705372
 11
35.0652686543
 21
88.0485705372
  0
LINE
  5
762
100
AcDbEntity
  8
94923403000_BL31
100
AcDbLine
 62
7
  6
CONTINUOUS
 10
38.0652686543
 20
80.8485705372
 11
35.0652686543
 21
80.8485705372
  0
LINE
  5
763
100
AcDbEntity
  8
94923403000_BL31
100
AcDbLine
 62
7
  6
CONTINUOUS
 10
38.0652686543
 20
75.3735705372
 11
38.0652686543
 21
94.3735705372
  0
LINE
  5
764
100
AcDbEntity
  8
94923403000_BL31
100
AcDbLine
 62
7
  6
CONTINUOUS
 10
38.0652686543
 20
81.6985705372
 11
35.0652686543
 21
81.6985705372
  0
LINE
  5
765
100
AcDbEntity
  8
94923403000_BL31
100
AcDbLine
 62
7
  6
CONTINUOUS
 10
38.0652686543
 20
88.0485705372
 11
35.0652686543
 21
88.0485705372
  0
LINE
  5
766
100
AcDbEntity
  8
94923403000_BL31
100
AcDbLine
 62
7
  6
CONTINUOUS
 10
38.0652686543
 20
88.8985705372
 11
35.0652686543
 21
88.8985705372
  0
LINE
  5
767
100
AcDbEntity
  8
94923403000_BL31
100
AcDbLine
 62
7
  6
CONTINUOUS
 10
38.0652686543
 20
92.118889935
 11
35.0652686543
 21
92.118889935
  0
LINE
  5
768
100
AcDbEntity
  8
94923403000_BL31
100
AcDbLine
 62
7
  6
CONTINUOUS
 10
35.0652686543
 20
94.3735705372
 11
38.0652686543
 21
94.3735705372
  0
ENDBLK
  5
769
100
AcDbEntity
  8
0
  6
BYBLOCK
 62
0
100
AcDbBlockEnd
  0
BLOCK
  5
76A
100
AcDbEntity
  8
94996201000_BL32
100
AcDbBlockBegin
  2
94996201000_BL32
 70
64
 10
40.0652686543
 20
74.9235705372
  3
94996201000_BL32
  1

  0
LINE
  5
76B
100
AcDbEntity
  8
94996201000_BL32
100
AcDbLine
 62
3
  6
CONTINUOUS
 10
40.0652686543
 20
74.9735705372
 11
40.0652686543
 21
74.8735705372
  0
ENDBLK
  5
76C
100
AcDbEntity
  8
0
  6
BYBLOCK
 62
0
100
AcDbBlockEnd
  0
BLOCK
  5
76D
100
AcDbEntity
  8
94342601000_M_BL33
100
AcDbBlockBegin
  2
94342601000_M_BL33
 70
64
 10
41.0705494805
 20
1261.5221842267
  3
94342601000_M_BL33
  1

  0
ARC
  5
76E
100
AcDbEntity
  8
94342601000_M_BL33
100
AcDbCircle
 62
7
  6
CONTINUOUS
 10
36.0652686543
 20
1261.5221842267
 40
5.5
100
AcDbArc
 50
335.6393652803
 51
24.3606347197
  0
ARC
  5
76F
100
AcDbEntity
  8
94342601000_M_BL33
100
AcDbCircle
 62
7
  6
CONTINUOUS
 10
36.0652686543
 20
1261.5221842267
 40
5.5
100
AcDbArc
 50
335.386066375
 51
24.613933625
  0
ENDBLK
  5
770
100
AcDbEntity
  8
0
  6
BYBLOCK
 62
0
100
AcDbBlockEnd
  0
BLOCK
  5
771
100
AcDbEntity
  8
0
100
AcDbBlockBegin
  2
_FILLED
 70
64
 10
0.0
 20
0.0
  3
_FILLED
  1

  0
SOLID
  5
772
100
AcDbEntity
  8
0
  6
BYBLOCK
 62
0
100
AcDbTrace
 10
0.0
 20
0.0
 11
-1.0
 21
0.1428571429
 12
-1.0
 22
-0.1428571429
 13
-1.0
 23
-0.1428571429
  0
ENDBLK
  5
773
100
AcDbEntity
  8
0
  6
BYBLOCK
 62
0
100
AcDbBlockEnd
  0
BLOCK
  5
774
100
AcDbEntity
  8
0
100
AcDbBlockBegin
 62
2
  6
CONTINUOUS
  2
*D0
 70
65
 10
0.0
 20
0.0
  3
*D0
  1

  0
TEXT
  5
775
100
AcDbEntity
  8
0
100
AcDbText
 62
5
  6
CONTINUOUS
 10
137.8901718934
 20
896.8971842267
  7
STANDARD
 40
2.5
  1
10.6
 72
5
 11
144.6758861791
 21
896.8971842267
100
AcDbText
  0
LINE
  5
776
100
AcDbEntity
  8
0
100
AcDbLine
 62
2
  6
CONTINUOUS
 10
135.9830290362
 20
915.5721842267
 11
135.9830290362
 21
904.1025781186
  0
LINE
  5
777
100
AcDbEntity
  8
0
100
AcDbLine
 62
2
  6
CONTINUOUS
 10
135.9830290362
 20
902.2988964758
 11
135.9830290362
 21
895.2721842267
  0
LINE
  5
778
100
AcDbEntity
  8
0
100
AcDbLine
 62
2
  6
CONTINUOUS
 10
146.5830290362
 20
915.5721842267
 11
146.5830290362
 21
895.2721842267
  0
LINE
  5
779
100
AcDbEntity
  8
0
100
AcDbLine
 62
2
  6
CONTINUOUS
 10
135.9830290362
 20
896.2721842267
 11
128.9830290362
 21
896.2721842267
  0
LINE
  5
77A
100
AcDbEntity
  8
0
100
AcDbLine
 62
2
  6
CONTINUOUS
 10
128.9830290362
 20
896.2721842267
 11
141.2830290362
 21
896.2721842267
  0
LINE
  5
77B
100
AcDbEntity
  8
0
100
AcDbLine
 62
2
  6
CONTINUOUS
 10
146.5830290362
 20
896.2721842267
 11
153.5830290362
 21
896.2721842267
  0
LINE
  5
77C
100
AcDbEntity
  8
0
100
AcDbLine
 62
2
  6
CONTINUOUS
 10
153.5830290362
 20
896.2721842267
 11
141.2830290362
 21
896.2721842267
  0
INSERT
  5
77D
100
AcDbEntity
  8
0
100
AcDbBlockReference
 62
2
  6
CONTINUOUS
  2
_FILLED
 10
135.9830290362
 20
896.2721842267
 41
3.5
 42
3.5
 43
3.5
  0
INSERT
  5
77E
100
AcDbEntity
  8
0
100
AcDbBlockReference
 62
2
  6
CONTINUOUS
  2
_FILLED
 10
146.5830290362
 20
896.2721842267
 41
3.5
 42
3.5
 43
3.5
 50
180.0
  0
ENDBLK
  5
77F
100
AcDbEntity
  8
0
  6
BYBLOCK
 62
0
100
AcDbBlockEnd
  0
BLOCK
  5
780
100
AcDbEntity
  8
0
100
AcDbBlockBegin
 62
2
  6
CONTINUOUS
  2
*D1
 70
65
 10
0.0
 20
0.0
  3
*D1
  1

  0
TEXT
  5
781
100
AcDbEntity
  8
0
100
AcDbText
 62
5
  6
CONTINUOUS
 10
121.6580290362
 20
941.8507556552
  7
STANDARD
 40
2.5
  1
60.3
 50
90.0
 72
5
 11
121.6580290362
 21
948.9936127981
100
AcDbText
  0
LINE
  5
782
100
AcDbEntity
  8
0
100
AcDbLine
 62
2
  6
CONTINUOUS
 10
136.0553876731
 20
915.2721842267
 11
121.2830290362
 21
915.2721842267
  0
LINE
  5
783
100
AcDbEntity
  8
0
100
AcDbLine
 62
2
  6
CONTINUOUS
 10
136.0553876737
 20
975.5721842267
 11
121.2830290362
 21
975.5721842267
  0
LINE
  5
784
100
AcDbEntity
  8
0
100
AcDbLine
 62
2
  6
CONTINUOUS
 10
122.2830290362
 20
915.2721842267
 11
122.2830290362
 21
945.4221842267
  0
LINE
  5
785
100
AcDbEntity
  8
0
100
AcDbLine
 62
2
  6
CONTINUOUS
 10
122.2830290362
 20
975.5721842267
 11
122.2830290362
 21
945.4221842267
  0
INSERT
  5
786
100
AcDbEntity
  8
0
100
AcDbBlockReference
 62
2
  6
CONTINUOUS
  2
_FILLED
 10
122.2830290362
 20
915.2721842267
 41
3.5
 42
3.5
 43
3.5
 50
270.0
  0
INSERT
  5
787
100
AcDbEntity
  8
0
100
AcDbBlockReference
 62
2
  6
CONTINUOUS
  2
_FILLED
 10
122.2830290362
 20
975.5721842267
 41
3.5
 42
3.5
 43
3.5
 50
90.0
  0
ENDBLK
  5
788
100
AcDbEntity
  8
0
  6
BYBLOCK
 62
0
100
AcDbBlockEnd
  0
BLOCK
  5
789
100
AcDbEntity
  8
0
100
AcDbBlockBegin
 62
2
  6
CONTINUOUS
  2
*D2
 70
65
 10
0.0
 20
0.0
  3
*D2
  1

  0
TEXT
  5
78A
100
AcDbEntity
  8
0
100
AcDbText
 62
5
  6
CONTINUOUS
 10
114.6580290362
 20
976.5578985124
  7
STANDARD
 40
2.5
  1
66
 50
90.0
 72
5
 11
114.6580290362
 21
980.4864699409
100
AcDbText
  0
LINE
  5
78B
100
AcDbEntity
  8
0
100
AcDbLine
 62
2
  6
CONTINUOUS
 10
132.0476088717
 20
945.5221842267
 11
123.3776986532
 21
945.5221842267
  0
LINE
  5
78C
100
AcDbEntity
  8
0
100
AcDbLine
 62
2
  6
CONTINUOUS
 10
118.3658577483
 20
945.5221842267
 11
114.2830290362
 21
945.5221842267
  0
LINE
  5
78D
100
AcDbEntity
  8
0
100
AcDbLine
 62
2
  6
CONTINUOUS
 10
115.2830290362
 20
945.5221842267
 11
115.2830290362
 21
978.5221842267
  0
LINE
  5
78E
100
AcDbEntity
  8
0
100
AcDbLine
 62
2
  6
CONTINUOUS
 10
115.2830290362
 20
1011.5221842267
 11
115.2830290362
 21
978.5221842267
  0
INSERT
  5
78F
100
AcDbEntity
  8
0
100
AcDbBlockReference
 62
2
  6
CONTINUOUS
  2
_FILLED
 10
115.2830290362
 20
945.5221842267
 41
3.5
 42
3.5
 43
3.5
 50
270.0
  0
INSERT
  5
790
100
AcDbEntity
  8
0
100
AcDbBlockReference
 62
2
  6
CONTINUOUS
  2
_FILLED
 10
115.2830290362
 20
1011.5221842267
 41
3.5
 42
3.5
 43
3.5
 50
90.0
  0
ENDBLK
  5
791
100
AcDbEntity
  8
0
  6
BYBLOCK
 62
0
100
AcDbBlockEnd
  0
BLOCK
  5
792
100
AcDbEntity
  8
0
100
AcDbBlockBegin
 62
2
  6
CONTINUOUS
  2
*D3
 70
65
 10
0.0
 20
0.0
  3
*D3
  1

  0
TEXT
  5
793
100
AcDbEntity
  8
0
100
AcDbText
 62
5
  6
CONTINUOUS
 10
126.8141983742
 20
903.8971842267
  7
STANDARD
 40
2.5
  1
9
 72
5
 11
128.7784840885
 21
903.8971842267
100
AcDbText
  0
LINE
  5
794
100
AcDbEntity
  8
0
100
AcDbLine
 62
2
  6
CONTINUOUS
 10
141.2830290362
 20
911.1093672976
 11
141.2830290362
 21
902.2721842267
  0
LINE
  5
795
100
AcDbEntity
  8
0
100
AcDbLine
 62
2
  6
CONTINUOUS
 10
141.2830290362
 20
903.2721842267
 11
136.7830290362
 21
903.2721842267
  0
LINE
  5
796
100
AcDbEntity
  8
0
100
AcDbLine
 62
2
  6
CONTINUOUS
 10
132.2830290362
 20
903.2721842267
 11
136.7830290362
 21
903.2721842267
  0
LINE
  5
797
100
AcDbEntity
  8
0
100
AcDbLine
 62
2
  6
CONTINUOUS
 10
136.7830290362
 20
903.2721842267
 11
126.8141983742
 21
903.2721842267
  0
INSERT
  5
798
100
AcDbEntity
  8
0
100
AcDbBlockReference
 62
2
  6
CONTINUOUS
  2
_FILLED
 10
141.2830290362
 20
903.2721842267
 41
3.5
 42
3.5
 43
3.5
  0
INSERT
  5
799
100
AcDbEntity
  8
0
100
AcDbBlockReference
 62
2
  6
CONTINUOUS
  2
_FILLED
 10
132.2830290362
 20
903.2721842267
 41
3.5
 42
3.5
 43
3.5
 50
180.0
  0
ENDBLK
  5
79A
100
AcDbEntity
  8
0
  6
BYBLOCK
 62
0
100
AcDbBlockEnd
  0
BLOCK
  5
79B
100
AcDbEntity
  8
0
100
AcDbBlockBegin
 62
2
  6
CONTINUOUS
  2
*D4
 70
65
 10
0.0
 20
0.0
  3
*D4
  1

  0
TEXT
  5
79C
100
AcDbEntity
  8
0
100
AcDbText
 62
5
  6
CONTINUOUS
 10
165.6580290362
 20
998.1471842267
  7
STANDARD
 40
2.5
  1
23
 50
90.0
 72
5
 11
165.6580290362
 21
1001.8971842267
100
AcDbText
  0
LINE
  5
79D
100
AcDbEntity
  8
0
100
AcDbLine
 62
2
  6
CONTINUOUS
 10
152.6830290362
 20
988.5221842267
 11
167.2830290362
 21
988.5221842267
  0
LINE
  5
79E
100
AcDbEntity
  8
0
100
AcDbLine
 62
2
  6
CONTINUOUS
 10
166.2830290362
 20
988.5221842267
 11
166.2830290362
 21
1000.0221842267
  0
LINE
  5
79F
100
AcDbEntity
  8
0
100
AcDbLine
 62
2
  6
CONTINUOUS
 10
166.2830290362
 20
1011.5221842267
 11
166.2830290362
 21
1000.0221842267
  0
INSERT
  5
7A0
100
AcDbEntity
  8
0
100
AcDbBlockReference
 62
2
  6
CONTINUOUS
  2
_FILLED
 10
166.2830290362
 20
988.5221842267
 41
3.5
 42
3.5
 43
3.5
 50
270.0
  0
INSERT
  5
7A1
100
AcDbEntity
  8
0
100
AcDbBlockReference
 62
2
  6
CONTINUOUS
  2
_FILLED
 10
166.2830290362
 20
1011.5221842267
 41
3.5
 42
3.5
 43
3.5
 50
90.0
  0
ENDBLK
  5
7A2
100
AcDbEntity
  8
0
  6
BYBLOCK
 62
0
100
AcDbBlockEnd
  0
BLOCK
  5
7A3
100
AcDbEntity
  8
0
100
AcDbBlockBegin
 62
2
  6
CONTINUOUS
  2
*D5
 70
65
 10
0.0
 20
0.0
  3
*D5
  1

  0
TEXT
  5
7A4
100
AcDbEntity
  8
0
100
AcDbText
 62
5
  6
CONTINUOUS
 10
172.6580290362
 20
912.8936127981
  7
STANDARD
 40
2.5
  1
192
 50
90.0
 72
5
 11
172.6580290362
 21
918.2507556552
100
AcDbText
  0
LINE
  5
7A5
100
AcDbEntity
  8
0
100
AcDbLine
 62
2
  6
CONTINUOUS
 10
152.4830290362
 20
819.6221842267
 11
174.2830290362
 21
819.6221842267
  0
LINE
  5
7A6
100
AcDbEntity
  8
0
100
AcDbLine
 62
2
  6
CONTINUOUS
 10
173.2830290362
 20
819.6221842267
 11
173.2830290362
 21
915.5721842267
  0
LINE
  5
7A7
100
AcDbEntity
  8
0
100
AcDbLine
 62
2
  6
CONTINUOUS
 10
173.2830290362
 20
1011.5221842267
 11
173.2830290362
 21
915.5721842267
  0
INSERT
  5
7A8
100
AcDbEntity
  8
0
100
AcDbBlockReference
 62
2
  6
CONTINUOUS
  2
_FILLED
 10
173.2830290362
 20
819.6221842267
 41
3.5
 42
3.5
 43
3.5
 50
270.0
  0
INSERT
  5
7A9
100
AcDbEntity
  8
0
100
AcDbBlockReference
 62
2
  6
CONTINUOUS
  2
_FILLED
 10
173.2830290362
 20
1011.5221842267
 41
3.5
 42
3.5
 43
3.5
 50
90.0
  0
ENDBLK
  5
7AA
100
AcDbEntity
  8
0
  6
BYBLOCK
 62
0
100
AcDbBlockEnd
  0
BLOCK
  5
7AB
100
AcDbEntity
  8
0
100
AcDbBlockBegin
 62
2
  6
CONTINUOUS
  2
*D6
 70
65
 10
0.0
 20
0.0
  3
*D6
  1

  0
TEXT
  5
7AC
100
AcDbEntity
  8
0
100
AcDbText
 62
5
  6
CONTINUOUS
 10
179.6580290362
 20
854.6150413695
  7
STANDARD
 40
2.5
  1
308
 50
90.0
 72
5
 11
179.6580290362
 21
860.3293270838
100
AcDbText
  0
LINE
  5
7AD
100
AcDbEntity
  8
0
100
AcDbLine
 62
2
  6
CONTINUOUS
 10
152.4830290362
 20
703.4221842267
 11
181.2830290362
 21
703.4221842267
  0
LINE
  5
7AE
100
AcDbEntity
  8
0
100
AcDbLine
 62
2
  6
CONTINUOUS
 10
180.2830290362
 20
703.4221842267
 11
180.2830290362
 21
857.4721842267
  0
LINE
  5
7AF
100
AcDbEntity
  8
0
100
AcDbLine
 62
2
  6
CONTINUOUS
 10
180.2830290362
 20
1011.5221842267
 11
180.2830290362
 21
857.4721842267
  0
INSERT
  5
7B0
100
AcDbEntity
  8
0
100
AcDbBlockReference
 62
2
  6
CONTINUOUS
  2
_FILLED
 10
180.2830290362
 20
703.4221842267
 41
3.5
 42
3.5
 43
3.5
 50
270.0
  0
INSERT
  5
7B1
100
AcDbEntity
  8
0
100
AcDbBlockReference
 62
2
  6
CONTINUOUS
  2
_FILLED
 10
180.2830290362
 20
1011.5221842267
 41
3.5
 42
3.5
 43
3.5
 50
90.0
  0
ENDBLK
  5
7B2
100
AcDbEntity
  8
0
  6
BYBLOCK
 62
0
100
AcDbBlockEnd
  0
BLOCK
  5
7B3
100
AcDbEntity
  8
0
100
AcDbBlockBegin
 62
2
  6
CONTINUOUS
  2
*D7
 70
65
 10
0.0
 20
0.0
  3
*D7
  1

  0
TEXT
  5
7B4
100
AcDbEntity
  8
0
100
AcDbText
 62
5
  6
CONTINUOUS
 10
186.6580290362
 20
758.6650413695
  7
STANDARD
 40
2.5
  1
500
 50
90.0
 72
5
 11
186.6580290362
 21
764.3793270838
100
AcDbText
  0
LINE
  5
7B5
100
AcDbEntity
  8
0
100
AcDbLine
 62
2
  6
CONTINUOUS
 10
152.6830290362
 20
511.5221842267
 11
188.2830290362
 21
511.5221842267
  0
LINE
  5
7B6
100
AcDbEntity
  8
0
100
AcDbLine
 62
2
  6
CONTINUOUS
 10
187.2830290362
 20
511.5221842267
 11
187.2830290362
 21
761.5221842267
  0
LINE
  5
7B7
100
AcDbEntity
  8
0
100
AcDbLine
 62
2
  6
CONTINUOUS
 10
187.2830290362
 20
1011.5221842267
 11
187.2830290362
 21
761.5221842267
  0
INSERT
  5
7B8
100
AcDbEntity
  8
0
100
AcDbBlockReference
 62
2
  6
CONTINUOUS
  2
_FILLED
 10
187.2830290362
 20
511.5221842267
 41
3.5
 42
3.5
 43
3.5
 50
270.0
  0
INSERT
  5
7B9
100
AcDbEntity
  8
0
100
AcDbBlockReference
 62
2
  6
CONTINUOUS
  2
_FILLED
 10
187.2830290362
 20
1011.5221842267
 41
3.5
 42
3.5
 43
3.5
 50
90.0
  0
ENDBLK
  5
7BA
100
AcDbEntity
  8
0
  6
BYBLOCK
 62
0
100
AcDbBlockEnd
  0
BLOCK
  5
7BB
100
AcDbEntity
  8
0
100
AcDbBlockBegin
 62
2
  6
CONTINUOUS
  2
*D8
 70
65
 10
0.0
 20
0.0
  3
*D8
  1

  0
TEXT
  5
7BC
100
AcDbEntity
  8
0
100
AcDbText
 62
5
  6
CONTINUOUS
 10
193.6580290362
 20
657.6257556552
  7
STANDARD
 40
2.5
  1
702
 50
90.0
 72
5
 11
193.6580290362
 21
663.5186127981
100
AcDbText
  0
LINE
  5
7BD
100
AcDbEntity
  8
0
100
AcDbLine
 62
2
  6
CONTINUOUS
 10
152.4830290362
 20
309.6221842267
 11
195.2830290362
 21
309.6221842267
  0
LINE
  5
7BE
100
AcDbEntity
  8
0
100
AcDbLine
 62
2
  6
CONTINUOUS
 10
194.2830290362
 20
309.6221842267
 11
194.2830290362
 21
660.5721842267
  0
LINE
  5
7BF
100
AcDbEntity
  8
0
100
AcDbLine
 62
2
  6
CONTINUOUS
 10
194.2830290362
 20
1011.5221842267
 11
194.2830290362
 21
660.5721842267
  0
INSERT
  5
7C0
100
AcDbEntity
  8
0
100
AcDbBlockReference
 62
2
  6
CONTINUOUS
  2
_FILLED
 10
194.2830290362
 20
309.6221842267
 41
3.5
 42
3.5
 43
3.5
 50
270.0
  0
INSERT
  5
7C1
100
AcDbEntity
  8
0
100
AcDbBlockReference
 62
2
  6
CONTINUOUS
  2
_FILLED
 10
194.2830290362
 20
1011.5221842267
 41
3.5
 42
3.5
 43
3.5
 50
90.0
  0
ENDBLK
  5
7C2
100
AcDbEntity
  8
0
  6
BYBLOCK
 62
0
100
AcDbBlockEnd
  0
BLOCK
  5
7C3
100
AcDbEntity
  8
0
100
AcDbBlockBegin
 62
2
  6
CONTINUOUS
  2
*D9
 70
65
 10
0.0
 20
0.0
  3
*D9
  1

  0
TEXT
  5
7C4
100
AcDbEntity
  8
0
100
AcDbText
 62
5
  6
CONTINUOUS
 10
200.6580290362
 20
599.7936127981
  7
STANDARD
 40
2.5
  1
818
 50
90.0
 72
5
 11
200.6580290362
 21
605.1507556552
100
AcDbText
  0
LINE
  5
7C5
100
AcDbEntity
  8
0
100
AcDbLine
 62
2
  6
CONTINUOUS
 10
152.4830290362
 20
193.4221842267
 11
202.2830290362
 21
193.4221842267
  0
LINE
  5
7C6
100
AcDbEntity
  8
0
100
AcDbLine
 62
2
  6
CONTINUOUS
 10
202.2830290362
 20
1011.5221842267
 11
160.2926859743
 21
1011.5221842267
  0
LINE
  5
7C7
100
AcDbEntity
  8
0
100
AcDbLine
 62
2
  6
CONTINUOUS
 10
201.2830290362
 20
193.4221842267
 11
201.2830290362
 21
602.4721842267
  0
LINE
  5
7C8
100
AcDbEntity
  8
0
100
AcDbLine
 62
2
  6
CONTINUOUS
 10
201.2830290362
 20
1011.5221842267
 11
201.2830290362
 21
602.4721842267
  0
INSERT
  5
7C9
100
AcDbEntity
  8
0
100
AcDbBlockReference
 62
2
  6
CONTINUOUS
  2
_FILLED
 10
201.2830290362
 20
193.4221842267
 41
3.5
 42
3.5
 43
3.5
 50
270.0
  0
INSERT
  5
7CA
100
AcDbEntity
  8
0
100
AcDbBlockReference
 62
2
  6
CONTINUOUS
  2
_FILLED
 10
201.2830290362
 20
1011.5221842267
 41
3.5
 42
3.5
 43
3.5
 50
90.0
  0
ENDBLK
  5
7CB
100
AcDbEntity
  8
0
  6
BYBLOCK
 62
0
100
AcDbBlockEnd
  0
BLOCK
  5
7CC
100
AcDbEntity
  8
0
100
AcDbBlockBegin
 62
2
  6
CONTINUOUS
  2
*D10
 70
65
 10
0.0
 20
0.0
  3
*D10
  1

  0
TEXT
  5
7CD
100
AcDbEntity
  8
0
100
AcDbText
 62
5
  6
CONTINUOUS
 10
107.6580290362
 20
628.5757556552
  7
STANDARD
 40
2.5
  1
760
 50
90.0
 72
5
 11
107.6580290362
 21
634.4686127981
100
AcDbText
  0
LINE
  5
7CE
100
AcDbEntity
  8
0
100
AcDbLine
 62
2
  6
CONTINUOUS
 10
131.3220389664
 20
251.5221842267
 11
107.2830290362
 21
251.5221842267
  0
LINE
  5
7CF
100
AcDbEntity
  8
0
100
AcDbLine
 62
2
  6
CONTINUOUS
 10
108.2830290362
 20
251.5221842267
 11
108.2830290362
 21
631.5221842267
  0
LINE
  5
7D0
100
AcDbEntity
  8
0
100
AcDbLine
 62
2
  6
CONTINUOUS
 10
108.2830290362
 20
1011.5221842267
 11
108.2830290362
 21
631.5221842267
  0
INSERT
  5
7D1
100
AcDbEntity
  8
0
100
AcDbBlockReference
 62
2
  6
CONTINUOUS
  2
_FILLED
 10
108.2830290362
 20
251.5221842267
 41
3.5
 42
3.5
 43
3.5
 50
270.0
  0
INSERT
  5
7D2
100
AcDbEntity
  8
0
100
AcDbBlockReference
 62
2
  6
CONTINUOUS
  2
_FILLED
 10
108.2830290362
 20
1011.5221842267
 41
3.5
 42
3.5
 43
3.5
 50
90.0
  0
ENDBLK
  5
7D3
100
AcDbEntity
  8
0
  6
BYBLOCK
 62
0
100
AcDbBlockEnd
  0
BLOCK
  5
7D4
100
AcDbEntity
  8
0
100
AcDbBlockBegin
 62
2
  6
CONTINUOUS
  2
*D11
 70
65
 10
0.0
 20
0.0
  3
*D11
  1

  0
TEXT
  5
7D5
100
AcDbEntity
  8
0
100
AcDbText
 62
5
  6
CONTINUOUS
 10
100.6580290362
 20
563.5757556552
  7
STANDARD
 40
2.5
  1
890
 50
90.0
 72
5
 11
100.6580290362
 21
569.4686127981
100
AcDbText
  0
LINE
  5
7D6
100
AcDbEntity
  8
0
100
AcDbLine
 62
2
  6
CONTINUOUS
 10
135.2830290362
 20
121.5221842267
 11
100.2830290362
 21
121.5221842267
  0
LINE
  5
7D7
100
AcDbEntity
  8
0
100
AcDbLine
 62
2
  6
CONTINUOUS
 10
100.2830290362
 20
1011.5221842267
 11
128.0894162848
 21
1011.5221842267
  0
LINE
  5
7D8
100
AcDbEntity
  8
0
100
AcDbLine
 62
2
  6
CONTINUOUS
 10
101.2830290362
 20
121.5221842267
 11
101.2830290362
 21
566.5221842267
  0
LINE
  5
7D9
100
AcDbEntity
  8
0
100
AcDbLine
 62
2
  6
CONTINUOUS
 10
101.2830290362
 20
1011.5221842267
 11
101.2830290362
 21
566.5221842267
  0
INSERT
  5
7DA
100
AcDbEntity
  8
0
100
AcDbBlockReference
 62
2
  6
CONTINUOUS
  2
_FILLED
 10
101.2830290362
 20
121.5221842267
 41
3.5
 42
3.5
 43
3.5
 50
270.0
  0
INSERT
  5
7DB
100
AcDbEntity
  8
0
100
AcDbBlockReference
 62
2
  6
CONTINUOUS
  2
_FILLED
 10
101.2830290362
 20
1011.5221842267
 41
3.5
 42
3.5
 43
3.5
 50
90.0
  0
ENDBLK
  5
7DC
100
AcDbEntity
  8
0
  6
BYBLOCK
 62
0
100
AcDbBlockEnd
  0
BLOCK
  5
7DD
100
AcDbEntity
  8
0
100
AcDbBlockBegin
 62
2
  6
CONTINUOUS
  2
*D12
 70
65
 10
0.0
 20
0.0
  3
*D12
  1

  0
TEXT
  5
7DE
100
AcDbEntity
  8
0
100
AcDbText
 62
5
  6
CONTINUOUS
 10
100.6580290362
 20
1563.3971842267
  7
STANDARD
 40
2.5
  1
1110
 50
90.0
 72
5
 11
100.6580290362
 21
1569.6471842267
100
AcDbText
  0
LINE
  5
7DF
100
AcDbEntity
  8
0
100
AcDbLine
 62
2
  6
CONTINUOUS
 10
135.2830290362
 20
2121.5221842267
 11
100.2830290362
 21
2121.5221842267
  0
LINE
  5
7E0
100
AcDbEntity
  8
0
100
AcDbLine
 62
2
  6
CONTINUOUS
 10
101.2830290362
 20
2121.5221842267
 11
101.2830290362
 21
1566.5221842267
  0
LINE
  5
7E1
100
AcDbEntity
  8
0
100
AcDbLine
 62
2
  6
CONTINUOUS
 10
101.2830290362
 20
1011.5221842267
 11
101.2830290362
 21
1566.5221842267
  0
INSERT
  5
7E2
100
AcDbEntity
  8
0
100
AcDbBlockReference
 62
2
  6
CONTINUOUS
  2
_FILLED
 10
101.2830290362
 20
2121.5221842267
 41
3.5
 42
3.5
 43
3.5
 50
90.0
  0
INSERT
  5
7E3
100
AcDbEntity
  8
0
100
AcDbBlockReference
 62
2
  6
CONTINUOUS
  2
_FILLED
 10
101.2830290362
 20
1011.5221842267
 41
3.5
 42
3.5
 43
3.5
 50
270.0
  0
ENDBLK
  5
7E4
100
AcDbEntity
  8
0
  6
BYBLOCK
 62
0
100
AcDbBlockEnd
  0
BLOCK
  5
7E5
100
AcDbEntity
  8
0
100
AcDbBlockBegin
 62
2
  6
CONTINUOUS
  2
*D13
 70
65
 10
0.0
 20
0.0
  3
*D13
  1

  0
TEXT
  5
7E6
100
AcDbEntity
  8
0
100
AcDbText
 62
5
  6
CONTINUOUS
 10
107.6580290362
 20
1373.6650413695
  7
STANDARD
 40
2.5
  1
730
 50
90.0
 72
5
 11
107.6580290362
 21
1379.3793270838
100
AcDbText
  0
LINE
  5
7E7
100
AcDbEntity
  8
0
100
AcDbLine
 62
2
  6
CONTINUOUS
 10
131.3220389664
 20
1741.5221842267
 11
107.2830290362
 21
1741.5221842267
  0
LINE
  5
7E8
100
AcDbEntity
  8
0
100
AcDbLine
 62
2
  6
CONTINUOUS
 10
108.2830290362
 20
1741.5221842267
 11
108.2830290362
 21
1376.5221842267
  0
LINE
  5
7E9
100
AcDbEntity
  8
0
100
AcDbLine
 62
2
  6
CONTINUOUS
 10
108.2830290362
 20
1011.5221842267
 11
108.2830290362
 21
1376.5221842267
  0
INSERT
  5
7EA
100
AcDbEntity
  8
0
100
AcDbBlockReference
 62
2
  6
CONTINUOUS
  2
_FILLED
 10
108.2830290362
 20
1741.5221842267
 41
3.5
 42
3.5
 43
3.5
 50
90.0
  0
INSERT
  5
7EB
100
AcDbEntity
  8
0
100
AcDbBlockReference
 62
2
  6
CONTINUOUS
  2
_FILLED
 10
108.2830290362
 20
1011.5221842267
 41
3.5
 42
3.5
 43
3.5
 50
270.0
  0
ENDBLK
  5
7EC
100
AcDbEntity
  8
0
  6
BYBLOCK
 62
0
100
AcDbBlockEnd
  0
BLOCK
  5
7ED
100
AcDbEntity
  8
0
100
AcDbBlockBegin
 62
2
  6
CONTINUOUS
  2
*D14
 70
65
 10
0.0
 20
0.0
  3
*D14
  1

  0
TEXT
  5
7EE
100
AcDbEntity
  8
0
100
AcDbText
 62
5
  6
CONTINUOUS
 10
121.6580290362
 20
1022.1471842267
  7
STANDARD
 40
2.5
  1
25
 50
90.0
 72
5
 11
121.6580290362
 21
1025.8971842267
100
AcDbText
  0
LINE
  5
7EF
100
AcDbEntity
  8
0
100
AcDbLine
 62
2
  6
CONTINUOUS
 10
129.2830290362
 20
1036.5221842267
 11
121.2830290362
 21
1036.5221842267
  0
LINE
  5
7F0
100
AcDbEntity
  8
0
100
AcDbLine
 62
2
  6
CONTINUOUS
 10
122.2830290362
 20
1036.5221842267
 11
122.2830290362
 21
1024.0221842267
  0
LINE
  5
7F1
100
AcDbEntity
  8
0
100
AcDbLine
 62
2
  6
CONTINUOUS
 10
122.2830290362
 20
1011.5221842267
 11
122.2830290362
 21
1024.0221842267
  0
INSERT
  5
7F2
100
AcDbEntity
  8
0
100
AcDbBlockReference
 62
2
  6
CONTINUOUS
  2
_FILLED
 10
122.2830290362
 20
1036.5221842267
 41
3.5
 42
3.5
 43
3.5
 50
90.0
  0
INSERT
  5
7F3
100
AcDbEntity
  8
0
100
AcDbBlockReference
 62
2
  6
CONTINUOUS
  2
_FILLED
 10
122.2830290362
 20
1011.5221842267
 41
3.5
 42
3.5
 43
3.5
 50
270.0
  0
ENDBLK
  5
7F4
100
AcDbEntity
  8
0
  6
BYBLOCK
 62
0
100
AcDbBlockEnd
  0
BLOCK
  5
7F5
100
AcDbEntity
  8
0
100
AcDbBlockBegin
 62
2
  6
CONTINUOUS
  2
*D15
 70
65
 10
0.0
 20
0.0
  3
*D15
  1

  0
TEXT
  5
7F6
100
AcDbEntity
  8
0
100
AcDbText
 62
5
  6
CONTINUOUS
 10
165.6580290362
 20
1046.1471842267
  7
STANDARD
 40
2.5
  1
73
 50
90.0
 72
5
 11
165.6580290362
 21
1049.8971842267
100
AcDbText
  0
LINE
  5
7F7
100
AcDbEntity
  8
0
100
AcDbLine
 62
2
  6
CONTINUOUS
 10
152.6830290362
 20
1084.5221842267
 11
167.2830290362
 21
1084.5221842267
  0
LINE
  5
7F8
100
AcDbEntity
  8
0
100
AcDbLine
 62
2
  6
CONTINUOUS
 10
166.2830290362
 20
1084.5221842267
 11
166.2830290362
 21
1048.0221842267
  0
LINE
  5
7F9
100
AcDbEntity
  8
0
100
AcDbLine
 62
2
  6
CONTINUOUS
 10
166.2830290362
 20
1011.5221842267
 11
166.2830290362
 21
1048.0221842267
  0
INSERT
  5
7FA
100
AcDbEntity
  8
0
100
AcDbBlockReference
 62
2
  6
CONTINUOUS
  2
_FILLED
 10
166.2830290362
 20
1084.5221842267
 41
3.5
 42
3.5
 43
3.5
 50
90.0
  0
INSERT
  5
7FB
100
AcDbEntity
  8
0
100
AcDbBlockReference
 62
2
  6
CONTINUOUS
  2
_FILLED
 10
166.2830290362
 20
1011.5221842267
 41
3.5
 42
3.5
 43
3.5
 50
270.0
  0
ENDBLK
  5
7FC
100
AcDbEntity
  8
0
  6
BYBLOCK
 62
0
100
AcDbBlockEnd
  0
BLOCK
  5
7FD
100
AcDbEntity
  8
0
100
AcDbBlockBegin
 62
2
  6
CONTINUOUS
  2
*D16
 70
65
 10
0.0
 20
0.0
  3
*D16
  1

  0
TEXT
  5
7FE
100
AcDbEntity
  8
0
100
AcDbText
 62
5
  6
CONTINUOUS
 10
172.6580290362
 20
1206.8078985124
  7
STANDARD
 40
2.5
  1
399.5
 50
90.0
 72
5
 11
172.6580290362
 21
1215.7364699409
100
AcDbText
  0
LINE
  5
7FF
100
AcDbEntity
  8
0
100
AcDbLine
 62
2
  6
CONTINUOUS
 10
152.4830290362
 20
1411.0221842267
 11
174.2830290362
 21
1411.0221842267
  0
LINE
  5
800
100
AcDbEntity
  8
0
100
AcDbLine
 62
2
  6
CONTINUOUS
 10
173.2830290362
 20
1411.0221842267
 11
173.2830290362
 21
1211.2721842267
  0
LINE
  5
801
100
AcDbEntity
  8
0
100
AcDbLine
 62
2
  6
CONTINUOUS
 10
173.2830290362
 20
1011.5221842267
 11
173.2830290362
 21
1211.2721842267
  0
INSERT
  5
802
100
AcDbEntity
  8
0
100
AcDbBlockReference
 62
2
  6
CONTINUOUS
  2
_FILLED
 10
173.2830290362
 20
1411.0221842267
 41
3.5
 42
3.5
 43
3.5
 50
90.0
  0
INSERT
  5
803
100
AcDbEntity
  8
0
100
AcDbBlockReference
 62
2
  6
CONTINUOUS
  2
_FILLED
 10
173.2830290362
 20
1011.5221842267
 41
3.5
 42
3.5
 43
3.5
 50
270.0
  0
ENDBLK
  5
804
100
AcDbEntity
  8
0
  6
BYBLOCK
 62
0
100
AcDbBlockEnd
  0
BLOCK
  5
805
100
AcDbEntity
  8
0
100
AcDbBlockBegin
 62
2
  6
CONTINUOUS
  2
*D17
 70
65
 10
0.0
 20
0.0
  3
*D17
  1

  0
TEXT
  5
806
100
AcDbEntity
  8
0
100
AcDbText
 62
5
  6
CONTINUOUS
 10
179.6580290362
 20
1283.7543270838
  7
STANDARD
 40
2.5
  1
550
 50
90.0
 72
5
 11
179.6580290362
 21
1289.2900413695
100
AcDbText
  0
LINE
  5
807
100
AcDbEntity
  8
0
100
AcDbLine
 62
2
  6
CONTINUOUS
 10
152.4830290362
 20
1561.5221842267
 11
181.2830290362
 21
1561.5221842267
  0
LINE
  5
808
100
AcDbEntity
  8
0
100
AcDbLine
 62
2
  6
CONTINUOUS
 10
180.2830290362
 20
1561.5221842267
 11
180.2830290362
 21
1286.5221842267
  0
LINE
  5
809
100
AcDbEntity
  8
0
100
AcDbLine
 62
2
  6
CONTINUOUS
 10
180.2830290362
 20
1011.5221842267
 11
180.2830290362
 21
1286.5221842267
  0
INSERT
  5
80A
100
AcDbEntity
  8
0
100
AcDbBlockReference
 62
2
  6
CONTINUOUS
  2
_FILLED
 10
180.2830290362
 20
1561.5221842267
 41
3.5
 42
3.5
 43
3.5
 50
90.0
  0
INSERT
  5
80B
100
AcDbEntity
  8
0
100
AcDbBlockReference
 62
2
  6
CONTINUOUS
  2
_FILLED
 10
180.2830290362
 20
1011.5221842267
 41
3.5
 42
3.5
 43
3.5
 50
270.0
  0
ENDBLK
  5
80C
100
AcDbEntity
  8
0
  6
BYBLOCK
 62
0
100
AcDbBlockEnd
  0
BLOCK
  5
80D
100
AcDbEntity
  8
0
100
AcDbBlockBegin
 62
2
  6
CONTINUOUS
  2
*D18
 70
65
 10
0.0
 20
0.0
  3
*D18
  1

  0
TEXT
  5
80E
100
AcDbEntity
  8
0
100
AcDbText
 62
5
  6
CONTINUOUS
 10
186.6580290362
 20
1323.0757556552
  7
STANDARD
 40
2.5
  1
629
 50
90.0
 72
5
 11
186.6580290362
 21
1328.9686127981
100
AcDbText
  0
LINE
  5
80F
100
AcDbEntity
  8
0
100
AcDbLine
 62
2
  6
CONTINUOUS
 10
152.4830290362
 20
1640.5221842267
 11
188.2830290362
 21
1640.5221842267
  0
LINE
  5
810
100
AcDbEntity
  8
0
100
AcDbLine
 62
2
  6
CONTINUOUS
 10
187.2830290362
 20
1640.5221842267
 11
187.2830290362
 21
1326.0221842267
  0
LINE
  5
811
100
AcDbEntity
  8
0
100
AcDbLine
 62
2
  6
CONTINUOUS
 10
187.2830290362
 20
1011.5221842267
 11
187.2830290362
 21
1326.0221842267
  0
INSERT
  5
812
100
AcDbEntity
  8
0
100
AcDbBlockReference
 62
2
  6
CONTINUOUS
  2
_FILLED
 10
187.2830290362
 20
1640.5221842267
 41
3.5
 42
3.5
 43
3.5
 50
90.0
  0
INSERT
  5
813
100
AcDbEntity
  8
0
100
AcDbBlockReference
 62
2
  6
CONTINUOUS
  2
_FILLED
 10
187.2830290362
 20
1011.5221842267
 41
3.5
 42
3.5
 43
3.5
 50
270.0
  0
ENDBLK
  5
814
100
AcDbEntity
  8
0
  6
BYBLOCK
 62
0
100
AcDbBlockEnd
  0
BLOCK
  5
815
100
AcDbEntity
  8
0
100
AcDbBlockBegin
 62
2
  6
CONTINUOUS
  2
*D19
 70
65
 10
0.0
 20
0.0
  3
*D19
  1

  0
TEXT
  5
816
100
AcDbEntity
  8
0
100
AcDbText
 62
5
  6
CONTINUOUS
 10
193.6580290362
 20
1402.6257556552
  7
STANDARD
 40
2.5
  1
788
 50
90.0
 72
5
 11
193.6580290362
 21
1408.5186127981
100
AcDbText
  0
LINE
  5
817
100
AcDbEntity
  8
0
100
AcDbLine
 62
2
  6
CONTINUOUS
 10
152.4830290362
 20
1799.6221842267
 11
195.2830290362
 21
1799.6221842267
  0
LINE
  5
818
100
AcDbEntity
  8
0
100
AcDbLine
 62
2
  6
CONTINUOUS
 10
194.2830290362
 20
1799.6221842267
 11
194.2830290362
 21
1405.5721842267
  0
LINE
  5
819
100
AcDbEntity
  8
0
100
AcDbLine
 62
2
  6
CONTINUOUS
 10
194.2830290362
 20
1011.5221842267
 11
194.2830290362
 21
1405.5721842267
  0
INSERT
  5
81A
100
AcDbEntity
  8
0
100
AcDbBlockReference
 62
2
  6
CONTINUOUS
  2
_FILLED
 10
194.2830290362
 20
1799.6221842267
 41
3.5
 42
3.5
 43
3.5
 50
90.0
  0
INSERT
  5
81B
100
AcDbEntity
  8
0
100
AcDbBlockReference
 62
2
  6
CONTINUOUS
  2
_FILLED
 10
194.2830290362
 20
1011.5221842267
 41
3.5
 42
3.5
 43
3.5
 50
270.0
  0
ENDBLK
  5
81C
100
AcDbEntity
  8
0
  6
BYBLOCK
 62
0
100
AcDbBlockEnd
  0
BLOCK
  5
81D
100
AcDbEntity
  8
0
100
AcDbBlockBegin
 62
2
  6
CONTINUOUS
  2
*D20
 70
65
 10
0.0
 20
0.0
  3
*D20
  1

  0
TEXT
  5
81E
100
AcDbEntity
  8
0
100
AcDbText
 62
5
  6
CONTINUOUS
 10
142.3187433219
 20
2132.1471842267
  7
STANDARD
 40
2.5
  1
24
 72
5
 11
146.2473147505
 21
2132.1471842267
100
AcDbText
  0
LINE
  5
81F
100
AcDbEntity
  8
0
100
AcDbLine
 62
2
  6
CONTINUOUS
 10
132.2830290362
 20
2121.5221842267
 11
132.2830290362
 21
2132.5221842267
  0
LINE
  5
820
100
AcDbEntity
  8
0
100
AcDbLine
 62
2
  6
CONTINUOUS
 10
156.2830290362
 20
2121.5221842267
 11
156.2830290362
 21
2132.5221842267
  0
LINE
  5
821
100
AcDbEntity
  8
0
100
AcDbLine
 62
2
  6
CONTINUOUS
 10
132.2830290362
 20
2131.5221842267
 11
144.2830290362
 21
2131.5221842267
  0
LINE
  5
822
100
AcDbEntity
  8
0
100
AcDbLine
 62
2
  6
CONTINUOUS
 10
156.2830290362
 20
2131.5221842267
 11
144.2830290362
 21
2131.5221842267
  0
INSERT
  5
823
100
AcDbEntity
  8
0
100
AcDbBlockReference
 62
2
  6
CONTINUOUS
  2
_FILLED
 10
132.2830290362
 20
2131.5221842267
 41
3.5
 42
3.5
 43
3.5
 50
180.0
  0
INSERT
  5
824
100
AcDbEntity
  8
0
100
AcDbBlockReference
 62
2
  6
CONTINUOUS
  2
_FILLED
 10
156.2830290362
 20
2131.5221842267
 41
3.5
 42
3.5
 43
3.5
  0
ENDBLK
  5
825
100
AcDbEntity
  8
0
  6
BYBLOCK
 62
0
100
AcDbBlockEnd
  0
BLOCK
  5
826
100
AcDbEntity
  8
0
100
AcDbBlockBegin
 62
2
  6
CONTINUOUS
  2
*D21
 70
65
 10
0.0
 20
0.0
  3
*D21
  1

  0
TEXT
  5
827
100
AcDbEntity
  8
0
100
AcDbText
 62
5
  6
CONTINUOUS
 10
36.0831257972
 20
2132.1471842267
  7
STANDARD
 40
2.5
  1
8
 72
5
 11
38.0474115115
 21
2132.1471842267
100
AcDbText
  0
LINE
  5
828
100
AcDbEntity
  8
0
100
AcDbLine
 62
2
  6
CONTINUOUS
 10
33.0652686543
 20
2121.5221842267
 11
33.0652686543
 21
2132.5221842267
  0
LINE
  5
829
100
AcDbEntity
  8
0
100
AcDbLine
 62
2
  6
CONTINUOUS
 10
41.0652686543
 20
2121.5221842267
 11
41.0652686543
 21
2132.5221842267
  0
LINE
  5
82A
100
AcDbEntity
  8
0
100
AcDbLine
 62
2
  6
CONTINUOUS
 10
33.0652686543
 20
2131.5221842267
 11
26.0652686543
 21
2131.5221842267
  0
LINE
  5
82B
100
AcDbEntity
  8
0
100
AcDbLine
 62
2
  6
CONTINUOUS
 10
26.0652686543
 20
2131.5221842267
 11
37.0652686543
 21
2131.5221842267
  0
LINE
  5
82C
100
AcDbEntity
  8
0
100
AcDbLine
 62
2
  6
CONTINUOUS
 10
41.0652686543
 20
2131.5221842267
 11
48.0652686543
 21
2131.5221842267
  0
LINE
  5
82D
100
AcDbEntity
  8
0
100
AcDbLine
 62
2
  6
CONTINUOUS
 10
48.0652686543
 20
2131.5221842267
 11
37.0652686543
 21
2131.5221842267
  0
INSERT
  5
82E
100
AcDbEntity
  8
0
100
AcDbBlockReference
 62
2
  6
CONTINUOUS
  2
_FILLED
 10
33.0652686543
 20
2131.5221842267
 41
3.5
 42
3.5
 43
3.5
  0
INSERT
  5
82F
100
AcDbEntity
  8
0
100
AcDbBlockReference
 62
2
  6
CONTINUOUS
  2
_FILLED
 10
41.0652686543
 20
2131.5221842267
 41
3.5
 42
3.5
 43
3.5
 50
180.0
  0
ENDBLK
  5
830
100
AcDbEntity
  8
0
  6
BYBLOCK
 62
0
100
AcDbBlockEnd
  0
BLOCK
  5
831
100
AcDbEntity
  8
0
100
AcDbBlockBegin
 62
2
  6
CONTINUOUS
  2
*D22
 70
65
 10
0.0
 20
0.0
  3
*D22
  1

  0
TEXT
  5
832
100
AcDbEntity
  8
0
100
AcDbText
 62
5
  6
CONTINUOUS
 10
137.2535936877
 20
180.878275966
  7
STANDARD
 40
2.5
  1
9
 72
5
 11
139.217879402
 21
180.878275966
100
AcDbText
  0
LINE
  5
833
100
AcDbEntity
  8
0
100
AcDbLine
 62
2
  6
CONTINUOUS
 10
141.2830290362
 20
200.5221842267
 11
141.2830290362
 21
179.253275966
  0
LINE
  5
834
100
AcDbEntity
  8
0
100
AcDbLine
 62
2
  6
CONTINUOUS
 10
141.2830290362
 20
180.253275966
 11
148.2830290362
 21
180.253275966
  0
LINE
  5
835
100
AcDbEntity
  8
0
100
AcDbLine
 62
2
  6
CONTINUOUS
 10
148.2830290362
 20
180.253275966
 11
136.7830290362
 21
180.253275966
  0
LINE
  5
836
100
AcDbEntity
  8
0
100
AcDbLine
 62
2
  6
CONTINUOUS
 10
132.2830290362
 20
180.253275966
 11
125.2830290362
 21
180.253275966
  0
LINE
  5
837
100
AcDbEntity
  8
0
100
AcDbLine
 62
2
  6
CONTINUOUS
 10
125.2830290362
 20
180.253275966
 11
136.7830290362
 21
180.253275966
  0
INSERT
  5
838
100
AcDbEntity
  8
0
100
AcDbBlockReference
 62
2
  6
CONTINUOUS
  2
_FILLED
 10
141.2830290362
 20
180.253275966
 41
3.5
 42
3.5
 43
3.5
 50
180.0
  0
INSERT
  5
839
100
AcDbEntity
  8
0
100
AcDbBlockReference
 62
2
  6
CONTINUOUS
  2
_FILLED
 10
132.2830290362
 20
180.253275966
 41
3.5
 42
3.5
 43
3.5
  0
ENDBLK
  5
83A
100
AcDbEntity
  8
0
  6
BYBLOCK
 62
0
100
AcDbBlockEnd
  0
BLOCK
  5
83B
100
AcDbEntity
  8
0
100
AcDbBlockBegin
 62
2
  6
CONTINUOUS
  2
*D23
 70
65
 10
0.0
 20
0.0
  3
*D23
  1

  0
TEXT
  5
83C
100
AcDbEntity
  8
0
100
AcDbText
 62
5
  6
CONTINUOUS
 10
73.4402686543
 20
83.9092848229
  7
STANDARD
 40
2.5
  1
13.5
 50
90.0
 72
5
 11
73.4402686543
 21
90.3378562515
100
AcDbText
  0
LINE
  5
83D
100
AcDbEntity
  8
0
100
AcDbLine
 62
2
  6
CONTINUOUS
 10
45.5652686543
 20
93.8735705372
 11
65.8733218745
 21
93.8735705372
  0
LINE
  5
83E
100
AcDbEntity
  8
0
100
AcDbLine
 62
2
  6
CONTINUOUS
 10
68.1046806079
 20
93.8735705372
 11
75.0652686543
 21
93.8735705372
  0
LINE
  5
83F
100
AcDbEntity
  8
0
100
AcDbLine
 62
2
  6
CONTINUOUS
 10
45.5652686543
 20
80.3735705372
 11
75.0652686543
 21
80.3735705372
  0
LINE
  5
840
100
AcDbEntity
  8
0
100
AcDbLine
 62
2
  6
CONTINUOUS
 10
74.0652686543
 20
93.8735705372
 11
74.0652686543
 21
87.1235705372
  0
LINE
  5
841
100
AcDbEntity
  8
0
100
AcDbLine
 62
2
  6
CONTINUOUS
 10
74.0652686543
 20
80.3735705372
 11
74.0652686543
 21
87.1235705372
  0
INSERT
  5
842
100
AcDbEntity
  8
0
100
AcDbBlockReference
 62
2
  6
CONTINUOUS
  2
_FILLED
 10
74.0652686543
 20
93.8735705372
 41
3.5
 42
3.5
 43
3.5
 50
90.0
  0
INSERT
  5
843
100
AcDbEntity
  8
0
100
AcDbBlockReference
 62
2
  6
CONTINUOUS
  2
_FILLED
 10
74.0652686543
 20
80.3735705372
 41
3.5
 42
3.5
 43
3.5
 50
270.0
  0
ENDBLK
  5
844
100
AcDbEntity
  8
0
  6
BYBLOCK
 62
0
100
AcDbBlockEnd
  0
BLOCK
  5
845
100
AcDbEntity
  8
0
100
AcDbBlockBegin
 62
2
  6
CONTINUOUS
  2
*D24
 70
65
 10
0.0
 20
0.0
  3
*D24
  1

  0
TEXT
  5
846
100
AcDbEntity
  8
0
100
AcDbText
 62
5
  6
CONTINUOUS
 10
66.4402686543
 20
101.7184484041
  7
STANDARD
 40
2.5
  1
2
 50
90.0
 72
5
 11
66.4402686543
 21
103.6827341184
100
AcDbText
  0
LINE
  5
847
100
AcDbEntity
  8
0
100
AcDbLine
 62
2
  6
CONTINUOUS
 10
41.0652686543
 20
96.8735705372
 11
68.0652686543
 21
96.8735705372
  0
LINE
  5
848
100
AcDbEntity
  8
0
100
AcDbLine
 62
2
  6
CONTINUOUS
 10
41.0652686543
 20
94.8735705372
 11
68.0652686543
 21
94.8735705372
  0
LINE
  5
849
100
AcDbEntity
  8
0
100
AcDbLine
 62
2
  6
CONTINUOUS
 10
67.0652686543
 20
96.8735705372
 11
67.0652686543
 21
103.6827341184
  0
LINE
  5
84A
100
AcDbEntity
  8
0
100
AcDbLine
 62
2
  6
CONTINUOUS
 10
67.0652686543
 20
103.6827341184
 11
67.0652686543
 21
95.8735705372
  0
LINE
  5
84B
100
AcDbEntity
  8
0
100
AcDbLine
 62
2
  6
CONTINUOUS
 10
67.0652686543
 20
94.8735705372
 11
67.0652686543
 21
87.8735705372
  0
LINE
  5
84C
100
AcDbEntity
  8
0
100
AcDbLine
 62
2
  6
CONTINUOUS
 10
67.0652686543
 20
87.8735705372
 11
67.0652686543
 21
95.8735705372
  0
INSERT
  5
84D
100
AcDbEntity
  8
0
100
AcDbBlockReference
 62
2
  6
CONTINUOUS
  2
_FILLED
 10
67.0652686543
 20
96.8735705372
 41
3.5
 42
3.5
 43
3.5
 50
270.0
  0
INSERT
  5
84E
100
AcDbEntity
  8
0
100
AcDbBlockReference
 62
2
  6
CONTINUOUS
  2
_FILLED
 10
67.0652686543
 20
94.8735705372
 41
3.5
 42
3.5
 43
3.5
 50
90.0
  0
ENDBLK
  5
84F
100
AcDbEntity
  8
0
  6
BYBLOCK
 62
0
100
AcDbBlockEnd
  0
BLOCK
  5
850
100
AcDbEntity
  8
0
100
AcDbBlockBegin
 62
2
  6
CONTINUOUS
  2
*D25
 70
65
 10
0.0
 20
0.0
  3
*D25
  1

  0
TEXT
  5
851
100
AcDbEntity
  8
0
100
AcDbText
 62
5
  6
CONTINUOUS
 10
66.4402686543
 20
160.5578985124
  7
STANDARD
 40
2.5
  1
82
 50
90.0
 72
5
 11
66.4402686543
 21
164.4864699409
100
AcDbText
  0
LINE
  5
852
100
AcDbEntity
  8
0
100
AcDbLine
 62
2
  6
CONTINUOUS
 10
41.0732159515
 20
121.5221842267
 11
68.0652686543
 21
121.5221842267
  0
LINE
  5
853
100
AcDbEntity
  8
0
100
AcDbLine
 62
2
  6
CONTINUOUS
 10
41.0685139605
 20
203.5221842267
 11
68.0652686543
 21
203.5221842267
  0
LINE
  5
854
100
AcDbEntity
  8
0
100
AcDbLine
 62
2
  6
CONTINUOUS
 10
67.0652686543
 20
121.5221842267
 11
67.0652686543
 21
162.5221842267
  0
LINE
  5
855
100
AcDbEntity
  8
0
100
AcDbLine
 62
2
  6
CONTINUOUS
 10
67.0652686543
 20
203.5221842267
 11
67.0652686543
 21
162.5221842267
  0
INSERT
  5
856
100
AcDbEntity
  8
0
100
AcDbBlockReference
 62
2
  6
CONTINUOUS
  2
_FILLED
 10
67.0652686543
 20
121.5221842267
 41
3.5
 42
3.5
 43
3.5
 50
270.0
  0
INSERT
  5
857
100
AcDbEntity
  8
0
100
AcDbBlockReference
 62
2
  6
CONTINUOUS
  2
_FILLED
 10
67.0652686543
 20
203.5221842267
 41
3.5
 42
3.5
 43
3.5
 50
90.0
  0
ENDBLK
  5
858
100
AcDbEntity
  8
0
  6
BYBLOCK
 62
0
100
AcDbBlockEnd
  0
BLOCK
  5
859
100
AcDbEntity
  8
0
100
AcDbBlockBegin
 62
2
  6
CONTINUOUS
  2
*D26
 70
65
 10
0.0
 20
0.0
  3
*D26
  1

  0
TEXT
  5
85A
100
AcDbEntity
  8
0
100
AcDbText
 62
5
  6
CONTINUOUS
 10
66.4402686543
 20
249.5578985124
  7
STANDARD
 40
2.5
  1
96
 50
90.0
 72
5
 11
66.4402686543
 21
253.4864699409
100
AcDbText
  0
LINE
  5
85B
100
AcDbEntity
  8
0
100
AcDbLine
 62
2
  6
CONTINUOUS
 10
41.0674302818
 20
203.5221842267
 11
68.0652686543
 21
203.5221842267
  0
LINE
  5
85C
100
AcDbEntity
  8
0
100
AcDbLine
 62
2
  6
CONTINUOUS
 10
41.0935272093
 20
299.5221842267
 11
68.0652686543
 21
299.5221842267
  0
LINE
  5
85D
100
AcDbEntity
  8
0
100
AcDbLine
 62
2
  6
CONTINUOUS
 10
67.0652686543
 20
203.5221842267
 11
67.0652686543
 21
251.5221842267
  0
LINE
  5
85E
100
AcDbEntity
  8
0
100
AcDbLine
 62
2
  6
CONTINUOUS
 10
67.0652686543
 20
299.5221842267
 11
67.0652686543
 21
251.5221842267
  0
INSERT
  5
85F
100
AcDbEntity
  8
0
100
AcDbBlockReference
 62
2
  6
CONTINUOUS
  2
_FILLED
 10
67.0652686543
 20
203.5221842267
 41
3.5
 42
3.5
 43
3.5
 50
270.0
  0
INSERT
  5
860
100
AcDbEntity
  8
0
100
AcDbBlockReference
 62
2
  6
CONTINUOUS
  2
_FILLED
 10
67.0652686543
 20
299.5221842267
 41
3.5
 42
3.5
 43
3.5
 50
90.0
  0
ENDBLK
  5
861
100
AcDbEntity
  8
0
  6
BYBLOCK
 62
0
100
AcDbBlockEnd
  0
BLOCK
  5
862
100
AcDbEntity
  8
0
100
AcDbBlockBegin
 62
2
  6
CONTINUOUS
  2
*D27
 70
65
 10
0.0
 20
0.0
  3
*D27
  1

  0
TEXT
  5
863
100
AcDbEntity
  8
0
100
AcDbText
 62
5
  6
CONTINUOUS
 10
66.4402686543
 20
604.4578985124
  7
STANDARD
 40
2.5
  1
615
 50
90.0
 72
5
 11
66.4402686543
 21
609.6364699409
100
AcDbText
  0
LINE
  5
864
100
AcDbEntity
  8
0
100
AcDbLine
 62
2
  6
CONTINUOUS
 10
41.0753892198
 20
299.5221842267
 11
68.0652686543
 21
299.5221842267
  0
LINE
  5
865
100
AcDbEntity
  8
0
100
AcDbLine
 62
2
  6
CONTINUOUS
 10
51.5652686543
 20
914.5721842267
 11
68.0652686543
 21
914.5721842267
  0
LINE
  5
866
100
AcDbEntity
  8
0
100
AcDbLine
 62
2
  6
CONTINUOUS
 10
67.0652686543
 20
299.5221842267
 11
67.0652686543
 21
607.0471842267
  0
LINE
  5
867
100
AcDbEntity
  8
0
100
AcDbLine
 62
2
  6
CONTINUOUS
 10
67.0652686543
 20
914.5721842267
 11
67.0652686543
 21
607.0471842267
  0
INSERT
  5
868
100
AcDbEntity
  8
0
100
AcDbBlockReference
 62
2
  6
CONTINUOUS
  2
_FILLED
 10
67.0652686543
 20
299.5221842267
 41
3.5
 42
3.5
 43
3.5
 50
270.0
  0
INSERT
  5
869
100
AcDbEntity
  8
0
100
AcDbBlockReference
 62
2
  6
CONTINUOUS
  2
_FILLED
 10
67.0652686543
 20
914.5721842267
 41
3.5
 42
3.5
 43
3.5
 50
90.0
  0
ENDBLK
  5
86A
100
AcDbEntity
  8
0
  6
BYBLOCK
 62
0
100
AcDbBlockEnd
  0
BLOCK
  5
86B
100
AcDbEntity
  8
0
100
AcDbBlockBegin
 62
2
  6
CONTINUOUS
  2
*D28
 70
65
 10
0.0
 20
0.0
  3
*D28
  1

  0
TEXT
  5
86C
100
AcDbEntity
  8
0
100
AcDbText
 62
5
  6
CONTINUOUS
 10
66.4402686543
 20
943.5578985124
  7
STANDARD
 40
2.5
  1
62
 50
90.0
 72
5
 11
66.4402686543
 21
947.4864699409
100
AcDbText
  0
LINE
  5
86D
100
AcDbEntity
  8
0
100
AcDbLine
 62
2
  6
CONTINUOUS
 10
51.5652686543
 20
914.5721842267
 11
68.0652686543
 21
914.5721842267
  0
LINE
  5
86E
100
AcDbEntity
  8
0
100
AcDbLine
 62
2
  6
CONTINUOUS
 10
44.1903820191
 20
976.4721842267
 11
68.0652686543
 21
976.4721842267
  0
LINE
  5
86F
100
AcDbEntity
  8
0
100
AcDbLine
 62
2
  6
CONTINUOUS
 10
67.0652686543
 20
914.5721842267
 11
67.0652686543
 21
945.5221842267
  0
LINE
  5
870
100
AcDbEntity
  8
0
100
AcDbLine
 62
2
  6
CONTINUOUS
 10
67.0652686543
 20
976.4721842267
 11
67.0652686543
 21
945.5221842267
  0
INSERT
  5
871
100
AcDbEntity
  8
0
100
AcDbBlockReference
 62
2
  6
CONTINUOUS
  2
_FILLED
 10
67.0652686543
 20
914.5721842267
 41
3.5
 42
3.5
 43
3.5
 50
270.0
  0
INSERT
  5
872
100
AcDbEntity
  8
0
100
AcDbBlockReference
 62
2
  6
CONTINUOUS
  2
_FILLED
 10
67.0652686543
 20
976.4721842267
 41
3.5
 42
3.5
 43
3.5
 50
90.0
  0
ENDBLK
  5
873
100
AcDbEntity
  8
0
  6
BYBLOCK
 62
0
100
AcDbBlockEnd
  0
BLOCK
  5
874
100
AcDbEntity
  8
0
100
AcDbBlockBegin
 62
2
  6
CONTINUOUS
  2
*D29
 70
65
 10
0.0
 20
0.0
  3
*D29
  1

  0
TEXT
  5
875
100
AcDbEntity
  8
0
100
AcDbText
 62
5
  6
CONTINUOUS
 10
66.4402686543
 20
1332.3186127981
  7
STANDARD
 40
2.5
  1
717
 50
90.0
 72
5
 11
66.4402686543
 21
1337.6757556552
100
AcDbText
  0
LINE
  5
876
100
AcDbEntity
  8
0
100
AcDbLine
 62
2
  6
CONTINUOUS
 10
44.1903820191
 20
976.4721842267
 11
68.0652686543
 21
976.4721842267
  0
LINE
  5
877
100
AcDbEntity
  8
0
100
AcDbLine
 62
2
  6
CONTINUOUS
 10
41.0881277398
 20
1693.5221842267
 11
68.0652686543
 21
1693.5221842267
  0
LINE
  5
878
100
AcDbEntity
  8
0
100
AcDbLine
 62
2
  6
CONTINUOUS
 10
67.0652686543
 20
976.4721842267
 11
67.0652686543
 21
1334.9971842267
  0
LINE
  5
879
100
AcDbEntity
  8
0
100
AcDbLine
 62
2
  6
CONTINUOUS
 10
67.0652686543
 20
1693.5221842267
 11
67.0652686543
 21
1334.9971842267
  0
INSERT
  5
87A
100
AcDbEntity
  8
0
100
AcDbBlockReference
 62
2
  6
CONTINUOUS
  2
_FILLED
 10
67.0652686543
 20
976.4721842267
 41
3.5
 42
3.5
 43
3.5
 50
270.0
  0
INSERT
  5
87B
100
AcDbEntity
  8
0
100
AcDbBlockReference
 62
2
  6
CONTINUOUS
  2
_FILLED
 10
67.0652686543
 20
1693.5221842267
 41
3.5
 42
3.5
 43
3.5
 50
90.0
  0
ENDBLK
  5
87C
100
AcDbEntity
  8
0
  6
BYBLOCK
 62
0
100
AcDbBlockEnd
  0
BLOCK
  5
87D
100
AcDbEntity
  8
0
100
AcDbBlockBegin
 62
2
  6
CONTINUOUS
  2
*D30
 70
65
 10
0.0
 20
0.0
  3
*D30
  1

  0
TEXT
  5
87E
100
AcDbEntity
  8
0
100
AcDbText
 62
5
  6
CONTINUOUS
 10
66.4402686543
 20
1739.5578985124
  7
STANDARD
 40
2.5
  1
96
 50
90.0
 72
5
 11
66.4402686543
 21
1743.4864699409
100
AcDbText
  0
LINE
  5
87F
100
AcDbEntity
  8
0
100
AcDbLine
 62
2
  6
CONTINUOUS
 10
41.0881277398
 20
1693.5221842267
 11
68.0652686543
 21
1693.5221842267
  0
LINE
  5
880
100
AcDbEntity
  8
0
100
AcDbLine
 62
2
  6
CONTINUOUS
 10
41.1550671499
 20
1789.5221842267
 11
68.0652686543
 21
1789.5221842267
  0
LINE
  5
881
100
AcDbEntity
  8
0
100
AcDbLine
 62
2
  6
CONTINUOUS
 10
67.0652686543
 20
1693.5221842267
 11
67.0652686543
 21
1741.5221842267
  0
LINE
  5
882
100
AcDbEntity
  8
0
100
AcDbLine
 62
2
  6
CONTINUOUS
 10
67.0652686543
 20
1789.5221842267
 11
67.0652686543
 21
1741.5221842267
  0
INSERT
  5
883
100
AcDbEntity
  8
0
100
AcDbBlockReference
 62
2
  6
CONTINUOUS
  2
_FILLED
 10
67.0652686543
 20
1693.5221842267
 41
3.5
 42
3.5
 43
3.5
 50
270.0
  0
INSERT
  5
884
100
AcDbEntity
  8
0
100
AcDbBlockReference
 62
2
  6
CONTINUOUS
  2
_FILLED
 10
67.0652686543
 20
1789.5221842267
 41
3.5
 42
3.5
 43
3.5
 50
90.0
  0
ENDBLK
  5
885
100
AcDbEntity
  8
0
  6
BYBLOCK
 62
0
100
AcDbBlockEnd
  0
BLOCK
  5
886
100
AcDbEntity
  8
0
100
AcDbBlockBegin
 62
2
  6
CONTINUOUS
  2
*D31
 70
65
 10
0.0
 20
0.0
  3
*D31
  1

  0
TEXT
  5
887
100
AcDbEntity
  8
0
100
AcDbText
 62
5
  6
CONTINUOUS
 10
66.4402686543
 20
1952.7543270838
  7
STANDARD
 40
2.5
  1
332
 50
90.0
 72
5
 11
66.4402686543
 21
1958.2900413695
100
AcDbText
  0
LINE
  5
888
100
AcDbEntity
  8
0
100
AcDbLine
 62
2
  6
CONTINUOUS
 10
38.0652686543
 20
2121.5221842267
 11
68.0652686543
 21
2121.5221842267
  0
LINE
  5
889
100
AcDbEntity
  8
0
100
AcDbLine
 62
2
  6
CONTINUOUS
 10
41.082359139
 20
1789.5221842267
 11
68.0652686543
 21
1789.5221842267
  0
LINE
  5
88A
100
AcDbEntity
  8
0
100
AcDbLine
 62
2
  6
CONTINUOUS
 10
67.0652686543
 20
2121.5221842267
 11
67.0652686543
 21
1955.5221842267
  0
LINE
  5
88B
100
AcDbEntity
  8
0
100
AcDbLine
 62
2
  6
CONTINUOUS
 10
67.0652686543
 20
1789.5221842267
 11
67.0652686543
 21
1955.5221842267
  0
INSERT
  5
88C
100
AcDbEntity
  8
0
100
AcDbBlockReference
 62
2
  6
CONTINUOUS
  2
_FILLED
 10
67.0652686543
 20
2121.5221842267
 41
3.5
 42
3.5
 43
3.5
 50
90.0
  0
INSERT
  5
88D
100
AcDbEntity
  8
0
100
AcDbBlockReference
 62
2
  6
CONTINUOUS
  2
_FILLED
 10
67.0652686543
 20
1789.5221842267
 41
3.5
 42
3.5
 43
3.5
 50
270.0
  0
ENDBLK
  5
88E
100
AcDbEntity
  8
0
  6
BYBLOCK
 62
0
100
AcDbBlockEnd
  0
BLOCK
  5
88F
100
AcDbEntity
  8
0
100
AcDbBlockBegin
 62
2
  6
CONTINUOUS
  2
*D32
 70
65
 10
0.0
 20
0.0
  3
*D32
  1

  0
TEXT
  5
890
100
AcDbEntity
  8
0
100
AcDbText
 62
5
  6
CONTINUOUS
 10
46.4603690539
 20
207.276259931
  7
STANDARD
 40
2.5
  1
24
 72
5
 11
50.3889404824
 21
207.276259931
100
AcDbText
  0
LINE
  5
891
100
AcDbEntity
  8
0
100
AcDbLine
 62
2
  6
CONTINUOUS
 10
57.0652686543
 20
222.7948417183
 11
57.0652686543
 21
205.651259931
  0
LINE
  5
892
100
AcDbEntity
  8
0
100
AcDbLine
 62
2
  6
CONTINUOUS
 10
57.0652686543
 20
206.651259931
 11
45.0652686543
 21
206.651259931
  0
LINE
  5
893
100
AcDbEntity
  8
0
100
AcDbLine
 62
2
  6
CONTINUOUS
 10
33.0652686543
 20
206.651259931
 11
45.0652686543
 21
206.651259931
  0
INSERT
  5
894
100
AcDbEntity
  8
0
100
AcDbBlockReference
 62
2
  6
CONTINUOUS
  2
_FILLED
 10
57.0652686543
 20
206.651259931
 41
3.5
 42
3.5
 43
3.5
  0
INSERT
  5
895
100
AcDbEntity
  8
0
100
AcDbBlockReference
 62
2
  6
CONTINUOUS
  2
_FILLED
 10
33.0652686543
 20
206.651259931
 41
3.5
 42
3.5
 43
3.5
 50
180.0
  0
ENDBLK
  5
896
100
AcDbEntity
  8
0
  6
BYBLOCK
 62
0
100
AcDbBlockEnd
  0
ENDSEC
  0
SECTION
  2
ENTITIES
  0
DIMENSION
  5
897
100
AcDbEntity
  8
0
100
AcDbDimension
 62
2
  6
CONTINUOUS
  2
*D0
 10
146.5830290362
 20
896.2721842267
 11
141.2830290362
 21
896.2721842267
 70
160
 71
2
 42
10.6
  3
DIMSTYLE_1
100
AcDbAlignedDimension
 13
135.9830290362
 23
915.5721842267
 14
146.5830290362
 24
915.5721842267
100
AcDbRotatedDimension
  0
DIMENSION
  5
898
100
AcDbEntity
  8
0
100
AcDbDimension
 62
2
  6
CONTINUOUS
  2
*D1
 10
122.2830290362
 20
975.5721842267
 11
122.2830290362
 21
945.4221842267
 70
160
 71
2
 42
60.3
  3
DIMSTYLE_2
100
AcDbAlignedDimension
 13
136.0553876731
 23
915.2721842267
 14
136.0553876737
 24
975.5721842267
 50
90.0
100
AcDbRotatedDimension
  0
DIMENSION
  5
899
100
AcDbEntity
  8
0
100
AcDbDimension
 62
2
  6
CONTINUOUS
  2
*D2
 10
115.2830290362
 20
1011.5221842267
 11
115.2830290362
 21
978.5221842267
 70
160
 71
2
 42
66.0
  3
DIMSTYLE_2
100
AcDbAlignedDimension
 13
132.0476088717
 23
945.5221842267
 14
44.095405915
 24
1011.5221842267
 50
90.0
100
AcDbRotatedDimension
  0
DIMENSION
  5
89A
100
AcDbEntity
  8
0
100
AcDbDimension
 62
2
  6
CONTINUOUS
  2
*D3
 10
132.2830290362
 20
903.2721842267
 11
127.7963412313
 21
903.2721842267
 70
160
 71
3
 42
9.0
  3
DIMSTYLE_1
100
AcDbAlignedDimension
 13
141.2830290362
 23
911.1093672976
 14
132.2830290362
 24
1012.3721842267
 50
180.0
100
AcDbRotatedDimension
  0
DIMENSION
  5
89B
100
AcDbEntity
  8
0
100
AcDbDimension
 62
2
  6
CONTINUOUS
  2
*D4
 10
166.2830290362
 20
1011.5221842267
 11
166.2830290362
 21
1000.0221842267
 70
160
 71
2
 42
23.0
  3
DIMSTYLE_1
100
AcDbAlignedDimension
 13
152.6830290362
 23
988.5221842267
 14
238.9186647027
 24
1011.5221842267
 50
90.0
100
AcDbRotatedDimension
  0
DIMENSION
  5
89C
100
AcDbEntity
  8
0
100
AcDbDimension
 62
2
  6
CONTINUOUS
  2
*D5
 10
173.2830290362
 20
1011.5221842267
 11
173.2830290362
 21
915.5721842267
 70
160
 71
2
 42
191.9
  3
DIMSTYLE_3
100
AcDbAlignedDimension
 13
152.4830290362
 23
819.6221842267
 14
238.9186647027
 24
1011.5221842267
 50
90.0
100
AcDbRotatedDimension
  0
DIMENSION
  5
89D
100
AcDbEntity
  8
0
100
AcDbDimension
 62
2
  6
CONTINUOUS
  2
*D6
 10
180.2830290362
 20
1011.5221842267
 11
180.2830290362
 21
857.4721842267
 70
160
 71
2
 42
308.1
  3
DIMSTYLE_3
100
AcDbAlignedDimension
 13
152.4830290362
 23
703.4221842267
 14
238.9186647027
 24
1011.5221842267
 50
90.0
100
AcDbRotatedDimension
  0
DIMENSION
  5
89E
100
AcDbEntity
  8
0
100
AcDbDimension
 62
2
  6
CONTINUOUS
  2
*D7
 10
187.2830290362
 20
1011.5221842267
 11
187.2830290362
 21
761.5221842267
 70
160
 71
2
 42
500.0
  3
DIMSTYLE_4
100
AcDbAlignedDimension
 13
152.6830290362
 23
511.5221842267
 14
238.9186647027
 24
1011.5221842267
 50
90.0
100
AcDbRotatedDimension
  0
DIMENSION
  5
89F
100
AcDbEntity
  8
0
100
AcDbDimension
 62
2
  6
CONTINUOUS
  2
*D8
 10
194.2830290362
 20
1011.5221842267
 11
194.2830290362
 21
660.5721842267
 70
160
 71
2
 42
701.9
  3
DIMSTYLE_5
100
AcDbAlignedDimension
 13
152.4830290362
 23
309.6221842267
 14
238.9186647027
 24
1011.5221842267
 50
90.0
100
AcDbRotatedDimension
  0
DIMENSION
  5
8A0
100
AcDbEntity
  8
0
100
AcDbDimension
 62
2
  6
CONTINUOUS
  2
*D9
 10
201.2830290362
 20
1011.5221842267
 11
201.2830290362
 21
602.4721842267
 70
160
 71
2
 42
818.1
  3
DIMSTYLE_5
100
AcDbAlignedDimension
 13
152.4830290362
 23
193.4221842267
 14
160.2926859743
 24
1011.5221842267
 50
90.0
100
AcDbRotatedDimension
  0
DIMENSION
  5
8A1
100
AcDbEntity
  8
0
100
AcDbDimension
 62
2
  6
CONTINUOUS
  2
*D10
 10
108.2830290362
 20
1011.5221842267
 11
108.2830290362
 21
631.5221842267
 70
160
 71
2
 42
760.0
  3
DIMSTYLE_4
100
AcDbAlignedDimension
 13
131.3220389664
 23
251.5221842267
 14
44.095405915
 24
1011.5221842267
 50
90.0
100
AcDbRotatedDimension
  0
DIMENSION
  5
8A2
100
AcDbEntity
  8
0
100
AcDbDimension
 62
2
  6
CONTINUOUS
  2
*D11
 10
101.2830290362
 20
1011.5221842267
 11
101.2830290362
 21
566.5221842267
 70
160
 71
2
 42
890.0
  3
DIMSTYLE_4
100
AcDbAlignedDimension
 13
135.2830290362
 23
121.5221842267
 14
128.0894162848
 24
1011.5221842267
 50
90.0
100
AcDbRotatedDimension
  0
DIMENSION
  5
8A3
100
AcDbEntity
  8
0
100
AcDbDimension
 62
2
  6
CONTINUOUS
  2
*D12
 10
101.2830290362
 20
1011.5221842267
 11
101.2830290362
 21
1566.5221842267
 70
160
 71
2
 42
1110.0
  3
DIMSTYLE_6
100
AcDbAlignedDimension
 13
135.2830290362
 23
2121.5221842267
 14
44.095405915
 24
1011.5221842267
 50
270.0
100
AcDbRotatedDimension
  0
DIMENSION
  5
8A4
100
AcDbEntity
  8
0
100
AcDbDimension
 62
2
  6
CONTINUOUS
  2
*D13
 10
108.2830290362
 20
1011.5221842267
 11
108.2830290362
 21
1376.5221842267
 70
160
 71
2
 42
730.0
  3
DIMSTYLE_4
100
AcDbAlignedDimension
 13
131.3220389664
 23
1741.5221842267
 14
44.095405915
 24
1011.5221842267
 50
270.0
100
AcDbRotatedDimension
  0
DIMENSION
  5
8A5
100
AcDbEntity
  8
0
100
AcDbDimension
 62
2
  6
CONTINUOUS
  2
*D14
 10
122.2830290362
 20
1011.5221842267
 11
122.2830290362
 21
1024.0221842267
 70
160
 71
2
 42
25.0
  3
DIMSTYLE_1
100
AcDbAlignedDimension
 13
129.2830290362
 23
1036.5221842267
 14
44.095405915
 24
1011.5221842267
 50
270.0
100
AcDbRotatedDimension
  0
DIMENSION
  5
8A6
100
AcDbEntity
  8
0
100
AcDbDimension
 62
2
  6
CONTINUOUS
  2
*D15
 10
166.2830290362
 20
1011.5221842267
 11
166.2830290362
 21
1048.0221842267
 70
160
 71
2
 42
73.0
  3
DIMSTYLE_2
100
AcDbAlignedDimension
 13
152.6830290362
 23
1084.5221842267
 14
238.9186647027
 24
1011.5221842267
 50
270.0
100
AcDbRotatedDimension
  0
DIMENSION
  5
8A7
100
AcDbEntity
  8
0
100
AcDbDimension
 62
2
  6
CONTINUOUS
  2
*D16
 10
173.2830290362
 20
1011.5221842267
 11
173.2830290362
 21
1211.2721842267
 70
160
 71
2
 42
399.5
  3
DIMSTYLE_7
100
AcDbAlignedDimension
 13
152.4830290362
 23
1411.0221842267
 14
238.9186647027
 24
1011.5221842267
 50
270.0
100
AcDbRotatedDimension
  0
DIMENSION
  5
8A8
100
AcDbEntity
  8
0
100
AcDbDimension
 62
2
  6
CONTINUOUS
  2
*D17
 10
180.2830290362
 20
1011.5221842267
 11
180.2830290362
 21
1286.5221842267
 70
160
 71
2
 42
550.0
  3
DIMSTYLE_4
100
AcDbAlignedDimension
 13
152.4830290362
 23
1561.5221842267
 14
238.9186647027
 24
1011.5221842267
 50
270.0
100
AcDbRotatedDimension
  0
DIMENSION
  5
8A9
100
AcDbEntity
  8
0
100
AcDbDimension
 62
2
  6
CONTINUOUS
  2
*D18
 10
187.2830290362
 20
1011.5221842267
 11
187.2830290362
 21
1326.0221842267
 70
160
 71
2
 42
629.0
  3
DIMSTYLE_4
100
AcDbAlignedDimension
 13
152.4830290362
 23
1640.5221842267
 14
238.9186647027
 24
1011.5221842267
 50
270.0
100
AcDbRotatedDimension
  0
DIMENSION
  5
8AA
100
AcDbEntity
  8
0
100
AcDbDimension
 62
2
  6
CONTINUOUS
  2
*D19
 10
194.2830290362
 20
1011.5221842267
 11
194.2830290362
 21
1405.5721842267
 70
160
 71
2
 42
788.1
  3
DIMSTYLE_5
100
AcDbAlignedDimension
 13
152.4830290362
 23
1799.6221842267
 14
238.9186647027
 24
1011.5221842267
 50
270.0
100
AcDbRotatedDimension
  0
DIMENSION
  5
8AB
100
AcDbEntity
  8
0
100
AcDbDimension
 62
2
  6
CONTINUOUS
  2
*D20
 10
156.2830290362
 20
2131.5221842267
 11
144.2830290362
 21
2131.5221842267
 70
160
 71
2
 42
24.0
  3
DIMSTYLE_1
100
AcDbAlignedDimension
 13
132.2830290362
 23
2121.5221842267
 14
156.2830290362
 24
2121.5221842267
100
AcDbRotatedDimension
  0
DIMENSION
  5
8AC
100
AcDbEntity
  8
0
100
AcDbDimension
 62
2
  6
CONTINUOUS
  2
*D21
 10
41.0652686543
 20
2131.5221842267
 11
37.0652686543
 21
2131.5221842267
 70
160
 71
2
 42
8.0
  3
DIMSTYLE_1
100
AcDbAlignedDimension
 13
33.0652686543
 23
2121.5221842267
 14
41.0652686543
 24
2121.5221842267
100
AcDbRotatedDimension
  0
DIMENSION
  5
8AD
100
AcDbEntity
  8
0
100
AcDbDimension
 62
2
  6
CONTINUOUS
  2
*D22
 10
132.2830290362
 20
180.253275966
 11
138.2357365449
 21
180.253275966
 70
160
 71
2
 42
9.0
  3
DIMSTYLE_1
100
AcDbAlignedDimension
 13
141.2830290362
 23
200.5221842267
 14
132.2830290362
 24
121.5221842267
 50
180.0
100
AcDbRotatedDimension
  0
DIMENSION
  5
8AE
100
AcDbEntity
  8
0
100
AcDbDimension
 62
2
  6
CONTINUOUS
  2
*D23
 10
74.0652686543
 20
80.3735705372
 11
74.0652686543
 21
87.1235705372
 70
160
 71
2
 42
13.5
  3
DIMSTYLE_1
100
AcDbAlignedDimension
 13
45.5652686543
 23
93.8735705372
 14
45.5652686543
 24
80.3735705372
 50
270.0
100
AcDbRotatedDimension
  0
DIMENSION
  5
8AF
100
AcDbEntity
  8
0
100
AcDbDimension
 62
2
  6
CONTINUOUS
  2
*D24
 10
67.0652686543
 20
94.8735705372
 11
67.0652686543
 21
102.7005912612
 70
160
 71
1
 42
2.0
  3
DIMSTYLE_8
100
AcDbAlignedDimension
 13
41.0652686543
 23
96.8735705372
 14
41.0652686543
 24
94.8735705372
 50
270.0
100
AcDbRotatedDimension
  0
DIMENSION
  5
8B0
100
AcDbEntity
  8
0
100
AcDbDimension
 62
2
  6
CONTINUOUS
  2
*D25
 10
67.0652686543
 20
203.5221842267
 11
67.0652686543
 21
162.5221842267
 70
160
 71
2
 42
82.0
  3
DIMSTYLE_2
100
AcDbAlignedDimension
 13
41.0732159515
 23
121.5221842267
 14
41.0685139605
 24
203.5221842267
 50
90.0
100
AcDbRotatedDimension
  0
DIMENSION
  5
8B1
100
AcDbEntity
  8
0
100
AcDbDimension
 62
2
  6
CONTINUOUS
  2
*D26
 10
67.0652686543
 20
299.5221842267
 11
67.0652686543
 21
251.5221842267
 70
160
 71
2
 42
96.0
  3
DIMSTYLE_2
100
AcDbAlignedDimension
 13
41.0674302818
 23
203.5221842267
 14
41.0935272093
 24
299.5221842267
 50
90.0
100
AcDbRotatedDimension
  0
DIMENSION
  5
8B2
100
AcDbEntity
  8
0
100
AcDbDimension
 62
2
  6
CONTINUOUS
  2
*D27
 10
67.0652686543
 20
914.5721842267
 11
67.0652686543
 21
607.0471842267
 70
160
 71
2
 42
615.05
  3
DIMSTYLE_5
100
AcDbAlignedDimension
 13
41.0753892198
 23
299.5221842267
 14
51.5652686543
 24
914.5721842267
 50
90.0
100
AcDbRotatedDimension
  0
DIMENSION
  5
8B3
100
AcDbEntity
  8
0
100
AcDbDimension
 62
2
  6
CONTINUOUS
  2
*D28
 10
67.0652686543
 20
976.4721842267
 11
67.0652686543
 21
945.5221842267
 70
160
 71
2
 42
61.9
  3
DIMSTYLE_9
100
AcDbAlignedDimension
 13
51.5652686543
 23
914.5721842267
 14
44.1903820191
 24
976.4721842267
 50
90.0
100
AcDbRotatedDimension
  0
DIMENSION
  5
8B4
100
AcDbEntity
  8
0
100
AcDbDimension
 62
2
  6
CONTINUOUS
  2
*D29
 10
67.0652686543
 20
1693.5221842267
 11
67.0652686543
 21
1334.9971842267
 70
160
 71
2
 42
717.05
  3
DIMSTYLE_5
100
AcDbAlignedDimension
 13
44.1903820191
 23
976.4721842267
 14
41.0881277398
 24
1693.5221842267
 50
90.0
100
AcDbRotatedDimension
  0
DIMENSION
  5
8B5
100
AcDbEntity
  8
0
100
AcDbDimension
 62
2
  6
CONTINUOUS
  2
*D30
 10
67.0652686543
 20
1789.5221842267
 11
67.0652686543
 21
1741.5221842267
 70
160
 71
2
 42
96.0
  3
DIMSTYLE_2
100
AcDbAlignedDimension
 13
41.0881277398
 23
1693.5221842267
 14
41.1550671499
 24
1789.5221842267
 50
90.0
100
AcDbRotatedDimension
  0
DIMENSION
  5
8B6
100
AcDbEntity
  8
0
100
AcDbDimension
 62
2
  6
CONTINUOUS
  2
*D31
 10
67.0652686543
 20
1789.5221842267
 11
67.0652686543
 21
1955.5221842267
 70
160
 71
2
 42
332.0
  3
DIMSTYLE_7
100
AcDbAlignedDimension
 13
38.0652686543
 23
2121.5221842267
 14
41.082359139
 24
1789.5221842267
 50
270.0
100
AcDbRotatedDimension
  0
DIMENSION
  5
8B7
100
AcDbEntity
  8
0
100
AcDbDimension
 62
2
  6
CONTINUOUS
  2
*D32
 10
33.0652686543
 20
206.651259931
 11
48.4246547681
 21
206.651259931
 70
160
 71
2
 42
24.0
  3
DIMSTYLE_1
100
AcDbAlignedDimension
 13
57.0652686543
 23
222.7948417183
 14
33.0652686543
 24
121.5221842267
 50
180.0
100
AcDbRotatedDimension
  0
INSERT
  5
8B8
100
AcDbEntity
  8
0
100
AcDbBlockReference
 62
2
  6
CONTINUOUS
  2
SYMBOL_2_BL34
 10
31.0000000239
 20
34.9999999785
  0
LINE
  5
8B9
100
AcDbEntity
  8
S-AXIS
100
AcDbLine
 62
7
  6
CENTER
 10
160.6473508934
 20
1011.5221842267
 11
127.873979513
 21
1011.5221842267
  0
LINE
  5
8BA
100
AcDbEntity
  8
S-AXIS
100
AcDbLine
 62
7
  6
CENTER
 10
46.74958752
 20
1011.5221842267
 11
27.5976818882
 21
1011.5221842267
  0
INSERT
  5
8BB
100
AcDbEntity
  8
94934430L00_BL0
100
AcDbBlockReference
  2
94934430L00_BL0
 10
94.1741488453
 20
1097.1978773819
  0
INSERT
  5
8BC
100
AcDbEntity
  8
94944601000_M2_BL1
100
AcDbBlockReference
  2
94944601000_M2_BL1
 10
91.2741488453
 20
193.4221842267
  0
INSERT
  5
8BD
100
AcDbEntity
  8
94528905000_BL2
100
AcDbBlockReference
  2
94528905000_BL2
 10
93.9241488453
 20
211.4221842267
  0
INSERT
  5
8BE
100
AcDbEntity
  8
94621099000_BL3
100
AcDbBlockReference
  2
94621099000_BL3
 10
92.4046438802
 20
251.5221842267
  0
INSERT
  5
8BF
100
AcDbEntity
  8
94528905000_BL4
100
AcDbBlockReference
  2
94528905000_BL4
 10
93.9241488453
 20
291.6221842267
  0
INSERT
  5
8C0
100
AcDbEntity
  8
94944601000_M2_BL5
100
AcDbBlockReference
  2
94944601000_M2_BL5
 10
91.2741488453
 20
309.6221842267
  0
INSERT
  5
8C1
100
AcDbEntity
  8
94944601000_M2_BL6
100
AcDbBlockReference
  2
94944601000_M2_BL6
 10
91.2741488453
 20
703.4221842267
  0
INSERT
  5
8C2
100
AcDbEntity
  8
94528905000_BL7
100
AcDbBlockReference
  2
94528905000_BL7
 10
93.9241488453
 20
936.5978773819
  0
INSERT
  5
8C3
100
AcDbEntity
  8
94528905000_BL8
100
AcDbBlockReference
  2
94528905000_BL8
 10
93.9241488453
 20
1701.4221842267
  0
INSERT
  5
8C4
100
AcDbEntity
  8
94944601000_M2_BL9
100
AcDbBlockReference
  2
94944601000_M2_BL9
 10
91.2741488453
 20
819.6221842267
  0
INSERT
  5
8C5
100
AcDbEntity
  8
94855303000_BL10
100
AcDbBlockReference
  2
94855303000_BL10
 10
89.7918567682
 20
530.6429641049
  0
INSERT
  5
8C6
100
AcDbEntity
  8
94625701000_BL11
100
AcDbBlockReference
  2
94625701000_BL11
 10
91.6741488453
 20
577.2978773819
  0
INSERT
  5
8C7
100
AcDbEntity
  8
93894201000_BL12
100
AcDbBlockReference
  2
93894201000_BL12
 10
94.0723874518
 20
577.6978773819
  0
INSERT
  5
8C8
100
AcDbEntity
  8
93780800R00_BL13
100
AcDbBlockReference
  2
93780800R00_BL13
 10
145.2830290362
 20
1021.0221842267
  0
INSERT
  5
8C9
100
AcDbEntity
  8
62890228000_BL14
100
AcDbBlockReference
  2
62890228000_BL14
 10
91.6241488453
 20
1036.5221842267
  0
INSERT
  5
8CA
100
AcDbEntity
  8
93780800R00_BL15
100
AcDbBlockReference
  2
93780800R00_BL15
 10
145.2830290362
 20
1052.0221842267
  0
INSERT
  5
8CB
100
AcDbEntity
  8
94621099000_BL16
100
AcDbBlockReference
  2
94621099000_BL16
 10
92.4046438802
 20
936.4478773819
  0
INSERT
  5
8CC
100
AcDbEntity
  8
94322000000_BL17
100
AcDbBlockReference
  2
94322000000_BL17
 10
92.7741488453
 20
673.1978773819
  0
INSERT
  5
8CD
100
AcDbEntity
  8
94944601000_M2_BL18
100
AcDbBlockReference
  2
94944601000_M2_BL18
 10
91.2741488453
 20
1411.0221842267
  0
INSERT
  5
8CE
100
AcDbEntity
  8
94944601000_M2_BL19
100
AcDbBlockReference
  2
94944601000_M2_BL19
 10
91.2741488453
 20
1561.5221842267
  0
INSERT
  5
8CF
100
AcDbEntity
  8
94944601000_M2_BL20
100
AcDbBlockReference
  2
94944601000_M2_BL20
 10
91.2741488453
 20
1640.5221842267
  0
INSERT
  5
8D0
100
AcDbEntity
  8
94944601000_M2_BL21
100
AcDbBlockReference
  2
94944601000_M2_BL21
 10
91.2741488453
 20
941.5978773819
  0
INSERT
  5
8D1
100
AcDbEntity
  8
94320001000_M1_BL22
100
AcDbBlockReference
  2
94320001000_M1_BL22
 10
93.6991488453
 20
1321.5221842267
  0
INSERT
  5
8D2
100
AcDbEntity
  8
94320001000_M1_BL23
100
AcDbBlockReference
  2
94320001000_M1_BL23
 10
93.6991488453
 20
1273.5221842267
  0
INSERT
  5
8D3
100
AcDbEntity
  8
94320001000_M1_BL24
100
AcDbBlockReference
  2
94320001000_M1_BL24
 10
41.2652686543
 20
1249.5221842267
  0
INSERT
  5
8D4
100
AcDbEntity
  8
91324208R00_BL25
100
AcDbBlockReference
  2
91324208R00_BL25
 10
94.0491488453
 20
1010.2721842267
  0
INSERT
  5
8D5
100
AcDbEntity
  8
94320001000_M1_BL26
100
AcDbBlockReference
  2
94320001000_M1_BL26
 10
93.6991488453
 20
1201.5221842267
  0
INSERT
  5
8D6
100
AcDbEntity
  8
91324208R00_BL27
100
AcDbBlockReference
  2
91324208R00_BL27
 10
94.0491488453
 20
1062.7721842267
  0
INSERT
  5
8D7
100
AcDbEntity
  8
94319401000_BL28
100
AcDbBlockReference
  2
94319401000_BL28
 10
40.3652686543
 20
84.8735705372
  0
INSERT
  5
8D8
100
AcDbEntity
  8
94925801L00_BL29
100
AcDbBlockReference
  2
94925801L00_BL29
 10
39.6588406315
 20
84.8735705372
  0
INSERT
  5
8D9
100
AcDbEntity
  8
94968401L00_BL30
100
AcDbBlockReference
  2
94968401L00_BL30
 10
37.4152686543
 20
84.8735705372
  0
INSERT
  5
8DA
100
AcDbEntity
  8
94923403000_BL31
100
AcDbBlockReference
  2
94923403000_BL31
 10
36.5652686543
 20
84.8735705372
  0
INSERT
  5
8DB
100
AcDbEntity
  8
94996201000_BL32
100
AcDbBlockReference
  2
94996201000_BL32
 10
40.0652686543
 20
74.9235705372
  0
INSERT
  5
8DC
100
AcDbEntity
  8
94342601000_M_BL33
100
AcDbBlockReference
  2
94342601000_M_BL33
 10
41.0705494805
 20
1261.5221842267
  0
ENDSEC
  0
SECTION
  2
OBJECTS
  0
DICTIONARY
  5
C
100
AcDbDictionary
280
0
281
1
  3
ACAD_GROUP
350
D
  3
ACAD_MLINESTYLE
350
17
  3
ACAD_LAYOUT
350
1A
  3
ACAD_PLOTSETTINGS
350
19
  3
ACAD_PLOTSTYLENAME
350
E
  0
DICTIONARY
  5
D
102
{ACAD_REACTORS
330
C
102
}
100
AcDbDictionary
280
0
281
1
  0
ACDBDICTIONARYWDFLT
  5
E
102
{ACAD_REACTORS
330
C
102
}
100
AcDbDictionary
281
1
  3
Normal
350
F
100
AcDbDictionaryWithDefault
340
F
  0
DICTIONARY
  5
17
102
{ACAD_REACTORS
330
C
102
}
100
AcDbDictionary
280
0
281
1
  3
Standard
350
18
  0
DICTIONARY
  5
19
102
{ACAD_REACTORS
330
C
102
}
100
AcDbDictionary
281
1
  0
DICTIONARY
  5
1A
102
{ACAD_REACTORS
330
C
102
}
100
AcDbDictionary
281
1
  3
Model
350
8DD
  3
Layout1
350
8DE
  0
ACDBPLACEHOLDER
  5
F
102
{ACAD_REACTORS
330
E
102
}
  0
MLINESTYLE
  5
18
102
{ACAD_REACTORS
330
17
102
}
100
AcDbMlineStyle
  2
STANDARD
 70
0
  3

 62
256
 51
90.0
 52
90.0
 71
2
 49
0.5
 62
256
  6
BYLAYER
 49
-0.5
 62
256
  6
BYLAYER
  0
LAYOUT
  5
8DD
102
{ACAD_REACTORS
330
1A
102
}
100
AcDbPlotSettings
  1

  2
none_device
  4

  6

 40
0.0
 41
0.0
 42
0.0
 43
0.0
 44
220.0
 45
2150.0
 46
0.0
 47
0.0
 48
0.0
 49
0.0
140
0.0
141
0.0
142
1.0
143
1.0
 70
1024
 72
1
 73
0
 74
0
  7

 75
0
147
1.0
148
0.0
149
0.0
100
AcDbLayout
  1
Model
 70
0
 71
0
 10
0.0
 20
0.0
 11
220.0
 21
2150.0
 12
0.0
 22
0.0
 32
0.0
 14
0.0
 24
0.0
 34
0.0
 15
0.0
 25
0.0
 35
0.0
146
0.0
 13
0.0
 23
0.0
 33
0.0
 16
1.0
 26
0.0
 36
0.0
 17
0.0
 27
1.0
 37
0.0
 76
0
330
23C
345
0
346
0
  0
LAYOUT
  5
8DE
102
{ACAD_REACTORS
330
1A
102
}
100
AcDbPlotSettings
  1

  2
none_device
  4

  6

 40
0.0
 41
0.0
 42
0.0
 43
0.0
 44
220.0
 45
2150.0
 46
0.0
 47
0.0
 48
0.0
 49
0.0
140
0.0
141
0.0
142
1.0
143
1.0
 70
0
 72
1
 73
0
 74
0
  7

 75
0
147
1.0
148
0.0
149
0.0
100
AcDbLayout
  1
Layout1
 70
0
 71
1
 10
0.0
 20
0.0
 11
220.0
 21
2150.0
 12
0.0
 22
0.0
 32
0.0
 14
0.0
 24
0.0
 34
0.0
 15
0.0
 25
0.0
 35
0.0
146
0.0
 13
0.0
 23
0.0
 33
0.0
 16
1.0
 26
0.0
 36
0.0
 17
0.0
 27
1.0
 37
0.0
 76
0
330
23D
345
0
346
0
  0
ENDSEC
  0
EOF
